999
DXF file: 606302783-000-00-ed1.dxf
999
Pro/ENGINEER 2011220 by Parametric Technology Corporation
  0
SECTION
  2
HEADER
  9
$ACADVER
  1
AC1015
  9
$DWGCODEPAGE
  3
ANSI_1252
  9
$EXTMAX
 10
420.0
 20
297.0
 30
0.0
  9
$EXTMIN
 10
0.0
 20
0.0
 30
0.0
  9
$LIMMIN
 10
0.0
 20
0.0
  9
$LIMMAX
 10
420.0
 20
297.0
  9
$VIEWCTR
 10
210.0
 20
148.5
  9
$VIEWSIZE
 40
297.0
  9
$CLAYER
  8
0
  9
$LTSCALE
 40
23.1
  9
$CELTYPE
  6
BYLAYER
  9
$DIMSCALE
 40
1.0
  9
$DIMASZ
 40
3.5
  9
$DIMEXO
 40
2.625
  9
$DIMDLI
 40
15.96
  9
$DIMEXE
 40
7.56
  9
$DIMCEN
 40
3.78
  9
$DIMLFAC
 40
1.0
  9
$DIMBLK
  1
_FILLED
  9
$DIMTXT
 40
3.5
  9
$DIMTOL
 70
1
  9
$DIMLIM
 70
0
  9
$DIMTFAC
 40
1.0
  9
$DIMTP
 40
0.005
  9
$DIMTM
 40
0.005
  9
$PDMODE
 70
3
  9
$PDSIZE
 40
0.3125
  9
$HANDSEED
  5
74F
  9
$TILEMODE
 70
1
  9
$MEASUREMENT
 70
1
  9
$INSUNITS
 70
4
  0
ENDSEC
  0
SECTION
  2
CLASSES
  0
CLASS
  1
ACDBDICTIONARYWDFLT
  2
AcDbDictionaryWithDefault
  3
AutoCAD 2000
 90
0
280
0
281
0
  0
CLASS
  1
ACDBPLACEHOLDER
  2
AcDbPlaceHolder
  3
AutoCAD 2000
 90
0
280
0
281
0
  0
CLASS
  1
LAYOUT
  2
AcDbLayout
  3
AutoCAD 2000
 90
0
280
0
281
0
  0
ENDSEC
  0
SECTION
  2
TABLES
  0
TABLE
  2
VPORT
  5
8
100
AcDbSymbolTable
 70
2
  0
VPORT
  5
1F4
100
AcDbSymbolTableRecord
100
AcDbViewportTableRecord
  2
*ACTIVE
 70
0
 10
0.0
 20
0.0
 11
1.0
 21
1.0
 12
210.0
 22
148.5
 13
0.0
 23
0.0
 14
1.0
 24
1.0
 15
0.0
 25
0.0
 16
0.0
 26
0.0
 36
1.0
 17
0.0
 27
0.0
 37
0.0
 40
297.0
 41
1.4141414141
 42
50.0
 43
0.0
 44
0.0
 50
0.0
 51
0.0
 71
0
 72
100
 73
1
 74
1
 75
0
 76
0
 77
0
 78
0
  0
ENDTAB
  0
TABLE
  2
LTYPE
  5
5
100
AcDbSymbolTable
 70
6
  0
LTYPE
  5
14
100
AcDbSymbolTableRecord
100
AcDbLinetypeTableRecord
  2
BYBLOCK
 70
0
  3

 72
65
 73
0
 40
0.0
  0
LTYPE
  5
15
100
AcDbSymbolTableRecord
100
AcDbLinetypeTableRecord
  2
BYLAYER
 70
0
  3

 72
65
 73
0
 40
0.0
  0
LTYPE
  5
16
100
AcDbSymbolTableRecord
100
AcDbLinetypeTableRecord
  2
CONTINUOUS
 70
64
  3
Solid line
 72
65
 73
0
 40
0.0
  0
LTYPE
  5
1F5
100
AcDbSymbolTableRecord
100
AcDbLinetypeTableRecord
  2
CENTER
 70
64
  3
____ _ ____ _ ____ _ ____ _ ____ _ ____ _ ____
 72
65
 73
4
 40
0.6
 49
0.375
 74
0
 49
-0.075
 74
0
 49
0.075
 74
0
 49
-0.075
 74
0
  0
LTYPE
  5
1F6
100
AcDbSymbolTableRecord
100
AcDbLinetypeTableRecord
  2
HIDDEN
 70
64
  3
- - - - - - - - - - - - - - - - - - - -
 72
65
 73
2
 40
0.2
 49
0.1
 74
0
 49
-0.1
 74
0
  0
LTYPE
  5
1F7
100
AcDbSymbolTableRecord
100
AcDbLinetypeTableRecord
  2
PHANTOM
 70
64
  3
_____ _ _ _____ _ _ _____ _ _ _____
 72
65
 73
6
 40
0.8
 49
0.45
 74
0
 49
-0.05
 74
0
 49
0.1
 74
0
 49
-0.05
 74
0
 49
0.1
 74
0
 49
-0.05
 74
0
  0
LTYPE
  5
1F8
100
AcDbSymbolTableRecord
100
AcDbLinetypeTableRecord
  2
DOT
 70
64
  3
. . . . . . . . . . . . . . . . . . . .
 72
65
 73
2
 40
0.2
 49
0.1
 74
0
 49
-0.1
 74
0
  0
LTYPE
  5
1F9
100
AcDbSymbolTableRecord
100
AcDbLinetypeTableRecord
  2
DASHED
 70
64
  3
- - - - - - - - - - - - - - - - - - - -
 72
65
 73
2
 40
0.2
 49
0.1
 74
0
 49
-0.1
 74
0
  0
ENDTAB
  0
TABLE
  2
LAYER
  5
2
100
AcDbSymbolTable
 70
36
  0
LAYER
  5
10
100
AcDbSymbolTableRecord
100
AcDbLayerTableRecord
  2
0
 70
0
 62
7
  6
CONTINUOUS
370
-3
390
F
  0
LAYER
  5
1FA
100
AcDbSymbolTableRecord
100
AcDbLayerTableRecord
  2
DEFAULT_1
 70
0
 62
7
  6
CENTER
370
-3
390
F
  0
LAYER
  5
1FB
100
AcDbSymbolTableRecord
100
AcDbLayerTableRecord
  2
DEFAULT_2
 70
0
 62
6
  6
HIDDEN
370
-3
390
F
  0
LAYER
  5
1FC
100
AcDbSymbolTableRecord
100
AcDbLayerTableRecord
  2
DEFAULT_3
 70
0
 62
7
  6
PHANTOM
370
-3
390
F
  0
LAYER
  5
1FD
100
AcDbSymbolTableRecord
100
AcDbLayerTableRecord
  2
COLLECTION01
 70
0
 62
7
  6
CONTINUOUS
370
-3
390
F
  0
LAYER
  5
1FE
100
AcDbSymbolTableRecord
100
AcDbLayerTableRecord
  2
COLLECTION02
 70
0
 62
7
  6
CONTINUOUS
370
-3
390
F
  0
LAYER
  5
1FF
100
AcDbSymbolTableRecord
100
AcDbLayerTableRecord
  2
COLLECTION03
 70
0
 62
7
  6
CONTINUOUS
370
-3
390
F
  0
LAYER
  5
200
100
AcDbSymbolTableRecord
100
AcDbLayerTableRecord
  2
COLLECTION12
 70
0
 62
7
  6
CONTINUOUS
370
-3
390
F
  0
LAYER
  5
201
100
AcDbSymbolTableRecord
100
AcDbLayerTableRecord
  2
COLLECTION04
 70
0
 62
7
  6
CONTINUOUS
370
-3
390
F
  0
LAYER
  5
202
100
AcDbSymbolTableRecord
100
AcDbLayerTableRecord
  2
COLLECTION06
 70
0
 62
7
  6
CONTINUOUS
370
-3
390
F
  0
LAYER
  5
203
100
AcDbSymbolTableRecord
100
AcDbLayerTableRecord
  2
COLLECTION07
 70
0
 62
7
  6
CONTINUOUS
370
-3
390
F
  0
LAYER
  5
204
100
AcDbSymbolTableRecord
100
AcDbLayerTableRecord
  2
COLLECTION09
 70
0
 62
7
  6
CONTINUOUS
370
-3
390
F
  0
LAYER
  5
205
100
AcDbSymbolTableRecord
100
AcDbLayerTableRecord
  2
COLLECTION10
 70
0
 62
7
  6
CONTINUOUS
370
-3
390
F
  0
LAYER
  5
206
100
AcDbSymbolTableRecord
100
AcDbLayerTableRecord
  2
COLLECTION13
 70
0
 62
7
  6
CONTINUOUS
370
-3
390
F
  0
LAYER
  5
207
100
AcDbSymbolTableRecord
100
AcDbLayerTableRecord
  2
COLLECTION15
 70
0
 62
7
  6
CONTINUOUS
370
-3
390
F
  0
LAYER
  5
208
100
AcDbSymbolTableRecord
100
AcDbLayerTableRecord
  2
COLLECTION16
 70
0
 62
7
  6
CONTINUOUS
370
-3
390
F
  0
LAYER
  5
209
100
AcDbSymbolTableRecord
100
AcDbLayerTableRecord
  2
606302783-000-00-ED1_FORMAT
 70
0
 62
7
  6
CONTINUOUS
370
-3
390
F
  0
LAYER
  5
20A
100
AcDbSymbolTableRecord
100
AcDbLayerTableRecord
  2
30261705_DIM
 70
0
 62
7
  6
CONTINUOUS
370
-3
390
F
  0
LAYER
  5
20B
100
AcDbSymbolTableRecord
100
AcDbLayerTableRecord
  2
30338490_DIM
 70
0
 62
7
  6
CONTINUOUS
370
-3
390
F
  0
LAYER
  5
20C
100
AcDbSymbolTableRecord
100
AcDbLayerTableRecord
  2
606302783-000-00-ED1_CL
 70
0
 62
7
  6
CONTINUOUS
370
-3
390
F
  0
LAYER
  5
20D
100
AcDbSymbolTableRecord
100
AcDbLayerTableRecord
  2
606302783-000-00-ED1_TEXT
 70
0
 62
7
  6
CONTINUOUS
370
-3
390
F
  0
LAYER
  5
20E
100
AcDbSymbolTableRecord
100
AcDbLayerTableRecord
  2
30338490_CL
 70
0
 62
7
  6
CONTINUOUS
370
-3
390
F
  0
LAYER
  5
20F
100
AcDbSymbolTableRecord
100
AcDbLayerTableRecord
  2
30338490_HL
 70
0
 62
7
  6
CONTINUOUS
370
-3
390
F
  0
LAYER
  5
210
100
AcDbSymbolTableRecord
100
AcDbLayerTableRecord
  2
30338490_AXIS
 70
0
 62
7
  6
CONTINUOUS
370
-3
390
F
  0
LAYER
  5
211
100
AcDbSymbolTableRecord
100
AcDbLayerTableRecord
  2
30252542_HP_HL
 70
0
 62
7
  6
CONTINUOUS
370
-3
390
F
  0
LAYER
  5
212
100
AcDbSymbolTableRecord
100
AcDbLayerTableRecord
  2
30252542_HP_CL
 70
0
 62
7
  6
CONTINUOUS
370
-3
390
F
  0
ENDTAB
  0
TABLE
  2
STYLE
  5
3
100
AcDbSymbolTable
 70
1
  0
STYLE
  5
11
100
AcDbSymbolTableRecord
100
AcDbTextStyleTableRecord
  2
STANDARD
 70
0
 40
0.0
 41
0.7
 50
0.0
 71
0
 42
0.2
  3
TXT.SHX
  4

  0
STYLE
  5
213
100
AcDbSymbolTableRecord
100
AcDbTextStyleTableRecord
  2
TEXTSTYLE_1
 70
0
 40
0.0
 41
0.8
 50
0.0
 71
0
 42
0.2
  3
gdt
  4

  0
STYLE
  5
214
100
AcDbSymbolTableRecord
100
AcDbTextStyleTableRecord
  2
TEXTSTYLE_2
 70
0
 40
0.0
 41
0.675
 50
0.0
 71
0
 42
0.2
  3
TXT.SHX
  4

  0
STYLE
  5
215
100
AcDbSymbolTableRecord
100
AcDbTextStyleTableRecord
  2
TEXTSTYLE_3
 70
0
 40
0.0
 41
0.7
 50
0.0
 71
0
 42
0.2
  3
gdt
  4

  0
ENDTAB
  0
TABLE
  2
VIEW
  5
6
100
AcDbSymbolTable
 70
0
  0
ENDTAB
  0
TABLE
  2
UCS
  5
7
100
AcDbSymbolTable
 70
0
  0
ENDTAB
  0
TABLE
  2
APPID
  5
9
100
AcDbSymbolTable
 70
1
  0
APPID
  5
216
100
AcDbSymbolTableRecord
100
AcDbRegAppTableRecord
  2
ACAD
 70
0
  0
ENDTAB
  0
TABLE
  2
BLOCK_RECORD
  5
1
100
AcDbSymbolTable
 70
0
  0
BLOCK_RECORD
  5
217
100
AcDbSymbolTableRecord
100
AcDbBlockTableRecord
  2
*Model_Space
  0
BLOCK_RECORD
  5
218
100
AcDbSymbolTableRecord
100
AcDbBlockTableRecord
  2
*Paper_Space
  0
BLOCK_RECORD
  5
219
100
AcDbSymbolTableRecord
100
AcDbBlockTableRecord
  2
_FILLED
  0
BLOCK_RECORD
  5
21A
100
AcDbSymbolTableRecord
100
AcDbBlockTableRecord
  2
_DOT
  0
BLOCK_RECORD
  5
21B
100
AcDbSymbolTableRecord
100
AcDbBlockTableRecord
  2
*D0
  0
BLOCK_RECORD
  5
21C
100
AcDbSymbolTableRecord
100
AcDbBlockTableRecord
  2
*D1
  0
BLOCK_RECORD
  5
21D
100
AcDbSymbolTableRecord
100
AcDbBlockTableRecord
  2
*D2
  0
BLOCK_RECORD
  5
21E
100
AcDbSymbolTableRecord
100
AcDbBlockTableRecord
  2
*D3
  0
BLOCK_RECORD
  5
21F
100
AcDbSymbolTableRecord
100
AcDbBlockTableRecord
  2
*D4
  0
BLOCK_RECORD
  5
220
100
AcDbSymbolTableRecord
100
AcDbBlockTableRecord
  2
*D5
  0
BLOCK_RECORD
  5
221
100
AcDbSymbolTableRecord
100
AcDbBlockTableRecord
  2
*D6
  0
BLOCK_RECORD
  5
222
100
AcDbSymbolTableRecord
100
AcDbBlockTableRecord
  2
*D7
  0
BLOCK_RECORD
  5
223
100
AcDbSymbolTableRecord
100
AcDbBlockTableRecord
  2
*D8
  0
BLOCK_RECORD
  5
224
100
AcDbSymbolTableRecord
100
AcDbBlockTableRecord
  2
*D9
  0
BLOCK_RECORD
  5
225
100
AcDbSymbolTableRecord
100
AcDbBlockTableRecord
  2
*D10
  0
BLOCK_RECORD
  5
226
100
AcDbSymbolTableRecord
100
AcDbBlockTableRecord
  2
*D11
  0
BLOCK_RECORD
  5
227
100
AcDbSymbolTableRecord
100
AcDbBlockTableRecord
  2
BOMBALLOON_BL4
  0
BLOCK_RECORD
  5
228
100
AcDbSymbolTableRecord
100
AcDbBlockTableRecord
  2
GEOM_TOLERANCE_SYMBOLS_BL3
  0
BLOCK_RECORD
  5
229
100
AcDbSymbolTableRecord
100
AcDbBlockTableRecord
  2
GEOM_TOLERANCE_SYMBOLS_BL2
  0
BLOCK_RECORD
  5
22A
100
AcDbSymbolTableRecord
100
AcDbBlockTableRecord
  2
GEOM_TOLERANCE_SYMBOLS_BL1
  0
BLOCK_RECORD
  5
22B
100
AcDbSymbolTableRecord
100
AcDbBlockTableRecord
  2
BARCODEBOX_BL0
  0
ENDTAB
  0
TABLE
  2
DIMSTYLE
  5
A
100
AcDbSymbolTable
 70
1
100
AcDbDimStyleTable
 71
0
  0
DIMSTYLE
105
22C
100
AcDbSymbolTableRecord
100
AcDbDimStyleTableRecord
  2
STANDARD
 70
0
  3

  4

 40
1.0
 41
3.5
 42
0.0625
 43
0.38
 44
0.18
 45
0.0
 46
0.0
 47
0.005
 48
0.005
140
3.5
141
0.09
142
0.0
143
25.4
144
1.0
145
0.0
146
1.0
147
0.09
 71
1.0
 72
0.0
 73
0
 74
0
 75
0
 76
0
 77
1
 78
8
170
0
171
2
172
0
173
0
174
0
175
0
176
0
177
0
178
2
270
2
271
3
272
3
273
2
274
2
275
0
280
0
281
0
282
0
283
1
284
8
285
0
286
0
287
3
288
0
340
11
341
219
342
219
343
219
344
219
  0
DIMSTYLE
105
22D
100
AcDbSymbolTableRecord
100
AcDbDimStyleTableRecord
  2
DIMSTYLE_1
 70
0
  3

  4

 40
1.0
 41
3.5
 42
0.0625
 43
0.38
 44
0.18
 45
0.0
 46
0.0
 47
0.1
 48
0.1
140
3.5
141
0.09
142
0.0
143
25.4
144
1.0
145
0.0
146
1.0
147
0.09
 71
0.0
 72
0.0
 73
0
 74
0
 75
0
 76
0
 77
1
 78
8
170
0
171
2
172
0
173
0
174
0
175
0
176
0
177
0
178
2
270
2
271
3
272
3
273
2
274
2
275
0
280
0
281
0
282
0
283
1
284
8
285
0
286
0
287
3
288
0
340
11
341
219
342
219
343
219
344
219
  0
DIMSTYLE
105
22E
100
AcDbSymbolTableRecord
100
AcDbDimStyleTableRecord
  2
DIMSTYLE_2
 70
0
  3

  4

 40
1.0
 41
3.5
 42
0.0625
 43
0.38
 44
0.18
 45
0.0
 46
0.0
 47
0.25
 48
0.25
140
3.5
141
0.09
142
0.0
143
25.4
144
1.0
145
0.0
146
1.0
147
0.09
 71
1.0
 72
0.0
 73
0
 74
0
 75
0
 76
0
 77
1
 78
8
170
0
171
2
172
0
173
0
174
0
175
0
176
0
177
0
178
2
270
2
271
3
272
3
273
2
274
2
275
0
280
0
281
0
282
0
283
1
284
8
285
0
286
0
287
3
288
0
340
11
341
219
342
219
343
219
344
219
  0
DIMSTYLE
105
22F
100
AcDbSymbolTableRecord
100
AcDbDimStyleTableRecord
  2
DIMSTYLE_3
 70
0
  3

  4

 40
1.0
 41
3.5
 42
0.0625
 43
0.38
 44
0.18
 45
0.0
 46
0.0
 47
0.05
 48
0.05
140
3.5
141
0.09
142
0.0
143
25.4
144
1.0
145
0.0
146
1.0
147
0.09
 71
0.0
 72
0.0
 73
0
 74
0
 75
0
 76
0
 77
1
 78
8
170
0
171
2
172
0
173
0
174
0
175
0
176
0
177
0
178
2
270
2
271
3
272
3
273
2
274
2
275
0
280
0
281
0
282
0
283
1
284
8
285
0
286
0
287
3
288
0
340
11
341
219
342
219
343
219
344
219
  0
DIMSTYLE
105
230
100
AcDbSymbolTableRecord
100
AcDbDimStyleTableRecord
  2
DIMSTYLE_4
 70
0
  3

  4

 40
1.0
 41
3.5
 42
0.0625
 43
0.38
 44
0.18
 45
0.0
 46
0.0
 47
0.05
 48
0.05
140
3.5
141
0.09
142
0.0
143
25.4
144
1.0
145
0.0
146
1.0
147
0.09
 71
0.0
 72
0.0
 73
0
 74
0
 75
0
 76
0
 77
1
 78
8
170
0
171
2
172
0
173
0
174
0
175
0
176
0
177
0
178
2
270
2
271
3
272
3
273
2
274
2
275
0
280
0
281
0
282
0
283
1
284
8
285
0
286
0
287
3
288
0
340
11
341
219
342
219
343
219
344
219
  0
DIMSTYLE
105
231
100
AcDbSymbolTableRecord
100
AcDbDimStyleTableRecord
  2
DIMSTYLE_5
 70
0
  3

  4

 40
1.0
 41
3.5
 42
0.0625
 43
0.38
 44
0.18
 45
0.0
 46
0.0
 47
0.15
 48
0.15
140
3.5
141
0.09
142
0.0
143
25.4
144
1.0
145
0.0
146
1.0
147
0.09
 71
0.0
 72
0.0
 73
0
 74
0
 75
0
 76
0
 77
1
 78
8
170
0
171
2
172
0
173
0
174
0
175
0
176
0
177
0
178
2
270
2
271
3
272
3
273
2
274
2
275
0
280
0
281
0
282
0
283
1
284
8
285
0
286
0
287
3
288
0
340
11
341
219
342
219
343
219
344
219
  0
DIMSTYLE
105
232
100
AcDbSymbolTableRecord
100
AcDbDimStyleTableRecord
  2
DIMSTYLE_6
 70
0
  3

  4

 40
1.0
 41
3.5
 42
0.0625
 43
0.38
 44
0.18
 45
0.0
 46
0.0
 47
0.15
 48
0.15
140
3.5
141
0.09
142
0.0
143
25.4
144
1.0
145
0.0
146
1.0
147
0.09
 71
0.0
 72
0.0
 73
0
 74
0
 75
0
 76
0
 77
1
 78
8
170
0
171
2
172
0
173
0
174
0
175
0
176
0
177
0
178
2
270
2
271
2
272
2
273
2
274
2
275
0
280
0
281
0
282
0
283
1
284
8
285
0
286
0
287
3
288
0
340
11
341
219
342
219
343
219
344
219
  0
ENDTAB
  0
ENDSEC
  0
SECTION
  2
BLOCKS
  0
BLOCK
  5
20
100
AcDbEntity
  8
0
100
AcDbBlockBegin
  2
*Model_Space
 70
0
 10
0.0
 20
0.0
 30
0.0
  3
*Model_Space
  1

  0
ENDBLK
  5
21
100
AcDbEntity
  8
0
100
AcDbBlockEnd
  0
BLOCK
  5
1C
100
AcDbEntity
  8
0
100
AcDbBlockBegin
  2
*Paper_Space
 70
0
 10
0.0
 20
0.0
 30
0.0
  3
*Paper_Space
  1

  0
ENDBLK
  5
1D
100
AcDbEntity
  8
0
100
AcDbBlockEnd
  0
BLOCK
  5
233
100
AcDbEntity
  8
606302783-000-00-ED1_CL
100
AcDbBlockBegin
 62
3
  6
CONTINUOUS
  2
BOMBALLOON_BL4
 70
64
 10
177.1152219211
 20
116.8017055912
  3
BOMBALLOON_BL4
  1

  0
CIRCLE
  5
234
100
AcDbEntity
  8
606302783-000-00-ED1_CL
100
AcDbCircle
 62
3
  6
CONTINUOUS
 10
177.1152219211
 20
116.8017055912
 40
6.125
  0
LINE
  5
235
100
AcDbEntity
  8
606302783-000-00-ED1_CL
100
AcDbLine
 62
3
  6
CONTINUOUS
 10
170.9902219211
 20
116.8017055912
 11
183.2402219211
 21
116.8017055912
  0
TEXT
  5
236
100
AcDbEntity
  8
606302783-000-00-ED1_CL
100
AcDbText
 62
2
  6
CONTINUOUS
 10
176.0104042128
 20
117.7405076746
  7
STANDARD
 40
3.5
  1
1
 41
0.5714285714
 72
0
100
AcDbText
  0
TEXT
  5
237
100
AcDbEntity
  8
606302783-000-00-ED1_CL
100
AcDbText
 62
2
  6
CONTINUOUS
 10
176.1106646294
 20
112.6272264246
  7
STANDARD
 40
3.5
  1
1
 41
0.5714285714
 72
0
100
AcDbText
  0
ENDBLK
  5
238
100
AcDbEntity
  8
0
  6
BYBLOCK
 62
0
100
AcDbBlockEnd
  0
BLOCK
  5
239
100
AcDbEntity
  8
606302783-000-00-ED1_CL
100
AcDbBlockBegin
 62
3
  6
CONTINUOUS
  2
GEOM_TOLERANCE_SYMBOLS_BL3
 70
64
 10
156.8233515599
 20
176.3543998109
  3
GEOM_TOLERANCE_SYMBOLS_BL3
  1

  0
LINE
  5
23A
100
AcDbEntity
  8
606302783-000-00-ED1_CL
100
AcDbLine
 62
3
  6
CONTINUOUS
 10
158.7745949032
 20
170.1374569605
 11
155.7783528753
 21
169.9873446344
  0
LINE
  5
23B
100
AcDbEntity
  8
606302783-000-00-ED1_CL
100
AcDbLine
 62
3
  6
CONTINUOUS
 10
153.1526048137
 20
182.3714719865
 11
160.143836212
 21
182.7217340807
  0
LINE
  5
23C
100
AcDbEntity
  8
606302783-000-00-ED1_CL
100
AcDbLine
 62
3
  6
CONTINUOUS
 10
160.143836212
 20
182.7217340807
 11
160.4940983062
 21
175.7305026823
  0
LINE
  5
23D
100
AcDbEntity
  8
606302783-000-00-ED1_CL
100
AcDbLine
 62
3
  6
CONTINUOUS
 10
160.4940983062
 20
175.7305026823
 11
153.5028669078
 21
175.3802405882
  0
LINE
  5
23E
100
AcDbEntity
  8
606302783-000-00-ED1_CL
100
AcDbLine
 62
3
  6
CONTINUOUS
 10
153.5028669078
 20
175.3802405882
 11
153.1526048137
 21
182.3714719865
  0
LINE
  5
23F
100
AcDbEntity
  8
606302783-000-00-ED1_CL
100
AcDbLine
 62
3
  6
CONTINUOUS
 10
155.772782173
 20
169.9870655411
 11
157.1485949331
 21
172.5591296074
  0
LINE
  5
240
100
AcDbEntity
  8
606302783-000-00-ED1_CL
100
AcDbLine
 62
3
  6
CONTINUOUS
 10
157.1485949331
 20
172.5591296074
 11
158.7690242009
 21
170.1371778672
  0
LINE
  5
241
100
AcDbEntity
  8
606302783-000-00-ED1_CL
100
AcDbLine
 62
3
  6
CONTINUOUS
 10
157.1485949331
 20
172.5591296074
 11
156.998482607
 21
175.5553716352
  0
LINE
  5
242
100
AcDbEntity
  8
606302783-000-00-ED1_CL
100
AcDbLine
 62
3
  6
CONTINUOUS
 10
155.8754422584
 20
169.992208832
 11
155.866886015
 21
170.1629914502
  0
LINE
  5
243
100
AcDbEntity
  8
606302783-000-00-ED1_CL
100
AcDbLine
 62
3
  6
CONTINUOUS
 10
155.9753169927
 20
169.9972125762
 11
155.958436652
 21
170.3341441757
  0
LINE
  5
244
100
AcDbEntity
  8
606302783-000-00-ED1_CL
100
AcDbLine
 62
3
  6
CONTINUOUS
 10
156.075191727
 20
170.0022163204
 11
156.049987289
 21
170.5052969012
  0
LINE
  5
245
100
AcDbEntity
  8
606302783-000-00-ED1_CL
100
AcDbLine
 62
3
  6
CONTINUOUS
 10
156.1750664612
 20
170.0072200646
 11
156.1415379261
 21
170.6764496267
  0
LINE
  5
246
100
AcDbEntity
  8
606302783-000-00-ED1_CL
100
AcDbLine
 62
3
  6
CONTINUOUS
 10
156.2749411955
 20
170.0122238088
 11
156.2330885631
 21
170.8476023523
  0
LINE
  5
247
100
AcDbEntity
  8
606302783-000-00-ED1_CL
100
AcDbLine
 62
3
  6
CONTINUOUS
 10
156.3748159298
 20
170.017227553
 11
156.3246392001
 21
171.0187550778
  0
LINE
  5
248
100
AcDbEntity
  8
606302783-000-00-ED1_CL
100
AcDbLine
 62
3
  6
CONTINUOUS
 10
156.474690664
 20
170.0222312972
 11
156.4161898371
 21
171.1899078033
  0
LINE
  5
249
100
AcDbEntity
  8
606302783-000-00-ED1_CL
100
AcDbLine
 62
3
  6
CONTINUOUS
 10
156.5745653983
 20
170.0272350414
 11
156.5077404741
 21
171.3610605288
  0
LINE
  5
24A
100
AcDbEntity
  8
606302783-000-00-ED1_CL
100
AcDbLine
 62
3
  6
CONTINUOUS
 10
156.6744401325
 20
170.0322387856
 11
156.5992911111
 21
171.5322132543
  0
LINE
  5
24B
100
AcDbEntity
  8
606302783-000-00-ED1_CL
100
AcDbLine
 62
3
  6
CONTINUOUS
 10
156.7743148668
 20
170.0372425298
 11
156.6908417481
 21
171.7033659798
  0
LINE
  5
24C
100
AcDbEntity
  8
606302783-000-00-ED1_CL
100
AcDbLine
 62
3
  6
CONTINUOUS
 10
156.8741896011
 20
170.042246274
 11
156.7823923851
 21
171.8745187053
  0
LINE
  5
24D
100
AcDbEntity
  8
606302783-000-00-ED1_CL
100
AcDbLine
 62
3
  6
CONTINUOUS
 10
156.9740643353
 20
170.0472500182
 11
156.8739430221
 21
172.0456714308
  0
LINE
  5
24E
100
AcDbEntity
  8
606302783-000-00-ED1_CL
100
AcDbLine
 62
3
  6
CONTINUOUS
 10
157.0739390696
 20
170.0522537624
 11
156.9654936591
 21
172.2168241563
  0
LINE
  5
24F
100
AcDbEntity
  8
606302783-000-00-ED1_CL
100
AcDbLine
 62
3
  6
CONTINUOUS
 10
157.1738138039
 20
170.0572575066
 11
157.0570442961
 21
172.3879768819
  0
LINE
  5
250
100
AcDbEntity
  8
606302783-000-00-ED1_CL
100
AcDbLine
 62
3
  6
CONTINUOUS
 10
157.2736885381
 20
170.0622612508
 11
157.1485949331
 21
172.5591296074
  0
LINE
  5
251
100
AcDbEntity
  8
606302783-000-00-ED1_CL
100
AcDbLine
 62
3
  6
CONTINUOUS
 10
157.3735632724
 20
170.067264995
 11
157.2568247751
 21
172.3973654012
  0
LINE
  5
252
100
AcDbEntity
  8
606302783-000-00-ED1_CL
100
AcDbLine
 62
3
  6
CONTINUOUS
 10
157.4734380066
 20
170.0722687392
 11
157.3650546171
 21
172.235601195
  0
LINE
  5
253
100
AcDbEntity
  8
606302783-000-00-ED1_CL
100
AcDbLine
 62
3
  6
CONTINUOUS
 10
157.5733127409
 20
170.0772724834
 11
157.4732844591
 21
172.0738369889
  0
LINE
  5
254
100
AcDbEntity
  8
606302783-000-00-ED1_CL
100
AcDbLine
 62
3
  6
CONTINUOUS
 10
157.6731874752
 20
170.0822762276
 11
157.5815143011
 21
171.9120727827
  0
LINE
  5
255
100
AcDbEntity
  8
606302783-000-00-ED1_CL
100
AcDbLine
 62
3
  6
CONTINUOUS
 10
157.7730622094
 20
170.0872799718
 11
157.6897441431
 21
171.7503085765
  0
LINE
  5
256
100
AcDbEntity
  8
606302783-000-00-ED1_CL
100
AcDbLine
 62
3
  6
CONTINUOUS
 10
157.8729369437
 20
170.092283716
 11
157.797973985
 21
171.5885443703
  0
LINE
  5
257
100
AcDbEntity
  8
606302783-000-00-ED1_CL
100
AcDbLine
 62
3
  6
CONTINUOUS
 10
157.972811678
 20
170.0972874602
 11
157.906203827
 21
171.4267801642
  0
LINE
  5
258
100
AcDbEntity
  8
606302783-000-00-ED1_CL
100
AcDbLine
 62
3
  6
CONTINUOUS
 10
158.0726864122
 20
170.1022912044
 11
158.014433669
 21
171.265015958
  0
LINE
  5
259
100
AcDbEntity
  8
606302783-000-00-ED1_CL
100
AcDbLine
 62
3
  6
CONTINUOUS
 10
158.1725611465
 20
170.1072949486
 11
158.122663511
 21
171.1032517518
  0
LINE
  5
25A
100
AcDbEntity
  8
606302783-000-00-ED1_CL
100
AcDbLine
 62
3
  6
CONTINUOUS
 10
158.2724358807
 20
170.1122986928
 11
158.230893353
 21
170.9414875457
  0
LINE
  5
25B
100
AcDbEntity
  8
606302783-000-00-ED1_CL
100
AcDbLine
 62
3
  6
CONTINUOUS
 10
158.372310615
 20
170.117302437
 11
158.339123195
 21
170.7797233395
  0
LINE
  5
25C
100
AcDbEntity
  8
606302783-000-00-ED1_CL
100
AcDbLine
 62
3
  6
CONTINUOUS
 10
158.4721853493
 20
170.1223061812
 11
158.447353037
 21
170.6179591333
  0
LINE
  5
25D
100
AcDbEntity
  8
606302783-000-00-ED1_CL
100
AcDbLine
 62
3
  6
CONTINUOUS
 10
158.5720600835
 20
170.1273099254
 11
158.555582879
 21
170.4561949272
  0
LINE
  5
25E
100
AcDbEntity
  8
606302783-000-00-ED1_CL
100
AcDbLine
 62
3
  6
CONTINUOUS
 10
158.6719348178
 20
170.1323136696
 11
158.663812721
 21
170.294430721
  0
TEXT
  5
25F
100
AcDbEntity
  8
606302783-000-00-ED1_CL
100
AcDbText
 62
2
  6
CONTINUOUS
 10
155.8156333373
 20
177.2454635178
  7
STANDARD
 40
3.5
  1
A
 50
2.868131941
 41
0.8571428571
 72
0
100
AcDbText
  0
ENDBLK
  5
260
100
AcDbEntity
  8
0
  6
BYBLOCK
 62
0
100
AcDbBlockEnd
  0
BLOCK
  5
261
100
AcDbEntity
  8
606302783-000-00-ED1_CL
100
AcDbBlockBegin
 62
3
  6
CONTINUOUS
  2
GEOM_TOLERANCE_SYMBOLS_BL2
 70
64
 10
302.6336813581
 20
124.8015861349
  3
GEOM_TOLERANCE_SYMBOLS_BL2
  1

  0
LINE
  5
262
100
AcDbEntity
  8
606302783-000-00-ED1_CL
100
AcDbLine
 62
3
  6
CONTINUOUS
 10
287.1152639631
 20
128.3013252716
 11
287.1152639631
 21
121.3013250476
  0
LINE
  5
263
100
AcDbEntity
  8
606302783-000-00-ED1_CL
100
AcDbLine
 62
3
  6
CONTINUOUS
 10
287.1152639631
 20
121.3013250476
 11
309.1152646671
 21
121.3013250476
  0
LINE
  5
264
100
AcDbEntity
  8
606302783-000-00-ED1_CL
100
AcDbLine
 62
3
  6
CONTINUOUS
 10
316.1152648911
 20
121.3013250476
 11
316.1152648911
 21
128.3013252716
  0
LINE
  5
265
100
AcDbEntity
  8
606302783-000-00-ED1_CL
100
AcDbLine
 62
3
  6
CONTINUOUS
 10
309.1152646671
 20
128.3013252716
 11
287.1152639631
 21
128.3013252716
  0
LINE
  5
266
100
AcDbEntity
  8
606302783-000-00-ED1_CL
100
AcDbLine
 62
3
  6
CONTINUOUS
 10
294.1152641871
 20
128.3013252716
 11
294.1152641871
 21
121.3013250476
  0
LINE
  5
267
100
AcDbEntity
  8
606302783-000-00-ED1_CL
100
AcDbLine
 62
3
  6
CONTINUOUS
 10
309.1152646671
 20
128.3013252716
 11
309.1152646671
 21
121.3013250476
  0
LINE
  5
268
100
AcDbEntity
  8
606302783-000-00-ED1_CL
100
AcDbLine
 62
3
  6
CONTINUOUS
 10
309.1152646671
 20
128.3013252716
 11
316.1152648911
 21
128.3013252716
  0
LINE
  5
269
100
AcDbEntity
  8
606302783-000-00-ED1_CL
100
AcDbLine
 62
3
  6
CONTINUOUS
 10
309.1152646671
 20
121.3013250476
 11
316.1152648911
 21
121.3013250476
  0
LINE
  5
26A
100
AcDbEntity
  8
606302783-000-00-ED1_CL
100
AcDbLine
 62
3
  6
CONTINUOUS
 10
282.1152639631
 20
124.8013250476
 11
287.1152639631
 21
124.8013250476
  0
LINE
  5
26B
100
AcDbEntity
  8
606302783-000-00-ED1_CL
100
AcDbLine
 62
3
  6
CONTINUOUS
 10
316.1520985291
 20
128.3018472222
 11
323.1520987531
 21
128.3018472222
  0
LINE
  5
26C
100
AcDbEntity
  8
606302783-000-00-ED1_CL
100
AcDbLine
 62
3
  6
CONTINUOUS
 10
323.1520985291
 20
128.3018472222
 11
323.1520985291
 21
121.3018469982
  0
LINE
  5
26D
100
AcDbEntity
  8
606302783-000-00-ED1_CL
100
AcDbLine
 62
3
  6
CONTINUOUS
 10
316.1520985291
 20
121.3018472222
 11
323.1520987531
 21
121.3018472222
  0
TEXT
  5
26E
100
AcDbEntity
  8
606302783-000-00-ED1_CL
100
AcDbText
 62
2
  6
CONTINUOUS
 10
287.2652639679
 20
123.6013251212
  7
TEXTSTYLE_3
 40
2.4000000768
  1
t
 41
1.0
 72
0
100
AcDbText
  0
TEXT
  5
26F
100
AcDbEntity
  8
606302783-000-00-ED1_CL
100
AcDbText
 62
2
  6
CONTINUOUS
 10
295.2402642231
 20
123.0513251036
  7
STANDARD
 40
3.500000112
  1
0.003
 41
0.7285714286
 72
0
100
AcDbText
  0
TEXT
  5
270
100
AcDbEntity
  8
606302783-000-00-ED1_CL
100
AcDbText
 62
2
  6
CONTINUOUS
 10
311.1152647311
 20
123.0513251036
  7
STANDARD
 40
3.500000112
  1
A
 41
0.8571428571
 72
0
100
AcDbText
  0
TEXT
  5
271
100
AcDbEntity
  8
606302783-000-00-ED1_CL
100
AcDbText
 62
2
  6
CONTINUOUS
 10
318.2770986411
 20
123.0518471426
  7
STANDARD
 40
3.5
  1
B
 41
0.7857142857
 72
0
100
AcDbText
  0
ENDBLK
  5
272
100
AcDbEntity
  8
0
  6
BYBLOCK
 62
0
100
AcDbBlockEnd
  0
BLOCK
  5
273
100
AcDbEntity
  8
606302783-000-00-ED1_CL
100
AcDbBlockBegin
 62
3
  6
CONTINUOUS
  2
GEOM_TOLERANCE_SYMBOLS_BL1
 70
64
 10
170.8652219211
 20
190.0053211601
  3
GEOM_TOLERANCE_SYMBOLS_BL1
  1

  0
LINE
  5
274
100
AcDbEntity
  8
606302783-000-00-ED1_CL
100
AcDbLine
 62
3
  6
CONTINUOUS
 10
177.1152219211
 20
188.5053211601
 11
174.6152219211
 21
190.0053211601
  0
LINE
  5
275
100
AcDbEntity
  8
606302783-000-00-ED1_CL
100
AcDbLine
 62
3
  6
CONTINUOUS
 10
174.6152219211
 20
190.0053211601
 11
177.1152219211
 21
191.5053211601
  0
LINE
  5
276
100
AcDbEntity
  8
606302783-000-00-ED1_CL
100
AcDbLine
 62
3
  6
CONTINUOUS
 10
177.1152219211
 20
191.5053211601
 11
177.1152219211
 21
188.5053211601
  0
LINE
  5
277
100
AcDbEntity
  8
606302783-000-00-ED1_CL
100
AcDbLine
 62
3
  6
CONTINUOUS
 10
174.6152219211
 20
190.0053211601
 11
171.6152219211
 21
190.0053211601
  0
LINE
  5
278
100
AcDbEntity
  8
606302783-000-00-ED1_CL
100
AcDbLine
 62
3
  6
CONTINUOUS
 10
171.6152219211
 20
186.5053211601
 11
171.6152219211
 21
193.5053211601
  0
LINE
  5
279
100
AcDbEntity
  8
606302783-000-00-ED1_CL
100
AcDbLine
 62
3
  6
CONTINUOUS
 10
171.6152219211
 20
193.5053211601
 11
164.6152219211
 21
193.5053211601
  0
LINE
  5
27A
100
AcDbEntity
  8
606302783-000-00-ED1_CL
100
AcDbLine
 62
3
  6
CONTINUOUS
 10
164.6152219211
 20
193.5053211601
 11
164.6152219211
 21
186.5053211601
  0
LINE
  5
27B
100
AcDbEntity
  8
606302783-000-00-ED1_CL
100
AcDbLine
 62
3
  6
CONTINUOUS
 10
164.6152219211
 20
186.5053211601
 11
171.6152219211
 21
186.5053211601
  0
LINE
  5
27C
100
AcDbEntity
  8
606302783-000-00-ED1_CL
100
AcDbLine
 62
3
  6
CONTINUOUS
 10
177.1152219211
 20
191.4025323155
 11
176.9439071801
 21
191.4025323155
  0
LINE
  5
27D
100
AcDbEntity
  8
606302783-000-00-ED1_CL
100
AcDbLine
 62
3
  6
CONTINUOUS
 10
177.1152219211
 20
191.3025323155
 11
176.7772405134
 21
191.3025323155
  0
LINE
  5
27E
100
AcDbEntity
  8
606302783-000-00-ED1_CL
100
AcDbLine
 62
3
  6
CONTINUOUS
 10
177.1152219211
 20
191.2025323155
 11
176.6105738467
 21
191.2025323155
  0
LINE
  5
27F
100
AcDbEntity
  8
606302783-000-00-ED1_CL
100
AcDbLine
 62
3
  6
CONTINUOUS
 10
177.1152219211
 20
191.1025323155
 11
176.4439071801
 21
191.1025323155
  0
LINE
  5
280
100
AcDbEntity
  8
606302783-000-00-ED1_CL
100
AcDbLine
 62
3
  6
CONTINUOUS
 10
177.1152219211
 20
191.0025323155
 11
176.2772405134
 21
191.0025323155
  0
LINE
  5
281
100
AcDbEntity
  8
606302783-000-00-ED1_CL
100
AcDbLine
 62
3
  6
CONTINUOUS
 10
177.1152219211
 20
190.9025323155
 11
176.1105738467
 21
190.9025323155
  0
LINE
  5
282
100
AcDbEntity
  8
606302783-000-00-ED1_CL
100
AcDbLine
 62
3
  6
CONTINUOUS
 10
177.1152219211
 20
190.8025323155
 11
175.9439071801
 21
190.8025323155
  0
LINE
  5
283
100
AcDbEntity
  8
606302783-000-00-ED1_CL
100
AcDbLine
 62
3
  6
CONTINUOUS
 10
177.1152219211
 20
190.7025323155
 11
175.7772405134
 21
190.7025323155
  0
LINE
  5
284
100
AcDbEntity
  8
606302783-000-00-ED1_CL
100
AcDbLine
 62
3
  6
CONTINUOUS
 10
177.1152219211
 20
190.6025323155
 11
175.6105738467
 21
190.6025323155
  0
LINE
  5
285
100
AcDbEntity
  8
606302783-000-00-ED1_CL
100
AcDbLine
 62
3
  6
CONTINUOUS
 10
177.1152219211
 20
190.5025323155
 11
175.4439071801
 21
190.5025323155
  0
LINE
  5
286
100
AcDbEntity
  8
606302783-000-00-ED1_CL
100
AcDbLine
 62
3
  6
CONTINUOUS
 10
177.1152219211
 20
190.4025323155
 11
175.2772405134
 21
190.4025323155
  0
LINE
  5
287
100
AcDbEntity
  8
606302783-000-00-ED1_CL
100
AcDbLine
 62
3
  6
CONTINUOUS
 10
177.1152219211
 20
190.3025323155
 11
175.1105738467
 21
190.3025323155
  0
LINE
  5
288
100
AcDbEntity
  8
606302783-000-00-ED1_CL
100
AcDbLine
 62
3
  6
CONTINUOUS
 10
177.1152219211
 20
190.2025323155
 11
174.9439071801
 21
190.2025323155
  0
LINE
  5
289
100
AcDbEntity
  8
606302783-000-00-ED1_CL
100
AcDbLine
 62
3
  6
CONTINUOUS
 10
177.1152219211
 20
190.1025323155
 11
174.7772405134
 21
190.1025323155
  0
LINE
  5
28A
100
AcDbEntity
  8
606302783-000-00-ED1_CL
100
AcDbLine
 62
3
  6
CONTINUOUS
 10
177.1152219211
 20
190.0025323155
 11
174.6198699955
 21
190.0025323155
  0
LINE
  5
28B
100
AcDbEntity
  8
606302783-000-00-ED1_CL
100
AcDbLine
 62
3
  6
CONTINUOUS
 10
177.1152219211
 20
189.9025323155
 11
174.7865366621
 21
189.9025323155
  0
LINE
  5
28C
100
AcDbEntity
  8
606302783-000-00-ED1_CL
100
AcDbLine
 62
3
  6
CONTINUOUS
 10
177.1152219211
 20
189.8025323155
 11
174.9532033288
 21
189.8025323155
  0
LINE
  5
28D
100
AcDbEntity
  8
606302783-000-00-ED1_CL
100
AcDbLine
 62
3
  6
CONTINUOUS
 10
177.1152219211
 20
189.7025323155
 11
175.1198699955
 21
189.7025323155
  0
LINE
  5
28E
100
AcDbEntity
  8
606302783-000-00-ED1_CL
100
AcDbLine
 62
3
  6
CONTINUOUS
 10
177.1152219211
 20
189.6025323155
 11
175.2865366621
 21
189.6025323155
  0
LINE
  5
28F
100
AcDbEntity
  8
606302783-000-00-ED1_CL
100
AcDbLine
 62
3
  6
CONTINUOUS
 10
177.1152219211
 20
189.5025323155
 11
175.4532033288
 21
189.5025323155
  0
LINE
  5
290
100
AcDbEntity
  8
606302783-000-00-ED1_CL
100
AcDbLine
 62
3
  6
CONTINUOUS
 10
177.1152219211
 20
189.4025323155
 11
175.6198699955
 21
189.4025323155
  0
LINE
  5
291
100
AcDbEntity
  8
606302783-000-00-ED1_CL
100
AcDbLine
 62
3
  6
CONTINUOUS
 10
177.1152219211
 20
189.3025323155
 11
175.7865366621
 21
189.3025323155
  0
LINE
  5
292
100
AcDbEntity
  8
606302783-000-00-ED1_CL
100
AcDbLine
 62
3
  6
CONTINUOUS
 10
177.1152219211
 20
189.2025323155
 11
175.9532033288
 21
189.2025323155
  0
LINE
  5
293
100
AcDbEntity
  8
606302783-000-00-ED1_CL
100
AcDbLine
 62
3
  6
CONTINUOUS
 10
177.1152219211
 20
189.1025323155
 11
176.1198699955
 21
189.1025323155
  0
LINE
  5
294
100
AcDbEntity
  8
606302783-000-00-ED1_CL
100
AcDbLine
 62
3
  6
CONTINUOUS
 10
177.1152219211
 20
189.0025323155
 11
176.2865366621
 21
189.0025323155
  0
LINE
  5
295
100
AcDbEntity
  8
606302783-000-00-ED1_CL
100
AcDbLine
 62
3
  6
CONTINUOUS
 10
177.1152219211
 20
188.9025323155
 11
176.4532033288
 21
188.9025323155
  0
LINE
  5
296
100
AcDbEntity
  8
606302783-000-00-ED1_CL
100
AcDbLine
 62
3
  6
CONTINUOUS
 10
177.1152219211
 20
188.8025323155
 11
176.6198699955
 21
188.8025323155
  0
LINE
  5
297
100
AcDbEntity
  8
606302783-000-00-ED1_CL
100
AcDbLine
 62
3
  6
CONTINUOUS
 10
177.1152219211
 20
188.7025323155
 11
176.7865366621
 21
188.7025323155
  0
LINE
  5
298
100
AcDbEntity
  8
606302783-000-00-ED1_CL
100
AcDbLine
 62
3
  6
CONTINUOUS
 10
177.1152219211
 20
188.6025323155
 11
176.9532033288
 21
188.6025323155
  0
TEXT
  5
299
100
AcDbEntity
  8
606302783-000-00-ED1_CL
100
AcDbText
 62
2
  6
CONTINUOUS
 10
167.1402219211
 20
188.2553211601
  7
STANDARD
 40
3.5
  1
B
 41
0.7857142857
 72
0
100
AcDbText
  0
ENDBLK
  5
29A
100
AcDbEntity
  8
0
  6
BYBLOCK
 62
0
100
AcDbBlockEnd
  0
BLOCK
  5
29B
100
AcDbEntity
  8
606302783-000-00-ED1_FORMAT
100
AcDbBlockBegin
 62
3
  6
CONTINUOUS
  2
BARCODEBOX_BL0
 70
64
 10
87.5
 20
46.5
  3
BARCODEBOX_BL0
  1

  0
LINE
  5
29C
100
AcDbEntity
  8
606302783-000-00-ED1_FORMAT
100
AcDbLine
 62
3
  6
CONTINUOUS
 10
48.0
 20
83.0
 11
53.0
 21
83.0
  0
LINE
  5
29D
100
AcDbEntity
  8
606302783-000-00-ED1_FORMAT
100
AcDbLine
 62
3
  6
CONTINUOUS
 10
53.0
 20
83.0
 11
53.0
 21
78.0
  0
LINE
  5
29E
100
AcDbEntity
  8
606302783-000-00-ED1_FORMAT
100
AcDbLine
 62
3
  6
CONTINUOUS
 10
135.0
 20
65.0
 11
140.0
 21
65.0
  0
LINE
  5
29F
100
AcDbEntity
  8
606302783-000-00-ED1_FORMAT
100
AcDbLine
 62
3
  6
CONTINUOUS
 10
140.0
 20
65.0
 11
140.0
 21
60.0
  0
LINE
  5
2A0
100
AcDbEntity
  8
606302783-000-00-ED1_FORMAT
100
AcDbLine
 62
3
  6
CONTINUOUS
 10
91.5
 20
65.0
 11
101.5
 21
65.0
  0
LINE
  5
2A1
100
AcDbEntity
  8
606302783-000-00-ED1_FORMAT
100
AcDbLine
 62
3
  6
CONTINUOUS
 10
140.0
 20
42.5
 11
140.0
 21
32.5
  0
LINE
  5
2A2
100
AcDbEntity
  8
606302783-000-00-ED1_FORMAT
100
AcDbLine
 62
3
  6
CONTINUOUS
 10
140.0
 20
10.0
 11
140.0
 21
15.0
  0
LINE
  5
2A3
100
AcDbEntity
  8
606302783-000-00-ED1_FORMAT
100
AcDbLine
 62
3
  6
CONTINUOUS
 10
40.0
 20
83.0
 11
35.0
 21
83.0
  0
LINE
  5
2A4
100
AcDbEntity
  8
606302783-000-00-ED1_FORMAT
100
AcDbLine
 62
3
  6
CONTINUOUS
 10
58.0
 20
65.0
 11
48.0
 21
65.0
  0
LINE
  5
2A5
100
AcDbEntity
  8
606302783-000-00-ED1_FORMAT
100
AcDbLine
 62
3
  6
CONTINUOUS
 10
53.0
 20
65.0
 11
53.0
 21
70.0
  0
LINE
  5
2A6
100
AcDbEntity
  8
606302783-000-00-ED1_FORMAT
100
AcDbLine
 62
3
  6
CONTINUOUS
 10
35.0
 20
65.0
 11
40.0
 21
65.0
  0
TEXT
  5
2A7
100
AcDbEntity
  8
606302783-000-00-ED1_FORMAT
100
AcDbText
 62
2
  6
CONTINUOUS
 10
139.0
 20
11.0
  7
STANDARD
 40
2.0
  1
BARCODE-ZONE
 50
90.0
 41
0.7876984127
 72
0
100
AcDbText
  0
ENDBLK
  5
2A8
100
AcDbEntity
  8
0
  6
BYBLOCK
 62
0
100
AcDbBlockEnd
  0
BLOCK
  5
2A9
100
AcDbEntity
  8
0
100
AcDbBlockBegin
  2
_FILLED
 70
64
 10
0.0
 20
0.0
  3
_FILLED
  1

  0
SOLID
  5
2AA
100
AcDbEntity
  8
0
  6
BYBLOCK
 62
0
100
AcDbTrace
 10
0.0
 20
0.0
 11
-1.0
 21
0.125
 12
-1.0
 22
-0.125
 13
-1.0
 23
-0.125
  0
ENDBLK
  5
2AB
100
AcDbEntity
  8
0
  6
BYBLOCK
 62
0
100
AcDbBlockEnd
  0
BLOCK
  5
2AC
100
AcDbEntity
  8
0
100
AcDbBlockBegin
  2
_DOT
 70
64
 10
0.0
 20
0.0
  3
_DOT
  1

  0
LWPOLYLINE
  5
2AD
100
AcDbEntity
  8
0
  6
BYBLOCK
 62
0
100
AcDbPolyline
 90
2
 70
1
 43
0.125
 10
-0.0625
 20
0.0
 42
1.0
 10
0.0625
 20
0.0
 42
1.0
  0
LINE
  5
2AE
100
AcDbEntity
  8
0
  6
BYBLOCK
 62
0
100
AcDbLine
 10
-0.125
 20
0.0
 11
-1.0
 21
0.0
  0
ENDBLK
  5
2AF
100
AcDbEntity
  8
0
  6
BYBLOCK
 62
0
100
AcDbBlockEnd
  0
BLOCK
  5
2B0
100
AcDbEntity
  8
30261705_DIM
100
AcDbBlockBegin
 62
3
  6
CONTINUOUS
  2
*D0
 70
65
 10
0.0
 20
0.0
  3
*D0
  1

  0
TEXT
  5
2B1
100
AcDbEntity
  8
30261705_DIM
100
AcDbText
 62
2
  6
CONTINUOUS
 10
214.9008561233
 20
115.6763250476
  7
STANDARD
 40
3.5
  1
10
 41
0.6785714286
 72
2
 11
219.6508561233
 21
115.6763250476
100
AcDbText
  0
TEXT
  5
2B2
100
AcDbEntity
  8
30261705_DIM
100
AcDbText
 62
2
  6
CONTINUOUS
 10
188.7341894566
 20
109.5513250476
  7
STANDARD
 40
3.5
  1
VERSTELLWEG
 41
0.803030303
 72
2
 11
219.6508561233
 21
109.5513250476
100
AcDbText
  0
LINE
  5
2B3
100
AcDbEntity
  8
30261705_DIM
100
AcDbLine
 62
3
  6
CONTINUOUS
 10
220.1152219211
 20
151.8013250476
 11
220.1152219211
 21
113.3013250476
  0
LINE
  5
2B4
100
AcDbEntity
  8
30261705_DIM
100
AcDbLine
 62
3
  6
CONTINUOUS
 10
230.1152219211
 20
151.8013250476
 11
230.1152219211
 21
113.3013250476
  0
LINE
  5
2B5
100
AcDbEntity
  8
30261705_DIM
100
AcDbLine
 62
3
  6
CONTINUOUS
 10
220.1152219211
 20
114.8013250476
 11
225.1152219211
 21
114.8013250476
  0
LINE
  5
2B6
100
AcDbEntity
  8
30261705_DIM
100
AcDbLine
 62
3
  6
CONTINUOUS
 10
225.1152219211
 20
114.8013250476
 11
188.7341894566
 21
114.8013250476
  0
LINE
  5
2B7
100
AcDbEntity
  8
30261705_DIM
100
AcDbLine
 62
3
  6
CONTINUOUS
 10
230.1152219211
 20
114.8013250476
 11
225.1152219211
 21
114.8013250476
  0
INSERT
  5
2B8
100
AcDbEntity
  8
30261705_DIM
100
AcDbBlockReference
 62
3
  6
CONTINUOUS
  2
_FILLED
 10
220.1152219211
 20
114.8013250476
 41
3.5
 42
3.5
 43
3.5
 50
180.0
  0
INSERT
  5
2B9
100
AcDbEntity
  8
30261705_DIM
100
AcDbBlockReference
 62
3
  6
CONTINUOUS
  2
_FILLED
 10
230.1152219211
 20
114.8013250476
 41
3.5
 42
3.5
 43
3.5
  0
ENDBLK
  5
2BA
100
AcDbEntity
  8
0
  6
BYBLOCK
 62
0
100
AcDbBlockEnd
  0
BLOCK
  5
2BB
100
AcDbEntity
  8
30338490_DIM
100
AcDbBlockBegin
 62
3
  6
CONTINUOUS
  2
*D1
 70
65
 10
0.0
 20
0.0
  3
*D1
  1

  0
TEXT
  5
2BC
100
AcDbEntity
  8
30338490_DIM
100
AcDbText
 62
2
  6
CONTINUOUS
 10
245.0652886906
 20
177.0813021452
  7
STANDARD
 40
3.5
  1
4.5
 50
79.4658085106
 41
0.6904761905
 72
1
 11
245.7280193627
 21
180.6452063325
100
AcDbText
  0
TEXT
  5
2BD
100
AcDbEntity
  8
30338490_DIM
100
AcDbText
 62
2
  6
CONTINUOUS
 10
246.3907500348
 20
184.2091105198
  7
TEXTSTYLE_3
 40
3.5
  1
~
 50
79.4658085106
 41
1.0
 72
1
 11
246.6040426649
 21
185.3561141663
100
AcDbText
  0
TEXT
  5
2BE
100
AcDbEntity
  8
30338490_DIM
100
AcDbText
 62
2
  6
CONTINUOUS
 10
246.3011836541
 20
186.5990994963
  7
TEXTSTYLE_3
 40
2.45
  1
`
 50
79.4658085106
 41
1.0
 72
1
 11
246.562467126
 21
188.0041789633
100
AcDbText
  0
TEXT
  5
2BF
100
AcDbEntity
  8
30338490_DIM
100
AcDbText
 62
2
  6
CONTINUOUS
 10
246.8237505979
 20
189.4092584302
  7
STANDARD
 40
2.45
  1
0.25
 50
79.4658085106
 41
0.7142857143
 72
1
 11
247.4636284882
 21
192.8502693697
100
AcDbText
  0
TEXT
  5
2C0
100
AcDbEntity
  8
30338490_DIM
100
AcDbText
 62
2
  6
CONTINUOUS
 10
248.1035063785
 20
196.2912803091
  7
TEXTSTYLE_3
 40
2.45
  1
~
 50
79.4658085106
 41
1.0
 72
1
 11
248.2528112196
 21
197.0941828617
100
AcDbText
  0
LINE
  5
2C1
100
AcDbEntity
  8
30338490_DIM
100
AcDbLine
 62
3
  6
CONTINUOUS
 10
249.0954068979
 20
151.8013250476
 11
245.7062092676
 21
151.8013250476
  0
LINE
  5
2C2
100
AcDbEntity
  8
30338490_DIM
100
AcDbLine
 62
3
  6
CONTINUOUS
 10
250.0775437713
 20
166.6422193983
 11
246.3009874564
 21
166.9394408262
  0
ARC
  5
2C3
100
AcDbEntity
  8
30338490_DIM
100
AcDbCircle
 62
3
  6
CONTINUOUS
 10
438.6489858595
 20
151.8013250476
 40
191.4427765919
100
AcDbArc
 50
180.0
 51
181.7957046131
  0
ARC
  5
2C4
100
AcDbEntity
  8
30338490_DIM
100
AcDbCircle
 62
3
  6
CONTINUOUS
 10
438.6489858595
 20
151.8013250476
 40
191.4427765919
100
AcDbArc
 50
169.4658085106
 51
175.5
  0
ARC
  5
2C5
100
AcDbEntity
  8
30338490_DIM
100
AcDbCircle
 62
3
  6
CONTINUOUS
 10
438.6489858595
 20
151.8013250476
 40
191.4427765919
100
AcDbArc
 50
175.5
 51
180.0
  0
SOLID
  5
2C6
100
AcDbEntity
  8
30338490_DIM
100
AcDbTrace
 62
3
  6
CONTINUOUS
 10
247.6756844379
 20
148.3054704576
 11
247.2062092676
 21
151.8013250476
 12
246.8007209951
 22
148.2974720954
 13
246.8007209951
 23
148.2974720954
  0
SOLID
  5
2C7
100
AcDbEntity
  8
30338490_DIM
100
AcDbTrace
 62
3
  6
CONTINUOUS
 10
247.6670343038
 20
170.3466181688
 11
247.796363457
 21
166.8217521827
 12
248.538672982
 22
170.2699956223
 13
248.538672982
 23
170.2699956223
  0
ENDBLK
  5
2C8
100
AcDbEntity
  8
0
  6
BYBLOCK
 62
0
100
AcDbBlockEnd
  0
BLOCK
  5
2C9
100
AcDbEntity
  8
30338490_DIM
100
AcDbBlockBegin
 62
3
  6
CONTINUOUS
  2
*D2
 70
65
 10
0.0
 20
0.0
  3
*D2
  1

  0
TEXT
  5
2CA
100
AcDbEntity
  8
30338490_DIM
100
AcDbText
 62
2
  6
CONTINUOUS
 10
215.6028143781
 20
177.6582750092
  7
STANDARD
 40
3.5
  1
R
 50
30.6604370497
 41
0.7857142857
 72
0
100
AcDbText
  0
TEXT
  5
2CB
100
AcDbEntity
  8
30338490_DIM
100
AcDbText
 62
2
  6
CONTINUOUS
 10
217.9683770236
 20
179.060634938
  7
STANDARD
 40
3.5
  1
1
 50
30.6604370497
 41
0.5714285714
 72
0
100
AcDbText
  0
LINE
  5
2CC
100
AcDbEntity
  8
30338490_DIM
100
AcDbLine
 62
3
  6
CONTINUOUS
 10
203.2050173227
 20
169.2913759826
 11
220.1349916523
 21
179.3278540445
  0
INSERT
  5
2CD
100
AcDbEntity
  8
30338490_DIM
100
AcDbBlockReference
 62
3
  6
CONTINUOUS
  2
_FILLED
 10
203.2050173227
 20
169.2913759826
 41
3.5
 42
3.5
 43
3.5
 50
210.6604370497
  0
ENDBLK
  5
2CE
100
AcDbEntity
  8
0
  6
BYBLOCK
 62
0
100
AcDbBlockEnd
  0
BLOCK
  5
2CF
100
AcDbEntity
  8
30338490_DIM
100
AcDbBlockBegin
 62
3
  6
CONTINUOUS
  2
*D3
 70
65
 10
0.0
 20
0.0
  3
*D3
  1

  0
TEXT
  5
2D0
100
AcDbEntity
  8
30338490_DIM
100
AcDbText
 62
2
  6
CONTINUOUS
 10
186.5482827251
 20
187.6763250476
  7
STANDARD
 40
3.5
  1
M
 41
0.8571428571
 72
2
 11
189.5482827251
 21
187.6763250476
100
AcDbText
  0
TEXT
  5
2D1
100
AcDbEntity
  8
30338490_DIM
100
AcDbText
 62
2
  6
CONTINUOUS
 10
189.5482827251
 20
187.6763250476
  7
STANDARD
 40
3.5
  1
6
 41
0.7857142857
 72
2
 11
192.2982827251
 21
187.6763250476
100
AcDbText
  0
TEXT
  5
2D2
100
AcDbEntity
  8
30338490_DIM
100
AcDbText
 62
2
  6
CONTINUOUS
 10
192.2982827251
 20
187.6763250476
  7
STANDARD
 40
3.5
  1
(
 41
0.4285714286
 72
2
 11
193.7982827251
 21
187.6763250476
100
AcDbText
  0
TEXT
  5
2D3
100
AcDbEntity
  8
30338490_DIM
100
AcDbText
 62
2
  6
CONTINUOUS
 10
193.7982827251
 20
187.6763250476
  7
STANDARD
 40
3.5
  1
4
 41
0.7857142857
 72
2
 11
196.5482827251
 21
187.6763250476
100
AcDbText
  0
TEXT
  5
2D4
100
AcDbEntity
  8
30338490_DIM
100
AcDbText
 62
2
  6
CONTINUOUS
 10
196.5482827251
 20
187.6763250476
  7
STANDARD
 40
3.5
  1
x)
 41
0.5714285714
 72
2
 11
200.5482827251
 21
187.6763250476
100
AcDbText
  0
LINE
  5
2D5
100
AcDbEntity
  8
30338490_DIM
100
AcDbLine
 62
3
  6
CONTINUOUS
 10
206.0652219211
 20
168.6514285325
 11
206.0652219211
 21
188.3013250476
  0
LINE
  5
2D6
100
AcDbEntity
  8
30338490_DIM
100
AcDbLine
 62
3
  6
CONTINUOUS
 10
212.0652219211
 20
168.6514285325
 11
212.0652219211
 21
188.3013250476
  0
LINE
  5
2D7
100
AcDbEntity
  8
30338490_DIM
100
AcDbLine
 62
3
  6
CONTINUOUS
 10
206.0652219211
 20
186.8013250476
 11
186.5482827251
 21
186.8013250476
  0
LINE
  5
2D8
100
AcDbEntity
  8
30338490_DIM
100
AcDbLine
 62
3
  6
CONTINUOUS
 10
186.5482827251
 20
186.8013250476
 11
209.0652219211
 21
186.8013250476
  0
LINE
  5
2D9
100
AcDbEntity
  8
30338490_DIM
100
AcDbLine
 62
3
  6
CONTINUOUS
 10
212.0652219211
 20
186.8013250476
 11
218.0652219211
 21
186.8013250476
  0
LINE
  5
2DA
100
AcDbEntity
  8
30338490_DIM
100
AcDbLine
 62
3
  6
CONTINUOUS
 10
218.0652219211
 20
186.8013250476
 11
209.0652219211
 21
186.8013250476
  0
INSERT
  5
2DB
100
AcDbEntity
  8
30338490_DIM
100
AcDbBlockReference
 62
3
  6
CONTINUOUS
  2
_FILLED
 10
206.0652219211
 20
186.8013250476
 41
3.5
 42
3.5
 43
3.5
  0
INSERT
  5
2DC
100
AcDbEntity
  8
30338490_DIM
100
AcDbBlockReference
 62
3
  6
CONTINUOUS
  2
_FILLED
 10
212.0652219211
 20
186.8013250476
 41
3.5
 42
3.5
 43
3.5
 50
180.0
  0
ENDBLK
  5
2DD
100
AcDbEntity
  8
0
  6
BYBLOCK
 62
0
100
AcDbBlockEnd
  0
BLOCK
  5
2DE
100
AcDbEntity
  8
30338490_DIM
100
AcDbBlockBegin
 62
3
  6
CONTINUOUS
  2
*D4
 70
65
 10
0.0
 20
0.0
  3
*D4
  1

  0
TEXT
  5
2DF
100
AcDbEntity
  8
30338490_DIM
100
AcDbText
 62
2
  6
CONTINUOUS
 10
231.8402219211
 20
95.6763250476
  7
STANDARD
 40
3.5
  1
58.05
 41
0.7142857143
 72
1
 11
238.0902219211
 21
95.6763250476
100
AcDbText
  0
LINE
  5
2E0
100
AcDbEntity
  8
30338490_DIM
100
AcDbLine
 62
3
  6
CONTINUOUS
 10
209.0652219211
 20
133.8398533252
 11
209.0652219211
 21
93.3013250476
  0
LINE
  5
2E1
100
AcDbEntity
  8
30338490_DIM
100
AcDbLine
 62
3
  6
CONTINUOUS
 10
267.1152219211
 20
139.2257155393
 11
267.1152219211
 21
93.3013250476
  0
LINE
  5
2E2
100
AcDbEntity
  8
30338490_DIM
100
AcDbLine
 62
3
  6
CONTINUOUS
 10
209.0652219211
 20
94.8013250476
 11
238.0902219211
 21
94.8013250476
  0
LINE
  5
2E3
100
AcDbEntity
  8
30338490_DIM
100
AcDbLine
 62
3
  6
CONTINUOUS
 10
267.1152219211
 20
94.8013250476
 11
238.0902219211
 21
94.8013250476
  0
INSERT
  5
2E4
100
AcDbEntity
  8
30338490_DIM
100
AcDbBlockReference
 62
3
  6
CONTINUOUS
  2
_FILLED
 10
209.0652219211
 20
94.8013250476
 41
3.5
 42
3.5
 43
3.5
 50
180.0
  0
INSERT
  5
2E5
100
AcDbEntity
  8
30338490_DIM
100
AcDbBlockReference
 62
3
  6
CONTINUOUS
  2
_FILLED
 10
267.1152219211
 20
94.8013250476
 41
3.5
 42
3.5
 43
3.5
  0
ENDBLK
  5
2E6
100
AcDbEntity
  8
0
  6
BYBLOCK
 62
0
100
AcDbBlockEnd
  0
BLOCK
  5
2E7
100
AcDbEntity
  8
30338490_DIM
100
AcDbBlockBegin
 62
3
  6
CONTINUOUS
  2
*D5
 70
65
 10
0.0
 20
0.0
  3
*D5
  1

  0
TEXT
  5
2E8
100
AcDbEntity
  8
30338490_DIM
100
AcDbText
 62
2
  6
CONTINUOUS
 10
240.8652219211
 20
105.6763250476
  7
STANDARD
 40
3.5
  1
47
 41
0.7857142857
 72
1
 11
243.6152219211
 21
105.6763250476
100
AcDbText
  0
LINE
  5
2E9
100
AcDbEntity
  8
30338490_DIM
100
AcDbLine
 62
3
  6
CONTINUOUS
 10
220.1152219211
 20
139.2257155393
 11
220.1152219211
 21
103.3013250476
  0
LINE
  5
2EA
100
AcDbEntity
  8
30338490_DIM
100
AcDbLine
 62
3
  6
CONTINUOUS
 10
267.1152219211
 20
139.2257155393
 11
267.1152219211
 21
103.3013250476
  0
LINE
  5
2EB
100
AcDbEntity
  8
30338490_DIM
100
AcDbLine
 62
3
  6
CONTINUOUS
 10
220.1152219211
 20
104.8013250476
 11
243.6152219211
 21
104.8013250476
  0
LINE
  5
2EC
100
AcDbEntity
  8
30338490_DIM
100
AcDbLine
 62
3
  6
CONTINUOUS
 10
267.1152219211
 20
104.8013250476
 11
243.6152219211
 21
104.8013250476
  0
INSERT
  5
2ED
100
AcDbEntity
  8
30338490_DIM
100
AcDbBlockReference
 62
3
  6
CONTINUOUS
  2
_FILLED
 10
220.1152219211
 20
104.8013250476
 41
3.5
 42
3.5
 43
3.5
 50
180.0
  0
INSERT
  5
2EE
100
AcDbEntity
  8
30338490_DIM
100
AcDbBlockReference
 62
3
  6
CONTINUOUS
  2
_FILLED
 10
267.1152219211
 20
104.8013250476
 41
3.5
 42
3.5
 43
3.5
  0
ENDBLK
  5
2EF
100
AcDbEntity
  8
0
  6
BYBLOCK
 62
0
100
AcDbBlockEnd
  0
BLOCK
  5
2F0
100
AcDbEntity
  8
30338490_DIM
100
AcDbBlockBegin
 62
3
  6
CONTINUOUS
  2
*D6
 70
65
 10
0.0
 20
0.0
  3
*D6
  1

  0
TEXT
  5
2F1
100
AcDbEntity
  8
30338490_DIM
100
AcDbText
 62
2
  6
CONTINUOUS
 10
219.3652219211
 20
210.6763250476
  7
STANDARD
 40
3.5
  1
90
 41
0.7857142857
 72
1
 11
222.1152219211
 21
210.6763250476
100
AcDbText
  0
LINE
  5
2F2
100
AcDbEntity
  8
30338490_DIM
100
AcDbLine
 62
3
  6
CONTINUOUS
 10
267.1152219211
 20
154.7405562795
 11
267.1152219211
 21
211.3013250476
  0
LINE
  5
2F3
100
AcDbEntity
  8
30338490_DIM
100
AcDbLine
 62
3
  6
CONTINUOUS
 10
177.1152219211
 20
151.8013250476
 11
177.1152219211
 21
211.3013250476
  0
LINE
  5
2F4
100
AcDbEntity
  8
30338490_DIM
100
AcDbLine
 62
3
  6
CONTINUOUS
 10
267.1152219211
 20
209.8013250476
 11
222.1152219211
 21
209.8013250476
  0
LINE
  5
2F5
100
AcDbEntity
  8
30338490_DIM
100
AcDbLine
 62
3
  6
CONTINUOUS
 10
177.1152219211
 20
209.8013250476
 11
222.1152219211
 21
209.8013250476
  0
INSERT
  5
2F6
100
AcDbEntity
  8
30338490_DIM
100
AcDbBlockReference
 62
3
  6
CONTINUOUS
  2
_FILLED
 10
267.1152219211
 20
209.8013250476
 41
3.5
 42
3.5
 43
3.5
  0
INSERT
  5
2F7
100
AcDbEntity
  8
30338490_DIM
100
AcDbBlockReference
 62
3
  6
CONTINUOUS
  2
_FILLED
 10
177.1152219211
 20
209.8013250476
 41
3.5
 42
3.5
 43
3.5
 50
180.0
  0
ENDBLK
  5
2F8
100
AcDbEntity
  8
0
  6
BYBLOCK
 62
0
100
AcDbBlockEnd
  0
BLOCK
  5
2F9
100
AcDbEntity
  8
30338490_DIM
100
AcDbBlockBegin
 62
3
  6
CONTINUOUS
  2
*D7
 70
65
 10
0.0
 20
0.0
  3
*D7
  1

  0
TEXT
  5
2FA
100
AcDbEntity
  8
30338490_DIM
100
AcDbText
 62
2
  6
CONTINUOUS
 10
141.3402219211
 20
130.26583373
  7
STANDARD
 40
3.5
  1
M
 50
90.0
 41
0.8571428571
 72
2
 11
141.3402219211
 21
133.26583373
100
AcDbText
  0
TEXT
  5
2FB
100
AcDbEntity
  8
30338490_DIM
100
AcDbText
 62
2
  6
CONTINUOUS
 10
141.3402219211
 20
133.26583373
  7
STANDARD
 40
3.5
  1
10
 50
90.0
 41
0.6785714286
 72
2
 11
141.3402219211
 21
138.01583373
100
AcDbText
  0
TEXT
  5
2FC
100
AcDbEntity
  8
30338490_DIM
100
AcDbText
 62
2
  6
CONTINUOUS
 10
141.3402219211
 20
138.01583373
  7
STANDARD
 40
3.5
  1
x1
 50
90.0
 41
0.6428571429
 72
2
 11
141.3402219211
 21
142.51583373
100
AcDbText
  0
LINE
  5
2FD
100
AcDbEntity
  8
30338490_DIM
100
AcDbLine
 62
3
  6
CONTINUOUS
 10
202.1152219211
 20
146.8013250476
 11
140.7152219211
 21
146.8013250476
  0
LINE
  5
2FE
100
AcDbEntity
  8
30338490_DIM
100
AcDbLine
 62
3
  6
CONTINUOUS
 10
202.1152219211
 20
156.8013250476
 11
140.7152219211
 21
156.8013250476
  0
LINE
  5
2FF
100
AcDbEntity
  8
30338490_DIM
100
AcDbLine
 62
3
  6
CONTINUOUS
 10
142.2152219211
 20
146.8013250476
 11
142.2152219211
 21
130.26583373
  0
LINE
  5
300
100
AcDbEntity
  8
30338490_DIM
100
AcDbLine
 62
3
  6
CONTINUOUS
 10
142.2152219211
 20
130.26583373
 11
142.2152219211
 21
151.8013250476
  0
LINE
  5
301
100
AcDbEntity
  8
30338490_DIM
100
AcDbLine
 62
3
  6
CONTINUOUS
 10
142.2152219211
 20
156.8013250476
 11
142.2152219211
 21
162.8013250476
  0
LINE
  5
302
100
AcDbEntity
  8
30338490_DIM
100
AcDbLine
 62
3
  6
CONTINUOUS
 10
142.2152219211
 20
162.8013250476
 11
142.2152219211
 21
151.8013250476
  0
INSERT
  5
303
100
AcDbEntity
  8
30338490_DIM
100
AcDbBlockReference
 62
3
  6
CONTINUOUS
  2
_FILLED
 10
142.2152219211
 20
146.8013250476
 41
3.5
 42
3.5
 43
3.5
 50
90.0
  0
INSERT
  5
304
100
AcDbEntity
  8
30338490_DIM
100
AcDbBlockReference
 62
3
  6
CONTINUOUS
  2
_FILLED
 10
142.2152219211
 20
156.8013250476
 41
3.5
 42
3.5
 43
3.5
 50
270.0
  0
ENDBLK
  5
305
100
AcDbEntity
  8
0
  6
BYBLOCK
 62
0
100
AcDbBlockEnd
  0
BLOCK
  5
306
100
AcDbEntity
  8
30338490_DIM
100
AcDbBlockBegin
 62
3
  6
CONTINUOUS
  2
*D8
 70
65
 10
0.0
 20
0.0
  3
*D8
  1

  0
TEXT
  5
307
100
AcDbEntity
  8
30338490_DIM
100
AcDbText
 62
2
  6
CONTINUOUS
 10
281.2402219211
 20
171.7487417011
  7
TEXTSTYLE_3
 40
3.5
  1
n
 50
90.0
 41
1.0
 72
0
100
AcDbText
  0
TEXT
  5
308
100
AcDbEntity
  8
30338490_DIM
100
AcDbText
 62
2
  6
CONTINUOUS
 10
281.2402219211
 20
176.4154083678
  7
STANDARD
 40
3.5
  1
14
 50
90.0
 41
0.6785714286
 72
0
100
AcDbText
  0
LINE
  5
309
100
AcDbEntity
  8
30338490_DIM
100
AcDbLine
 62
3
  6
CONTINUOUS
 10
265.1152219211
 20
144.8013250476
 11
283.6152219211
 21
144.8013250476
  0
LINE
  5
30A
100
AcDbEntity
  8
30338490_DIM
100
AcDbLine
 62
3
  6
CONTINUOUS
 10
265.1152219211
 20
158.8013250476
 11
283.6152219211
 21
158.8013250476
  0
LINE
  5
30B
100
AcDbEntity
  8
30338490_DIM
100
AcDbLine
 62
3
  6
CONTINUOUS
 10
282.1152219211
 20
144.8013250476
 11
282.1152219211
 21
138.8013250476
  0
LINE
  5
30C
100
AcDbEntity
  8
30338490_DIM
100
AcDbLine
 62
3
  6
CONTINUOUS
 10
282.1152219211
 20
138.8013250476
 11
282.1152219211
 21
151.8013250476
  0
LINE
  5
30D
100
AcDbEntity
  8
30338490_DIM
100
AcDbLine
 62
3
  6
CONTINUOUS
 10
282.1152219211
 20
158.8013250476
 11
282.1152219211
 21
181.1654083678
  0
LINE
  5
30E
100
AcDbEntity
  8
30338490_DIM
100
AcDbLine
 62
3
  6
CONTINUOUS
 10
282.1152219211
 20
181.1654083678
 11
282.1152219211
 21
151.8013250476
  0
INSERT
  5
30F
100
AcDbEntity
  8
30338490_DIM
100
AcDbBlockReference
 62
3
  6
CONTINUOUS
  2
_FILLED
 10
282.1152219211
 20
144.8013250476
 41
3.5
 42
3.5
 43
3.5
 50
90.0
  0
INSERT
  5
310
100
AcDbEntity
  8
30338490_DIM
100
AcDbBlockReference
 62
3
  6
CONTINUOUS
  2
_FILLED
 10
282.1152219211
 20
158.8013250476
 41
3.5
 42
3.5
 43
3.5
 50
270.0
  0
ENDBLK
  5
311
100
AcDbEntity
  8
0
  6
BYBLOCK
 62
0
100
AcDbBlockEnd
  0
BLOCK
  5
312
100
AcDbEntity
  8
30338490_DIM
100
AcDbBlockBegin
 62
3
  6
CONTINUOUS
  2
*D9
 70
65
 10
0.0
 20
0.0
  3
*D9
  1

  0
TEXT
  5
313
100
AcDbEntity
  8
30338490_DIM
100
AcDbText
 62
2
  6
CONTINUOUS
 10
236.8793636328
 20
200.6763250476
  7
STANDARD
 40
3.5
  1
(
 41
0.4285714286
 72
1
 11
237.6293636328
 21
200.6763250476
100
AcDbText
  0
TEXT
  5
314
100
AcDbEntity
  8
30338490_DIM
100
AcDbText
 62
2
  6
CONTINUOUS
 10
238.3793636328
 20
200.6763250476
  7
STANDARD
 40
3.5
  1
44.47
 41
0.7428571429
 72
1
 11
244.8793636328
 21
200.6763250476
100
AcDbText
  0
TEXT
  5
315
100
AcDbEntity
  8
30338490_DIM
100
AcDbText
 62
2
  6
CONTINUOUS
 10
251.3793636328
 20
200.6763250476
  7
STANDARD
 40
3.5
  1
)
 41
0.4285714286
 72
1
 11
252.1293636328
 21
200.6763250476
100
AcDbText
  0
LINE
  5
316
100
AcDbEntity
  8
30338490_DIM
100
AcDbLine
 62
3
  6
CONTINUOUS
 10
267.1152219211
 20
164.376934556
 11
267.1152219211
 21
201.3013250476
  0
LINE
  5
317
100
AcDbEntity
  8
30338490_DIM
100
AcDbLine
 62
3
  6
CONTINUOUS
 10
222.6435053445
 20
168.8013250476
 11
222.6435053445
 21
201.3013250476
  0
LINE
  5
318
100
AcDbEntity
  8
30338490_DIM
100
AcDbLine
 62
3
  6
CONTINUOUS
 10
267.1152219211
 20
199.8013250476
 11
244.8793636328
 21
199.8013250476
  0
LINE
  5
319
100
AcDbEntity
  8
30338490_DIM
100
AcDbLine
 62
3
  6
CONTINUOUS
 10
222.6435053445
 20
199.8013250476
 11
244.8793636328
 21
199.8013250476
  0
INSERT
  5
31A
100
AcDbEntity
  8
30338490_DIM
100
AcDbBlockReference
 62
3
  6
CONTINUOUS
  2
_FILLED
 10
267.1152219211
 20
199.8013250476
 41
3.5
 42
3.5
 43
3.5
  0
INSERT
  5
31B
100
AcDbEntity
  8
30338490_DIM
100
AcDbBlockReference
 62
3
  6
CONTINUOUS
  2
_FILLED
 10
222.6435053445
 20
199.8013250476
 41
3.5
 42
3.5
 43
3.5
 50
180.0
  0
ENDBLK
  5
31C
100
AcDbEntity
  8
0
  6
BYBLOCK
 62
0
100
AcDbBlockEnd
  0
BLOCK
  5
31D
100
AcDbEntity
  8
30338490_DIM
100
AcDbBlockBegin
 62
3
  6
CONTINUOUS
  2
*D10
 70
65
 10
0.0
 20
0.0
  3
*D10
  1

  0
TEXT
  5
31E
100
AcDbEntity
  8
30338490_DIM
100
AcDbText
 62
2
  6
CONTINUOUS
 10
301.2402219211
 20
146.8429917143
  7
TEXTSTYLE_3
 40
3.5
  1
n
 50
90.0
 41
1.0
 72
1
 11
301.2402219211
 21
149.1763250476
100
AcDbText
  0
TEXT
  5
31F
100
AcDbEntity
  8
30338490_DIM
100
AcDbText
 62
2
  6
CONTINUOUS
 10
301.2402219211
 20
151.509658381
  7
STANDARD
 40
3.5
  1
34
 50
90.0
 41
0.75
 72
1
 11
301.2402219211
 21
154.134658381
100
AcDbText
  0
LINE
  5
320
100
AcDbEntity
  8
30338490_DIM
100
AcDbLine
 62
3
  6
CONTINUOUS
 10
222.6435053445
 20
134.8013250476
 11
303.6152219211
 21
134.8013250476
  0
LINE
  5
321
100
AcDbEntity
  8
30338490_DIM
100
AcDbLine
 62
3
  6
CONTINUOUS
 10
222.6435053445
 20
168.8013250476
 11
303.6152219211
 21
168.8013250476
  0
LINE
  5
322
100
AcDbEntity
  8
30338490_DIM
100
AcDbLine
 62
3
  6
CONTINUOUS
 10
302.1152219211
 20
134.8013250476
 11
302.1152219211
 21
151.8013250476
  0
LINE
  5
323
100
AcDbEntity
  8
30338490_DIM
100
AcDbLine
 62
3
  6
CONTINUOUS
 10
302.1152219211
 20
168.8013250476
 11
302.1152219211
 21
151.8013250476
  0
INSERT
  5
324
100
AcDbEntity
  8
30338490_DIM
100
AcDbBlockReference
 62
3
  6
CONTINUOUS
  2
_FILLED
 10
302.1152219211
 20
134.8013250476
 41
3.5
 42
3.5
 43
3.5
 50
270.0
  0
INSERT
  5
325
100
AcDbEntity
  8
30338490_DIM
100
AcDbBlockReference
 62
3
  6
CONTINUOUS
  2
_FILLED
 10
302.1152219211
 20
168.8013250476
 41
3.5
 42
3.5
 43
3.5
 50
90.0
  0
ENDBLK
  5
326
100
AcDbEntity
  8
0
  6
BYBLOCK
 62
0
100
AcDbBlockEnd
  0
BLOCK
  5
327
100
AcDbEntity
  8
30338490_DIM
100
AcDbBlockBegin
 62
3
  6
CONTINUOUS
  2
*D11
 70
65
 10
0.0
 20
0.0
  3
*D11
  1

  0
TEXT
  5
328
100
AcDbEntity
  8
30338490_DIM
100
AcDbText
 62
2
  6
CONTINUOUS
 10
291.2402219211
 20
146.7179917143
  7
TEXTSTYLE_3
 40
3.5
  1
n
 50
90.0
 41
1.0
 72
1
 11
291.2402219211
 21
149.0513250476
100
AcDbText
  0
TEXT
  5
329
100
AcDbEntity
  8
30338490_DIM
100
AcDbText
 62
2
  6
CONTINUOUS
 10
291.2402219211
 20
151.384658381
  7
STANDARD
 40
3.5
  1
27
 50
90.0
 41
0.7857142857
 72
1
 11
291.2402219211
 21
154.134658381
100
AcDbText
  0
LINE
  5
32A
100
AcDbEntity
  8
30338490_DIM
100
AcDbLine
 62
3
  6
CONTINUOUS
 10
267.1152219211
 20
138.3013250476
 11
293.6152219211
 21
138.3013250476
  0
LINE
  5
32B
100
AcDbEntity
  8
30338490_DIM
100
AcDbLine
 62
3
  6
CONTINUOUS
 10
267.1152219211
 20
165.3013250476
 11
293.6152219211
 21
165.3013250476
  0
LINE
  5
32C
100
AcDbEntity
  8
30338490_DIM
100
AcDbLine
 62
3
  6
CONTINUOUS
 10
292.1152219211
 20
138.3013250476
 11
292.1152219211
 21
151.8013250476
  0
LINE
  5
32D
100
AcDbEntity
  8
30338490_DIM
100
AcDbLine
 62
3
  6
CONTINUOUS
 10
292.1152219211
 20
165.3013250476
 11
292.1152219211
 21
151.8013250476
  0
INSERT
  5
32E
100
AcDbEntity
  8
30338490_DIM
100
AcDbBlockReference
 62
3
  6
CONTINUOUS
  2
_FILLED
 10
292.1152219211
 20
138.3013250476
 41
3.5
 42
3.5
 43
3.5
 50
270.0
  0
INSERT
  5
32F
100
AcDbEntity
  8
30338490_DIM
100
AcDbBlockReference
 62
3
  6
CONTINUOUS
  2
_FILLED
 10
292.1152219211
 20
165.3013250476
 41
3.5
 42
3.5
 43
3.5
 50
90.0
  0
ENDBLK
  5
330
100
AcDbEntity
  8
0
  6
BYBLOCK
 62
0
100
AcDbBlockEnd
  0
ENDSEC
  0
SECTION
  2
ENTITIES
  0
TEXT
  5
331
100
AcDbEntity
  8
606302783-000-00-ED1_FORMAT
100
AcDbText
 62
90
  6
CONTINUOUS
 10
34.0
 20
287.75
  7
TEXTSTYLE_2
 40
3.5
  1
1
 41
0.5714285714
 72
1
 11
35.0
 21
287.75
100
AcDbText
  0
TEXT
  5
332
100
AcDbEntity
  8
606302783-000-00-ED1_FORMAT
100
AcDbText
 62
90
  6
CONTINUOUS
 10
83.625
 20
287.75
  7
TEXTSTYLE_2
 40
3.5
  1
2
 41
0.7857142857
 72
1
 11
85.0
 21
287.75
100
AcDbText
  0
TEXT
  5
333
100
AcDbEntity
  8
606302783-000-00-ED1_FORMAT
100
AcDbText
 62
90
  6
CONTINUOUS
 10
133.75
 20
287.75
  7
TEXTSTYLE_2
 40
3.5
  1
3
 41
0.7142857143
 72
1
 11
135.0
 21
287.75
100
AcDbText
  0
TEXT
  5
334
100
AcDbEntity
  8
606302783-000-00-ED1_FORMAT
100
AcDbText
 62
90
  6
CONTINUOUS
 10
183.625
 20
287.75
  7
TEXTSTYLE_2
 40
3.5
  1
4
 41
0.7857142857
 72
1
 11
185.0
 21
287.75
100
AcDbText
  0
TEXT
  5
335
100
AcDbEntity
  8
606302783-000-00-ED1_FORMAT
100
AcDbText
 62
90
  6
CONTINUOUS
 10
233.75
 20
287.75
  7
TEXTSTYLE_2
 40
3.5
  1
5
 41
0.7142857143
 72
1
 11
235.0
 21
287.75
100
AcDbText
  0
TEXT
  5
336
100
AcDbEntity
  8
606302783-000-00-ED1_FORMAT
100
AcDbText
 62
90
  6
CONTINUOUS
 10
283.625
 20
287.75
  7
TEXTSTYLE_2
 40
3.5
  1
6
 41
0.7857142857
 72
1
 11
285.0
 21
287.75
100
AcDbText
  0
TEXT
  5
337
100
AcDbEntity
  8
606302783-000-00-ED1_FORMAT
100
AcDbText
 62
90
  6
CONTINUOUS
 10
333.625
 20
287.75
  7
TEXTSTYLE_2
 40
3.5
  1
7
 41
0.7857142857
 72
1
 11
335.0
 21
287.75
100
AcDbText
  0
TEXT
  5
338
100
AcDbEntity
  8
606302783-000-00-ED1_FORMAT
100
AcDbText
 62
90
  6
CONTINUOUS
 10
383.625
 20
287.75
  7
TEXTSTYLE_2
 40
3.5
  1
8
 41
0.7857142857
 72
1
 11
385.0
 21
287.75
100
AcDbText
  0
TEXT
  5
339
100
AcDbEntity
  8
606302783-000-00-ED1_FORMAT
100
AcDbText
 62
90
  6
CONTINUOUS
 10
133.75
 20
5.75
  7
TEXTSTYLE_2
 40
3.5
  1
3
 41
0.7142857143
 72
1
 11
135.0
 21
5.75
100
AcDbText
  0
TEXT
  5
33A
100
AcDbEntity
  8
606302783-000-00-ED1_FORMAT
100
AcDbText
 62
90
  6
CONTINUOUS
 10
83.625
 20
5.75
  7
TEXTSTYLE_2
 40
3.5
  1
2
 41
0.7857142857
 72
1
 11
85.0
 21
5.75
100
AcDbText
  0
TEXT
  5
33B
100
AcDbEntity
  8
606302783-000-00-ED1_FORMAT
100
AcDbText
 62
90
  6
CONTINUOUS
 10
34.0
 20
5.75
  7
TEXTSTYLE_2
 40
3.5
  1
1
 41
0.5714285714
 72
1
 11
35.0
 21
5.75
100
AcDbText
  0
TEXT
  5
33C
100
AcDbEntity
  8
606302783-000-00-ED1_FORMAT
100
AcDbText
 62
90
  6
CONTINUOUS
 10
19.0
 20
262.75
  7
TEXTSTYLE_2
 40
3.5
  1
A
 41
0.8571428571
 72
1
 11
20.5
 21
262.75
100
AcDbText
  0
TEXT
  5
33D
100
AcDbEntity
  8
606302783-000-00-ED1_FORMAT
100
AcDbText
 62
90
  6
CONTINUOUS
 10
411.0
 20
262.75
  7
TEXTSTYLE_2
 40
3.5
  1
A
 41
0.8571428571
 72
1
 11
412.5
 21
262.75
100
AcDbText
  0
TEXT
  5
33E
100
AcDbEntity
  8
606302783-000-00-ED1_FORMAT
100
AcDbText
 62
90
  6
CONTINUOUS
 10
411.125
 20
221.75
  7
TEXTSTYLE_2
 40
3.5
  1
B
 41
0.7857142857
 72
1
 11
412.5
 21
221.75
100
AcDbText
  0
TEXT
  5
33F
100
AcDbEntity
  8
606302783-000-00-ED1_FORMAT
100
AcDbText
 62
90
  6
CONTINUOUS
 10
19.125
 20
221.75
  7
TEXTSTYLE_2
 40
3.5
  1
B
 41
0.7857142857
 72
1
 11
20.5
 21
221.75
100
AcDbText
  0
TEXT
  5
340
100
AcDbEntity
  8
606302783-000-00-ED1_FORMAT
100
AcDbText
 62
90
  6
CONTINUOUS
 10
19.0416666667
 20
171.75
  7
TEXTSTYLE_2
 40
3.5
  1
C
 41
0.8333333333
 72
1
 11
20.5
 21
171.75
100
AcDbText
  0
TEXT
  5
341
100
AcDbEntity
  8
606302783-000-00-ED1_FORMAT
100
AcDbText
 62
90
  6
CONTINUOUS
 10
411.0416666667
 20
171.75
  7
TEXTSTYLE_2
 40
3.5
  1
C
 41
0.8333333333
 72
1
 11
412.5
 21
171.75
100
AcDbText
  0
TEXT
  5
342
100
AcDbEntity
  8
606302783-000-00-ED1_FORMAT
100
AcDbText
 62
90
  6
CONTINUOUS
 10
410.9166666667
 20
121.75
  7
TEXTSTYLE_2
 40
3.5
  1
D
 41
0.9047619048
 72
1
 11
412.5
 21
121.75
100
AcDbText
  0
TEXT
  5
343
100
AcDbEntity
  8
606302783-000-00-ED1_FORMAT
100
AcDbText
 62
90
  6
CONTINUOUS
 10
18.9166666667
 20
121.75
  7
TEXTSTYLE_2
 40
3.5
  1
D
 41
0.9047619048
 72
1
 11
20.5
 21
121.75
100
AcDbText
  0
TEXT
  5
344
100
AcDbEntity
  8
606302783-000-00-ED1_FORMAT
100
AcDbText
 62
90
  6
CONTINUOUS
 10
19.25
 20
71.75
  7
TEXTSTYLE_2
 40
3.5
  1
E
 41
0.7142857143
 72
1
 11
20.5
 21
71.75
100
AcDbText
  0
TEXT
  5
345
100
AcDbEntity
  8
606302783-000-00-ED1_FORMAT
100
AcDbText
 62
90
  6
CONTINUOUS
 10
411.25
 20
71.75
  7
TEXTSTYLE_2
 40
3.5
  1
E
 41
0.7142857143
 72
1
 11
412.5
 21
71.75
100
AcDbText
  0
TEXT
  5
346
100
AcDbEntity
  8
606302783-000-00-ED1_FORMAT
100
AcDbText
 62
90
  6
CONTINUOUS
 10
411.25
 20
21.75
  7
TEXTSTYLE_2
 40
3.5
  1
F
 41
0.7142857143
 72
1
 11
412.5
 21
21.75
100
AcDbText
  0
TEXT
  5
347
100
AcDbEntity
  8
606302783-000-00-ED1_FORMAT
100
AcDbText
 62
90
  6
CONTINUOUS
 10
19.25
 20
21.75
  7
TEXTSTYLE_2
 40
3.5
  1
F
 41
0.7142857143
 72
1
 11
20.5
 21
21.75
100
AcDbText
  0
TEXT
  5
348
100
AcDbEntity
  8
606302783-000-00-ED1_FORMAT
100
AcDbText
 62
2
  6
CONTINUOUS
 10
266.0792011722
 20
283.4479128464
  7
STANDARD
 40
1.9999997015
  1
INDEX
 41
0.780952381
 72
0
100
AcDbText
  0
TEXT
  5
349
100
AcDbEntity
  8
606302783-000-00-ED1_FORMAT
100
AcDbText
 62
2
  6
CONTINUOUS
 10
267.8411056711
 20
280.4479132942
  7
STANDARD
 40
1.9999997015
  1
NR.
 41
0.7142857143
 72
0
100
AcDbText
  0
TEXT
  5
34A
100
AcDbEntity
  8
606302783-000-00-ED1_FORMAT
100
AcDbText
 62
2
  6
CONTINUOUS
 10
310.3389765087
 20
281.9588201847
  7
STANDARD
 40
1.9999997015
  1
ART DER AENDERUNG
 41
0.799719888
 72
0
100
AcDbText
  0
TEXT
  5
34B
100
AcDbEntity
  8
606302783-000-00-ED1_FORMAT
100
AcDbText
 62
2
  6
CONTINUOUS
 10
379.9980938591
 20
282.0962316584
  7
STANDARD
 40
1.9999997015
  1
DATUM
 41
0.8523809524
 72
0
100
AcDbText
  0
TEXT
  5
34C
100
AcDbEntity
  8
606302783-000-00-ED1_FORMAT
100
AcDbText
 62
2
  6
CONTINUOUS
 10
397.8615854447
 20
282.0962316584
  7
STANDARD
 40
1.9999997015
  1
NAME
 41
0.8035714286
 72
0
100
AcDbText
  0
TEXT
  5
34D
100
AcDbEntity
  8
606302783-000-00-ED1_FORMAT
100
AcDbText
 62
2
  6
CONTINUOUS
 10
27.6553587823
 20
149.7733961004
  7
STANDARD
 40
3.0
  1
VORGANGS-NR.:
 50
90.0
 41
0.7399267399
 72
0
100
AcDbText
  0
TEXT
  5
34E
100
AcDbEntity
  8
606302783-000-00-ED1_FORMAT
100
AcDbText
 62
2
  6
CONTINUOUS
 10
27.9024680453
 20
94.666552576
  7
STANDARD
 40
3.0
  1
PROJEKT-NR.:
 50
90.0
 41
0.7142857143
 72
0
100
AcDbText
  0
TEXT
  5
34F
100
AcDbEntity
  8
606302783-000-00-ED1_FORMAT
100
AcDbText
 62
2
  6
CONTINUOUS
 10
27.9024680453
 20
11.0873145846
  7
STANDARD
 40
3.0
  1
KUNDE:
 50
90.0
 41
0.7222222222
 72
0
100
AcDbText
  0
TEXT
  5
350
100
AcDbEntity
  8
606302783-000-00-ED1_FORMAT
100
AcDbText
 62
2
  6
CONTINUOUS
 10
225.0528335394
 20
61.7772757079
  7
STANDARD
 40
1.4000001944
  1
DIE ZEICHNUNGEN,  MODELLE  ETC. BLEIBEN  UNSER  AUSSCHLIESSLICHES
 41
0.7549450549
 72
0
100
AcDbText
  0
TEXT
  5
351
100
AcDbEntity
  8
606302783-000-00-ED1_FORMAT
100
AcDbText
 62
2
  6
CONTINUOUS
 10
225.0528335394
 20
58.9772753192
  7
STANDARD
 40
1.4000001944
  1
EIGENTUM. SIE WERDEN NUR ZU DEM VEREINBARTEN  ZWECK ANVERTRAUT
 41
0.7976190476
 72
0
100
AcDbText
  0
TEXT
  5
352
100
AcDbEntity
  8
606302783-000-00-ED1_FORMAT
100
AcDbText
 62
2
  6
CONTINUOUS
 10
225.0528335394
 20
56.1772749305
  7
STANDARD
 40
1.4000001944
  1
UND DUERFEN ZU KEINEM ANDEREN  ZWECK VERWENDET WERDEN. KOPIEN
 41
0.8040593286
 72
0
100
AcDbText
  0
TEXT
  5
353
100
AcDbEntity
  8
606302783-000-00-ED1_FORMAT
100
AcDbText
 62
2
  6
CONTINUOUS
 10
225.0528335394
 20
53.3772745417
  7
STANDARD
 40
1.4000001944
  1
ODER  SONSTIGE  VERVIELFAELTIGUNGEN  DUERFEN  NUR ZU DEM VEREIN-
 41
0.7689732143
 72
0
100
AcDbText
  0
TEXT
  5
354
100
AcDbEntity
  8
606302783-000-00-ED1_FORMAT
100
AcDbText
 62
2
  6
CONTINUOUS
 10
225.0528335394
 20
50.577274153
  7
STANDARD
 40
1.4000001944
  1
BARTEN ZWECK ANGEFERTIGT WERDEN. WEDER ORIGINALE NOCH VERVIEL-
 41
0.7949308756
 72
0
100
AcDbText
  0
TEXT
  5
355
100
AcDbEntity
  8
606302783-000-00-ED1_FORMAT
100
AcDbText
 62
2
  6
CONTINUOUS
 10
225.0528335394
 20
47.7772737643
  7
STANDARD
 40
1.4000001944
  1
FAELTIGUNGEN  DUERFEN  DRITTEN  AUSGEHAENDIGT ODER IN SONSTIGER
 41
0.776266062
 72
0
100
AcDbText
  0
TEXT
  5
356
100
AcDbEntity
  8
606302783-000-00-ED1_FORMAT
100
AcDbText
 62
2
  6
CONTINUOUS
 10
225.0528335394
 20
44.9772733756
  7
STANDARD
 40
1.4000001944
  1
WEISE ZUGAENGLICH GEMACHT WERDEN.
 41
0.803030303
 72
0
100
AcDbText
  0
TEXT
  5
357
100
AcDbEntity
  8
606302783-000-00-ED1_FORMAT
100
AcDbText
 62
2
  6
CONTINUOUS
 10
225.1601630615
 20
39.378272574
  7
STANDARD
 40
1.8000002499
  1
MASSE OHNE TOLERANZANGABE
 41
0.7857142857
 72
0
100
AcDbText
  0
TEXT
  5
358
100
AcDbEntity
  8
606302783-000-00-ED1_FORMAT
100
AcDbText
 62
2
  6
CONTINUOUS
 10
236.0244502841
 20
36.6782721992
  7
STANDARD
 40
1.8000002499
  1
ISO 2768-F
 41
0.7571428571
 72
0
100
AcDbText
  0
TEXT
  5
359
100
AcDbEntity
  8
606302783-000-00-ED1_FORMAT
100
AcDbText
 62
2
  6
CONTINUOUS
 10
262.1543713235
 20
39.5917730329
  7
STANDARD
 40
1.8000002499
  1
UNBEMASSTE EINZELHEITEN
 41
0.7608695652
 72
0
100
AcDbText
  0
TEXT
  5
35A
100
AcDbEntity
  8
606302783-000-00-ED1_FORMAT
100
AcDbText
 62
2
  6
CONTINUOUS
 10
267.382943478
 20
36.8917726581
  7
STANDARD
 40
1.8000002499
  1
NACH WERKSNORM
 41
0.8350340136
 72
0
100
AcDbText
  0
TEXT
  5
35B
100
AcDbEntity
  8
606302783-000-00-ED1_FORMAT
100
AcDbText
 62
2
  6
CONTINUOUS
 10
150.063304016
 20
38.7910868059
  7
STANDARD
 40
2.0
  1
ZUSAETZLICH ZU VA-NR. 07.05.01 BESCHRIFTET MIT:
 41
0.7507598784
 72
1
 11
185.3490183017
 21
38.7910868059
100
AcDbText
  0
TEXT
  5
35C
100
AcDbEntity
  8
606302783-000-00-ED1_FORMAT
100
AcDbText
 62
2
  6
CONTINUOUS
 10
224.7601228044
 20
20.7999897947
  7
STANDARD
 40
2.5
  1
TECHNISCHE SPEZIFIKATION:
 41
0.7466666667
 72
0
100
AcDbText
  0
TEXT
  5
35D
100
AcDbEntity
  8
606302783-000-00-ED1_FORMAT
100
AcDbText
 62
2
  6
CONTINUOUS
 10
224.8199471988
 20
31.7602174681
  7
STANDARD
 40
2.5
  1
BENENNUNG:
 41
0.7285714286
 72
0
100
AcDbText
  0
TEXT
  5
35E
100
AcDbEntity
  8
606302783-000-00-ED1_FORMAT
100
AcDbText
 62
2
  6
CONTINUOUS
 10
224.5262063004
 20
11.0903924223
  7
STANDARD
 40
1.6000002221
  1
ERSATZ F. ZCHNR.:
 41
0.7380952381
 72
0
100
AcDbText
  0
TEXT
  5
35F
100
AcDbEntity
  8
606302783-000-00-ED1_FORMAT
100
AcDbText
 62
2
  6
CONTINUOUS
 10
300.4889576042
 20
10.8414910836
  7
STANDARD
 40
1.6000002221
  1
ERSETZT D. ZCHNR.:
 41
0.7473544974
 72
0
100
AcDbText
  0
TEXT
  5
360
100
AcDbEntity
  8
606302783-000-00-ED1_FORMAT
100
AcDbText
 62
2
  6
CONTINUOUS
 10
379.498513208
 20
60.814916182
  7
STANDARD
 40
2.0000002777
  1
DATUM
 41
0.8523809524
 72
0
100
AcDbText
  0
TEXT
  5
361
100
AcDbEntity
  8
606302783-000-00-ED1_FORMAT
100
AcDbText
 62
2
  6
CONTINUOUS
 10
398.0389134502
 20
60.814916182
  7
STANDARD
 40
2.0000002777
  1
NAME
 41
0.8035714286
 72
0
100
AcDbText
  0
TEXT
  5
362
100
AcDbEntity
  8
606302783-000-00-ED1_FORMAT
100
AcDbText
 62
2
  6
CONTINUOUS
 10
366.6248819325
 20
54.9911796252
  7
STANDARD
 40
2.0000002777
  1
GEZ.
 41
0.7142857143
 72
0
100
AcDbText
  0
TEXT
  5
363
100
AcDbEntity
  8
606302783-000-00-ED1_FORMAT
100
AcDbText
 62
2
  6
CONTINUOUS
 10
366.6248819325
 20
48.9031554343
  7
STANDARD
 40
2.0
  1
GEPR.
 41
0.7285714286
 72
0
100
AcDbText
  0
TEXT
  5
364
100
AcDbEntity
  8
606302783-000-00-ED1_FORMAT
100
AcDbText
 62
2
  6
CONTINUOUS
 10
366.6248819325
 20
42.8151311047
  7
STANDARD
 40
2.0
  1
FREIG.
 41
0.7023809524
 72
0
100
AcDbText
  0
TEXT
  5
365
100
AcDbEntity
  8
606302783-000-00-ED1_FORMAT
100
AcDbText
 62
2
  6
CONTINUOUS
 10
300.5448732723
 20
20.8921153842
  7
STANDARD
 40
2.5
  1
MATERIALNUMMER:
 41
0.7571428571
 72
0
100
AcDbText
  0
TEXT
  5
366
100
AcDbEntity
  8
606302783-000-00-ED1_FORMAT
100
AcDbText
 62
2
  6
CONTINUOUS
 10
345.5006276188
 20
20.8921153842
  7
STANDARD
 40
2.5
  1
ZEICHNUNGSNUMMER:
 41
0.7549019608
 72
0
100
AcDbText
  0
TEXT
  5
367
100
AcDbEntity
  8
606302783-000-00-ED1_FORMAT
100
AcDbText
 62
2
  6
CONTINUOUS
 10
400.7764463981
 20
32.1524019301
  7
STANDARD
 40
2.0
  1
ORIGIN
 41
0.7380952381
 72
0
100
AcDbText
  0
TEXT
  5
368
100
AcDbEntity
  8
606302783-000-00-ED1_FORMAT
100
AcDbText
 62
2
  6
CONTINUOUS
 10
400.4059589228
 20
21.1649440759
  7
STANDARD
 40
2.5
  1
INDEX
 41
0.780952381
 72
0
100
AcDbText
  0
TEXT
  5
369
100
AcDbEntity
  8
606302783-000-00-ED1_FORMAT
100
AcDbText
 62
2
  6
CONTINUOUS
 10
366.825457919
 20
36.6922441013
  7
STANDARD
 40
2.0000002777
  1
MASSSTAB: 
 41
0.7714285714
 72
0
100
AcDbText
  0
TEXT
  5
36A
100
AcDbEntity
  8
606302783-000-00-ED1_FORMAT
100
AcDbText
 62
2
  6
CONTINUOUS
 10
382.2540314895
 20
36.6922441013
  7
STANDARD
 40
2.0000002777
  1
1:1
 41
0.5
 72
0
100
AcDbText
  0
TEXT
  5
36B
100
AcDbEntity
  8
606302783-000-00-ED1_FORMAT
100
AcDbText
 62
2
  6
CONTINUOUS
 10
148.8802806988
 20
67.4938922276
  7
STANDARD
 40
2.0000002777
  1
POS
 41
0.7857142857
 72
0
100
AcDbText
  0
TEXT
  5
36C
100
AcDbEntity
  8
606302783-000-00-ED1_FORMAT
100
AcDbText
 62
2
  6
CONTINUOUS
 10
156.2800350516
 20
67.4938922276
  7
STANDARD
 40
2.0000002777
  1
TYP
 41
0.8333333333
 72
0
100
AcDbText
  0
TEXT
  5
36D
100
AcDbEntity
  8
606302783-000-00-ED1_FORMAT
100
AcDbText
 62
2
  6
CONTINUOUS
 10
163.3396899162
 20
67.5421772957
  7
STANDARD
 40
2.0000002777
  1
MENGE
 41
0.7714285714
 72
0
100
AcDbText
  0
TEXT
  5
36E
100
AcDbEntity
  8
606302783-000-00-ED1_FORMAT
100
AcDbText
 62
2
  6
CONTINUOUS
 10
172.6578100909
 20
67.5585023576
  7
STANDARD
 40
2.0000002777
  1
ME
 41
0.7857142857
 72
0
100
AcDbText
  0
TEXT
  5
36F
100
AcDbEntity
  8
606302783-000-00-ED1_FORMAT
100
AcDbText
 62
2
  6
CONTINUOUS
 10
181.2151302056
 20
67.5585023576
  7
STANDARD
 40
2.0000002777
  1
MATERIALNUMMER
 41
0.7857142857
 72
0
100
AcDbText
  0
TEXT
  5
370
100
AcDbEntity
  8
606302783-000-00-ED1_FORMAT
100
AcDbText
 62
2
  6
CONTINUOUS
 10
257.4508902212
 20
67.6477439033
  7
STANDARD
 40
2.0000002777
  1
BENENNUNG
 41
0.7698412698
 72
0
100
AcDbText
  0
TEXT
  5
371
100
AcDbEntity
  8
606302783-000-00-ED1_FORMAT
100
AcDbText
 62
2
  6
CONTINUOUS
 10
321.8093099266
 20
67.455938924
  7
STANDARD
 40
2.0000002777
  1
TECHNISCHE SPEZIFIKATION
 41
0.7628968254
 72
0
100
AcDbText
  0
TEXT
  5
372
100
AcDbEntity
  8
606302783-000-00-ED1_FORMAT
100
AcDbText
 62
2
  6
CONTINUOUS
 10
378.8634420866
 20
67.8395488825
  7
STANDARD
 40
2.0000002777
  1
KUNDENNUMMER
 41
0.7956349206
 72
0
100
AcDbText
  0
TEXT
  5
373
100
AcDbEntity
  8
606302783-000-00-ED1_FORMAT
100
AcDbText
 62
2
  6
CONTINUOUS
 10
334.8050437149
 20
48.3350050929
  7
TEXTSTYLE_2
 40
1.8000001121
  1
Dr. Kress KG
 41
0.7361111111
 72
0
100
AcDbText
  0
TEXT
  5
374
100
AcDbEntity
  8
606302783-000-00-ED1_FORMAT
100
AcDbText
 62
7
  6
CONTINUOUS
 10
334.8050437149
 20
57.9850056872
  7
TEXTSTYLE_2
 40
2.5000001557
  1
MAPAL
 41
0.8
 72
0
100
AcDbText
  0
TEXT
  5
375
100
AcDbEntity
  8
606302783-000-00-ED1_FORMAT
100
AcDbText
 62
2
  6
CONTINUOUS
 10
334.8050437149
 20
53.3350053976
  7
TEXTSTYLE_2
 40
1.8000001121
  1
Präzisionswerkzeuge
 41
0.7034461153
 72
0
100
AcDbText
  0
TEXT
  5
376
100
AcDbEntity
  8
606302783-000-00-ED1_FORMAT
100
AcDbText
 62
2
  6
CONTINUOUS
 10
378.2047936993
 20
10.9096736719
  7
STANDARD
 40
1.6
  1
BLATT   V.   BLAETTERN
 41
0.7781385281
 72
0
100
AcDbText
  0
TEXT
  5
377
100
AcDbEntity
  8
606302783-000-00-ED1_FORMAT
100
AcDbText
 62
2
  6
CONTINUOUS
 10
385.137224502
 20
10.8641703019
  7
STANDARD
 40
1.6
  1
1
 41
0.5714285714
 72
0
100
AcDbText
  0
TEXT
  5
378
100
AcDbEntity
  8
606302783-000-00-ED1_FORMAT
100
AcDbText
 62
2
  6
CONTINUOUS
 10
391.2747609807
 20
10.9140689725
  7
STANDARD
 40
1.6
  1
1
 41
0.5714285714
 72
0
100
AcDbText
  0
TEXT
  5
379
100
AcDbEntity
  8
606302783-000-00-ED1_FORMAT
100
AcDbText
 62
2
  6
CONTINUOUS
 10
398.7751202552
 20
36.7556960436
  7
STANDARD
 40
2.0
  1
A3
 41
0.7857142857
 72
0
100
AcDbText
  0
TEXT
  5
37A
100
AcDbEntity
  8
606302783-000-00-ED1_FORMAT
100
AcDbText
 62
2
  6
CONTINUOUS
 10
23.9272382303
 20
282.7195210512
  7
STANDARD
 40
1.9999995576
  1
MASCH.-NR.:
 41
0.7186147186
 72
0
100
AcDbText
  0
TEXT
  5
37B
100
AcDbEntity
  8
606302783-000-00-ED1_FORMAT
100
AcDbText
 62
2
  6
CONTINUOUS
 10
61.221262923
 20
282.7441697896
  7
STANDARD
 40
1.9999995184
  1
STATION:
 41
0.7410714286
 72
0
100
AcDbText
  0
TEXT
  5
37C
100
AcDbEntity
  8
606302783-000-00-ED1_FORMAT
100
AcDbText
 62
2
  6
CONTINUOUS
 10
99.2119750426
 20
282.7441697896
  7
STANDARD
 40
1.9999995184
  1
SPINDEL:
 41
0.7023809524
 72
0
100
AcDbText
  0
TEXT
  5
37D
100
AcDbEntity
  8
606302783-000-00-ED1_FORMAT
100
AcDbText
 62
2
  6
CONTINUOUS
 10
23.5637846434
 20
277.4328879656
  7
STANDARD
 40
1.9999995576
  1
WERKST.-BEN.:
 41
0.7527472527
 72
0
100
AcDbText
  0
TEXT
  5
37E
100
AcDbEntity
  8
606302783-000-00-ED1_FORMAT
100
AcDbText
 62
2
  6
CONTINUOUS
 10
23.7506774
 20
266.657832536
  7
STANDARD
 40
1.9999995184
  1
WERKSTOFF:
 41
0.7857142857
 72
0
100
AcDbText
  0
TEXT
  5
37F
100
AcDbEntity
  8
606302783-000-00-ED1_FORMAT
100
AcDbText
 62
2
  6
CONTINUOUS
 10
99.2058269153
 20
260.6643446337
  7
STANDARD
 40
1.9999995184
  1
BOHRUNGS-NR.:
 41
0.7307692308
 72
0
100
AcDbText
  0
TEXT
  5
380
100
AcDbEntity
  8
606302783-000-00-ED1_FORMAT
100
AcDbText
 62
2
  6
CONTINUOUS
 10
23.8681648642
 20
272.062255871
  7
STANDARD
 40
1.9999995576
  1
WERKST.-NR.:
 41
0.755952381
 72
0
100
AcDbText
  0
TEXT
  5
381
100
AcDbEntity
  8
606302783-000-00-ED1_FORMAT
100
AcDbText
 62
2
  6
CONTINUOUS
 10
61.140009526
 20
260.6643443929
  7
STANDARD
 40
2.0
  1
OP-NR.:
 41
0.6836734694
 72
0
100
AcDbText
  0
TEXT
  5
382
100
AcDbEntity
  8
606302783-000-00-ED1_FORMAT
100
AcDbText
 62
2
  6
CONTINUOUS
 10
23.9309790234
 20
260.9091406462
  7
STANDARD
 40
2.0
  1
TOOL-NR.:
 41
0.6984126984
 72
0
100
AcDbText
  0
INSERT
  5
383
100
AcDbEntity
  8
606302783-000-00-ED1_FORMAT
100
AcDbBlockReference
 62
3
  6
CONTINUOUS
  2
BARCODEBOX_BL0
 10
87.5
 20
46.5
  0
DIMENSION
  5
384
100
AcDbEntity
  8
30261705_DIM
100
AcDbDimension
 62
3
  6
CONTINUOUS
  2
*D0
 10
230.1152219211
 20
114.8013250476
 11
186.3591894566
 21
114.3638250476
 70
160
 71
3
 42
10.0
  1
<>\PVERSTELLWEG
  3
DIMSTYLE_1
100
AcDbAlignedDimension
 13
220.1152219211
 23
151.8013250476
 14
230.1152219211
 24
151.8013250476
100
AcDbRotatedDimension
  0
DIMENSION
  5
385
100
AcDbEntity
  8
30338490_DIM
100
AcDbDimension
 62
3
  6
CONTINUOUS
  2
*D1
 10
246.3009874564
 20
166.9394408262
 11
246.9290539024
 21
189.7574608067
 70
162
 71
2
 42
0.0785398163
  3
DIMSTYLE_2
100
AcDb2LineAngularDimension
 13
245.7062092676
 23
151.8013250476
 14
249.0954068979
 24
151.8013250476
 15
250.0775437713
 25
166.6422193983
 16
247.3538047103
 26
159.317333185
  0
DIMENSION
  5
386
100
AcDbEntity
  8
30338490_DIM
100
AcDbDimension
 62
3
  6
CONTINUOUS
  2
*D2
 10
204.0652219211
 20
169.8013250476
 11
216.7533894354
 21
180.3747620858
 70
164
 71
1
 42
1.0
  1
<>
  3
DIMSTYLE_3
100
AcDbRadialDimension
 15
203.2050173227
 25
169.2913759826
  0
DIMENSION
  5
387
100
AcDbEntity
  8
30338490_DIM
100
AcDbDimension
 62
3
  6
CONTINUOUS
  2
*D3
 10
212.0652219211
 20
186.8013250476
 11
190.0482827251
 21
189.4263250476
 70
160
 71
3
 42
6.0
  1
M<>(4x)
  3
DIMSTYLE_4
100
AcDbAlignedDimension
 13
206.0652219211
 23
168.6514285325
 14
212.0652219211
 24
168.6514285325
100
AcDbRotatedDimension
  0
DIMENSION
  5
388
100
AcDbEntity
  8
30338490_DIM
100
AcDbDimension
 62
3
  6
CONTINUOUS
  2
*D4
 10
267.1152219211
 20
94.8013250476
 11
231.8402219211
 21
97.4263250476
 70
160
 71
2
 42
58.05
  3
DIMSTYLE_5
100
AcDbAlignedDimension
 13
209.0652219211
 23
133.8398533252
 14
267.1152219211
 24
139.2257155393
100
AcDbRotatedDimension
  0
DIMENSION
  5
389
100
AcDbEntity
  8
30338490_DIM
100
AcDbDimension
 62
3
  6
CONTINUOUS
  2
*D5
 10
267.1152219211
 20
104.8013250476
 11
240.8652219211
 21
107.4263250476
 70
160
 71
2
 42
47.0
  3
DIMSTYLE_5
100
AcDbAlignedDimension
 13
220.1152219211
 23
139.2257155393
 14
267.1152219211
 24
139.2257155393
100
AcDbRotatedDimension
  0
DIMENSION
  5
38A
100
AcDbEntity
  8
30338490_DIM
100
AcDbDimension
 62
3
  6
CONTINUOUS
  2
*D6
 10
177.1152219211
 20
209.8013250476
 11
219.3652219211
 21
212.4263250476
 70
160
 71
2
 42
90.0
  3
DIMSTYLE_5
100
AcDbAlignedDimension
 13
267.1152219211
 23
154.7405562795
 14
177.1152219211
 24
151.8013250476
 50
180.0
100
AcDbRotatedDimension
  0
INSERT
  5
38B
100
AcDbEntity
  8
606302783-000-00-ED1_CL
100
AcDbBlockReference
 62
3
  6
CONTINUOUS
  2
GEOM_TOLERANCE_SYMBOLS_BL1
 10
170.8652219211
 20
190.0053211601
  0
DIMENSION
  5
38C
100
AcDbEntity
  8
30338490_DIM
100
AcDbDimension
 62
3
  6
CONTINUOUS
  2
*D7
 10
142.2152219211
 20
156.8013250476
 11
141.3265071836
 21
133.0383462415
 70
160
 71
3
 42
10.0
  1
M<>x1
  3
DIMSTYLE_1
100
AcDbAlignedDimension
 13
202.1152219211
 23
146.8013250476
 14
202.1152219211
 24
156.8013250476
 50
90.0
100
AcDbRotatedDimension
  0
DIMENSION
  5
38D
100
AcDbEntity
  8
30338490_DIM
100
AcDbDimension
 62
3
  6
CONTINUOUS
  2
*D8
 10
282.1152219211
 20
158.8013250476
 11
279.4902219211
 21
176.4570750345
 70
160
 71
1
 42
14.0
  1
%%c<>
  3
DIMSTYLE_1
100
AcDbAlignedDimension
 13
265.1152219211
 23
144.8013250476
 14
265.1152219211
 24
158.8013250476
 50
90.0
100
AcDbRotatedDimension
  0
LEADER
  5
38E
100
AcDbEntity
  8
606302783-000-00-ED1_CL
100
AcDbLeader
 62
3
  6
CONTINUOUS
  3
STANDARD
 71
1
 72
0
 73
2
 75
0
 76
3
 10
282.1152219211
 20
144.8013250476
 30
0.0
 10
282.1152219211
 20
124.8013250476
 30
0.0
 10
282.1152639631
 20
124.8013250476
 30
0.0
340
38F
1001
ACAD
1000
DSTYLE
1002
{
1070
77
1070
0
1002
}
  0
INSERT
  5
38F
102
{ACAD_REACTORS
330
38E
102
}
100
AcDbEntity
  8
606302783-000-00-ED1_CL
100
AcDbBlockReference
 62
3
  6
CONTINUOUS
  2
GEOM_TOLERANCE_SYMBOLS_BL2
 10
302.6336813581
 20
124.8015861349
  0
TEXT
  5
390
100
AcDbEntity
  8
0
100
AcDbText
 62
2
  6
CONTINUOUS
 10
287.1152219211
 20
113.0513250476
  7
STANDARD
 40
3.5
  1
FUER SCHAEFTE MIT
 41
0.7759103641
 72
0
100
AcDbText
  0
TEXT
  5
391
100
AcDbEntity
  8
0
100
AcDbText
 62
2
  6
CONTINUOUS
 10
287.1152219211
 20
107.8013250476
  7
STANDARD
 40
3.5
  1
TOLERANZFELD h6
 41
0.7650793651
 72
0
100
AcDbText
  0
LEADER
  5
392
100
AcDbEntity
  8
0
100
AcDbLeader
 62
3
  6
CONTINUOUS
  3
STANDARD
 71
1
 72
0
 73
3
 75
0
 76
3
 10
282.1152219211
 20
144.8013250476
 30
0.0
 10
282.1152219211
 20
114.8013250476
 30
0.0
 10
287.1152219211
 20
114.8013250476
 30
0.0
1001
ACAD
1000
DSTYLE
1002
{
1070
77
1070
0
1002
}
  0
DIMENSION
  5
393
100
AcDbEntity
  8
30338490_DIM
100
AcDbDimension
 62
3
  6
CONTINUOUS
  2
*D9
 10
222.6435053445
 20
199.8013250476
 11
242.0043636328
 21
202.4263250476
 70
160
 71
2
 42
44.4717165766
  1
(<>)
  3
DIMSTYLE_6
100
AcDbAlignedDimension
 13
267.1152219211
 23
164.376934556
 14
222.6435053445
 24
168.8013250476
 50
180.0
100
AcDbRotatedDimension
  0
DIMENSION
  5
394
100
AcDbEntity
  8
30338490_DIM
100
AcDbDimension
 62
3
  6
CONTINUOUS
  2
*D10
 10
302.1152219211
 20
168.8013250476
 11
300.6010710944
 21
149.5849583191
 70
160
 71
2
 42
34.0
  1
%%c<>
  3
DIMSTYLE_5
100
AcDbAlignedDimension
 13
222.6435053445
 23
134.8013250476
 14
222.6435053445
 24
168.8013250476
 50
90.0
100
AcDbRotatedDimension
  0
DIMENSION
  5
395
100
AcDbEntity
  8
30338490_DIM
100
AcDbDimension
 62
3
  6
CONTINUOUS
  2
*D11
 10
292.1152219211
 20
165.3013250476
 11
290.6290756954
 21
149.5290835276
 70
160
 71
2
 42
27.0
  1
%%c<>
  3
DIMSTYLE_1
100
AcDbAlignedDimension
 13
267.1152219211
 23
138.3013250476
 14
267.1152219211
 24
165.3013250476
 50
90.0
100
AcDbRotatedDimension
  0
LINE
  5
396
100
AcDbEntity
  8
606302783-000-00-ED1_FORMAT
100
AcDbLine
 62
3
  6
CONTINUOUS
 10
264.9
 20
287.0000007463
 11
410.0
 21
287.0000007463
  0
LINE
  5
397
100
AcDbEntity
  8
606302783-000-00-ED1_FORMAT
100
AcDbLine
 62
3
  6
CONTINUOUS
 10
264.9
 20
287.0000007463
 11
264.9
 21
225.0000007463
  0
LINE
  5
398
100
AcDbEntity
  8
606302783-000-00-ED1_FORMAT
100
AcDbLine
 62
3
  6
CONTINUOUS
 10
264.9
 20
225.0000007463
 11
410.0
 21
225.0000007463
  0
LINE
  5
399
100
AcDbEntity
  8
606302783-000-00-ED1_FORMAT
100
AcDbLine
 62
3
  6
CONTINUOUS
 10
410.0
 20
287.0000007463
 11
410.0
 21
225.0000007463
  0
LINE
  5
39A
100
AcDbEntity
  8
606302783-000-00-ED1_FORMAT
100
AcDbLine
 62
3
  6
CONTINUOUS
 10
23.0
 20
10.0
 11
23.0
 21
210.0
  0
LINE
  5
39B
100
AcDbEntity
  8
606302783-000-00-ED1_FORMAT
100
AcDbLine
 62
3
  6
CONTINUOUS
 10
23.0
 20
10.0
 11
29.0
 21
10.0
  0
LINE
  5
39C
100
AcDbEntity
  8
606302783-000-00-ED1_FORMAT
100
AcDbLine
 62
3
  6
CONTINUOUS
 10
29.0
 20
10.0
 11
29.0
 21
210.0
  0
LINE
  5
39D
100
AcDbEntity
  8
606302783-000-00-ED1_FORMAT
100
AcDbLine
 62
3
  6
CONTINUOUS
 10
23.0
 20
210.0
 11
29.0
 21
210.0
  0
LINE
  5
39E
100
AcDbEntity
  8
606302783-000-00-ED1_FORMAT
100
AcDbLine
 62
3
  6
CONTINUOUS
 10
146.999991584
 20
65.00000176
 11
410.000001584
 21
65.00000176
  0
LINE
  5
39F
100
AcDbEntity
  8
606302783-000-00-ED1_FORMAT
100
AcDbLine
 62
3
  6
CONTINUOUS
 10
146.999991584
 20
65.00000176
 11
146.999991584
 21
78.50000176
  0
LINE
  5
3A0
100
AcDbEntity
  8
606302783-000-00-ED1_FORMAT
100
AcDbLine
 62
3
  6
CONTINUOUS
 10
146.999991584
 20
72.50000176
 11
410.000001584
 21
72.50000176
  0
LINE
  5
3A1
100
AcDbEntity
  8
606302783-000-00-ED1_FORMAT
100
AcDbLine
 62
3
  6
CONTINUOUS
 10
146.999991584
 20
78.50000176
 11
410.000001584
 21
78.50000176
  0
LINE
  5
3A2
100
AcDbEntity
  8
606302783-000-00-ED1_FORMAT
100
AcDbLine
 62
3
  6
CONTINUOUS
 10
154.499991584
 20
65.00000176
 11
154.499991584
 21
78.50000176
  0
LINE
  5
3A3
100
AcDbEntity
  8
606302783-000-00-ED1_FORMAT
100
AcDbLine
 62
3
  6
CONTINUOUS
 10
161.999991584
 20
65.00000176
 11
161.999991584
 21
78.50000176
  0
LINE
  5
3A4
100
AcDbEntity
  8
606302783-000-00-ED1_FORMAT
100
AcDbLine
 62
3
  6
CONTINUOUS
 10
171.398801584
 20
65.00000176
 11
171.398801584
 21
78.50000176
  0
LINE
  5
3A5
100
AcDbEntity
  8
606302783-000-00-ED1_FORMAT
100
AcDbLine
 62
3
  6
CONTINUOUS
 10
176.398801584
 20
65.00000176
 11
176.398801584
 21
78.50000176
  0
LINE
  5
3A6
100
AcDbEntity
  8
606302783-000-00-ED1_FORMAT
100
AcDbLine
 62
3
  6
CONTINUOUS
 10
208.000001584
 20
65.00000176
 11
208.000001584
 21
78.50000176
  0
LINE
  5
3A7
100
AcDbEntity
  8
606302783-000-00-ED1_FORMAT
100
AcDbLine
 62
3
  6
CONTINUOUS
 10
314.000001584
 20
65.00000176
 11
314.000001584
 21
78.50000176
  0
LINE
  5
3A8
100
AcDbEntity
  8
606302783-000-00-ED1_FORMAT
100
AcDbLine
 62
3
  6
CONTINUOUS
 10
366.000001584
 20
65.00000176
 11
366.000001584
 21
78.50000176
  0
LINE
  5
3A9
100
AcDbEntity
  8
606302783-000-00-ED1_FORMAT
100
AcDbLine
 62
3
  6
CONTINUOUS
 10
410.000001584
 20
65.00000176
 11
410.000001584
 21
78.50000176
  0
TEXT
  5
3AA
100
AcDbEntity
  8
606302783-000-00-ED1_FORMAT
100
AcDbText
 62
2
  6
CONTINUOUS
 10
148.224991584
 20
74.25000176
  7
STANDARD
 40
2.0
  1
1
 41
0.5714285714
 72
0
100
AcDbText
  0
TEXT
  5
3AB
100
AcDbEntity
  8
606302783-000-00-ED1_FORMAT
100
AcDbText
 62
2
  6
CONTINUOUS
 10
163.224991584
 20
74.25000176
  7
STANDARD
 40
2.0
  1
1
 41
0.5714285714
 72
0
100
AcDbText
  0
TEXT
  5
3AC
100
AcDbEntity
  8
606302783-000-00-ED1_FORMAT
100
AcDbText
 62
2
  6
CONTINUOUS
 10
177.623801584
 20
74.25000176
  7
STANDARD
 40
2.0
  1
30252542
 41
0.7589285714
 72
0
100
AcDbText
  0
TEXT
  5
3AD
100
AcDbEntity
  8
606302783-000-00-ED1_FORMAT
100
AcDbText
 62
2
  6
CONTINUOUS
 10
209.225001584
 20
74.25000176
  7
STANDARD
 40
2.0
  1
ANSCHLAGSCHRAUBE
 41
0.7916666667
 72
0
100
AcDbText
  0
TEXT
  5
3AE
100
AcDbEntity
  8
606302783-000-00-ED1_FORMAT
100
AcDbText
 62
2
  6
CONTINUOUS
 10
315.225001584
 20
74.25000176
  7
STANDARD
 40
2.0
  1
M10X1 SW5
 41
0.8095238095
 72
0
100
AcDbText
  0
TEXT
  5
3AF
100
AcDbEntity
  8
606302783-000-00-ED1_FORMAT
100
AcDbText
 62
2
  6
CONTINUOUS
 10
406.5221444411
 20
76.72000176
  7
STANDARD
 40
0.03
  1
30252542_HP
 41
0.7662337662
 72
2
 11
406.775001584
 21
76.72000176
100
AcDbText
  0
TEXT
  5
3B0
100
AcDbEntity
  8
606302783-000-00-ED1_FORMAT
100
AcDbText
 62
2
  6
CONTINUOUS
 10
407.7257158697
 20
76.72000176
  7
STANDARD
 40
0.03
  1
KA
 41
0.8214285714
 72
2
 11
407.775001584
 21
76.72000176
100
AcDbText
  0
TEXT
  5
3B1
100
AcDbEntity
  8
606302783-000-00-ED1_FORMAT
100
AcDbText
 62
2
  6
CONTINUOUS
 10
408.7278587269
 20
76.72000176
  7
STANDARD
 40
0.03
  1
HP
 41
0.7857142857
 72
2
 11
408.775001584
 21
76.72000176
100
AcDbText
  0
LINE
  5
3B2
100
AcDbEntity
  8
606302783-000-00-ED1_FORMAT
100
AcDbLine
 62
3
  6
CONTINUOUS
 10
23.0
 20
287.0
 11
135.0
 21
287.0
  0
LINE
  5
3B3
100
AcDbEntity
  8
606302783-000-00-ED1_FORMAT
100
AcDbLine
 62
3
  6
CONTINUOUS
 10
23.0
 20
287.0
 11
23.0
 21
259.00001
  0
LINE
  5
3B4
100
AcDbEntity
  8
606302783-000-00-ED1_FORMAT
100
AcDbLine
 62
3
  6
CONTINUOUS
 10
23.0
 20
259.00001
 11
135.0
 21
259.00001
  0
LINE
  5
3B5
100
AcDbEntity
  8
606302783-000-00-ED1_FORMAT
100
AcDbLine
 62
3
  6
CONTINUOUS
 10
135.0
 20
287.0
 11
135.0
 21
259.00001
  0
LINE
  5
3B6
100
AcDbEntity
  8
606302783-000-00-ED1_FORMAT
100
AcDbLine
 62
3
  6
CONTINUOUS
 10
146.999991584
 20
65.00000176
 11
409.999961584
 21
65.00000176
  0
LINE
  5
3B7
100
AcDbEntity
  8
606302783-000-00-ED1_FORMAT
100
AcDbLine
 62
3
  6
CONTINUOUS
 10
146.999991584
 20
65.00000176
 11
146.999991584
 21
10.00000176
  0
LINE
  5
3B8
100
AcDbEntity
  8
606302783-000-00-ED1_FORMAT
100
AcDbLine
 62
3
  6
CONTINUOUS
 10
146.999991584
 20
10.00000176
 11
409.999961584
 21
10.00000176
  0
LINE
  5
3B9
100
AcDbEntity
  8
606302783-000-00-ED1_FORMAT
100
AcDbLine
 62
3
  6
CONTINUOUS
 10
409.999961584
 20
65.00000176
 11
409.999961584
 21
10.00000176
  0
TEXT
  5
3BA
100
AcDbEntity
  8
606302783-000-00-ED1_FORMAT
100
AcDbText
 62
2
  6
CONTINUOUS
 10
184.5178487269
 20
60.75000176
  7
STANDARD
 40
2.5
  1
 
 41
0.7857142857
 72
1
 11
185.499991584
 21
60.75000176
100
AcDbText
  0
TEXT
  5
3BB
100
AcDbEntity
  8
606302783-000-00-ED1_FORMAT
100
AcDbText
 62
2
  6
CONTINUOUS
 10
154.130943965
 20
58.24975176
  7
STANDARD
 40
2.5
  1
AUSWUCHTGUETE DIN ISO 1940-G 
 41
0.7939244663
 72
1
 11
182.9107058697
 21
58.24975176
100
AcDbText
  0
TEXT
  5
3BC
100
AcDbEntity
  8
606302783-000-00-ED1_FORMAT
100
AcDbText
 62
2
  6
CONTINUOUS
 10
211.6904677745
 20
58.24975176
  7
STANDARD
 40
2.5
  1
2.5
 41
0.6904761905
 72
1
 11
214.2797534888
 21
58.24975176
100
AcDbText
  0
TEXT
  5
3BD
100
AcDbEntity
  8
606302783-000-00-ED1_FORMAT
100
AcDbText
 62
2
  6
CONTINUOUS
 10
184.5178487269
 20
56.57968176
  7
STANDARD
 40
2.5
  1
 
 41
0.7857142857
 72
1
 11
185.499991584
 21
56.57968176
100
AcDbText
  0
TEXT
  5
3BE
100
AcDbEntity
  8
606302783-000-00-ED1_FORMAT
100
AcDbText
 62
2
  6
CONTINUOUS
 10
167.7321344411
 20
52.82968176
  7
STANDARD
 40
2.5
  1
(KOMPLETT MONTIERT)
 41
0.7481203008
 72
1
 11
185.499991584
 21
52.82968176
100
AcDbText
  0
TEXT
  5
3BF
100
AcDbEntity
  8
606302783-000-00-ED1_FORMAT
100
AcDbText
 62
2
  6
CONTINUOUS
 10
378.122491584
 20
54.95468176
  7
STANDARD
 40
2.0
  1
02.06.14
 41
0.7053571429
 72
0
100
AcDbText
  0
TEXT
  5
3C0
100
AcDbEntity
  8
606302783-000-00-ED1_FORMAT
100
AcDbText
 62
2
  6
CONTINUOUS
 10
398.3772980126
 20
54.95468176
  7
STANDARD
 40
2.0
  1
MAM
 41
0.8571428571
 72
1
 11
400.948726584
 21
54.95468176
100
AcDbText
  0
TEXT
  5
3C1
100
AcDbEntity
  8
606302783-000-00-ED1_FORMAT
100
AcDbText
 62
2
  6
CONTINUOUS
 10
157.8511820602
 20
46.82968176
  7
STANDARD
 40
2.5
  1
FUER NENNDREHZAHL 
 41
0.7724867725
 72
1
 11
175.2321344411
 21
46.82968176
100
AcDbText
  0
TEXT
  5
3C2
100
AcDbEntity
  8
606302783-000-00-ED1_FORMAT
100
AcDbText
 62
2
  6
CONTINUOUS
 10
192.6130868221
 20
46.82968176
  7
STANDARD
 40
2.5
  1
25000
 41
0.7714285714
 72
1
 11
197.4345153935
 21
46.82968176
100
AcDbText
  0
TEXT
  5
3C3
100
AcDbEntity
  8
606302783-000-00-ED1_FORMAT
100
AcDbText
 62
2
  6
CONTINUOUS
 10
202.255943965
 20
46.82968176
  7
STANDARD
 40
2.5
  1
 MIN
 41
0.7678571429
 72
1
 11
206.0952296792
 21
46.82968176
100
AcDbText
  0
TEXT
  5
3C4
100
AcDbEntity
  8
606302783-000-00-ED1_FORMAT
100
AcDbText
 62
2
  6
CONTINUOUS
 10
209.9345153935
 20
48.70468176
  7
STANDARD
 40
2.5
  1
-1
 41
0.6428571429
 72
1
 11
211.5416582507
 21
48.70468176
100
AcDbText
  0
TEXT
  5
3C5
100
AcDbEntity
  8
606302783-000-00-ED1_FORMAT
100
AcDbText
 62
7
  6
CONTINUOUS
 10
225.224991584
 20
26.00000176
  7
STANDARD
 40
2.5
  1
THERMOCHUCK, HSK, STANDARDAUSFUEHRUNG
 41
0.7889317889
 72
0
100
AcDbText
  0
TEXT
  5
3C6
100
AcDbEntity
  8
606302783-000-00-ED1_FORMAT
100
AcDbText
 62
2
  6
CONTINUOUS
 10
402.5951996792
 20
26.00000176
  7
STANDARD
 40
2.0
  1
EHD
 41
0.8015873016
 72
1
 11
404.999961584
 21
26.00000176
100
AcDbText
  0
TEXT
  5
3C7
100
AcDbEntity
  8
606302783-000-00-ED1_FORMAT
100
AcDbText
 62
7
  6
CONTINUOUS
 10
225.224991584
 20
15.25000176
  7
STANDARD
 40
2.5
  1
MTC-HSK-A050-14-090-1-0-A
 41
0.759047619
 72
0
100
AcDbText
  0
TEXT
  5
3C8
100
AcDbEntity
  8
606302783-000-00-ED1_FORMAT
100
AcDbText
 62
7
  6
CONTINUOUS
 10
301.224991584
 20
15.25000176
  7
STANDARD
 40
2.5
  1
30261705
 41
0.7410714286
 72
0
100
AcDbText
  0
TEXT
  5
3C9
100
AcDbEntity
  8
606302783-000-00-ED1_FORMAT
100
AcDbText
 62
7
  6
CONTINUOUS
 10
346.224991584
 20
15.25000176
  7
STANDARD
 40
2.5
  1
606302783-000-00-ED1
 41
0.7595238095
 72
0
100
AcDbText
  0
TEXT
  5
3CA
100
AcDbEntity
  8
606302783-000-00-ED1_FORMAT
100
AcDbText
 62
2
  6
CONTINUOUS
 10
403.0356758697
 20
15.25000176
  7
STANDARD
 40
2.5
  1
00
 41
0.7857142857
 72
1
 11
404.999961584
 21
15.25000176
100
AcDbText
  0
LINE
  5
3CB
100
AcDbEntity
  8
606302783-000-00-ED1_FORMAT
100
AcDbLine
 62
3
  6
CONTINUOUS
 10
29.0
 20
10.0
 11
29.0
 21
145.0
  0
LINE
  5
3CC
100
AcDbEntity
  8
606302783-000-00-ED1_FORMAT
100
AcDbLine
 62
3
  6
CONTINUOUS
 10
29.0
 20
10.0
 11
35.0
 21
10.0
  0
LINE
  5
3CD
100
AcDbEntity
  8
606302783-000-00-ED1_FORMAT
100
AcDbLine
 62
3
  6
CONTINUOUS
 10
35.0
 20
10.0
 11
35.0
 21
145.0
  0
LINE
  5
3CE
100
AcDbEntity
  8
606302783-000-00-ED1_FORMAT
100
AcDbLine
 62
3
  6
CONTINUOUS
 10
29.0
 20
80.0
 11
35.0
 21
80.0
  0
LINE
  5
3CF
100
AcDbEntity
  8
606302783-000-00-ED1_FORMAT
100
AcDbLine
 62
3
  6
CONTINUOUS
 10
29.0
 20
145.0
 11
35.0
 21
145.0
  0
TEXT
  5
3D0
100
AcDbEntity
  8
606302783-000-00-ED1_FORMAT
100
AcDbText
 62
2
  6
CONTINUOUS
 10
34.0
 20
11.225
  7
STANDARD
 40
3.0
  1
AEHNLICH:
 50
90.0
 41
0.7116402116
 72
0
100
AcDbText
  0
TEXT
  5
3D1
100
AcDbEntity
  8
606302783-000-00-ED1_FORMAT
100
AcDbText
 62
2
  6
CONTINUOUS
 10
34.0
 20
81.225
  7
STANDARD
 40
3.0
  1
SKIZZE:
 50
90.0
 41
0.693877551
 72
0
100
AcDbText
  0
LINE
  5
3D2
100
AcDbEntity
  8
606302783-000-00-ED1_FORMAT
100
AcDbLine
 62
3
  6
CONTINUOUS
 10
365.999998592
 20
35.0000008
 11
294.999998592
 21
35.0000008
  0
LINE
  5
3D3
100
AcDbEntity
  8
606302783-000-00-ED1_FORMAT
100
AcDbLine
 62
3
  6
CONTINUOUS
 10
365.999998592
 20
35.0000008
 11
365.999998592
 21
43.5000008
  0
LINE
  5
3D4
100
AcDbEntity
  8
606302783-000-00-ED1_FORMAT
100
AcDbLine
 62
3
  6
CONTINUOUS
 10
365.999998592
 20
43.5000008
 11
294.999998592
 21
43.5000008
  0
LINE
  5
3D5
100
AcDbEntity
  8
606302783-000-00-ED1_FORMAT
100
AcDbLine
 62
3
  6
CONTINUOUS
 10
294.999998592
 20
35.0000008
 11
294.999998592
 21
43.5000008
  0
TEXT
  5
3D6
100
AcDbEntity
  8
606302783-000-00-ED1_FORMAT
100
AcDbText
 62
2
  6
CONTINUOUS
 10
304.9642843063
 20
38.0000008
  7
STANDARD
 40
2.5
  1
PATENTRECHTLICH GESCHUETZT
 41
0.7857142857
 72
1
 11
330.499998592
 21
38.0000008
100
AcDbText
  0
TEXT
  5
3D7
100
AcDbEntity
  8
606302783-000-00-ED1_TEXT
100
AcDbText
 62
2
  6
CONTINUOUS
 10
93.2739392608
 20
237.3013250476
  7
STANDARD
 40
5.0
  1
TRENNSTELLE HSK-A50
 41
0.7731829574
 72
0
100
AcDbText
  0
TEXT
  5
3D8
100
AcDbEntity
  8
606302783-000-00-ED1_TEXT
100
AcDbText
 62
2
  6
CONTINUOUS
 10
93.2739392608
 20
229.8013250476
  7
STANDARD
 40
5.0
  1
(AEHNLICH DIN 69893-1)
 41
0.7251082251
 72
0
100
AcDbText
  0
TEXT
  5
3D9
100
AcDbEntity
  8
606302783-000-00-ED1_TEXT
100
AcDbText
 62
2
  6
CONTINUOUS
 10
93.2739392608
 20
222.3013250476
  7
STANDARD
 40
5.0
  1
NACH MN609 BLATT 2-3
 41
0.7916666667
 72
0
100
AcDbText
  0
INSERT
  5
3DA
100
AcDbEntity
  8
606302783-000-00-ED1_CL
100
AcDbBlockReference
 62
3
  6
CONTINUOUS
  2
GEOM_TOLERANCE_SYMBOLS_BL3
 10
156.8233515599
 20
176.3543998109
  0
LEADER
  5
3DB
100
AcDbEntity
  8
606302783-000-00-ED1_CL
100
AcDbLeader
 62
3
  6
CONTINUOUS
  3
STANDARD
 71
1
 72
0
 73
2
 75
0
 76
2
 10
211.4343404593
 20
146.8013250476
 30
0.0
 10
181.726725338
 20
120.8327924467
 30
0.0
340
3DC
1001
ACAD
1000
DSTYLE
1002
{
1070
77
1070
0
1070
341
1005
21A
1002
}
  0
INSERT
  5
3DC
102
{ACAD_REACTORS
330
3DB
102
}
100
AcDbEntity
  8
606302783-000-00-ED1_CL
100
AcDbBlockReference
 62
3
  6
CONTINUOUS
  2
BOMBALLOON_BL4
 10
177.1152219211
 20
116.8017055912
  0
LINE
  5
3DD
100
AcDbEntity
  8
606302783-000-00-ED1_FORMAT
100
AcDbLine
 62
6
  6
HIDDEN
 10
0.0
 20
297.0
 11
0.0
 21
0.0
  0
LINE
  5
3DE
100
AcDbEntity
  8
606302783-000-00-ED1_FORMAT
100
AcDbLine
 62
7
  6
CONTINUOUS
 10
18.0
 20
292.0
 11
18.0
 21
5.0
  0
LINE
  5
3DF
100
AcDbEntity
  8
606302783-000-00-ED1_FORMAT
100
AcDbLine
 62
3
  6
CONTINUOUS
 10
23.0
 20
259.0000097341
 11
23.0
 21
10.0
  0
LINE
  5
3E0
100
AcDbEntity
  8
606302783-000-00-ED1_FORMAT
100
AcDbLine
 62
7
  6
CONTINUOUS
 10
23.0
 20
259.0000097341
 11
23.0
 21
287.0
  0
LINE
  5
3E1
100
AcDbEntity
  8
606302783-000-00-ED1_FORMAT
100
AcDbLine
 62
3
  6
CONTINUOUS
 10
28.9999998068
 20
9.9999999122
 11
28.9999998068
 21
209.9999964
  0
LINE
  5
3E2
100
AcDbEntity
  8
606302783-000-00-ED1_FORMAT
100
AcDbLine
 62
3
  6
CONTINUOUS
 10
60.0
 20
10.0
 11
60.0
 21
5.0
  0
LINE
  5
3E3
100
AcDbEntity
  8
606302783-000-00-ED1_FORMAT
100
AcDbLine
 62
3
  6
CONTINUOUS
 10
60.0
 20
287.0
 11
60.0
 21
292.0
  0
LINE
  5
3E4
100
AcDbEntity
  8
606302783-000-00-ED1_FORMAT
100
AcDbLine
 62
7
  6
CONTINUOUS
 10
60.4999978194
 20
259.0000097341
 11
60.4999978194
 21
265.0000076482
  0
LINE
  5
3E5
100
AcDbEntity
  8
606302783-000-00-ED1_FORMAT
100
AcDbLine
 62
7
  6
CONTINUOUS
 10
60.500027184
 20
281.0047710842
 11
60.500027184
 21
287.0
  0
LINE
  5
3E6
100
AcDbEntity
  8
606302783-000-00-ED1_FORMAT
100
AcDbLine
 62
6
  6
HIDDEN
 10
0.0
 20
0.0
 11
420.0
 21
0.0
  0
LINE
  5
3E7
100
AcDbEntity
  8
606302783-000-00-ED1_FORMAT
100
AcDbLine
 62
7
  6
CONTINUOUS
 10
18.0
 20
5.0
 11
415.0
 21
5.0
  0
LINE
  5
3E8
100
AcDbEntity
  8
606302783-000-00-ED1_FORMAT
100
AcDbLine
 62
3
  6
CONTINUOUS
 10
23.0
 20
10.0
 11
146.999991584
 21
10.0
  0
LINE
  5
3E9
100
AcDbEntity
  8
606302783-000-00-ED1_FORMAT
100
AcDbLine
 62
7
  6
CONTINUOUS
 10
146.999991584
 20
10.0
 11
410.0
 21
10.0
  0
LINE
  5
3EA
100
AcDbEntity
  8
606302783-000-00-ED1_FORMAT
100
AcDbLine
 62
7
  6
CONTINUOUS
 10
410.0
 20
13.500000112
 11
223.999992048
 21
13.500000112
  0
LINE
  5
3EB
100
AcDbEntity
  8
606302783-000-00-ED1_FORMAT
100
AcDbLine
 62
90
  6
CONTINUOUS
 10
312.2078938594
 20
51.4102448407
 11
310.7759784871
 21
51.0971573578
  0
LINE
  5
3EC
100
AcDbEntity
  8
606302783-000-00-ED1_FORMAT
100
AcDbLine
 62
90
  6
CONTINUOUS
 10
319.4917077896
 20
52.901936523
 11
319.3296594397
 21
52.8683099645
  0
LINE
  5
3ED
100
AcDbEntity
  8
606302783-000-00-ED1_FORMAT
100
AcDbLine
 62
7
  6
CONTINUOUS
 10
410.0
 20
24.250000456
 11
223.999992048
 21
24.250000456
  0
LINE
  5
3EE
100
AcDbEntity
  8
606302783-000-00-ED1_FORMAT
100
AcDbLine
 62
7
  6
CONTINUOUS
 10
98.4999894133
 20
259.0000097341
 11
98.4999894133
 21
265.0000076482
  0
LINE
  5
3EF
100
AcDbEntity
  8
606302783-000-00-ED1_FORMAT
100
AcDbLine
 62
7
  6
CONTINUOUS
 10
98.5000134045
 20
281.0047710842
 11
98.5000134045
 21
287.0
  0
LINE
  5
3F0
100
AcDbEntity
  8
606302783-000-00-ED1_FORMAT
100
AcDbLine
 62
90
  6
CONTINUOUS
 10
321.735726484
 20
56.8852055088
 11
323.4244472923
 21
57.2541096455
  0
LINE
  5
3F1
100
AcDbEntity
  8
606302783-000-00-ED1_FORMAT
100
AcDbLine
 62
90
  6
CONTINUOUS
 10
318.9722070248
 20
53.9466639135
 11
319.1567773488
 21
53.9852228758
  0
LINE
  5
3F2
100
AcDbEntity
  8
606302783-000-00-ED1_FORMAT
100
AcDbLine
 62
90
  6
CONTINUOUS
 10
312.8827596241
 20
51.5341805479
 11
312.6779866622
 21
51.4975518225
  0
LINE
  5
3F3
100
AcDbEntity
  8
606302783-000-00-ED1_FORMAT
100
AcDbLine
 62
90
  6
CONTINUOUS
 10
313.0814290701
 20
51.5666398089
 11
312.8827596241
 21
51.5341805479
  0
LINE
  5
3F4
100
AcDbEntity
  8
606302783-000-00-ED1_FORMAT
100
AcDbLine
 62
90
  6
CONTINUOUS
 10
313.2753377736
 20
51.5952614843
 11
313.0814290701
 21
51.5666398089
  0
LINE
  5
3F5
100
AcDbEntity
  8
606302783-000-00-ED1_FORMAT
100
AcDbLine
 62
90
  6
CONTINUOUS
 10
319.3296594397
 20
52.8683099645
 11
319.1589746146
 21
52.8447618368
  0
LINE
  5
3F6
100
AcDbEntity
  8
606302783-000-00-ED1_FORMAT
100
AcDbLine
 62
90
  6
CONTINUOUS
 10
313.4658590257
 20
51.6203545645
 11
313.2753377736
 21
51.5952614843
  0
LINE
  5
3F7
100
AcDbEntity
  8
606302783-000-00-ED1_FORMAT
100
AcDbLine
 62
90
  6
CONTINUOUS
 10
313.6543355999
 20
51.6422471134
 11
313.4658590257
 21
51.6203545645
  0
LINE
  5
3F8
100
AcDbEntity
  8
606302783-000-00-ED1_FORMAT
100
AcDbLine
 62
90
  6
CONTINUOUS
 10
313.842171305
 20
51.6612557511
 11
313.6543355999
 21
51.6422471134
  0
LINE
  5
3F9
100
AcDbEntity
  8
606302783-000-00-ED1_FORMAT
100
AcDbLine
 62
90
  6
CONTINUOUS
 10
314.0306783968
 20
51.6777047267
 11
313.842171305
 21
51.6612557511
  0
LINE
  5
3FA
100
AcDbEntity
  8
606302783-000-00-ED1_FORMAT
100
AcDbLine
 62
90
  6
CONTINUOUS
 10
315.8962180637
 20
51.8284043516
 11
315.6792380698
 21
51.8104561999
  0
LINE
  5
3FB
100
AcDbEntity
  8
606302783-000-00-ED1_FORMAT
100
AcDbLine
 62
90
  6
CONTINUOUS
 10
318.7601098437
 20
53.9302530848
 11
318.9722070248
 21
53.9466639135
  0
LINE
  5
3FC
100
AcDbEntity
  8
606302783-000-00-ED1_FORMAT
100
AcDbLine
 62
90
  6
CONTINUOUS
 10
319.1589746146
 20
52.8447618368
 11
318.9797143495
 21
52.8313264722
  0
LINE
  5
3FD
100
AcDbEntity
  8
606302783-000-00-ED1_FORMAT
100
AcDbLine
 62
90
  6
CONTINUOUS
 10
314.221260684
 20
51.6919106602
 11
314.0306783968
 21
51.6777047267
  0
LINE
  5
3FE
100
AcDbEntity
  8
606302783-000-00-ED1_FORMAT
100
AcDbLine
 62
90
  6
CONTINUOUS
 10
315.4687888379
 20
52.775513633
 11
314.4483114794
 21
52.701374987
  0
LINE
  5
3FF
100
AcDbEntity
  8
606302783-000-00-ED1_FORMAT
100
AcDbLine
 62
90
  6
CONTINUOUS
 10
316.110634581
 20
51.8401879522
 11
315.8962180637
 21
51.8284043516
  0
LINE
  5
400
100
AcDbEntity
  8
606302783-000-00-ED1_FORMAT
100
AcDbLine
 62
7
  6
CONTINUOUS
 10
223.999992048
 20
35.0000008
 11
410.0
 21
35.0000008
  0
LINE
  5
401
100
AcDbEntity
  8
606302783-000-00-ED1_FORMAT
100
AcDbLine
 62
7
  6
CONTINUOUS
 10
410.0
 20
40.9546819905
 11
365.999998592
 21
40.9546819905
  0
LINE
  5
402
100
AcDbEntity
  8
606302783-000-00-ED1_FORMAT
100
AcDbLine
 62
7
  6
CONTINUOUS
 10
365.999998592
 20
43.500001072
 11
146.999991584
 21
43.500001072
  0
LINE
  5
403
100
AcDbEntity
  8
606302783-000-00-ED1_FORMAT
100
AcDbLine
 62
7
  6
CONTINUOUS
 10
410.0
 20
46.9546821825
 11
365.999998592
 21
46.9546821825
  0
LINE
  5
404
100
AcDbEntity
  8
606302783-000-00-ED1_FORMAT
100
AcDbLine
 62
90
  6
CONTINUOUS
 10
316.8693931732
 20
47.6402784804
 11
317.6933373163
 21
47.6402784804
  0
LINE
  5
405
100
AcDbEntity
  8
606302783-000-00-ED1_FORMAT
100
AcDbLine
 62
3
  6
CONTINUOUS
 10
110.0
 20
10.0
 11
110.0
 21
5.0
  0
LINE
  5
406
100
AcDbEntity
  8
606302783-000-00-ED1_FORMAT
100
AcDbLine
 62
3
  6
CONTINUOUS
 10
110.0
 20
287.0
 11
110.0
 21
292.0
  0
LINE
  5
407
100
AcDbEntity
  8
606302783-000-00-ED1_FORMAT
100
AcDbLine
 62
90
  6
CONTINUOUS
 10
314.5568930292
 20
53.7608995891
 11
315.336312023
 21
53.8016825201
  0
LINE
  5
408
100
AcDbEntity
  8
606302783-000-00-ED1_FORMAT
100
AcDbLine
 62
90
  6
CONTINUOUS
 10
317.504647119
 20
56.61847423
 11
317.7463768704
 21
56.6283962582
  0
LINE
  5
409
100
AcDbEntity
  8
606302783-000-00-ED1_FORMAT
100
AcDbLine
 62
90
  6
CONTINUOUS
 10
317.7463768704
 20
56.6283962582
 11
317.9648522258
 21
56.6358997682
  0
LINE
  5
40A
100
AcDbEntity
  8
606302783-000-00-ED1_FORMAT
100
AcDbLine
 62
90
  6
CONTINUOUS
 10
316.3231284907
 20
51.8472298838
 11
316.110634581
 21
51.8401879522
  0
LINE
  5
40B
100
AcDbEntity
  8
606302783-000-00-ED1_FORMAT
100
AcDbLine
 62
90
  6
CONTINUOUS
 10
317.9648522258
 20
56.6358997682
 11
318.1659935957
 21
56.6412594182
  0
LINE
  5
40C
100
AcDbEntity
  8
606302783-000-00-ED1_FORMAT
100
AcDbLine
 62
90
  6
CONTINUOUS
 10
318.1659935957
 20
56.6412594182
 11
318.3558434611
 21
56.6447384223
  0
LINE
  5
40D
100
AcDbEntity
  8
606302783-000-00-ED1_FORMAT
100
AcDbLine
 62
90
  6
CONTINUOUS
 10
316.5344322148
 20
51.8509568432
 11
316.3231284907
 21
51.8472298838
  0
LINE
  5
40E
100
AcDbEntity
  8
606302783-000-00-ED1_FORMAT
100
AcDbLine
 62
90
  6
CONTINUOUS
 10
318.9797143495
 20
52.8313264722
 11
318.7919396796
 21
52.828049647
  0
LINE
  5
40F
100
AcDbEntity
  8
606302783-000-00-ED1_FORMAT
100
AcDbLine
 62
90
  6
CONTINUOUS
 10
318.310067091
 20
47.930279414
 11
316.2669761435
 21
47.930279414
  0
LINE
  5
410
100
AcDbEntity
  8
606302783-000-00-ED1_FORMAT
100
AcDbLine
 62
90
  6
CONTINUOUS
 10
315.6645591138
 20
48.2202803476
 11
318.9268273833
 21
48.2202803476
  0
LINE
  5
411
100
AcDbEntity
  8
606302783-000-00-ED1_FORMAT
100
AcDbLine
 62
3
  6
CONTINUOUS
 10
23.0
 20
48.5
 11
18.0
 21
48.5
  0
LINE
  5
412
100
AcDbEntity
  8
606302783-000-00-ED1_FORMAT
100
AcDbLine
 62
3
  6
CONTINUOUS
 10
410.0
 20
48.5
 11
415.0
 21
48.5
  0
LINE
  5
413
100
AcDbEntity
  8
606302783-000-00-ED1_FORMAT
100
AcDbLine
 62
90
  6
CONTINUOUS
 10
319.5435571581
 20
48.5102774665
 11
315.0621420841
 21
48.5102774665
  0
LINE
  5
414
100
AcDbEntity
  8
606302783-000-00-ED1_FORMAT
100
AcDbLine
 62
90
  6
CONTINUOUS
 10
314.4597250544
 20
48.8002784001
 11
320.1602869328
 21
48.8002784001
  0
LINE
  5
415
100
AcDbEntity
  8
606302783-000-00-ED1_FORMAT
100
AcDbLine
 62
90
  6
CONTINUOUS
 10
328.4875274416
 20
49.0902793337
 11
328.1043792244
 21
49.0902793337
  0
LINE
  5
416
100
AcDbEntity
  8
606302783-000-00-ED1_FORMAT
100
AcDbLine
 62
90
  6
CONTINUOUS
 10
320.7770472251
 20
49.0902793337
 11
313.8573080247
 21
49.0902793337
  0
LINE
  5
417
100
AcDbEntity
  8
606302783-000-00-ED1_FORMAT
100
AcDbLine
 62
90
  6
CONTINUOUS
 10
306.5293961914
 20
49.3802802673
 11
307.1344987681
 21
49.3802802673
  0
LINE
  5
418
100
AcDbEntity
  8
606302783-000-00-ED1_FORMAT
100
AcDbLine
 62
90
  6
CONTINUOUS
 10
313.254890995
 20
49.3802802673
 11
321.3937769999
 21
49.3802802673
  0
LINE
  5
419
100
AcDbEntity
  8
606302783-000-00-ED1_FORMAT
100
AcDbLine
 62
90
  6
CONTINUOUS
 10
327.5346465229
 20
49.3802802673
 11
328.1114898205
 21
49.3802802673
  0
LINE
  5
41A
100
AcDbEntity
  8
606302783-000-00-ED1_FORMAT
100
AcDbLine
 62
90
  6
CONTINUOUS
 10
328.2963042852
 20
49.3802802673
 11
328.8704925534
 21
49.3802802673
  0
LINE
  5
41B
100
AcDbEntity
  8
606302783-000-00-ED1_FORMAT
100
AcDbLine
 62
90
  6
CONTINUOUS
 10
328.8858123785
 20
49.6702773862
 11
328.2963042852
 21
49.6702773862
  0
LINE
  5
41C
100
AcDbEntity
  8
606302783-000-00-ED1_FORMAT
100
AcDbLine
 62
90
  6
CONTINUOUS
 10
327.5366912008
 20
49.6702773862
 11
326.9648833038
 21
49.6702773862
  0
LINE
  5
41D
100
AcDbEntity
  8
606302783-000-00-ED1_FORMAT
100
AcDbLine
 62
90
  6
CONTINUOUS
 10
322.0105067746
 20
49.6702773862
 11
312.6524739653
 21
49.6702773862
  0
LINE
  5
41E
100
AcDbEntity
  8
606302783-000-00-ED1_FORMAT
100
AcDbLine
 62
90
  6
CONTINUOUS
 10
307.6516801968
 20
49.6702773862
 11
307.1118852413
 21
49.6702773862
  0
LINE
  5
41F
100
AcDbEntity
  8
606302783-000-00-ED1_FORMAT
100
AcDbLine
 62
90
  6
CONTINUOUS
 10
306.8541337604
 20
49.6702773862
 11
306.2529679515
 21
49.6702773862
  0
LINE
  5
420
100
AcDbEntity
  8
606302783-000-00-ED1_FORMAT
100
AcDbLine
 62
90
  6
CONTINUOUS
 10
306.2529679515
 20
49.9602783197
 11
306.8542558307
 21
49.9602783197
  0
LINE
  5
421
100
AcDbEntity
  8
606302783-000-00-ED1_FORMAT
100
AcDbLine
 62
90
  6
CONTINUOUS
 10
307.6427080283
 20
49.9602783197
 11
308.1688921431
 21
49.9602783197
  0
LINE
  5
422
100
AcDbEntity
  8
606302783-000-00-ED1_FORMAT
100
AcDbLine
 62
90
  6
CONTINUOUS
 10
312.0500569355
 20
49.9602783197
 11
322.6272365493
 21
49.9602783197
  0
LINE
  5
423
100
AcDbEntity
  8
606302783-000-00-ED1_FORMAT
100
AcDbLine
 62
90
  6
CONTINUOUS
 10
326.3951200848
 20
49.9602783197
 11
326.961892581
 21
49.9602783197
  0
LINE
  5
424
100
AcDbEntity
  8
606302783-000-00-ED1_FORMAT
100
AcDbLine
 62
90
  6
CONTINUOUS
 10
328.2963042852
 20
49.9602783197
 11
328.8858123785
 21
49.9602783197
  0
LINE
  5
425
100
AcDbEntity
  8
606302783-000-00-ED1_FORMAT
100
AcDbLine
 62
90
  6
CONTINUOUS
 10
328.8858123785
 20
50.2502792533
 11
328.2963042852
 21
50.2502792533
  0
LINE
  5
426
100
AcDbEntity
  8
606302783-000-00-ED1_FORMAT
100
AcDbLine
 62
90
  6
CONTINUOUS
 10
326.3870939612
 20
50.2502792533
 11
325.8253873833
 21
50.2502792533
  0
LINE
  5
427
100
AcDbEntity
  8
606302783-000-00-ED1_FORMAT
100
AcDbLine
 62
90
  6
CONTINUOUS
 10
323.2439968416
 20
50.2502792533
 11
311.4476093883
 21
50.2502792533
  0
LINE
  5
428
100
AcDbEntity
  8
606302783-000-00-ED1_FORMAT
100
AcDbLine
 62
90
  6
CONTINUOUS
 10
308.6563494488
 20
50.2502792533
 11
308.1735308152
 21
50.2502792533
  0
LINE
  5
429
100
AcDbEntity
  8
606302783-000-00-ED1_FORMAT
100
AcDbLine
 62
90
  6
CONTINUOUS
 10
306.8543473835
 20
50.2502792533
 11
306.2529679515
 21
50.2502792533
  0
LINE
  5
42A
100
AcDbEntity
  8
606302783-000-00-ED1_FORMAT
100
AcDbLine
 62
90
  6
CONTINUOUS
 10
306.2529679515
 20
50.5402801869
 11
306.8544389362
 21
50.5402801869
  0
LINE
  5
42B
100
AcDbEntity
  8
606302783-000-00-ED1_FORMAT
100
AcDbLine
 62
90
  6
CONTINUOUS
 10
308.4533770241
 20
50.5402801869
 11
308.6559222027
 21
50.5402801869
  0
LINE
  5
42C
100
AcDbEntity
  8
606302783-000-00-ED1_FORMAT
100
AcDbLine
 62
90
  6
CONTINUOUS
 10
310.8451923586
 20
50.5402801869
 11
323.8607266164
 21
50.5402801869
  0
LINE
  5
42D
100
AcDbEntity
  8
606302783-000-00-ED1_FORMAT
100
AcDbLine
 62
90
  6
CONTINUOUS
 10
325.2556241642
 20
50.5402801869
 11
325.8122953414
 21
50.5402801869
  0
LINE
  5
42E
100
AcDbEntity
  8
606302783-000-00-ED1_FORMAT
100
AcDbLine
 62
90
  6
CONTINUOUS
 10
328.2963042852
 20
50.5402801869
 11
328.8858123785
 21
50.5402801869
  0
LINE
  5
42F
100
AcDbEntity
  8
606302783-000-00-ED1_FORMAT
100
AcDbLine
 62
90
  6
CONTINUOUS
 10
328.8858123785
 20
50.8302773058
 11
328.2963042852
 21
50.8302773058
  0
LINE
  5
430
100
AcDbEntity
  8
606302783-000-00-ED1_FORMAT
100
AcDbLine
 62
90
  6
CONTINUOUS
 10
325.4072355017
 20
50.8302773058
 11
325.1310514025
 21
50.8302773058
  0
LINE
  5
431
100
AcDbEntity
  8
606302783-000-00-ED1_FORMAT
100
AcDbLine
 62
90
  6
CONTINUOUS
 10
324.4774563911
 20
50.8302773058
 11
310.2427753289
 21
50.8302773058
  0
LINE
  5
432
100
AcDbEntity
  8
606302783-000-00-ED1_FORMAT
100
AcDbLine
 62
90
  6
CONTINUOUS
 10
308.6555254742
 20
50.8302773058
 11
308.4533770241
 21
50.8302773058
  0
LINE
  5
433
100
AcDbEntity
  8
606302783-000-00-ED1_FORMAT
100
AcDbLine
 62
90
  6
CONTINUOUS
 10
306.8545304889
 20
50.8302773058
 11
306.2529679515
 21
50.8302773058
  0
LINE
  5
434
100
AcDbEntity
  8
606302783-000-00-ED1_FORMAT
100
AcDbLine
 62
90
  6
CONTINUOUS
 10
306.2529679515
 20
51.1202782394
 11
306.8546220417
 21
51.1202782394
  0
LINE
  5
435
100
AcDbEntity
  8
606302783-000-00-ED1_FORMAT
100
AcDbLine
 62
90
  6
CONTINUOUS
 10
308.4533770241
 20
51.1202782394
 11
308.655098228
 21
51.1202782394
  0
LINE
  5
436
100
AcDbEntity
  8
606302783-000-00-ED1_FORMAT
100
AcDbLine
 62
90
  6
CONTINUOUS
 10
309.6403582992
 20
51.1202782394
 11
310.7759784871
 21
51.1202782394
  0
LINE
  5
437
100
AcDbEntity
  8
606302783-000-00-ED1_FORMAT
100
AcDbLine
 62
90
  6
CONTINUOUS
 10
310.8817219019
 20
51.1202782394
 11
323.7463467264
 21
51.1202782394
  0
LINE
  5
438
100
AcDbEntity
  8
606302783-000-00-ED1_FORMAT
100
AcDbLine
 62
90
  6
CONTINUOUS
 10
324.5632718261
 20
51.1202782394
 11
325.0942166834
 21
51.1202782394
  0
LINE
  5
439
100
AcDbEntity
  8
606302783-000-00-ED1_FORMAT
100
AcDbLine
 62
90
  6
CONTINUOUS
 10
325.1310514025
 20
51.1202782394
 11
325.4072355017
 21
51.1202782394
  0
LINE
  5
43A
100
AcDbEntity
  8
606302783-000-00-ED1_FORMAT
100
AcDbLine
 62
90
  6
CONTINUOUS
 10
327.9700103195
 20
51.1202782394
 11
328.8858123785
 21
51.1202782394
  0
LINE
  5
43B
100
AcDbEntity
  8
606302783-000-00-ED1_FORMAT
100
AcDbLine
 62
90
  6
CONTINUOUS
 10
328.2166228837
 20
51.410279173
 11
327.2521758022
 21
51.410279173
  0
LINE
  5
43C
100
AcDbEntity
  8
606302783-000-00-ED1_FORMAT
100
AcDbLine
 62
90
  6
CONTINUOUS
 10
325.4072355017
 20
51.410279173
 11
324.5094082974
 21
51.410279173
  0
LINE
  5
43D
100
AcDbEntity
  8
606302783-000-00-ED1_FORMAT
100
AcDbLine
 62
90
  6
CONTINUOUS
 10
322.9744655749
 20
51.410279173
 11
312.2078938594
 21
51.410279173
  0
LINE
  5
43E
100
AcDbEntity
  8
606302783-000-00-ED1_FORMAT
100
AcDbLine
 62
90
  6
CONTINUOUS
 10
310.7759784871
 20
51.410279173
 11
309.7665484926
 21
51.410279173
  0
LINE
  5
43F
100
AcDbEntity
  8
606302783-000-00-ED1_FORMAT
100
AcDbLine
 62
90
  6
CONTINUOUS
 10
309.5571978936
 20
51.410279173
 11
309.0379412695
 21
51.410279173
  0
LINE
  5
440
100
AcDbEntity
  8
606302783-000-00-ED1_FORMAT
100
AcDbLine
 62
90
  6
CONTINUOUS
 10
308.6546709819
 20
51.410279173
 11
308.4533770241
 21
51.410279173
  0
LINE
  5
441
100
AcDbEntity
  8
606302783-000-00-ED1_FORMAT
100
AcDbLine
 62
90
  6
CONTINUOUS
 10
306.8547135944
 20
51.410279173
 11
306.2529679515
 21
51.410279173
  0
LINE
  5
442
100
AcDbEntity
  8
606302783-000-00-ED1_FORMAT
100
AcDbLine
 62
90
  6
CONTINUOUS
 10
306.2529679515
 20
51.7002801066
 11
306.8548356647
 21
51.7002801066
  0
LINE
  5
443
100
AcDbEntity
  8
606302783-000-00-ED1_FORMAT
100
AcDbLine
 62
90
  6
CONTINUOUS
 10
308.4533770241
 20
51.7002801066
 11
309.4360431009
 21
51.7002801066
  0
LINE
  5
444
100
AcDbEntity
  8
606302783-000-00-ED1_FORMAT
100
AcDbLine
 62
90
  6
CONTINUOUS
 10
309.889900551
 20
51.7002801066
 11
310.7759784871
 21
51.7002801066
  0
LINE
  5
445
100
AcDbEntity
  8
606302783-000-00-ED1_FORMAT
100
AcDbLine
 62
90
  6
CONTINUOUS
 10
312.2078938594
 20
51.7002801066
 11
312.7341084918
 21
51.7002801066
  0
LINE
  5
446
100
AcDbEntity
  8
606302783-000-00-ED1_FORMAT
100
AcDbLine
 62
90
  6
CONTINUOUS
 10
314.2231222564
 20
51.7002801066
 11
320.5559473578
 21
51.7002801066
  0
LINE
  5
447
100
AcDbEntity
  8
606302783-000-00-ED1_FORMAT
100
AcDbLine
 62
90
  6
CONTINUOUS
 10
322.0495387594
 20
51.7002801066
 11
322.9518825656
 21
51.7002801066
  0
LINE
  5
448
100
AcDbEntity
  8
606302783-000-00-ED1_FORMAT
100
AcDbLine
 62
90
  6
CONTINUOUS
 10
324.4555752862
 20
51.7002801066
 11
325.4072355017
 21
51.7002801066
  0
LINE
  5
449
100
AcDbEntity
  8
606302783-000-00-ED1_FORMAT
100
AcDbLine
 62
90
  6
CONTINUOUS
 10
326.932168458
 20
51.7002801066
 11
327.4721770366
 21
51.7002801066
  0
LINE
  5
44A
100
AcDbEntity
  8
606302783-000-00-ED1_FORMAT
100
AcDbLine
 62
90
  6
CONTINUOUS
 10
316.7452476576
 20
51.8527840833
 11
316.5344322148
 21
51.8527840833
  0
LINE
  5
44B
100
AcDbEntity
  8
606302783-000-00-ED1_FORMAT
100
AcDbLine
 62
90
  6
CONTINUOUS
 10
316.9563377587
 20
51.854138301
 11
316.7452476576
 21
51.854138301
  0
LINE
  5
44C
100
AcDbEntity
  8
606302783-000-00-ED1_FORMAT
100
AcDbLine
 62
90
  6
CONTINUOUS
 10
317.1683433871
 20
51.8564423783
 11
316.9563377587
 21
51.8564423783
  0
LINE
  5
44D
100
AcDbEntity
  8
606302783-000-00-ED1_FORMAT
100
AcDbLine
 62
90
  6
CONTINUOUS
 10
327.4483428066
 20
51.9902772255
 11
326.932168458
 21
51.9902772255
  0
LINE
  5
44E
100
AcDbEntity
  8
606302783-000-00-ED1_FORMAT
100
AcDbLine
 62
90
  6
CONTINUOUS
 10
325.4072355017
 20
51.9902772255
 11
324.4017422751
 21
51.9902772255
  0
LINE
  5
44F
100
AcDbEntity
  8
606302783-000-00-ED1_FORMAT
100
AcDbLine
 62
90
  6
CONTINUOUS
 10
322.3748866801
 20
51.9902772255
 11
322.1039821222
 21
51.9902772255
  0
LINE
  5
450
100
AcDbEntity
  8
606302783-000-00-ED1_FORMAT
100
AcDbLine
 62
90
  6
CONTINUOUS
 10
320.6219568834
 20
51.9902772255
 11
318.793435041
 21
51.9902772255
  0
LINE
  5
451
100
AcDbEntity
  8
606302783-000-00-ED1_FORMAT
100
AcDbLine
 62
90
  6
CONTINUOUS
 10
317.504647119
 20
51.9902772255
 11
317.1344993909
 21
51.9902772255
  0
LINE
  5
452
100
AcDbEntity
  8
606302783-000-00-ED1_FORMAT
100
AcDbLine
 62
90
  6
CONTINUOUS
 10
315.6400229794
 20
51.9902772255
 11
314.2883688425
 21
51.9902772255
  0
LINE
  5
453
100
AcDbEntity
  8
606302783-000-00-ED1_FORMAT
100
AcDbLine
 62
90
  6
CONTINUOUS
 10
312.8143697273
 20
51.9902772255
 11
312.2078938594
 21
51.9902772255
  0
LINE
  5
454
100
AcDbEntity
  8
606302783-000-00-ED1_FORMAT
100
AcDbLine
 62
90
  6
CONTINUOUS
 10
310.7759784871
 20
51.9902772255
 11
310.0132526095
 21
51.9902772255
  0
LINE
  5
455
100
AcDbEntity
  8
606302783-000-00-ED1_FORMAT
100
AcDbLine
 62
90
  6
CONTINUOUS
 10
309.3149188258
 20
51.9902772255
 11
308.4533770241
 21
51.9902772255
  0
LINE
  5
456
100
AcDbEntity
  8
606302783-000-00-ED1_FORMAT
100
AcDbLine
 62
90
  6
CONTINUOUS
 10
306.8549272175
 20
51.9902772255
 11
306.2529679515
 21
51.9902772255
  0
LINE
  5
457
100
AcDbEntity
  8
606302783-000-00-ED1_FORMAT
100
AcDbLine
 62
90
  6
CONTINUOUS
 10
306.2529679515
 20
52.280278159
 11
306.8550187702
 21
52.280278159
  0
LINE
  5
458
100
AcDbEntity
  8
606302783-000-00-ED1_FORMAT
100
AcDbLine
 62
90
  6
CONTINUOUS
 10
308.4533770241
 20
52.280278159
 11
309.1937640331
 21
52.280278159
  0
LINE
  5
459
100
AcDbEntity
  8
606302783-000-00-ED1_FORMAT
100
AcDbLine
 62
90
  6
CONTINUOUS
 10
310.1365741504
 20
52.280278159
 11
310.7759784871
 21
52.280278159
  0
LINE
  5
45A
100
AcDbEntity
  8
606302783-000-00-ED1_FORMAT
100
AcDbLine
 62
90
  6
CONTINUOUS
 10
312.2078938594
 20
52.280278159
 11
312.8946309628
 21
52.280278159
  0
LINE
  5
45B
100
AcDbEntity
  8
606302783-000-00-ED1_FORMAT
100
AcDbLine
 62
90
  6
CONTINUOUS
 10
314.353584911
 20
52.280278159
 11
315.576760036
 21
52.280278159
  0
LINE
  5
45C
100
AcDbEntity
  8
606302783-000-00-ED1_FORMAT
100
AcDbLine
 62
90
  6
CONTINUOUS
 10
317.0611656461
 20
52.280278159
 11
317.504647119
 21
52.280278159
  0
LINE
  5
45D
100
AcDbEntity
  8
606302783-000-00-ED1_FORMAT
100
AcDbLine
 62
90
  6
CONTINUOUS
 10
318.7929162422
 20
52.280278159
 11
320.6879358914
 21
52.280278159
  0
LINE
  5
45E
100
AcDbEntity
  8
606302783-000-00-ED1_FORMAT
100
AcDbLine
 62
90
  6
CONTINUOUS
 10
324.3479092639
 20
52.280278159
 11
325.4072355017
 21
52.280278159
  0
LINE
  5
45F
100
AcDbEntity
  8
606302783-000-00-ED1_FORMAT
100
AcDbLine
 62
90
  6
CONTINUOUS
 10
326.932168458
 20
52.280278159
 11
327.7005706055
 21
52.280278159
  0
LINE
  5
460
100
AcDbEntity
  8
606302783-000-00-ED1_FORMAT
100
AcDbLine
 62
90
  6
CONTINUOUS
 10
328.2963653203
 20
52.5702790926
 11
326.932168458
 21
52.5702790926
  0
LINE
  5
461
100
AcDbEntity
  8
606302783-000-00-ED1_FORMAT
100
AcDbLine
 62
90
  6
CONTINUOUS
 10
325.4072355017
 20
52.5702790926
 11
324.2940457352
 21
52.5702790926
  0
LINE
  5
462
100
AcDbEntity
  8
606302783-000-00-ED1_FORMAT
100
AcDbLine
 62
90
  6
CONTINUOUS
 10
320.7539148995
 20
52.5702790926
 11
318.7923974433
 21
52.5702790926
  0
LINE
  5
463
100
AcDbEntity
  8
606302783-000-00-ED1_FORMAT
100
AcDbLine
 62
90
  6
CONTINUOUS
 10
317.504647119
 20
52.5702790926
 11
316.9878624188
 21
52.5702790926
  0
LINE
  5
464
100
AcDbEntity
  8
606302783-000-00-ED1_FORMAT
100
AcDbLine
 62
90
  6
CONTINUOUS
 10
315.5135276102
 20
52.5702790926
 11
314.4188314971
 21
52.5702790926
  0
LINE
  5
465
100
AcDbEntity
  8
606302783-000-00-ED1_FORMAT
100
AcDbLine
 62
90
  6
CONTINUOUS
 10
312.9748921982
 20
52.5702790926
 11
312.2078938594
 21
52.5702790926
  0
LINE
  5
466
100
AcDbEntity
  8
606302783-000-00-ED1_FORMAT
100
AcDbLine
 62
90
  6
CONTINUOUS
 10
310.7759784871
 20
52.5702790926
 11
310.2599262088
 21
52.5702790926
  0
LINE
  5
467
100
AcDbEntity
  8
606302783-000-00-ED1_FORMAT
100
AcDbLine
 62
90
  6
CONTINUOUS
 10
309.0726397579
 20
52.5702790926
 11
308.4533770241
 21
52.5702790926
  0
LINE
  5
468
100
AcDbEntity
  8
606302783-000-00-ED1_FORMAT
100
AcDbLine
 62
90
  6
CONTINUOUS
 10
306.855110323
 20
52.5702790926
 11
306.2529679515
 21
52.5702790926
  0
LINE
  5
469
100
AcDbEntity
  8
606302783-000-00-ED1_FORMAT
100
AcDbLine
 62
90
  6
CONTINUOUS
 10
306.0443192568
 20
52.8602800262
 11
306.8552018757
 21
52.8602800262
  0
LINE
  5
46A
100
AcDbEntity
  8
606302783-000-00-ED1_FORMAT
100
AcDbLine
 62
90
  6
CONTINUOUS
 10
308.4533770241
 20
52.8602800262
 11
308.9514849652
 21
52.8602800262
  0
LINE
  5
46B
100
AcDbEntity
  8
606302783-000-00-ED1_FORMAT
100
AcDbLine
 62
90
  6
CONTINUOUS
 10
310.3832782673
 20
52.8602800262
 11
310.7759784871
 21
52.8602800262
  0
LINE
  5
46C
100
AcDbEntity
  8
606302783-000-00-ED1_FORMAT
100
AcDbLine
 62
90
  6
CONTINUOUS
 10
312.2078938594
 20
52.8602800262
 11
313.0551534337
 21
52.8602800262
  0
LINE
  5
46D
100
AcDbEntity
  8
606302783-000-00-ED1_FORMAT
100
AcDbLine
 62
90
  6
CONTINUOUS
 10
316.914528674
 20
52.8602800262
 11
317.504647119
 21
52.8602800262
  0
LINE
  5
46E
100
AcDbEntity
  8
606302783-000-00-ED1_FORMAT
100
AcDbLine
 62
90
  6
CONTINUOUS
 10
319.304635024
 20
52.8602800262
 11
320.8198939075
 21
52.8602800262
  0
LINE
  5
46F
100
AcDbEntity
  8
606302783-000-00-ED1_FORMAT
100
AcDbLine
 62
90
  6
CONTINUOUS
 10
324.240212724
 20
52.8602800262
 11
325.4072355017
 21
52.8602800262
  0
LINE
  5
470
100
AcDbEntity
  8
606302783-000-00-ED1_FORMAT
100
AcDbLine
 62
90
  6
CONTINUOUS
 10
326.932168458
 20
52.8602800262
 11
328.8921600352
 21
52.8602800262
  0
LINE
  5
471
100
AcDbEntity
  8
606302783-000-00-ED1_FORMAT
100
AcDbLine
 62
7
  6
CONTINUOUS
 10
410.0
 20
52.9546823745
 11
365.999998592
 21
52.9546823745
  0
LINE
  5
472
100
AcDbEntity
  8
606302783-000-00-ED1_FORMAT
100
AcDbLine
 62
90
  6
CONTINUOUS
 10
329.48795475
 20
53.1502809598
 11
326.932168458
 21
53.1502809598
  0
LINE
  5
473
100
AcDbEntity
  8
606302783-000-00-ED1_FORMAT
100
AcDbLine
 62
90
  6
CONTINUOUS
 10
325.4072355017
 20
53.1502809598
 11
324.1863797128
 21
53.1502809598
  0
LINE
  5
474
100
AcDbEntity
  8
606302783-000-00-ED1_FORMAT
100
AcDbLine
 62
90
  6
CONTINUOUS
 10
320.8859034331
 20
53.1502809598
 11
320.0719995738
 21
53.1502809598
  0
LINE
  5
475
100
AcDbEntity
  8
606302783-000-00-ED1_FORMAT
100
AcDbLine
 62
90
  6
CONTINUOUS
 10
317.504647119
 20
53.1502809598
 11
316.8411949292
 21
53.1502809598
  0
LINE
  5
476
100
AcDbEntity
  8
606302783-000-00-ED1_FORMAT
100
AcDbLine
 62
90
  6
CONTINUOUS
 10
313.1354146692
 20
53.1502809598
 11
312.2078938594
 21
53.1502809598
  0
LINE
  5
477
100
AcDbEntity
  8
606302783-000-00-ED1_FORMAT
100
AcDbLine
 62
90
  6
CONTINUOUS
 10
310.7759784871
 20
53.1502809598
 11
310.5066303258
 21
53.1502809598
  0
LINE
  5
478
100
AcDbEntity
  8
606302783-000-00-ED1_FORMAT
100
AcDbLine
 62
90
  6
CONTINUOUS
 10
308.8303606901
 20
53.1502809598
 11
308.4533770241
 21
53.1502809598
  0
LINE
  5
479
100
AcDbEntity
  8
606302783-000-00-ED1_FORMAT
100
AcDbLine
 62
90
  6
CONTINUOUS
 10
306.8552934284
 20
53.1502809598
 11
305.4760513992
 21
53.1502809598
  0
LINE
  5
47A
100
AcDbEntity
  8
606302783-000-00-ED1_FORMAT
100
AcDbLine
 62
90
  6
CONTINUOUS
 10
304.9078140591
 20
53.4402780787
 11
306.8554154988
 21
53.4402780787
  0
LINE
  5
47B
100
AcDbEntity
  8
606302783-000-00-ED1_FORMAT
100
AcDbLine
 62
90
  6
CONTINUOUS
 10
308.4533770241
 20
53.4402780787
 11
308.7092058974
 21
53.4402780787
  0
LINE
  5
47C
100
AcDbEntity
  8
606302783-000-00-ED1_FORMAT
100
AcDbLine
 62
90
  6
CONTINUOUS
 10
310.6299823842
 20
53.4402780787
 11
310.7759784871
 21
53.4402780787
  0
LINE
  5
47D
100
AcDbEntity
  8
606302783-000-00-ED1_FORMAT
100
AcDbLine
 62
90
  6
CONTINUOUS
 10
312.2078938594
 20
53.4402780787
 11
313.2157064222
 21
53.4402780787
  0
LINE
  5
47E
100
AcDbEntity
  8
606302783-000-00-ED1_FORMAT
100
AcDbLine
 62
90
  6
CONTINUOUS
 10
316.7678611844
 20
53.4402780787
 11
317.504647119
 21
53.4402780787
  0
LINE
  5
47F
100
AcDbEntity
  8
606302783-000-00-ED1_FORMAT
100
AcDbLine
 62
90
  6
CONTINUOUS
 10
320.3908472499
 20
53.4402780787
 11
320.9518824411
 21
53.4402780787
  0
LINE
  5
480
100
AcDbEntity
  8
606302783-000-00-ED1_FORMAT
100
AcDbLine
 62
90
  6
CONTINUOUS
 10
322.2457362814
 20
53.4402780787
 11
322.8289272357
 21
53.4402780787
  0
LINE
  5
481
100
AcDbEntity
  8
606302783-000-00-ED1_FORMAT
100
AcDbLine
 62
90
  6
CONTINUOUS
 10
324.1325161841
 20
53.4402780787
 11
325.4072355017
 21
53.4402780787
  0
LINE
  5
482
100
AcDbEntity
  8
606302783-000-00-ED1_FORMAT
100
AcDbLine
 62
90
  6
CONTINUOUS
 10
326.932168458
 20
53.4402780787
 11
330.0837494649
 21
53.4402780787
  0
LINE
  5
483
100
AcDbEntity
  8
606302783-000-00-ED1_FORMAT
100
AcDbLine
 62
90
  6
CONTINUOUS
 10
330.6795441797
 20
53.7302790123
 11
326.932168458
 21
53.7302790123
  0
LINE
  5
484
100
AcDbEntity
  8
606302783-000-00-ED1_FORMAT
100
AcDbLine
 62
90
  6
CONTINUOUS
 10
325.4072355017
 20
53.7302790123
 11
324.0786831729
 21
53.7302790123
  0
LINE
  5
485
100
AcDbEntity
  8
606302783-000-00-ED1_FORMAT
100
AcDbLine
 62
90
  6
CONTINUOUS
 10
322.784432604
 20
53.7302790123
 11
322.2876064012
 21
53.7302790123
  0
LINE
  5
486
100
AcDbEntity
  8
606302783-000-00-ED1_FORMAT
100
AcDbLine
 62
90
  6
CONTINUOUS
 10
321.0178614491
 20
53.7302790123
 11
320.5930262176
 21
53.7302790123
  0
LINE
  5
487
100
AcDbEntity
  8
606302783-000-00-ED1_FORMAT
100
AcDbLine
 62
90
  6
CONTINUOUS
 10
317.504647119
 20
53.7302790123
 11
316.6945274396
 21
53.7302790123
  0
LINE
  5
488
100
AcDbEntity
  8
606302783-000-00-ED1_FORMAT
100
AcDbLine
 62
90
  6
CONTINUOUS
 10
313.2959676577
 20
53.7302790123
 11
312.2078938594
 21
53.7302790123
  0
LINE
  5
489
100
AcDbEntity
  8
606302783-000-00-ED1_FORMAT
100
AcDbLine
 62
90
  6
CONTINUOUS
 10
310.7759784871
 20
53.7302790123
 11
310.7533344427
 21
53.7302790123
  0
LINE
  5
48A
100
AcDbEntity
  8
606302783-000-00-ED1_FORMAT
100
AcDbLine
 62
90
  6
CONTINUOUS
 10
308.5880816223
 20
53.7302790123
 11
308.4533770241
 21
53.7302790123
  0
LINE
  5
48B
100
AcDbEntity
  8
606302783-000-00-ED1_FORMAT
100
AcDbLine
 62
90
  6
CONTINUOUS
 10
306.8555070515
 20
53.7302790123
 11
304.3395462015
 21
53.7302790123
  0
LINE
  5
48C
100
AcDbEntity
  8
606302783-000-00-ED1_FORMAT
100
AcDbLine
 62
90
  6
CONTINUOUS
 10
303.7713088614
 20
54.0202799459
 11
306.8555986042
 21
54.0202799459
  0
LINE
  5
48D
100
AcDbEntity
  8
606302783-000-00-ED1_FORMAT
100
AcDbLine
 62
90
  6
CONTINUOUS
 10
308.4533770241
 20
54.0202799459
 11
308.4669268296
 21
54.0202799459
  0
LINE
  5
48E
100
AcDbEntity
  8
606302783-000-00-ED1_FORMAT
100
AcDbLine
 62
90
  6
CONTINUOUS
 10
312.2078938594
 20
54.0202799459
 11
313.3762288931
 21
54.0202799459
  0
LINE
  5
48F
100
AcDbEntity
  8
606302783-000-00-ED1_FORMAT
100
AcDbLine
 62
90
  6
CONTINUOUS
 10
314.6156393707
 20
54.0202799459
 11
315.2890708091
 21
54.0202799459
  0
LINE
  5
490
100
AcDbEntity
  8
606302783-000-00-ED1_FORMAT
100
AcDbLine
 62
90
  6
CONTINUOUS
 10
316.6212242124
 20
54.0202799459
 11
317.504647119
 21
54.0202799459
  0
LINE
  5
491
100
AcDbEntity
  8
606302783-000-00-ED1_FORMAT
100
AcDbLine
 62
90
  6
CONTINUOUS
 10
318.7596825975
 20
54.0202799459
 11
319.2434777937
 21
54.0202799459
  0
LINE
  5
492
100
AcDbEntity
  8
606302783-000-00-ED1_FORMAT
100
AcDbLine
 62
90
  6
CONTINUOUS
 10
320.7216578174
 20
54.0202799459
 11
321.0838404571
 21
54.0202799459
  0
LINE
  5
493
100
AcDbEntity
  8
606302783-000-00-ED1_FORMAT
100
AcDbLine
 62
90
  6
CONTINUOUS
 10
322.329476521
 20
54.0202799459
 11
322.7399379724
 21
54.0202799459
  0
LINE
  5
494
100
AcDbEntity
  8
606302783-000-00-ED1_FORMAT
100
AcDbLine
 62
90
  6
CONTINUOUS
 10
324.0248501618
 20
54.0202799459
 11
325.4072355017
 21
54.0202799459
  0
LINE
  5
495
100
AcDbEntity
  8
606302783-000-00-ED1_FORMAT
100
AcDbLine
 62
90
  6
CONTINUOUS
 10
326.932168458
 20
54.0202799459
 11
331.2753083769
 21
54.0202799459
  0
LINE
  5
496
100
AcDbEntity
  8
606302783-000-00-ED1_FORMAT
100
AcDbLine
 62
3
  6
CONTINUOUS
 10
302.0615309229
 20
54.2350054536
 11
302.435676454
 21
54.2350054536
  0
LINE
  5
497
100
AcDbEntity
  8
606302783-000-00-ED1_FORMAT
100
AcDbLine
 62
90
  6
CONTINUOUS
 10
331.5333039985
 20
54.3102808795
 11
326.932168458
 21
54.3102808795
  0
LINE
  5
498
100
AcDbEntity
  8
606302783-000-00-ED1_FORMAT
100
AcDbLine
 62
90
  6
CONTINUOUS
 10
325.4072355017
 20
54.3102808795
 11
323.9710171506
 21
54.3102808795
  0
LINE
  5
499
100
AcDbEntity
  8
606302783-000-00-ED1_FORMAT
100
AcDbLine
 62
90
  6
CONTINUOUS
 10
322.6954433407
 20
54.3102808795
 11
322.3713771584
 21
54.3102808795
  0
LINE
  5
49A
100
AcDbEntity
  8
606302783-000-00-ED1_FORMAT
100
AcDbLine
 62
90
  6
CONTINUOUS
 10
321.1498499827
 20
54.3102808795
 11
320.7964869236
 21
54.3102808795
  0
LINE
  5
49B
100
AcDbEntity
  8
606302783-000-00-ED1_FORMAT
100
AcDbLine
 62
90
  6
CONTINUOUS
 10
319.5666894837
 20
54.3102808795
 11
318.758339824
 21
54.3102808795
  0
LINE
  5
49C
100
AcDbEntity
  8
606302783-000-00-ED1_FORMAT
100
AcDbLine
 62
90
  6
CONTINUOUS
 10
317.504647119
 20
54.3102808795
 11
316.5478904676
 21
54.3102808795
  0
LINE
  5
49D
100
AcDbEntity
  8
606302783-000-00-ED1_FORMAT
100
AcDbLine
 62
90
  6
CONTINUOUS
 10
315.2263876998
 20
54.3102808795
 11
314.6813132029
 21
54.3102808795
  0
LINE
  5
49E
100
AcDbEntity
  8
606302783-000-00-ED1_FORMAT
100
AcDbLine
 62
90
  6
CONTINUOUS
 10
313.4564901286
 20
54.3102808795
 11
312.2078938594
 21
54.3102808795
  0
LINE
  5
49F
100
AcDbEntity
  8
606302783-000-00-ED1_FORMAT
100
AcDbLine
 62
90
  6
CONTINUOUS
 10
306.855690157
 20
54.3102808795
 11
303.517005867
 21
54.3102808795
  0
LINE
  5
4A0
100
AcDbEntity
  8
606302783-000-00-ED1_FORMAT
100
AcDbLine
 62
90
  6
CONTINUOUS
 10
304.1583328113
 20
54.6002779983
 11
306.8557817097
 21
54.6002779983
  0
LINE
  5
4A1
100
AcDbEntity
  8
606302783-000-00-ED1_FORMAT
100
AcDbLine
 62
90
  6
CONTINUOUS
 10
312.2078938594
 20
54.6002779983
 11
313.5367513641
 21
54.6002779983
  0
LINE
  5
4A2
100
AcDbEntity
  8
606302783-000-00-ED1_FORMAT
100
AcDbLine
 62
90
  6
CONTINUOUS
 10
314.7469870351
 20
54.6002779983
 11
315.1637045904
 21
54.6002779983
  0
LINE
  5
4A3
100
AcDbEntity
  8
606302783-000-00-ED1_FORMAT
100
AcDbLine
 62
90
  6
CONTINUOUS
 10
316.4745567228
 20
54.6002779983
 11
317.504647119
 21
54.6002779983
  0
LINE
  5
4A4
100
AcDbEntity
  8
606302783-000-00-ED1_FORMAT
100
AcDbLine
 62
90
  6
CONTINUOUS
 10
318.7569970505
 20
54.6002779983
 11
319.6591272336
 21
54.6002779983
  0
LINE
  5
4A5
100
AcDbEntity
  8
606302783-000-00-ED1_FORMAT
100
AcDbLine
 62
90
  6
CONTINUOUS
 10
320.8410120729
 20
54.6002779983
 11
321.2158289907
 21
54.6002779983
  0
LINE
  5
4A6
100
AcDbEntity
  8
606302783-000-00-ED1_FORMAT
100
AcDbLine
 62
90
  6
CONTINUOUS
 10
322.4132472782
 20
54.6002779983
 11
322.650948709
 21
54.6002779983
  0
LINE
  5
4A7
100
AcDbEntity
  8
606302783-000-00-ED1_FORMAT
100
AcDbLine
 62
90
  6
CONTINUOUS
 10
323.9171536218
 20
54.6002779983
 11
325.4072355017
 21
54.6002779983
  0
LINE
  5
4A8
100
AcDbEntity
  8
606302783-000-00-ED1_FORMAT
100
AcDbLine
 62
90
  6
CONTINUOUS
 10
326.932168458
 20
54.6002779983
 11
330.8277070307
 21
54.6002779983
  0
LINE
  5
4A9
100
AcDbEntity
  8
606302783-000-00-ED1_FORMAT
100
AcDbLine
 62
90
  6
CONTINUOUS
 10
330.1221100629
 20
54.8902789319
 11
326.932168458
 21
54.8902789319
  0
LINE
  5
4AA
100
AcDbEntity
  8
606302783-000-00-ED1_FORMAT
100
AcDbLine
 62
90
  6
CONTINUOUS
 10
325.4072355017
 20
54.8902789319
 11
323.8633206107
 21
54.8902789319
  0
LINE
  5
4AB
100
AcDbEntity
  8
606302783-000-00-ED1_FORMAT
100
AcDbLine
 62
90
  6
CONTINUOUS
 10
322.6064540773
 20
54.8902789319
 11
322.455117398
 21
54.8902789319
  0
LINE
  5
4AC
100
AcDbEntity
  8
606302783-000-00-ED1_FORMAT
100
AcDbLine
 62
90
  6
CONTINUOUS
 10
321.2818079987
 20
54.8902789319
 11
320.8535242807
 21
54.8902789319
  0
LINE
  5
4AD
100
AcDbEntity
  8
606302783-000-00-ED1_FORMAT
100
AcDbLine
 62
90
  6
CONTINUOUS
 10
319.671090125
 20
54.8902789319
 11
318.755654277
 21
54.8902789319
  0
LINE
  5
4AE
100
AcDbEntity
  8
606302783-000-00-ED1_FORMAT
100
AcDbLine
 62
90
  6
CONTINUOUS
 10
317.504647119
 20
54.8902789319
 11
316.401222978
 21
54.8902789319
  0
LINE
  5
4AF
100
AcDbEntity
  8
606302783-000-00-ED1_FORMAT
100
AcDbLine
 62
90
  6
CONTINUOUS
 10
315.101021481
 20
54.8902789319
 11
314.8126608674
 21
54.8902789319
  0
LINE
  5
4B0
100
AcDbEntity
  8
606302783-000-00-ED1_FORMAT
100
AcDbLine
 62
90
  6
CONTINUOUS
 10
313.6170125995
 20
54.8902789319
 11
312.2078938594
 21
54.8902789319
  0
LINE
  5
4B1
100
AcDbEntity
  8
606302783-000-00-ED1_FORMAT
100
AcDbLine
 62
90
  6
CONTINUOUS
 10
306.8558732625
 20
54.8902789319
 11
304.7996902731
 21
54.8902789319
  0
LINE
  5
4B2
100
AcDbEntity
  8
606302783-000-00-ED1_FORMAT
100
AcDbLine
 62
90
  6
CONTINUOUS
 10
305.4410172173
 20
55.1802798655
 11
306.8559953328
 21
55.1802798655
  0
LINE
  5
4B3
100
AcDbEntity
  8
606302783-000-00-ED1_FORMAT
100
AcDbLine
 62
90
  6
CONTINUOUS
 10
309.4869159068
 20
55.1802798655
 11
309.6559527825
 21
55.1802798655
  0
LINE
  5
4B4
100
AcDbEntity
  8
606302783-000-00-ED1_FORMAT
100
AcDbLine
 62
90
  6
CONTINUOUS
 10
312.2078938594
 20
55.1802798655
 11
313.6973043526
 21
55.1802798655
  0
LINE
  5
4B5
100
AcDbEntity
  8
606302783-000-00-ED1_FORMAT
100
AcDbLine
 62
90
  6
CONTINUOUS
 10
314.8783346996
 20
55.1802798655
 11
315.0383383716
 21
55.1802798655
  0
LINE
  5
4B6
100
AcDbEntity
  8
606302783-000-00-ED1_FORMAT
100
AcDbLine
 62
90
  6
CONTINUOUS
 10
316.3278892332
 20
55.1802798655
 11
317.504647119
 21
55.1802798655
  0
LINE
  5
4B7
100
AcDbEntity
  8
606302783-000-00-ED1_FORMAT
100
AcDbLine
 62
90
  6
CONTINUOUS
 10
318.7542809859
 20
55.1802798655
 11
319.6139306976
 21
55.1802798655
  0
LINE
  5
4B8
100
AcDbEntity
  8
606302783-000-00-ED1_FORMAT
100
AcDbLine
 62
90
  6
CONTINUOUS
 10
320.8345118283
 20
55.1802798655
 11
321.3477870068
 21
55.1802798655
  0
LINE
  5
4B9
100
AcDbEntity
  8
606302783-000-00-ED1_FORMAT
100
AcDbLine
 62
90
  6
CONTINUOUS
 10
323.8094875995
 20
55.1802798655
 11
325.4072355017
 21
55.1802798655
  0
LINE
  5
4BA
100
AcDbEntity
  8
606302783-000-00-ED1_FORMAT
100
AcDbLine
 62
90
  6
CONTINUOUS
 10
326.932168458
 20
55.1802798655
 11
329.4165436128
 21
55.1802798655
  0
LINE
  5
4BB
100
AcDbEntity
  8
606302783-000-00-ED1_FORMAT
100
AcDbLine
 62
90
  6
CONTINUOUS
 10
328.710946645
 20
55.4702807991
 11
326.932168458
 21
55.4702807991
  0
LINE
  5
4BC
100
AcDbEntity
  8
606302783-000-00-ED1_FORMAT
100
AcDbLine
 62
90
  6
CONTINUOUS
 10
325.4072355017
 20
55.4702807991
 11
323.7556240708
 21
55.4702807991
  0
LINE
  5
4BD
100
AcDbEntity
  8
606302783-000-00-ED1_FORMAT
100
AcDbLine
 62
90
  6
CONTINUOUS
 10
321.4137660148
 20
55.4702807991
 11
320.7832728114
 21
55.4702807991
  0
LINE
  5
4BE
100
AcDbEntity
  8
606302783-000-00-ED1_FORMAT
100
AcDbLine
 62
90
  6
CONTINUOUS
 10
319.2926416151
 20
55.4702807991
 11
318.7529382123
 21
55.4702807991
  0
LINE
  5
4BF
100
AcDbEntity
  8
606302783-000-00-ED1_FORMAT
100
AcDbLine
 62
90
  6
CONTINUOUS
 10
317.504647119
 20
55.4702807991
 11
316.254586006
 21
55.4702807991
  0
LINE
  5
4C0
100
AcDbEntity
  8
606302783-000-00-ED1_FORMAT
100
AcDbLine
 62
90
  6
CONTINUOUS
 10
314.9756552623
 20
55.4702807991
 11
314.9440085318
 21
55.4702807991
  0
LINE
  5
4C1
100
AcDbEntity
  8
606302783-000-00-ED1_FORMAT
100
AcDbLine
 62
90
  6
CONTINUOUS
 10
313.777565588
 20
55.4702807991
 11
312.2078938594
 21
55.4702807991
  0
LINE
  5
4C2
100
AcDbEntity
  8
606302783-000-00-ED1_FORMAT
100
AcDbLine
 62
90
  6
CONTINUOUS
 10
309.8534320429
 20
55.4702807991
 11
309.3890765452
 21
55.4702807991
  0
LINE
  5
4C3
100
AcDbEntity
  8
606302783-000-00-ED1_FORMAT
100
AcDbLine
 62
90
  6
CONTINUOUS
 10
306.8560868855
 20
55.4702807991
 11
306.0823441616
 21
55.4702807991
  0
LINE
  5
4C4
100
AcDbEntity
  8
606302783-000-00-ED1_FORMAT
100
AcDbLine
 62
90
  6
CONTINUOUS
 10
306.2538224437
 20
55.760277918
 11
306.8561784383
 21
55.760277918
  0
LINE
  5
4C5
100
AcDbEntity
  8
606302783-000-00-ED1_FORMAT
100
AcDbLine
 62
90
  6
CONTINUOUS
 10
309.2912371837
 20
55.760277918
 11
310.0508807857
 21
55.760277918
  0
LINE
  5
4C6
100
AcDbEntity
  8
606302783-000-00-ED1_FORMAT
100
AcDbLine
 62
90
  6
CONTINUOUS
 10
312.2078938594
 20
55.760277918
 11
313.8578268235
 21
55.760277918
  0
LINE
  5
4C7
100
AcDbEntity
  8
606302783-000-00-ED1_FORMAT
100
AcDbLine
 62
90
  6
CONTINUOUS
 10
316.1812522612
 20
55.760277918
 11
317.504647119
 21
55.760277918
  0
LINE
  5
4C8
100
AcDbEntity
  8
606302783-000-00-ED1_FORMAT
100
AcDbLine
 62
90
  6
CONTINUOUS
 10
320.6674280777
 20
55.760277918
 11
321.4797755404
 21
55.760277918
  0
LINE
  5
4C9
100
AcDbEntity
  8
606302783-000-00-ED1_FORMAT
100
AcDbLine
 62
90
  6
CONTINUOUS
 10
323.7017910596
 20
55.760277918
 11
325.4072355017
 21
55.760277918
  0
LINE
  5
4CA
100
AcDbEntity
  8
606302783-000-00-ED1_FORMAT
100
AcDbLine
 62
90
  6
CONTINUOUS
 10
326.932168458
 20
55.760277918
 11
328.0053496772
 21
55.760277918
  0
LINE
  5
4CB
100
AcDbEntity
  8
606302783-000-00-ED1_FORMAT
100
AcDbLine
 62
90
  6
CONTINUOUS
 10
327.5174346078
 20
56.0502788516
 11
326.932168458
 21
56.0502788516
  0
LINE
  5
4CC
100
AcDbEntity
  8
606302783-000-00-ED1_FORMAT
100
AcDbLine
 62
90
  6
CONTINUOUS
 10
325.4072355017
 20
56.0502788516
 11
323.6479580484
 21
56.0502788516
  0
LINE
  5
4CD
100
AcDbEntity
  8
606302783-000-00-ED1_FORMAT
100
AcDbLine
 62
90
  6
CONTINUOUS
 10
321.5457545484
 20
56.0502788516
 11
320.4613123422
 21
56.0502788516
  0
LINE
  5
4CE
100
AcDbEntity
  8
606302783-000-00-ED1_FORMAT
100
AcDbLine
 62
90
  6
CONTINUOUS
 10
317.504647119
 20
56.0502788516
 11
316.1079185164
 21
56.0502788516
  0
LINE
  5
4CF
100
AcDbEntity
  8
606302783-000-00-ED1_FORMAT
100
AcDbLine
 62
90
  6
CONTINUOUS
 10
313.938088059
 20
56.0502788516
 11
312.2078938594
 21
56.0502788516
  0
LINE
  5
4D0
100
AcDbEntity
  8
606302783-000-00-ED1_FORMAT
100
AcDbLine
 62
90
  6
CONTINUOUS
 10
310.2483295284
 20
56.0502788516
 11
309.1933978221
 21
56.0502788516
  0
LINE
  5
4D1
100
AcDbEntity
  8
606302783-000-00-ED1_FORMAT
100
AcDbLine
 62
90
  6
CONTINUOUS
 10
306.856269991
 20
56.0502788516
 11
306.2538224437
 21
56.0502788516
  0
LINE
  5
4D2
100
AcDbEntity
  8
606302783-000-00-ED1_FORMAT
100
AcDbLine
 62
90
  6
CONTINUOUS
 10
306.2538224437
 20
56.3402797852
 11
306.8563615437
 21
56.3402797852
  0
LINE
  5
4D3
100
AcDbEntity
  8
606302783-000-00-ED1_FORMAT
100
AcDbLine
 62
90
  6
CONTINUOUS
 10
309.0955584605
 20
56.3402797852
 11
310.4458087888
 21
56.3402797852
  0
LINE
  5
4D4
100
AcDbEntity
  8
606302783-000-00-ED1_FORMAT
100
AcDbLine
 62
90
  6
CONTINUOUS
 10
312.2078938594
 20
56.3402797852
 11
314.0183492945
 21
56.3402797852
  0
LINE
  5
4D5
100
AcDbEntity
  8
606302783-000-00-ED1_FORMAT
100
AcDbLine
 62
90
  6
CONTINUOUS
 10
316.0345847716
 20
56.3402797852
 11
317.504647119
 21
56.3402797852
  0
LINE
  5
4D6
100
AcDbEntity
  8
606302783-000-00-ED1_FORMAT
100
AcDbLine
 62
90
  6
CONTINUOUS
 10
320.0910425437
 20
56.3402797852
 11
321.6117335564
 21
56.3402797852
  0
LINE
  5
4D7
100
AcDbEntity
  8
606302783-000-00-ED1_FORMAT
100
AcDbLine
 62
90
  6
CONTINUOUS
 10
323.5941250373
 20
56.3402797852
 11
325.4072355017
 21
56.3402797852
  0
LINE
  5
4D8
100
AcDbEntity
  8
606302783-000-00-ED1_FORMAT
100
AcDbLine
 62
90
  6
CONTINUOUS
 10
326.932168458
 20
56.3402797852
 11
327.5174346078
 21
56.3402797852
  0
LINE
  5
4D9
100
AcDbEntity
  8
606302783-000-00-ED1_FORMAT
100
AcDbLine
 62
90
  6
CONTINUOUS
 10
327.5174346078
 20
56.6302807188
 11
326.932168458
 21
56.6302807188
  0
LINE
  5
4DA
100
AcDbEntity
  8
606302783-000-00-ED1_FORMAT
100
AcDbLine
 62
90
  6
CONTINUOUS
 10
325.4072355017
 20
56.6302807188
 11
323.5402615085
 21
56.6302807188
  0
LINE
  5
4DB
100
AcDbEntity
  8
606302783-000-00-ED1_FORMAT
100
AcDbLine
 62
90
  6
CONTINUOUS
 10
321.6777125644
 20
56.6302807188
 11
319.2477502549
 21
56.6302807188
  0
LINE
  5
4DC
100
AcDbEntity
  8
606302783-000-00-ED1_FORMAT
100
AcDbLine
 62
90
  6
CONTINUOUS
 10
317.8003319519
 20
56.6302807188
 11
314.7750937263
 21
56.6302807188
  0
LINE
  5
4DD
100
AcDbEntity
  8
606302783-000-00-ED1_FORMAT
100
AcDbLine
 62
90
  6
CONTINUOUS
 10
314.0986105299
 20
56.6302807188
 11
312.2078938594
 21
56.6302807188
  0
LINE
  5
4DE
100
AcDbEntity
  8
606302783-000-00-ED1_FORMAT
100
AcDbLine
 62
90
  6
CONTINUOUS
 10
310.6432575315
 20
56.6302807188
 11
308.997719099
 21
56.6302807188
  0
LINE
  5
4DF
100
AcDbEntity
  8
606302783-000-00-ED1_FORMAT
100
AcDbLine
 62
90
  6
CONTINUOUS
 10
306.8564530965
 20
56.6302807188
 11
306.2538224437
 21
56.6302807188
  0
LINE
  5
4E0
100
AcDbEntity
  8
606302783-000-00-ED1_FORMAT
100
AcDbLine
 62
90
  6
CONTINUOUS
 10
318.3558434611
 20
56.6447384223
 11
318.5402917147
 21
56.6447384223
  0
LINE
  5
4E1
100
AcDbEntity
  8
606302783-000-00-ED1_FORMAT
100
AcDbLine
 62
90
  6
CONTINUOUS
 10
318.916970205
 20
56.6466038094
 11
319.1211633329
 21
56.6466038094
  0
LINE
  5
4E2
100
AcDbEntity
  8
606302783-000-00-ED1_FORMAT
100
AcDbLine
 62
90
  6
CONTINUOUS
 10
318.5402917147
 20
56.6466114388
 11
318.72535032
 21
56.6466114388
  0
LINE
  5
4E3
100
AcDbEntity
  8
606302783-000-00-ED1_FORMAT
100
AcDbLine
 62
90
  6
CONTINUOUS
 10
318.72535032
 20
56.6471416817
 11
318.916970205
 21
56.6471416817
  0
LINE
  5
4E4
100
AcDbEntity
  8
606302783-000-00-ED1_FORMAT
100
AcDbLine
 62
90
  6
CONTINUOUS
 10
306.2538224437
 20
56.9202778376
 11
306.8565751668
 21
56.9202778376
  0
LINE
  5
4E5
100
AcDbEntity
  8
606302783-000-00-ED1_FORMAT
100
AcDbLine
 62
90
  6
CONTINUOUS
 10
308.8998797374
 20
56.9202778376
 11
309.1677935725
 21
56.9202778376
  0
LINE
  5
4E6
100
AcDbEntity
  8
606302783-000-00-ED1_FORMAT
100
AcDbLine
 62
90
  6
CONTINUOUS
 10
309.3290484653
 20
56.9202778376
 11
310.8407367919
 21
56.9202778376
  0
LINE
  5
4E7
100
AcDbEntity
  8
606302783-000-00-ED1_FORMAT
100
AcDbLine
 62
90
  6
CONTINUOUS
 10
312.1970601185
 20
56.9202778376
 11
321.8962794726
 21
56.9202778376
  0
LINE
  5
4E8
100
AcDbEntity
  8
606302783-000-00-ED1_FORMAT
100
AcDbLine
 62
90
  6
CONTINUOUS
 10
323.4864284974
 20
56.9202778376
 11
325.4072355017
 21
56.9202778376
  0
LINE
  5
4E9
100
AcDbEntity
  8
606302783-000-00-ED1_FORMAT
100
AcDbLine
 62
90
  6
CONTINUOUS
 10
326.932168458
 20
56.9202778376
 11
327.5174346078
 21
56.9202778376
  0
LINE
  5
4EA
100
AcDbEntity
  8
606302783-000-00-ED1_FORMAT
100
AcDbLine
 62
90
  6
CONTINUOUS
 10
327.5174346078
 20
57.2102787712
 11
326.932168458
 21
57.2102787712
  0
LINE
  5
4EB
100
AcDbEntity
  8
606302783-000-00-ED1_FORMAT
100
AcDbLine
 62
90
  6
CONTINUOUS
 10
325.4072355017
 20
57.2102787712
 11
325.1310514025
 21
57.2102787712
  0
LINE
  5
4EC
100
AcDbEntity
  8
606302783-000-00-ED1_FORMAT
100
AcDbLine
 62
90
  6
CONTINUOUS
 10
324.643502544
 20
57.2102787712
 11
323.4325954862
 21
57.2102787712
  0
LINE
  5
4ED
100
AcDbEntity
  8
606302783-000-00-ED1_FORMAT
100
AcDbLine
 62
90
  6
CONTINUOUS
 10
323.2237942037
 20
57.2102787712
 11
309.9671405461
 21
57.2102787712
  0
LINE
  5
4EE
100
AcDbEntity
  8
606302783-000-00-ED1_FORMAT
100
AcDbLine
 62
90
  6
CONTINUOUS
 10
309.0664141716
 20
57.2102787712
 11
308.8020098583
 21
57.2102787712
  0
LINE
  5
4EF
100
AcDbEntity
  8
606302783-000-00-ED1_FORMAT
100
AcDbLine
 62
90
  6
CONTINUOUS
 10
306.8566667195
 20
57.2102787712
 11
306.2538224437
 21
57.2102787712
  0
LINE
  5
4F0
100
AcDbEntity
  8
606302783-000-00-ED1_FORMAT
100
AcDbLine
 62
90
  6
CONTINUOUS
 10
306.2538224437
 20
57.5002797048
 11
306.8567582723
 21
57.5002797048
  0
LINE
  5
4F1
100
AcDbEntity
  8
606302783-000-00-ED1_FORMAT
100
AcDbLine
 62
90
  6
CONTINUOUS
 10
308.7041704967
 20
57.5002797048
 11
308.9650347708
 21
57.5002797048
  0
LINE
  5
4F2
100
AcDbEntity
  8
606302783-000-00-ED1_FORMAT
100
AcDbLine
 62
90
  6
CONTINUOUS
 10
310.6052021092
 20
57.5002797048
 11
324.0003750626
 21
57.5002797048
  0
LINE
  5
4F3
100
AcDbEntity
  8
606302783-000-00-ED1_FORMAT
100
AcDbLine
 62
90
  6
CONTINUOUS
 10
325.1310514025
 20
57.5002797048
 11
325.4072355017
 21
57.5002797048
  0
LINE
  5
4F4
100
AcDbEntity
  8
606302783-000-00-ED1_FORMAT
100
AcDbLine
 62
90
  6
CONTINUOUS
 10
326.932168458
 20
57.5002797048
 11
327.5174346078
 21
57.5002797048
  0
LINE
  5
4F5
100
AcDbEntity
  8
606302783-000-00-ED1_FORMAT
100
AcDbLine
 62
90
  6
CONTINUOUS
 10
327.5174346078
 20
57.7902806384
 11
326.932168458
 21
57.7902806384
  0
LINE
  5
4F6
100
AcDbEntity
  8
606302783-000-00-ED1_FORMAT
100
AcDbLine
 62
90
  6
CONTINUOUS
 10
325.4072355017
 20
57.7902806384
 11
325.1310514025
 21
57.7902806384
  0
LINE
  5
4F7
100
AcDbEntity
  8
606302783-000-00-ED1_FORMAT
100
AcDbLine
 62
90
  6
CONTINUOUS
 10
323.3572780987
 20
57.7902806384
 11
311.24329419
 21
57.7902806384
  0
LINE
  5
4F8
100
AcDbEntity
  8
606302783-000-00-ED1_FORMAT
100
AcDbLine
 62
90
  6
CONTINUOUS
 10
308.8636553699
 20
57.7902806384
 11
308.6063311351
 21
57.7902806384
  0
LINE
  5
4F9
100
AcDbEntity
  8
606302783-000-00-ED1_FORMAT
100
AcDbLine
 62
90
  6
CONTINUOUS
 10
306.856849825
 20
57.7902806384
 11
306.2538224437
 21
57.7902806384
  0
LINE
  5
4FA
100
AcDbEntity
  8
606302783-000-00-ED1_FORMAT
100
AcDbLine
 62
90
  6
CONTINUOUS
 10
306.2538224437
 20
58.0802777573
 11
306.8569413778
 21
58.0802777573
  0
LINE
  5
4FB
100
AcDbEntity
  8
606302783-000-00-ED1_FORMAT
100
AcDbLine
 62
90
  6
CONTINUOUS
 10
308.5084917736
 20
58.0802777573
 11
308.7622759691
 21
58.0802777573
  0
LINE
  5
4FC
100
AcDbEntity
  8
606302783-000-00-ED1_FORMAT
100
AcDbLine
 62
90
  6
CONTINUOUS
 10
311.8813862707
 20
58.0802777573
 11
322.7141811348
 21
58.0802777573
  0
LINE
  5
4FD
100
AcDbEntity
  8
606302783-000-00-ED1_FORMAT
100
AcDbLine
 62
90
  6
CONTINUOUS
 10
325.1310514025
 20
58.0802777573
 11
325.4072355017
 21
58.0802777573
  0
LINE
  5
4FE
100
AcDbEntity
  8
606302783-000-00-ED1_FORMAT
100
AcDbLine
 62
90
  6
CONTINUOUS
 10
326.932168458
 20
58.0802777573
 11
327.5174346078
 21
58.0802777573
  0
LINE
  5
4FF
100
AcDbEntity
  8
606302783-000-00-ED1_FORMAT
100
AcDbLine
 62
90
  6
CONTINUOUS
 10
327.4869170277
 20
58.3702786909
 11
326.932168458
 21
58.3702786909
  0
LINE
  5
500
100
AcDbEntity
  8
606302783-000-00-ED1_FORMAT
100
AcDbLine
 62
90
  6
CONTINUOUS
 10
325.9910368076
 20
58.3702786909
 11
325.3282254871
 21
58.3702786909
  0
LINE
  5
501
100
AcDbEntity
  8
606302783-000-00-ED1_FORMAT
100
AcDbLine
 62
90
  6
CONTINUOUS
 10
322.0710536534
 20
58.3702786909
 11
312.5194478339
 21
58.3702786909
  0
LINE
  5
502
100
AcDbEntity
  8
606302783-000-00-ED1_FORMAT
100
AcDbLine
 62
90
  6
CONTINUOUS
 10
308.6608965682
 20
58.3702786909
 11
308.2872088008
 21
58.3702786909
  0
LINE
  5
503
100
AcDbEntity
  8
606302783-000-00-ED1_FORMAT
100
AcDbLine
 62
90
  6
CONTINUOUS
 10
306.8570329305
 20
58.3702786909
 11
306.2538224437
 21
58.3702786909
  0
LINE
  5
504
100
AcDbEntity
  8
606302783-000-00-ED1_FORMAT
100
AcDbLine
 62
90
  6
CONTINUOUS
 10
306.2538224437
 20
58.6602796245
 11
306.8571550008
 21
58.6602796245
  0
LINE
  5
505
100
AcDbEntity
  8
606302783-000-00-ED1_FORMAT
100
AcDbLine
 62
90
  6
CONTINUOUS
 10
307.674629417
 20
58.6602796245
 11
308.2281267659
 21
58.6602796245
  0
LINE
  5
506
100
AcDbEntity
  8
606302783-000-00-ED1_FORMAT
100
AcDbLine
 62
90
  6
CONTINUOUS
 10
313.1575399147
 20
58.6602796245
 11
321.4279566895
 21
58.6602796245
  0
LINE
  5
507
100
AcDbEntity
  8
606302783-000-00-ED1_FORMAT
100
AcDbLine
 62
90
  6
CONTINUOUS
 10
326.0322355407
 20
58.6602796245
 11
326.7106108271
 21
58.6602796245
  0
LINE
  5
508
100
AcDbEntity
  8
606302783-000-00-ED1_FORMAT
100
AcDbLine
 62
90
  6
CONTINUOUS
 10
326.932168458
 20
58.6602796245
 11
327.2830290756
 21
58.6602796245
  0
LINE
  5
509
100
AcDbEntity
  8
606302783-000-00-ED1_FORMAT
100
AcDbLine
 62
90
  6
CONTINUOUS
 10
327.079171641
 20
58.9502805581
 11
326.7362761119
 21
58.9502805581
  0
LINE
  5
50A
100
AcDbEntity
  8
606302783-000-00-ED1_FORMAT
100
AcDbLine
 62
90
  6
CONTINUOUS
 10
320.7848597256
 20
58.9502805581
 11
313.7956319954
 21
58.9502805581
  0
LINE
  5
50B
100
AcDbEntity
  8
606302783-000-00-ED1_FORMAT
100
AcDbLine
 62
90
  6
CONTINUOUS
 10
307.6149065129
 20
58.9502805581
 11
307.0620195155
 21
58.9502805581
  0
LINE
  5
50C
100
AcDbEntity
  8
606302783-000-00-ED1_FORMAT
100
AcDbLine
 62
90
  6
CONTINUOUS
 10
306.8572465536
 20
58.9502805581
 11
306.2538224437
 21
58.9502805581
  0
LINE
  5
50D
100
AcDbEntity
  8
606302783-000-00-ED1_FORMAT
100
AcDbLine
 62
7
  6
CONTINUOUS
 10
410.0
 20
58.9546825665
 11
365.999998592
 21
58.9546825665
  0
LINE
  5
50E
100
AcDbEntity
  8
606302783-000-00-ED1_FORMAT
100
AcDbLine
 62
90
  6
CONTINUOUS
 10
306.6714555264
 20
59.240277677
 11
307.0016862598
 21
59.240277677
  0
LINE
  5
50F
100
AcDbEntity
  8
606302783-000-00-ED1_FORMAT
100
AcDbLine
 62
90
  6
CONTINUOUS
 10
314.4336935586
 20
59.240277677
 11
320.1417322441
 21
59.240277677
  0
LINE
  5
510
100
AcDbEntity
  8
606302783-000-00-ED1_FORMAT
100
AcDbLine
 62
90
  6
CONTINUOUS
 10
319.4986352803
 20
59.5302786105
 11
315.0717856394
 21
59.5302786105
  0
LINE
  5
511
100
AcDbEntity
  8
606302783-000-00-ED1_FORMAT
100
AcDbLine
 62
90
  6
CONTINUOUS
 10
315.7098777201
 20
59.8202795441
 11
318.8555383164
 21
59.8202795441
  0
LINE
  5
512
100
AcDbEntity
  8
606302783-000-00-ED1_FORMAT
100
AcDbLine
 62
90
  6
CONTINUOUS
 10
318.2124108349
 20
60.1102804777
 11
316.3479392833
 21
60.1102804777
  0
LINE
  5
513
100
AcDbEntity
  8
606302783-000-00-ED1_FORMAT
100
AcDbLine
 62
90
  6
CONTINUOUS
 10
317.5471381942
 20
60.4102804964
 11
317.0080338075
 21
60.4102804964
  0
LINE
  5
514
100
AcDbEntity
  8
606302783-000-00-ED1_FORMAT
100
AcDbLine
 62
90
  6
CONTINUOUS
 10
315.5730674088
 20
56.5955211951
 11
315.773903603
 21
56.5907451938
  0
LINE
  5
515
100
AcDbEntity
  8
606302783-000-00-ED1_FORMAT
100
AcDbLine
 62
90
  6
CONTINUOUS
 10
315.773903603
 20
56.5907451938
 11
315.9725120138
 21
56.5857631989
  0
LINE
  5
516
100
AcDbEntity
  8
606302783-000-00-ED1_FORMAT
100
AcDbLine
 62
90
  6
CONTINUOUS
 10
315.3701865368
 20
56.6009647684
 11
315.5730674088
 21
56.5955211951
  0
LINE
  5
517
100
AcDbEntity
  8
606302783-000-00-ED1_FORMAT
100
AcDbLine
 62
90
  6
CONTINUOUS
 10
315.1653830573
 20
56.6079761825
 11
315.3701865368
 21
56.6009647684
  0
LINE
  5
518
100
AcDbEntity
  8
606302783-000-00-ED1_FORMAT
100
AcDbLine
 62
90
  6
CONTINUOUS
 10
317.7706383465
 20
51.8433922981
 11
317.504647119
 21
51.8526314954
  0
LINE
  5
519
100
AcDbEntity
  8
606302783-000-00-ED1_FORMAT
100
AcDbLine
 62
90
  6
CONTINUOUS
 10
314.9588095581
 20
56.617440447
 11
315.1653830573
 21
56.6079761825
  0
LINE
  5
51A
100
AcDbEntity
  8
606302783-000-00-ED1_FORMAT
100
AcDbLine
 62
90
  6
CONTINUOUS
 10
318.9437646402
 20
55.5377780567
 11
318.7525720014
 21
55.5470821039
  0
LINE
  5
51B
100
AcDbEntity
  8
606302783-000-00-ED1_FORMAT
100
AcDbLine
 62
90
  6
CONTINUOUS
 10
318.0062645819
 20
51.8308648315
 11
317.7706383465
 21
51.8433922981
  0
LINE
  5
51C
100
AcDbEntity
  8
606302783-000-00-ED1_FORMAT
100
AcDbLine
 62
90
  6
CONTINUOUS
 10
318.2189110795
 20
51.8161324697
 11
318.0062645819
 21
51.8308648315
  0
LINE
  5
51D
100
AcDbEntity
  8
606302783-000-00-ED1_FORMAT
100
AcDbLine
 62
90
  6
CONTINUOUS
 10
318.7938317696
 20
51.769318502
 11
318.605233125
 21
51.7842911897
  0
LINE
  5
51E
100
AcDbEntity
  8
606302783-000-00-ED1_FORMAT
100
AcDbLine
 62
90
  6
CONTINUOUS
 10
318.416085164
 20
51.8002480693
 11
318.2189110795
 21
51.8161324697
  0
LINE
  5
51F
100
AcDbEntity
  8
606302783-000-00-ED1_FORMAT
100
AcDbLine
 62
90
  6
CONTINUOUS
 10
318.605233125
 20
51.7842911897
 11
318.416085164
 21
51.8002480693
  0
LINE
  5
520
100
AcDbEntity
  8
606302783-000-00-ED1_FORMAT
100
AcDbLine
 62
7
  6
CONTINUOUS
 10
135.000019298
 20
287.0000045341
 11
135.000019298
 21
259.0000098321
  0
LINE
  5
521
100
AcDbEntity
  8
606302783-000-00-ED1_FORMAT
100
AcDbLine
 62
7
  6
CONTINUOUS
 10
146.999991584
 20
65.00000176
 11
410.0
 21
65.00000176
  0
LINE
  5
522
100
AcDbEntity
  8
606302783-000-00-ED1_FORMAT
100
AcDbLine
 62
7
  6
CONTINUOUS
 10
146.999993584
 20
72.500002
 11
410.0
 21
72.500002
  0
LINE
  5
523
100
AcDbEntity
  8
606302783-000-00-ED1_FORMAT
100
AcDbLine
 62
90
  6
CONTINUOUS
 10
314.750557592
 20
56.6302463865
 11
314.9588095581
 21
56.617440447
  0
LINE
  5
524
100
AcDbEntity
  8
606302783-000-00-ED1_FORMAT
100
AcDbLine
 62
90
  6
CONTINUOUS
 10
314.5408102645
 20
56.6472866402
 11
314.750557592
 21
56.6302463865
  0
LINE
  5
525
100
AcDbEntity
  8
606302783-000-00-ED1_FORMAT
100
AcDbLine
 62
90
  6
CONTINUOUS
 10
322.2427760762
 20
53.4197740796
 11
322.8411647853
 21
53.3604707922
  0
LINE
  5
526
100
AcDbEntity
  8
606302783-000-00-ED1_FORMAT
100
AcDbLine
 62
90
  6
CONTINUOUS
 10
314.3296591283
 20
56.669446218
 11
314.5408102645
 21
56.6472866402
  0
LINE
  5
527
100
AcDbEntity
  8
606302783-000-00-ED1_FORMAT
100
AcDbLine
 62
90
  6
CONTINUOUS
 10
322.0031825554
 20
51.4534806222
 11
320.5375452571
 21
51.6192978933
  0
LINE
  5
528
100
AcDbEntity
  8
606302783-000-00-ED1_FORMAT
100
AcDbLine
 62
90
  6
CONTINUOUS
 10
319.1197290067
 20
55.5162898657
 11
318.9437646402
 21
55.5377780567
  0
LINE
  5
529
100
AcDbEntity
  8
606302783-000-00-ED1_FORMAT
100
AcDbLine
 62
90
  6
CONTINUOUS
 10
314.1172567713
 20
56.6976177591
 11
314.3296591283
 21
56.669446218
  0
LINE
  5
52A
100
AcDbEntity
  8
606302783-000-00-ED1_FORMAT
100
AcDbLine
 62
90
  6
CONTINUOUS
 10
319.1211633329
 20
56.6452572212
 11
319.3581628594
 21
56.6093113266
  0
LINE
  5
52B
100
AcDbEntity
  8
606302783-000-00-ED1_FORMAT
100
AcDbLine
 62
90
  6
CONTINUOUS
 10
322.9365017053
 20
51.8976983318
 11
322.1121303161
 21
52.0335969303
  0
LINE
  5
52C
100
AcDbEntity
  8
606302783-000-00-ED1_FORMAT
100
AcDbLine
 62
90
  6
CONTINUOUS
 10
324.5936673358
 20
50.9565552373
 11
322.9856044916
 21
51.2672776077
  0
LINE
  5
52D
100
AcDbEntity
  8
606302783-000-00-ED1_FORMAT
100
AcDbLine
 62
7
  6
CONTINUOUS
 10
146.999991584
 20
10.0
 11
146.999993584
 21
72.500002
  0
LINE
  5
52E
100
AcDbEntity
  8
606302783-000-00-ED1_FORMAT
100
AcDbLine
 62
90
  6
CONTINUOUS
 10
311.0026020363
 20
57.1580441183
 11
312.2078938594
 21
56.9181225336
  0
LINE
  5
52F
100
AcDbEntity
  8
606302783-000-00-ED1_FORMAT
100
AcDbLine
 62
90
  6
CONTINUOUS
 10
319.3581628594
 20
56.6093113266
 11
319.5746545721
 21
56.5594341567
  0
LINE
  5
530
100
AcDbEntity
  8
606302783-000-00-ED1_FORMAT
100
AcDbLine
 62
90
  6
CONTINUOUS
 10
319.2772302372
 20
55.4772960278
 11
319.1197290067
 21
55.5162898657
  0
LINE
  5
531
100
AcDbEntity
  8
606302783-000-00-ED1_FORMAT
100
AcDbLine
 62
7
  6
CONTINUOUS
 10
154.499993824
 20
65.00000176
 11
154.499993824
 21
72.500002
  0
LINE
  5
532
100
AcDbEntity
  8
606302783-000-00-ED1_FORMAT
100
AcDbLine
 62
3
  6
CONTINUOUS
 10
160.0
 20
10.0
 11
160.0
 21
5.0
  0
LINE
  5
533
100
AcDbEntity
  8
606302783-000-00-ED1_FORMAT
100
AcDbLine
 62
3
  6
CONTINUOUS
 10
160.0
 20
287.0
 11
160.0
 21
292.0
  0
LINE
  5
534
100
AcDbEntity
  8
606302783-000-00-ED1_FORMAT
100
AcDbLine
 62
7
  6
CONTINUOUS
 10
161.999994064
 20
65.00000176
 11
161.999994064
 21
72.500002
  0
LINE
  5
535
100
AcDbEntity
  8
606302783-000-00-ED1_FORMAT
100
AcDbLine
 62
3
  6
CONTINUOUS
 10
22.9999999122
 20
93.4999984459
 11
28.9999998068
 21
93.4999984459
  0
LINE
  5
536
100
AcDbEntity
  8
606302783-000-00-ED1_FORMAT
100
AcDbLine
 62
3
  6
CONTINUOUS
 10
23.0
 20
98.5
 11
18.0
 21
98.5
  0
LINE
  5
537
100
AcDbEntity
  8
606302783-000-00-ED1_FORMAT
100
AcDbLine
 62
3
  6
CONTINUOUS
 10
410.0
 20
98.5
 11
415.0
 21
98.5
  0
LINE
  5
538
100
AcDbEntity
  8
606302783-000-00-ED1_FORMAT
100
AcDbLine
 62
90
  6
CONTINUOUS
 10
319.5746545721
 20
56.5594341567
 11
319.771370893
 21
56.4966518652
  0
LINE
  5
539
100
AcDbEntity
  8
606302783-000-00-ED1_FORMAT
100
AcDbLine
 62
90
  6
CONTINUOUS
 10
327.4483428066
 20
51.7095612656
 11
328.8858123785
 21
51.1495865603
  0
LINE
  5
53A
100
AcDbEntity
  8
606302783-000-00-ED1_FORMAT
100
AcDbLine
 62
90
  6
CONTINUOUS
 10
326.932168458
 20
51.5395669008
 11
328.2963042852
 21
50.9884537378
  0
LINE
  5
53B
100
AcDbEntity
  8
606302783-000-00-ED1_FORMAT
100
AcDbLine
 62
90
  6
CONTINUOUS
 10
319.771370893
 20
56.4966518652
 11
319.9490137263
 21
56.4220058645
  0
LINE
  5
53C
100
AcDbEntity
  8
606302783-000-00-ED1_FORMAT
100
AcDbLine
 62
90
  6
CONTINUOUS
 10
317.2765282083
 20
47.4442869521
 11
308.6544268413
 21
51.5949067174
  0
LINE
  5
53D
100
AcDbEntity
  8
606302783-000-00-ED1_FORMAT
100
AcDbLine
 62
3
  6
CONTINUOUS
 10
306.2529679515
 20
52.1786164706
 11
302.0615436566
 21
54.2349992063
  0
LINE
  5
53E
100
AcDbEntity
  8
606302783-000-00-ED1_FORMAT
100
AcDbLine
 62
3
  6
CONTINUOUS
 10
317.2765282083
 20
46.7702794944
 11
308.6552813335
 21
51.0000084565
  0
LINE
  5
53F
100
AcDbEntity
  8
606302783-000-00-ED1_FORMAT
100
AcDbLine
 62
90
  6
CONTINUOUS
 10
306.8480912796
 20
49.2196929465
 11
306.2529679515
 21
49.5195586878
  0
LINE
  5
540
100
AcDbEntity
  8
606302783-000-00-ED1_FORMAT
100
AcDbLine
 62
7
  6
CONTINUOUS
 10
171.3988033648
 20
65.00000176
 11
171.3988033648
 21
72.500002
  0
LINE
  5
541
100
AcDbEntity
  8
606302783-000-00-ED1_FORMAT
100
AcDbLine
 62
7
  6
CONTINUOUS
 10
176.3988035248
 20
65.00000176
 11
176.3988035248
 21
72.500002
  0
LINE
  5
542
100
AcDbEntity
  8
606302783-000-00-ED1_FORMAT
100
AcDbLine
 62
90
  6
CONTINUOUS
 10
327.5174346078
 20
55.960812751
 11
331.7164705138
 21
54.2350054536
  0
LINE
  5
543
100
AcDbEntity
  8
606302783-000-00-ED1_FORMAT
100
AcDbLine
 62
3
  6
CONTINUOUS
 10
317.2765282083
 20
61.1759505575
 11
325.1310514025
 21
57.6838620222
  0
LINE
  5
544
100
AcDbEntity
  8
606302783-000-00-ED1_FORMAT
100
AcDbLine
 62
3
  6
CONTINUOUS
 10
327.5174346078
 20
56.6228802056
 11
332.8883150692
 21
54.2350054536
  0
LINE
  5
545
100
AcDbEntity
  8
606302783-000-00-ED1_FORMAT
100
AcDbLine
 62
90
  6
CONTINUOUS
 10
317.2765282083
 20
60.5323080919
 11
325.1310514025
 21
56.99042631
  0
LINE
  5
546
100
AcDbEntity
  8
606302783-000-00-ED1_FORMAT
100
AcDbLine
 62
90
  6
CONTINUOUS
 10
319.4130945035
 20
55.4154712254
 11
319.2772302372
 21
55.4772960278
  0
LINE
  5
547
100
AcDbEntity
  8
606302783-000-00-ED1_FORMAT
100
AcDbLine
 62
90
  6
CONTINUOUS
 10
306.8379899606
 20
59.3176893334
 11
308.625160482
 21
58.4725202134
  0
LINE
  5
548
100
AcDbEntity
  8
606302783-000-00-ED1_FORMAT
100
AcDbLine
 62
90
  6
CONTINUOUS
 10
306.8572770711
 20
59.0472120216
 11
308.4341204311
 21
58.3007329407
  0
LINE
  5
549
100
AcDbEntity
  8
606302783-000-00-ED1_FORMAT
100
AcDbLine
 62
90
  6
CONTINUOUS
 10
328.2963042852
 20
49.2870452456
 11
325.4072355017
 21
50.7446373469
  0
LINE
  5
54A
100
AcDbEntity
  8
606302783-000-00-ED1_FORMAT
100
AcDbLine
 62
90
  6
CONTINUOUS
 10
328.3335052152
 20
48.9736602163
 11
325.1310514025
 21
50.6036919035
  0
LINE
  5
54B
100
AcDbEntity
  8
606302783-000-00-ED1_FORMAT
100
AcDbLine
 62
90
  6
CONTINUOUS
 10
306.2529679515
 20
52.7537889307
 11
303.350532468
 21
54.2350054536
  0
LINE
  5
54C
100
AcDbEntity
  8
606302783-000-00-ED1_FORMAT
100
AcDbLine
 62
90
  6
CONTINUOUS
 10
319.9490137263
 20
56.4220058645
 11
320.108315494
 21
56.3365261228
  0
LINE
  5
54D
100
AcDbEntity
  8
606302783-000-00-ED1_FORMAT
100
AcDbLine
 62
90
  6
CONTINUOUS
 10
320.108315494
 20
56.3365261228
 11
320.2500391357
 21
56.2412464233
  0
LINE
  5
54E
100
AcDbEntity
  8
606302783-000-00-ED1_FORMAT
100
AcDbLine
 62
7
  6
CONTINUOUS
 10
207.999993536
 20
65.00000176
 11
207.999993536
 21
72.500002
  0
LINE
  5
54F
100
AcDbEntity
  8
606302783-000-00-ED1_FORMAT
100
AcDbLine
 62
7
  6
CONTINUOUS
 10
210.0
 20
292.0
 11
210.0
 21
277.0
  0
LINE
  5
550
100
AcDbEntity
  8
606302783-000-00-ED1_FORMAT
100
AcDbLine
 62
3
  6
CONTINUOUS
 10
210.0
 20
10.0
 11
210.0
 21
5.0
  0
LINE
  5
551
100
AcDbEntity
  8
606302783-000-00-ED1_FORMAT
100
AcDbLine
 62
7
  6
CONTINUOUS
 10
415.0
 20
148.5
 11
400.0
 21
148.5
  0
LINE
  5
552
100
AcDbEntity
  8
606302783-000-00-ED1_FORMAT
100
AcDbLine
 62
7
  6
CONTINUOUS
 10
18.0
 20
148.5
 11
33.0
 21
148.5
  0
LINE
  5
553
100
AcDbEntity
  8
606302783-000-00-ED1_FORMAT
100
AcDbLine
 62
3
  6
CONTINUOUS
 10
23.0
 20
148.515014696
 11
29.000000192
 21
148.515014696
  0
LINE
  5
554
100
AcDbEntity
  8
606302783-000-00-ED1_FORMAT
100
AcDbLine
 62
90
  6
CONTINUOUS
 10
319.524086942
 20
55.3254977701
 11
319.4130945035
 21
55.4154712254
  0
LINE
  5
555
100
AcDbEntity
  8
606302783-000-00-ED1_FORMAT
100
AcDbLine
 62
90
  6
CONTINUOUS
 10
320.2500391357
 20
56.2412464233
 11
320.3748255204
 21
56.1372005489
  0
LINE
  5
556
100
AcDbEntity
  8
606302783-000-00-ED1_FORMAT
100
AcDbLine
 62
7
  6
CONTINUOUS
 10
223.999992048
 20
10.0
 11
223.999992048
 21
65.00000176
  0
LINE
  5
557
100
AcDbEntity
  8
606302783-000-00-ED1_FORMAT
100
AcDbLine
 62
90
  6
CONTINUOUS
 10
320.3748255204
 20
56.1372005489
 11
320.4834681053
 21
56.025418468
  0
LINE
  5
558
100
AcDbEntity
  8
606302783-000-00-ED1_FORMAT
100
AcDbLine
 62
90
  6
CONTINUOUS
 10
320.4834681053
 20
56.025418468
 11
320.5766382771
 21
55.9069454076
  0
LINE
  5
559
100
AcDbEntity
  8
606302783-000-00-ED1_FORMAT
100
AcDbLine
 62
90
  6
CONTINUOUS
 10
327.0021757866
 20
59.0598043381
 11
327.5174346078
 21
58.326871248
  0
LINE
  5
55A
100
AcDbEntity
  8
606302783-000-00-ED1_FORMAT
100
AcDbLine
 62
90
  6
CONTINUOUS
 10
319.6070032069
 20
55.2020465295
 11
319.524086942
 21
55.3254977701
  0
LINE
  5
55B
100
AcDbEntity
  8
606302783-000-00-ED1_FORMAT
100
AcDbLine
 62
90
  6
CONTINUOUS
 10
320.5766382771
 20
55.9069454076
 11
320.6550989753
 21
55.7828037068
  0
LINE
  5
55C
100
AcDbEntity
  8
606302783-000-00-ED1_FORMAT
100
AcDbLine
 62
3
  6
CONTINUOUS
 10
260.0
 20
10.0
 11
260.0
 21
5.0
  0
LINE
  5
55D
100
AcDbEntity
  8
606302783-000-00-ED1_FORMAT
100
AcDbLine
 62
3
  6
CONTINUOUS
 10
260.0
 20
287.0
 11
260.0
 21
292.0
  0
LINE
  5
55E
100
AcDbEntity
  8
606302783-000-00-ED1_FORMAT
100
AcDbLine
 62
7
  6
CONTINUOUS
 10
260.999993232
 20
43.500001072
 11
260.999993232
 21
35.0000008
  0
LINE
  5
55F
100
AcDbEntity
  8
606302783-000-00-ED1_FORMAT
100
AcDbLine
 62
7
  6
CONTINUOUS
 10
264.9013593819
 20
287.0
 11
264.9013593819
 21
225.000007
  0
LINE
  5
560
100
AcDbEntity
  8
606302783-000-00-ED1_FORMAT
100
AcDbLine
 62
3
  6
CONTINUOUS
 10
23.0
 20
198.5
 11
18.0
 21
198.5
  0
LINE
  5
561
100
AcDbEntity
  8
606302783-000-00-ED1_FORMAT
100
AcDbLine
 62
3
  6
CONTINUOUS
 10
410.0
 20
198.5
 11
415.0
 21
198.5
  0
LINE
  5
562
100
AcDbEntity
  8
606302783-000-00-ED1_FORMAT
100
AcDbLine
 62
90
  6
CONTINUOUS
 10
320.6550989753
 20
55.7828037068
 11
320.7195215868
 21
55.6540347778
  0
LINE
  5
563
100
AcDbEntity
  8
606302783-000-00-ED1_FORMAT
100
AcDbLine
 62
90
  6
CONTINUOUS
 10
309.6609271481
 20
51.1619538096
 11
308.4533770241
 21
54.0527163187
  0
LINE
  5
564
100
AcDbEntity
  8
606302783-000-00-ED1_FORMAT
100
AcDbLine
 62
7
  6
CONTINUOUS
 10
274.9014193732
 20
225.000007
 11
274.9014193732
 21
287.0000007463
  0
LINE
  5
565
100
AcDbEntity
  8
606302783-000-00-ED1_FORMAT
100
AcDbLine
 62
3
  6
CONTINUOUS
 10
28.9999998068
 20
209.9999964
 11
22.9999999122
 21
209.9999964
  0
LINE
  5
566
100
AcDbEntity
  8
606302783-000-00-ED1_FORMAT
100
AcDbLine
 62
90
  6
CONTINUOUS
 10
320.7195215868
 20
55.6540347778
 11
320.7706995685
 21
55.5216724039
  0
LINE
  5
567
100
AcDbEntity
  8
606302783-000-00-ED1_FORMAT
100
AcDbLine
 62
90
  6
CONTINUOUS
 10
308.625160482
 20
58.4725202134
 11
309.189918818
 21
56.8570377824
  0
LINE
  5
568
100
AcDbEntity
  8
606302783-000-00-ED1_FORMAT
100
AcDbLine
 62
90
  6
CONTINUOUS
 10
308.4341204311
 20
58.3007329407
 11
309.5429461837
 21
55.0142718596
  0
LINE
  5
569
100
AcDbEntity
  8
606302783-000-00-ED1_FORMAT
100
AcDbLine
 62
7
  6
CONTINUOUS
 10
294.99999432
 20
65.00000176
 11
294.99999432
 21
35.0000008
  0
LINE
  5
56A
100
AcDbEntity
  8
606302783-000-00-ED1_FORMAT
100
AcDbLine
 62
7
  6
CONTINUOUS
 10
264.9013593819
 20
225.000007
 11
410.0000007463
 21
225.000007
  0
LINE
  5
56B
100
AcDbEntity
  8
606302783-000-00-ED1_FORMAT
100
AcDbLine
 62
7
  6
CONTINUOUS
 10
274.9014193732
 20
229.5500015411
 11
376.900004085
 21
229.5500015411
  0
LINE
  5
56C
100
AcDbEntity
  8
606302783-000-00-ED1_FORMAT
100
AcDbLine
 62
7
  6
CONTINUOUS
 10
264.9013593819
 20
234.0999960821
 11
410.0000007463
 21
234.0999960821
  0
LINE
  5
56D
100
AcDbEntity
  8
606302783-000-00-ED1_FORMAT
100
AcDbLine
 62
90
  6
CONTINUOUS
 10
319.6586389523
 20
55.03980363
 11
319.6070032069
 21
55.2020465295
  0
LINE
  5
56E
100
AcDbEntity
  8
606302783-000-00-ED1_FORMAT
100
AcDbLine
 62
90
  6
CONTINUOUS
 10
320.7706995685
 20
55.5216724039
 11
320.8093043072
 21
55.3867427385
  0
LINE
  5
56F
100
AcDbEntity
  8
606302783-000-00-ED1_FORMAT
100
AcDbLine
 62
90
  6
CONTINUOUS
 10
315.9725120138
 20
56.5857631989
 11
317.1683433871
 21
51.8564423783
  0
LINE
  5
570
100
AcDbEntity
  8
606302783-000-00-ED1_FORMAT
100
AcDbLine
 62
90
  6
CONTINUOUS
 10
315.6792380698
 20
51.8104561999
 11
315.4687888379
 21
52.775513633
  0
LINE
  5
571
100
AcDbEntity
  8
606302783-000-00-ED1_FORMAT
100
AcDbLine
 62
90
  6
CONTINUOUS
 10
315.336312023
 20
53.8016825201
 11
314.9602133668
 21
55.541772045
  0
LINE
  5
572
100
AcDbEntity
  8
606302783-000-00-ED1_FORMAT
100
AcDbLine
 62
90
  6
CONTINUOUS
 10
319.6758203499
 20
54.8334437538
 11
319.6586389523
 21
55.03980363
  0
LINE
  5
573
100
AcDbEntity
  8
606302783-000-00-ED1_FORMAT
100
AcDbLine
 62
7
  6
CONTINUOUS
 10
299.9999903875
 20
10.0
 11
299.999990634
 21
24.250000456
  0
LINE
  5
574
100
AcDbEntity
  8
606302783-000-00-ED1_FORMAT
100
AcDbLine
 62
90
  6
CONTINUOUS
 10
306.2529679515
 20
49.5195586878
 11
306.2529679515
 21
52.7537889307
  0
LINE
  5
575
100
AcDbEntity
  8
606302783-000-00-ED1_FORMAT
100
AcDbLine
 62
90
  6
CONTINUOUS
 10
306.2538224437
 20
55.54782597
 11
306.2538224437
 21
59.0461400916
  0
LINE
  5
576
100
AcDbEntity
  8
606302783-000-00-ED1_FORMAT
100
AcDbLine
 62
90
  6
CONTINUOUS
 10
308.4533770241
 20
54.0527163187
 11
308.4533770241
 21
50.4031799586
  0
LINE
  5
577
100
AcDbEntity
  8
606302783-000-00-ED1_FORMAT
100
AcDbLine
 62
90
  6
CONTINUOUS
 10
308.6544268413
 20
51.5949067174
 11
308.6544268413
 21
50.2336204693
  0
LINE
  5
578
100
AcDbEntity
  8
606302783-000-00-ED1_FORMAT
100
AcDbLine
 62
3
  6
CONTINUOUS
 10
310.0
 20
10.0
 11
310.0
 21
5.0
  0
LINE
  5
579
100
AcDbEntity
  8
606302783-000-00-ED1_FORMAT
100
AcDbLine
 62
3
  6
CONTINUOUS
 10
310.0
 20
287.0
 11
310.0
 21
292.0
  0
LINE
  5
57A
100
AcDbEntity
  8
606302783-000-00-ED1_FORMAT
100
AcDbLine
 62
90
  6
CONTINUOUS
 10
310.7759784871
 20
51.0971573578
 11
310.7759784871
 21
53.7835398188
  0
LINE
  5
57B
100
AcDbEntity
  8
606302783-000-00-ED1_FORMAT
100
AcDbLine
 62
90
  6
CONTINUOUS
 10
312.2078938594
 20
56.9181225336
 11
312.2078938594
 21
51.4102448407
  0
LINE
  5
57C
100
AcDbEntity
  8
606302783-000-00-ED1_FORMAT
100
AcDbLine
 62
7
  6
CONTINUOUS
 10
314.0000008808
 20
65.00000176
 11
314.0000008808
 21
72.500002
  0
LINE
  5
57D
100
AcDbEntity
  8
606302783-000-00-ED1_FORMAT
100
AcDbLine
 62
90
  6
CONTINUOUS
 10
306.8541032428
 20
49.5294349396
 11
306.8572770711
 21
59.0472120216
  0
LINE
  5
57E
100
AcDbEntity
  8
606302783-000-00-ED1_FORMAT
100
AcDbLine
 62
7
  6
CONTINUOUS
 10
274.9014193732
 20
238.6499906232
 11
376.900004085
 21
238.6499906232
  0
LINE
  5
57F
100
AcDbEntity
  8
606302783-000-00-ED1_FORMAT
100
AcDbLine
 62
7
  6
CONTINUOUS
 10
264.9013593819
 20
243.1999851642
 11
410.0000007463
 21
243.1999851642
  0
LINE
  5
580
100
AcDbEntity
  8
606302783-000-00-ED1_FORMAT
100
AcDbLine
 62
7
  6
CONTINUOUS
 10
274.9014193732
 20
247.7499797053
 11
376.900004085
 21
247.7499797053
  0
LINE
  5
581
100
AcDbEntity
  8
606302783-000-00-ED1_FORMAT
100
AcDbLine
 62
3
  6
CONTINUOUS
 10
23.0
 20
248.5
 11
18.0
 21
248.5
  0
LINE
  5
582
100
AcDbEntity
  8
606302783-000-00-ED1_FORMAT
100
AcDbLine
 62
3
  6
CONTINUOUS
 10
410.0
 20
248.5
 11
415.0
 21
248.5
  0
LINE
  5
583
100
AcDbEntity
  8
606302783-000-00-ED1_FORMAT
100
AcDbLine
 62
7
  6
CONTINUOUS
 10
264.9013593819
 20
252.2999732463
 11
410.0000007463
 21
252.2999732463
  0
LINE
  5
584
100
AcDbEntity
  8
606302783-000-00-ED1_FORMAT
100
AcDbLine
 62
90
  6
CONTINUOUS
 10
320.8093043072
 20
55.3867427385
 11
320.8360377073
 21
55.2502871941
  0
LINE
  5
585
100
AcDbEntity
  8
606302783-000-00-ED1_FORMAT
100
AcDbLine
 62
90
  6
CONTINUOUS
 10
323.4244472923
 20
57.2541096455
 11
324.5936673358
 21
50.9565552373
  0
LINE
  5
586
100
AcDbEntity
  8
606302783-000-00-ED1_FORMAT
100
AcDbLine
 62
90
  6
CONTINUOUS
 10
322.8411647853
 20
53.3604707922
 11
322.5284816604
 21
55.3982936425
  0
LINE
  5
587
100
AcDbEntity
  8
606302783-000-00-ED1_FORMAT
100
AcDbLine
 62
90
  6
CONTINUOUS
 10
320.8360377073
 20
55.2502871941
 11
320.8516932259
 21
55.113335739
  0
LINE
  5
588
100
AcDbEntity
  8
606302783-000-00-ED1_FORMAT
100
AcDbLine
 62
90
  6
CONTINUOUS
 10
322.9856044916
 20
51.2672776077
 11
322.9365017053
 21
51.8976983318
  0
LINE
  5
589
100
AcDbEntity
  8
606302783-000-00-ED1_FORMAT
100
AcDbLine
 62
90
  6
CONTINUOUS
 10
320.8516932259
 20
55.113335739
 11
320.8569422496
 21
54.976925971
  0
LINE
  5
58A
100
AcDbEntity
  8
606302783-000-00-ED1_FORMAT
100
AcDbLine
 62
90
  6
CONTINUOUS
 10
318.7525720014
 20
55.5470821039
 11
318.7601098437
 21
53.9302530848
  0
LINE
  5
58B
100
AcDbEntity
  8
606302783-000-00-ED1_FORMAT
100
AcDbLine
 62
90
  6
CONTINUOUS
 10
317.504647119
 20
51.8526314954
 11
317.504647119
 21
56.61847423
  0
LINE
  5
58C
100
AcDbEntity
  8
606302783-000-00-ED1_FORMAT
100
AcDbLine
 62
90
  6
CONTINUOUS
 10
318.7919396796
 20
52.828049647
 11
318.7919396796
 21
51.769318502
  0
LINE
  5
58D
100
AcDbEntity
  8
606302783-000-00-ED1_FORMAT
100
AcDbLine
 62
90
  6
CONTINUOUS
 10
325.1310514025
 20
50.6036919035
 11
325.1310514025
 21
51.1375969661
  0
LINE
  5
58E
100
AcDbEntity
  8
606302783-000-00-ED1_FORMAT
100
AcDbLine
 62
90
  6
CONTINUOUS
 10
325.1310514025
 20
56.99042631
 11
325.1310514025
 21
58.2890561516
  0
LINE
  5
58F
100
AcDbEntity
  8
606302783-000-00-ED1_FORMAT
100
AcDbLine
 62
90
  6
CONTINUOUS
 10
325.4072355017
 20
50.7446373469
 11
325.4072355017
 21
58.1349919636
  0
LINE
  5
590
100
AcDbEntity
  8
606302783-000-00-ED1_FORMAT
100
AcDbLine
 62
90
  6
CONTINUOUS
 10
326.932168458
 20
58.7495740636
 11
326.932168458
 21
51.5395669008
  0
LINE
  5
591
100
AcDbEntity
  8
606302783-000-00-ED1_FORMAT
100
AcDbLine
 62
90
  6
CONTINUOUS
 10
327.4483428066
 20
52.1575097493
 11
327.4483428066
 21
51.7095612656
  0
LINE
  5
592
100
AcDbEntity
  8
606302783-000-00-ED1_FORMAT
100
AcDbLine
 62
90
  6
CONTINUOUS
 10
327.5174346078
 20
58.326871248
 11
327.5174346078
 21
55.960812751
  0
LINE
  5
593
100
AcDbEntity
  8
606302783-000-00-ED1_FORMAT
100
AcDbLine
 62
90
  6
CONTINUOUS
 10
328.2963042852
 20
50.9884537378
 11
328.2963042852
 21
49.2870452456
  0
LINE
  5
594
100
AcDbEntity
  8
606302783-000-00-ED1_FORMAT
100
AcDbLine
 62
90
  6
CONTINUOUS
 10
328.8858123785
 20
51.1495865603
 11
328.8858123785
 21
49.3918693183
  0
LINE
  5
595
100
AcDbEntity
  8
606302783-000-00-ED1_FORMAT
100
AcDbLine
 62
90
  6
CONTINUOUS
 10
320.8569422496
 20
54.976925971
 11
320.8524256478
 21
54.7780543461
  0
LINE
  5
596
100
AcDbEntity
  8
606302783-000-00-ED1_FORMAT
100
AcDbLine
 62
90
  6
CONTINUOUS
 10
319.6602563841
 20
54.6050921466
 11
319.6758203499
 21
54.8334437538
  0
LINE
  5
597
100
AcDbEntity
  8
606302783-000-00-ED1_FORMAT
100
AcDbLine
 62
90
  6
CONTINUOUS
 10
320.8524256478
 20
54.7780543461
 11
320.8380823852
 21
54.5885821358
  0
LINE
  5
598
100
AcDbEntity
  8
606302783-000-00-ED1_FORMAT
100
AcDbLine
 62
7
  6
CONTINUOUS
 10
274.9014193732
 20
256.8499677874
 11
376.900004085
 21
256.8499677874
  0
LINE
  5
599
100
AcDbEntity
  8
606302783-000-00-ED1_FORMAT
100
AcDbLine
 62
7
  6
CONTINUOUS
 10
135.0000610636
 20
259.0000097341
 11
23.0001
 21
259.0000097341
  0
LINE
  5
59A
100
AcDbEntity
  8
606302783-000-00-ED1_FORMAT
100
AcDbLine
 62
7
  6
CONTINUOUS
 10
264.9013593819
 20
261.3999623285
 11
410.0000007463
 21
261.3999623285
  0
LINE
  5
59B
100
AcDbEntity
  8
606302783-000-00-ED1_FORMAT
100
AcDbLine
 62
7
  6
CONTINUOUS
 10
135.0000610636
 20
265.0000076482
 11
23.0001
 21
265.0000076482
  0
LINE
  5
59C
100
AcDbEntity
  8
606302783-000-00-ED1_FORMAT
100
AcDbLine
 62
7
  6
CONTINUOUS
 10
274.9014193732
 20
265.9499568695
 11
376.900004085
 21
265.9499568695
  0
LINE
  5
59D
100
AcDbEntity
  8
606302783-000-00-ED1_FORMAT
100
AcDbLine
 62
90
  6
CONTINUOUS
 10
320.8380823852
 20
54.5885821358
 11
320.8140040145
 21
54.4085627459
  0
LINE
  5
59E
100
AcDbEntity
  8
606302783-000-00-ED1_FORMAT
100
AcDbLine
 62
90
  6
CONTINUOUS
 10
322.5284816604
 20
55.3982936425
 11
322.2427760762
 21
53.4197740796
  0
LINE
  5
59F
100
AcDbEntity
  8
606302783-000-00-ED1_FORMAT
100
AcDbLine
 62
90
  6
CONTINUOUS
 10
322.1121303161
 20
52.0335969303
 11
322.0031825554
 21
51.4534806222
  0
LINE
  5
5A0
100
AcDbEntity
  8
606302783-000-00-ED1_FORMAT
100
AcDbLine
 62
90
  6
CONTINUOUS
 10
320.8140040145
 20
54.4085627459
 11
320.780251571
 21
54.2380190647
  0
LINE
  5
5A1
100
AcDbEntity
  8
606302783-000-00-ED1_FORMAT
100
AcDbLine
 62
90
  6
CONTINUOUS
 10
314.4483114794
 20
52.701374987
 11
314.221260684
 21
51.6919106602
  0
LINE
  5
5A2
100
AcDbEntity
  8
606302783-000-00-ED1_FORMAT
100
AcDbLine
 62
90
  6
CONTINUOUS
 10
314.9602133668
 20
55.541772045
 11
314.5568930292
 21
53.7608995891
  0
LINE
  5
5A3
100
AcDbEntity
  8
606302783-000-00-ED1_FORMAT
100
AcDbLine
 62
90
  6
CONTINUOUS
 10
320.5375452571
 20
51.6192978933
 11
321.735726484
 21
56.8852055088
  0
LINE
  5
5A4
100
AcDbEntity
  8
606302783-000-00-ED1_FORMAT
100
AcDbLine
 62
90
  6
CONTINUOUS
 10
319.6160669282
 20
54.4151469138
 11
319.6602563841
 21
54.6050921466
  0
LINE
  5
5A5
100
AcDbEntity
  8
606302783-000-00-ED1_FORMAT
100
AcDbLine
 62
90
  6
CONTINUOUS
 10
320.780251571
 20
54.2380190647
 11
320.7368860898
 21
54.077000683
  0
LINE
  5
5A6
100
AcDbEntity
  8
606302783-000-00-ED1_FORMAT
100
AcDbLine
 62
90
  6
CONTINUOUS
 10
312.6779866622
 20
51.4975518225
 11
314.1172567713
 21
56.6976177591
  0
LINE
  5
5A7
100
AcDbEntity
  8
606302783-000-00-ED1_FORMAT
100
AcDbLine
 62
90
  6
CONTINUOUS
 10
310.7759784871
 20
53.7835398188
 11
309.6609271481
 21
51.1619538096
  0
LINE
  5
5A8
100
AcDbEntity
  8
606302783-000-00-ED1_FORMAT
100
AcDbLine
 62
90
  6
CONTINUOUS
 10
308.4533770241
 20
50.4031799586
 11
306.8541032428
 21
49.5294349396
  0
LINE
  5
5A9
100
AcDbEntity
  8
606302783-000-00-ED1_FORMAT
100
AcDbLine
 62
90
  6
CONTINUOUS
 10
319.9253015666
 20
53.0628747959
 11
319.7895898882
 21
52.9992570857
  0
LINE
  5
5AA
100
AcDbEntity
  8
606302783-000-00-ED1_FORMAT
100
AcDbLine
 62
90
  6
CONTINUOUS
 10
306.2538224437
 20
59.0461400916
 11
306.8379899606
 21
59.3176893334
  0
LINE
  5
5AB
100
AcDbEntity
  8
606302783-000-00-ED1_FORMAT
100
AcDbLine
 62
3
  6
CONTINUOUS
 10
302.0615436566
 20
54.2349992063
 11
306.2538224437
 21
56.1474824568
  0
LINE
  5
5AC
100
AcDbEntity
  8
606302783-000-00-ED1_FORMAT
100
AcDbLine
 62
3
  6
CONTINUOUS
 10
309.0000094785
 20
57.4002704925
 11
317.2765282083
 21
61.1759505575
  0
LINE
  5
5AD
100
AcDbEntity
  8
606302783-000-00-ED1_FORMAT
100
AcDbLine
 62
90
  6
CONTINUOUS
 10
309.189918818
 20
56.8570377824
 11
317.2765282083
 21
60.5323080919
  0
LINE
  5
5AE
100
AcDbEntity
  8
606302783-000-00-ED1_FORMAT
100
AcDbLine
 62
90
  6
CONTINUOUS
 10
303.350532468
 20
54.2350054536
 11
306.2538224437
 21
55.54782597
  0
LINE
  5
5AF
100
AcDbEntity
  8
606302783-000-00-ED1_FORMAT
100
AcDbLine
 62
90
  6
CONTINUOUS
 10
325.1310514025
 20
58.2890561516
 11
327.0021757866
 21
59.0598043381
  0
LINE
  5
5B0
100
AcDbEntity
  8
606302783-000-00-ED1_FORMAT
100
AcDbLine
 62
90
  6
CONTINUOUS
 10
319.1567773488
 20
53.9852228758
 11
319.3136377102
 21
54.0486460365
  0
LINE
  5
5B1
100
AcDbEntity
  8
606302783-000-00-ED1_FORMAT
100
AcDbLine
 62
90
  6
CONTINUOUS
 10
325.4072355017
 20
58.1349919636
 11
326.932168458
 21
58.7495740636
  0
LINE
  5
5B2
100
AcDbEntity
  8
606302783-000-00-ED1_FORMAT
100
AcDbLine
 62
90
  6
CONTINUOUS
 10
319.7895898882
 20
52.9992570857
 11
319.6450586292
 21
52.9455957359
  0
LINE
  5
5B3
100
AcDbEntity
  8
606302783-000-00-ED1_FORMAT
100
AcDbLine
 62
90
  6
CONTINUOUS
 10
319.6450586292
 20
52.9455957359
 11
319.4917077896
 21
52.901936523
  0
LINE
  5
5B4
100
AcDbEntity
  8
606302783-000-00-ED1_FORMAT
100
AcDbLine
 62
7
  6
CONTINUOUS
 10
264.9013593819
 20
270.4999514106
 11
410.0000007463
 21
270.4999514106
  0
LINE
  5
5B5
100
AcDbEntity
  8
606302783-000-00-ED1_FORMAT
100
AcDbLine
 62
7
  6
CONTINUOUS
 10
274.9014193732
 20
275.0499459516
 11
376.900004085
 21
275.0499459516
  0
LINE
  5
5B6
100
AcDbEntity
  8
606302783-000-00-ED1_FORMAT
100
AcDbLine
 62
7
  6
CONTINUOUS
 10
264.9013593819
 20
279.5999404927
 11
410.0000007463
 21
279.5999404927
  0
LINE
  5
5B7
100
AcDbEntity
  8
606302783-000-00-ED1_FORMAT
100
AcDbLine
 62
7
  6
CONTINUOUS
 10
135.0000610636
 20
281.0000010853
 11
23.0001
 21
281.0000010853
  0
LINE
  5
5B8
100
AcDbEntity
  8
606302783-000-00-ED1_FORMAT
100
AcDbLine
 62
7
  6
CONTINUOUS
 10
344.9999968815
 20
13.500000112
 11
344.9999968815
 21
24.250000456
  0
LINE
  5
5B9
100
AcDbEntity
  8
606302783-000-00-ED1_FORMAT
100
AcDbLine
 62
90
  6
CONTINUOUS
 10
320.7368860898
 20
54.077000683
 11
320.683968606
 21
53.9255419334
  0
LINE
  5
5BA
100
AcDbEntity
  8
606302783-000-00-ED1_FORMAT
100
AcDbLine
 62
90
  6
CONTINUOUS
 10
320.683968606
 20
53.9255419334
 11
320.6215601549
 21
53.783688592
  0
LINE
  5
5BB
100
AcDbEntity
  8
606302783-000-00-ED1_FORMAT
100
AcDbLine
 62
90
  6
CONTINUOUS
 10
319.5434350877
 20
54.2608958056
 11
319.6160669282
 21
54.4151469138
  0
LINE
  5
5BC
100
AcDbEntity
  8
606302783-000-00-ED1_FORMAT
100
AcDbLine
 62
90
  6
CONTINUOUS
 10
320.6215601549
 20
53.783688592
 11
320.5497522891
 21
53.6514749913
  0
LINE
  5
5BD
100
AcDbEntity
  8
606302783-000-00-ED1_FORMAT
100
AcDbLine
 62
90
  6
CONTINUOUS
 10
320.5497522891
 20
53.6514749913
 11
320.4686060438
 21
53.5289430928
  0
LINE
  5
5BE
100
AcDbEntity
  8
606302783-000-00-ED1_FORMAT
100
AcDbLine
 62
90
  6
CONTINUOUS
 10
309.5429461837
 20
55.0142718596
 11
311.0026020363
 21
57.1580441183
  0
LINE
  5
5BF
100
AcDbEntity
  8
606302783-000-00-ED1_FORMAT
100
AcDbLine
 62
90
  6
CONTINUOUS
 10
320.4686060438
 20
53.5289430928
 11
320.3782129718
 21
53.4161310435
  0
LINE
  5
5C0
100
AcDbEntity
  8
606302783-000-00-ED1_FORMAT
100
AcDbLine
 62
90
  6
CONTINUOUS
 10
319.4425744858
 20
54.1396303867
 11
319.5434350877
 21
54.2608958056
  0
LINE
  5
5C1
100
AcDbEntity
  8
606302783-000-00-ED1_FORMAT
100
AcDbLine
 62
90
  6
CONTINUOUS
 10
320.3782129718
 20
53.4161310435
 11
320.2786035906
 21
53.3130769905
  0
LINE
  5
5C2
100
AcDbEntity
  8
606302783-000-00-ED1_FORMAT
100
AcDbLine
 62
90
  6
CONTINUOUS
 10
320.2786035906
 20
53.3130769905
 11
320.1698694529
 21
53.2198228953
  0
LINE
  5
5C3
100
AcDbEntity
  8
606302783-000-00-ED1_FORMAT
100
AcDbLine
 62
90
  6
CONTINUOUS
 10
320.1698694529
 20
53.2198228953
 11
320.052071594
 21
53.1364107197
  0
LINE
  5
5C4
100
AcDbEntity
  8
606302783-000-00-ED1_FORMAT
100
AcDbLine
 62
90
  6
CONTINUOUS
 10
319.3136377102
 20
54.0486460365
 11
319.4425744858
 21
54.1396303867
  0
LINE
  5
5C5
100
AcDbEntity
  8
606302783-000-00-ED1_FORMAT
100
AcDbLine
 62
90
  6
CONTINUOUS
 10
320.052071594
 20
53.1364107197
 11
319.9253015666
 21
53.0628747959
  0
LINE
  5
5C6
100
AcDbEntity
  8
606302783-000-00-ED1_FORMAT
100
AcDbLine
 62
90
  6
CONTINUOUS
 10
308.6563799664
 20
50.2336204693
 11
306.8480912796
 21
49.2196929465
  0
LINE
  5
5C7
100
AcDbEntity
  8
606302783-000-00-ED1_FORMAT
100
AcDbLine
 62
90
  6
CONTINUOUS
 10
331.7164705138
 20
54.2350054536
 11
327.4483428066
 21
52.1575097493
  0
LINE
  5
5C8
100
AcDbEntity
  8
606302783-000-00-ED1_FORMAT
100
AcDbLine
 62
3
  6
CONTINUOUS
 10
325.2098477941
 20
50.5635765446
 11
317.2765282083
 21
46.7702794944
  0
LINE
  5
5C9
100
AcDbEntity
  8
606302783-000-00-ED1_FORMAT
100
AcDbLine
 62
3
  6
CONTINUOUS
 10
332.8883150692
 20
54.2350054536
 11
327.5355620503
 21
51.6755990137
  0
LINE
  5
5CA
100
AcDbEntity
  8
606302783-000-00-ED1_FORMAT
100
AcDbLine
 62
90
  6
CONTINUOUS
 10
325.1310514025
 20
51.1375969661
 11
317.2765282083
 21
47.4442869521
  0
LINE
  5
5CB
100
AcDbEntity
  8
606302783-000-00-ED1_FORMAT
100
AcDbLine
 62
7
  6
CONTINUOUS
 10
410.0
 20
287.0
 11
264.9013593819
 21
287.0
  0
LINE
  5
5CC
100
AcDbEntity
  8
606302783-000-00-ED1_FORMAT
100
AcDbLine
 62
3
  6
CONTINUOUS
 10
23.0
 20
287.0
 11
23.0001
 21
287.0
  0
LINE
  5
5CD
100
AcDbEntity
  8
606302783-000-00-ED1_FORMAT
100
AcDbLine
 62
7
  6
CONTINUOUS
 10
23.0001
 20
287.0
 11
135.0000610636
 21
287.0
  0
LINE
  5
5CE
100
AcDbEntity
  8
606302783-000-00-ED1_FORMAT
100
AcDbLine
 62
3
  6
CONTINUOUS
 10
135.0000610636
 20
287.0
 11
264.9013593819
 21
287.0
  0
LINE
  5
5CF
100
AcDbEntity
  8
606302783-000-00-ED1_FORMAT
100
AcDbLine
 62
7
  6
CONTINUOUS
 10
415.0
 20
292.0
 11
18.0
 21
292.0
  0
LINE
  5
5D0
100
AcDbEntity
  8
606302783-000-00-ED1_FORMAT
100
AcDbLine
 62
6
  6
HIDDEN
 10
420.0
 20
297.0
 11
0.0
 21
297.0
  0
LINE
  5
5D1
100
AcDbEntity
  8
606302783-000-00-ED1_FORMAT
100
AcDbLine
 62
3
  6
CONTINUOUS
 10
360.0
 20
10.0
 11
360.0
 21
5.0
  0
LINE
  5
5D2
100
AcDbEntity
  8
606302783-000-00-ED1_FORMAT
100
AcDbLine
 62
3
  6
CONTINUOUS
 10
360.0
 20
287.0
 11
360.0
 21
292.0
  0
LINE
  5
5D3
100
AcDbEntity
  8
606302783-000-00-ED1_FORMAT
100
AcDbLine
 62
7
  6
CONTINUOUS
 10
365.999998592
 20
35.0000008
 11
366.0000025448
 21
72.500002
  0
LINE
  5
5D4
100
AcDbEntity
  8
606302783-000-00-ED1_FORMAT
100
AcDbLine
 62
90
  6
CONTINUOUS
 10
328.8858123785
 20
49.3918693183
 11
328.3335052152
 21
48.9736602163
  0
LINE
  5
5D5
100
AcDbEntity
  8
606302783-000-00-ED1_FORMAT
100
AcDbLine
 62
7
  6
CONTINUOUS
 10
376.8994429408
 20
40.9546819905
 11
376.8994429408
 21
65.00000176
  0
LINE
  5
5D6
100
AcDbEntity
  8
606302783-000-00-ED1_FORMAT
100
AcDbLine
 62
7
  6
CONTINUOUS
 10
376.900004085
 20
225.000007
 11
376.900004085
 21
287.0000007463
  0
LINE
  5
5D7
100
AcDbEntity
  8
606302783-000-00-ED1_FORMAT
100
AcDbLine
 62
7
  6
CONTINUOUS
 10
377.7325379674
 20
13.500000112
 11
377.7325379674
 21
10.0
  0
LINE
  5
5D8
100
AcDbEntity
  8
606302783-000-00-ED1_FORMAT
100
AcDbLine
 62
7
  6
CONTINUOUS
 10
391.8994434208
 20
65.00000176
 11
391.8994434208
 21
35.0000008
  0
LINE
  5
5D9
100
AcDbEntity
  8
606302783-000-00-ED1_FORMAT
100
AcDbLine
 62
7
  6
CONTINUOUS
 10
391.900002572
 20
225.000007
 11
391.900002572
 21
287.0000007463
  0
LINE
  5
5DA
100
AcDbEntity
  8
606302783-000-00-ED1_FORMAT
100
AcDbLine
 62
7
  6
CONTINUOUS
 10
399.9999602137
 20
13.500000112
 11
399.9999602137
 21
35.0000008
  0
LINE
  5
5DB
100
AcDbEntity
  8
606302783-000-00-ED1_FORMAT
100
AcDbLine
 62
7
  6
CONTINUOUS
 10
410.0
 20
10.0
 11
410.0
 21
78.4999970131
  0
LINE
  5
5DC
100
AcDbEntity
  8
606302783-000-00-ED1_FORMAT
100
AcDbLine
 62
3
  6
CONTINUOUS
 10
410.0
 20
78.4999970131
 11
410.0000007463
 21
225.000007
  0
LINE
  5
5DD
100
AcDbEntity
  8
606302783-000-00-ED1_FORMAT
100
AcDbLine
 62
7
  6
CONTINUOUS
 10
410.0000007463
 20
225.000007
 11
410.0000007463
 21
287.0000007463
  0
LINE
  5
5DE
100
AcDbEntity
  8
606302783-000-00-ED1_FORMAT
100
AcDbLine
 62
7
  6
CONTINUOUS
 10
415.0
 20
5.0
 11
415.0
 21
292.0
  0
LINE
  5
5DF
100
AcDbEntity
  8
606302783-000-00-ED1_FORMAT
100
AcDbLine
 62
6
  6
HIDDEN
 10
420.0
 20
0.0
 11
420.0
 21
297.0
  0
LINE
  5
5E0
100
AcDbEntity
  8
30338490_CL
100
AcDbLine
 62
7
  6
CONTINUOUS
 10
152.2152219211
 20
145.5313250476
 11
152.2152219211
 21
134.7449733886
  0
LINE
  5
5E1
100
AcDbEntity
  8
30338490_CL
100
AcDbLine
 62
7
  6
CONTINUOUS
 10
152.2152219211
 20
158.0713250476
 11
152.2152219211
 21
168.8576770315
  0
LINE
  5
5E2
100
AcDbEntity
  8
30338490_CL
100
AcDbLine
 62
9
  6
CONTINUOUS
 10
153.1651844791
 20
169.8564243741
 11
153.1651844791
 21
159.8085861902
  0
LINE
  5
5E3
100
AcDbEntity
  8
30338490_CL
100
AcDbLine
 62
9
  6
CONTINUOUS
 10
153.1651844791
 20
143.7940639051
 11
153.1651844791
 21
133.7462257212
  0
LINE
  5
5E4
100
AcDbEntity
  8
30338490_CL
100
AcDbLine
 62
7
  6
CONTINUOUS
 10
153.2152219211
 20
146.5313250476
 11
153.2152219211
 21
143.9247092808
  0
LINE
  5
5E5
100
AcDbEntity
  8
30338490_HL
100
AcDbLine
 62
6
  6
HIDDEN
 10
153.2152219211
 20
138.8013250476
 11
153.2152219211
 21
143.9247092808
  0
LINE
  5
5E6
100
AcDbEntity
  8
30338490_CL
100
AcDbLine
 62
7
  6
CONTINUOUS
 10
153.2152219211
 20
157.0713250476
 11
153.2152219211
 21
159.6779408145
  0
LINE
  5
5E7
100
AcDbEntity
  8
30338490_HL
100
AcDbLine
 62
6
  6
HIDDEN
 10
153.2152219211
 20
159.6779408145
 11
153.2152219211
 21
164.8013250476
  0
LINE
  5
5E8
100
AcDbEntity
  8
30338490_CL
100
AcDbLine
 62
9
  6
CONTINUOUS
 10
155.2152219211
 20
146.5313250476
 11
155.2152219211
 21
143.5816071807
  0
LINE
  5
5E9
100
AcDbEntity
  8
30338490_CL
100
AcDbLine
 62
9
  6
CONTINUOUS
 10
155.2152219211
 20
157.0713250476
 11
155.2152219211
 21
160.0210429145
  0
LINE
  5
5EA
100
AcDbEntity
  8
30338490_CL
100
AcDbLine
 62
7
  6
CONTINUOUS
 10
156.7152219211
 20
157.5959723369
 11
156.7152219211
 21
146.0066777583
  0
LINE
  5
5EB
100
AcDbEntity
  8
30338490_CL
100
AcDbLine
 62
9
  6
CONTINUOUS
 10
158.2152219211
 20
146.5313250476
 11
158.2152219211
 21
141.9328657398
  0
LINE
  5
5EC
100
AcDbEntity
  8
30338490_CL
100
AcDbLine
 62
9
  6
CONTINUOUS
 10
158.2152219211
 20
157.0713250476
 11
158.2152219211
 21
161.6697843555
  0
LINE
  5
5ED
100
AcDbEntity
  8
30338490_HL
100
AcDbLine
 62
6
  6
HIDDEN
 10
159.7152219211
 20
145.819838616
 11
159.7152219211
 21
157.7828114792
  0
LINE
  5
5EE
100
AcDbEntity
  8
30338490_HL
100
AcDbLine
 62
6
  6
HIDDEN
 10
162.1191965173
 20
164.8013250476
 11
162.1191965173
 21
138.8013250476
  0
LINE
  5
5EF
100
AcDbEntity
  8
30338490_CL
100
AcDbLine
 62
9
  6
CONTINUOUS
 10
163.7069097576
 20
136.0513250476
 11
163.7069097576
 21
167.5513250476
  0
LINE
  5
5F0
100
AcDbEntity
  8
30338490_CL
100
AcDbLine
 62
9
  6
CONTINUOUS
 10
164.1399224595
 20
135.8013250476
 11
164.1399224595
 21
167.8013250476
  0
LINE
  5
5F1
100
AcDbEntity
  8
30338490_HL
100
AcDbLine
 62
6
  6
HIDDEN
 10
162.1191965173
 20
164.8013250476
 11
163.7069097576
 21
167.5513250476
  0
LINE
  5
5F2
100
AcDbEntity
  8
30338490_HL
100
AcDbLine
 62
6
  6
HIDDEN
 10
162.1191965173
 20
138.8013250476
 11
163.7069097576
 21
136.0513250476
  0
LINE
  5
5F3
100
AcDbEntity
  8
30338490_AXIS
100
AcDbLine
 62
3
  6
CENTER
 10
169.6152219211
 20
151.8013250476
 11
169.6152219211
 21
145.8013250476
  0
LINE
  5
5F4
100
AcDbEntity
  8
30338490_AXIS
100
AcDbLine
 62
3
  6
CENTER
 10
169.6152219211
 20
151.8013250476
 11
169.6152219211
 21
157.8013250476
  0
LINE
  5
5F5
100
AcDbEntity
  8
30338490_CL
100
AcDbLine
 62
9
  6
CONTINUOUS
 10
171.9190694984
 20
149.8797927579
 11
171.9190694984
 21
135.8013250476
  0
LINE
  5
5F6
100
AcDbEntity
  8
30338490_CL
100
AcDbLine
 62
9
  6
CONTINUOUS
 10
171.9190694984
 20
153.7228573374
 11
171.9190694984
 21
167.8013250476
  0
LINE
  5
5F7
100
AcDbEntity
  8
30338490_CL
100
AcDbLine
 62
7
  6
CONTINUOUS
 10
177.1152219211
 20
176.6013250476
 11
177.3152219211
 21
176.8013250476
  0
LINE
  5
5F8
100
AcDbEntity
  8
30338490_CL
100
AcDbLine
 62
7
  6
CONTINUOUS
 10
177.1152219211
 20
127.0013250476
 11
177.3152219211
 21
126.8013250476
  0
LINE
  5
5F9
100
AcDbEntity
  8
30338490_CL
100
AcDbLine
 62
7
  6
CONTINUOUS
 10
175.1152219211
 20
132.6465244464
 11
175.1152219211
 21
170.9561256488
  0
LINE
  5
5FA
100
AcDbEntity
  8
30338490_CL
100
AcDbLine
 62
9
  6
CONTINUOUS
 10
175.7853321541
 20
170.7765701531
 11
175.7853321541
 21
132.8260799422
  0
LINE
  5
5FB
100
AcDbEntity
  8
30338490_CL
100
AcDbLine
 62
9
  6
CONTINUOUS
 10
175.9406235812
 20
170.7561256488
 11
175.9406235812
 21
132.8465244464
  0
LINE
  5
5FC
100
AcDbEntity
  8
30338490_CL
100
AcDbLine
 62
9
  6
CONTINUOUS
 10
176.6152219211
 20
170.7561256488
 11
176.6152219211
 21
132.8465244464
  0
LINE
  5
5FD
100
AcDbEntity
  8
30338490_CL
100
AcDbLine
 62
7
  6
CONTINUOUS
 10
152.2152219211
 20
145.5313250476
 11
153.2152219211
 21
146.5313250476
  0
LINE
  5
5FE
100
AcDbEntity
  8
30338490_CL
100
AcDbLine
 62
7
  6
CONTINUOUS
 10
153.2152219211
 20
157.0713250476
 11
152.2152219211
 21
158.0713250476
  0
LINE
  5
5FF
100
AcDbEntity
  8
30338490_CL
100
AcDbLine
 62
7
  6
CONTINUOUS
 10
177.1152219211
 20
127.0013250476
 11
177.1152219211
 21
176.6013250476
  0
LINE
  5
600
100
AcDbEntity
  8
30338490_CL
100
AcDbLine
 62
9
  6
CONTINUOUS
 10
177.2093827623
 20
132.1630205858
 11
177.2093827623
 21
171.4396295094
  0
LINE
  5
601
100
AcDbEntity
  8
30338490_HL
100
AcDbLine
 62
6
  6
HIDDEN
 10
177.2152219211
 20
171.3561256488
 11
177.2152219211
 21
132.2465244464
  0
LINE
  5
602
100
AcDbEntity
  8
30338490_CL
100
AcDbLine
 62
7
  6
CONTINUOUS
 10
177.3152219211
 20
126.8013250476
 11
177.3152219211
 21
176.8013250476
  0
LINE
  5
603
100
AcDbEntity
  8
30338490_HL
100
AcDbLine
 62
6
  6
HIDDEN
 10
179.1152219211
 20
176.1013250476
 11
179.1152219211
 21
172.0013250476
  0
LINE
  5
604
100
AcDbEntity
  8
30338490_HL
100
AcDbLine
 62
6
  6
HIDDEN
 10
180.3652219211
 20
127.3153472465
 11
180.3652219211
 21
134.0728336926
  0
LINE
  5
605
100
AcDbEntity
  8
30338490_HL
100
AcDbLine
 62
6
  6
HIDDEN
 10
177.1152219211
 20
131.493031387
 11
177.2093827623
 21
132.1630205858
  0
LINE
  5
606
100
AcDbEntity
  8
30338490_HL
100
AcDbLine
 62
6
  6
HIDDEN
 10
189.8152219211
 20
176.8013250476
 11
189.1152219211
 21
176.1013250476
  0
LINE
  5
607
100
AcDbEntity
  8
30338490_HL
100
AcDbLine
 62
6
  6
HIDDEN
 10
184.7152219211
 20
171.7013250476
 11
184.1152219211
 21
171.1013250476
  0
LINE
  5
608
100
AcDbEntity
  8
30338490_HL
100
AcDbLine
 62
6
  6
HIDDEN
 10
189.1152219211
 20
172.0013250476
 11
188.8152219211
 21
171.7013250476
  0
LINE
  5
609
100
AcDbEntity
  8
30338490_CL
100
AcDbLine
 62
9
  6
CONTINUOUS
 10
153.0259535763
 20
160.4458964066
 11
152.2333772667
 21
160.0860742917
  0
LINE
  5
60A
100
AcDbEntity
  8
30338490_CL
100
AcDbLine
 62
9
  6
CONTINUOUS
 10
153.0259535763
 20
143.1567536887
 11
152.2333772667
 21
143.5165758036
  0
LINE
  5
60B
100
AcDbEntity
  8
30338490_HL
100
AcDbLine
 62
6
  6
HIDDEN
 10
188.3788632106
 20
126.8017059569
 11
187.8652219211
 21
127.3153472465
  0
LINE
  5
60C
100
AcDbEntity
  8
30338490_HL
100
AcDbLine
 62
6
  6
HIDDEN
 10
177.1152219211
 20
172.1096187083
 11
177.2093827623
 21
171.4396295094
  0
LINE
  5
60D
100
AcDbEntity
  8
30338490_HL
100
AcDbLine
 62
6
  6
HIDDEN
 10
184.0652219211
 20
152.8013250476
 11
184.0652219211
 21
150.8013250476
  0
LINE
  5
60E
100
AcDbEntity
  8
30338490_AXIS
100
AcDbLine
 62
3
  6
CENTER
 10
184.1152219211
 20
138.4013250476
 11
184.1152219211
 21
123.6253472465
  0
LINE
  5
60F
100
AcDbEntity
  8
30338490_AXIS
100
AcDbLine
 62
3
  6
CENTER
 10
184.1152219211
 20
168.1013250476
 11
184.1152219211
 21
181.1013250476
  0
LINE
  5
610
100
AcDbEntity
  8
30338490_HL
100
AcDbLine
 62
6
  6
HIDDEN
 10
184.7152219211
 20
164.8013250476
 11
184.7152219211
 21
138.8013250476
  0
LINE
  5
611
100
AcDbEntity
  8
30338490_CL
100
AcDbLine
 62
7
  6
CONTINUOUS
 10
177.3152219211
 20
126.8013250476
 11
179.8511909983
 21
126.8013250476
  0
LINE
  5
612
100
AcDbEntity
  8
30338490_HL
100
AcDbLine
 62
6
  6
HIDDEN
 10
179.8511909983
 20
126.8013250476
 11
179.8538147225
 21
126.8013250476
  0
LINE
  5
613
100
AcDbEntity
  8
30338490_HL
100
AcDbLine
 62
6
  6
HIDDEN
 10
188.3766291681
 20
126.8013250476
 11
188.3792528587
 21
126.8013250476
  0
LINE
  5
614
100
AcDbEntity
  8
30338490_CL
100
AcDbLine
 62
7
  6
CONTINUOUS
 10
188.3792528587
 20
126.8013250476
 11
191.7377228463
 21
126.8013250476
  0
LINE
  5
615
100
AcDbEntity
  8
30338490_CL
100
AcDbLine
 62
7
  6
CONTINUOUS
 10
198.4927209959
 20
126.8013250476
 11
203.0652219211
 21
126.8013250476
  0
LINE
  5
616
100
AcDbEntity
  8
30338490_HL
100
AcDbLine
 62
6
  6
HIDDEN
 10
187.1152219211
 20
163.6013250476
 11
187.1152219211
 21
140.0013250476
  0
LINE
  5
617
100
AcDbEntity
  8
30338490_HL
100
AcDbLine
 62
6
  6
HIDDEN
 10
187.8652219211
 20
127.3153472465
 11
187.8652219211
 21
134.0728336926
  0
LINE
  5
618
100
AcDbEntity
  8
30338490_HL
100
AcDbLine
 62
6
  6
HIDDEN
 10
189.1152219211
 20
176.1013250476
 11
189.1152219211
 21
172.0013250476
  0
LINE
  5
619
100
AcDbEntity
  8
30338490_CL
100
AcDbLine
 62
7
  6
CONTINUOUS
 10
198.4927209959
 20
176.8013250476
 11
196.9902219211
 21
174.1989203118
  0
LINE
  5
61A
100
AcDbEntity
  8
30338490_HL
100
AcDbLine
 62
6
  6
HIDDEN
 10
187.8652219211
 20
127.3153472465
 11
180.3652219211
 21
127.3153472465
  0
LINE
  5
61B
100
AcDbEntity
  8
30338490_CL
100
AcDbLine
 62
7
  6
CONTINUOUS
 10
196.2402219211
 20
130.3013250476
 11
193.9902219211
 21
130.3013250476
  0
LINE
  5
61C
100
AcDbEntity
  8
30338490_CL
100
AcDbLine
 62
7
  6
CONTINUOUS
 10
153.1651844791
 20
133.7462257212
 11
175.1152219211
 21
132.6465244464
  0
LINE
  5
61D
100
AcDbEntity
  8
30338490_HL
100
AcDbLine
 62
6
  6
HIDDEN
 10
187.8652219211
 20
134.0728336926
 11
184.2152219211
 21
135.4013250476
  0
LINE
  5
61E
100
AcDbEntity
  8
30338490_CL
100
AcDbLine
 62
7
  6
CONTINUOUS
 10
198.4927209959
 20
126.8013250476
 11
196.9902219211
 21
129.4037297834
  0
LINE
  5
61F
100
AcDbEntity
  8
30338490_AXIS
100
AcDbLine
 62
3
  6
CENTER
 10
190.1152219211
 20
151.8013250476
 11
190.1152219211
 21
144.8513250476
  0
LINE
  5
620
100
AcDbEntity
  8
30338490_AXIS
100
AcDbLine
 62
3
  6
CENTER
 10
190.1152219211
 20
151.8013250476
 11
190.1152219211
 21
158.7513250476
  0
LINE
  5
621
100
AcDbEntity
  8
30338490_CL
100
AcDbLine
 62
7
  6
CONTINUOUS
 10
191.7377228463
 20
176.8013250476
 11
191.7377228463
 21
157.8013250476
  0
LINE
  5
622
100
AcDbEntity
  8
30338490_CL
100
AcDbLine
 62
7
  6
CONTINUOUS
 10
191.7377228463
 20
145.8013250476
 11
191.7377228463
 21
136.3013250476
  0
LINE
  5
623
100
AcDbEntity
  8
30338490_CL
100
AcDbLine
 62
7
  6
CONTINUOUS
 10
191.7377228463
 20
132.1862798017
 11
191.7377228463
 21
126.8013250476
  0
LINE
  5
624
100
AcDbEntity
  8
30338490_HL
100
AcDbLine
 62
6
  6
HIDDEN
 10
191.7377228463
 20
132.1862798017
 11
191.7377228463
 21
136.3013250476
  0
LINE
  5
625
100
AcDbEntity
  8
30338490_CL
100
AcDbLine
 62
7
  6
CONTINUOUS
 10
193.2402219211
 20
174.1989203014
 11
193.2402219211
 21
157.8013250476
  0
LINE
  5
626
100
AcDbEntity
  8
30338490_CL
100
AcDbLine
 62
7
  6
CONTINUOUS
 10
193.2402219211
 20
145.8013250476
 11
193.2402219211
 21
136.3013250476
  0
LINE
  5
627
100
AcDbEntity
  8
30338490_HL
100
AcDbLine
 62
6
  6
HIDDEN
 10
193.2402219211
 20
135.8384775573
 11
193.2402219211
 21
136.3013250476
  0
LINE
  5
628
100
AcDbEntity
  8
30338490_CL
100
AcDbLine
 62
7
  6
CONTINUOUS
 10
193.2402219211
 20
129.4037300647
 11
193.2402219211
 21
135.8384775573
  0
LINE
  5
629
100
AcDbEntity
  8
30338490_HL
100
AcDbLine
 62
6
  6
HIDDEN
 10
153.2152219211
 20
138.8013250476
 11
152.2152219211
 21
138.2239747784
  0
LINE
  5
62A
100
AcDbEntity
  8
30338490_CL
100
AcDbLine
 62
7
  6
CONTINUOUS
 10
222.6435053445
 20
134.8013250476
 11
266.1936810168
 21
138.2287982056
  0
LINE
  5
62B
100
AcDbEntity
  8
30338490_CL
100
AcDbLine
 62
7
  6
CONTINUOUS
 10
184.368999877
 20
132.1862798017
 11
191.7377228463
 21
132.1862798017
  0
LINE
  5
62C
100
AcDbEntity
  8
30338490_CL
100
AcDbLine
 62
7
  6
CONTINUOUS
 10
198.4927209959
 20
132.1862798017
 11
203.0652219211
 21
132.1862798017
  0
LINE
  5
62D
100
AcDbEntity
  8
30338490_CL
100
AcDbLine
 62
7
  6
CONTINUOUS
 10
175.9406235812
 20
132.8465244464
 11
176.6152219211
 21
132.8465244464
  0
LINE
  5
62E
100
AcDbEntity
  8
30338490_HL
100
AcDbLine
 62
6
  6
HIDDEN
 10
187.8652219211
 20
134.0728336926
 11
180.3652219211
 21
134.0728336926
  0
LINE
  5
62F
100
AcDbEntity
  8
30338490_CL
100
AcDbLine
 62
7
  6
CONTINUOUS
 10
204.0652219211
 20
134.8013250476
 11
205.0652219211
 21
134.8013250476
  0
LINE
  5
630
100
AcDbEntity
  8
30338490_CL
100
AcDbLine
 62
7
  6
CONTINUOUS
 10
213.0652219211
 20
134.8013250476
 11
222.6435053445
 21
134.8013250476
  0
LINE
  5
631
100
AcDbEntity
  8
30338490_CL
100
AcDbLine
 62
7
  6
CONTINUOUS
 10
205.0652219211
 20
134.9513250476
 11
206.5652219211
 21
134.9513250476
  0
LINE
  5
632
100
AcDbEntity
  8
30338490_CL
100
AcDbLine
 62
7
  6
CONTINUOUS
 10
211.5652219211
 20
134.9513250476
 11
213.0652219211
 21
134.9513250476
  0
LINE
  5
633
100
AcDbEntity
  8
30338490_HL
100
AcDbLine
 62
6
  6
HIDDEN
 10
184.0152219211
 20
135.4013250476
 11
184.2152219211
 21
135.4013250476
  0
LINE
  5
634
100
AcDbEntity
  8
30338490_HL
100
AcDbLine
 62
6
  6
HIDDEN
 10
153.2152219211
 20
164.8013250476
 11
152.2152219211
 21
165.3786753168
  0
LINE
  5
635
100
AcDbEntity
  8
30338490_CL
100
AcDbLine
 62
9
  6
CONTINUOUS
 10
193.9902219211
 20
173.3013250476
 11
193.9902219211
 21
156.4110972763
  0
LINE
  5
636
100
AcDbEntity
  8
30338490_CL
100
AcDbLine
 62
9
  6
CONTINUOUS
 10
193.9902219211
 20
147.191552819
 11
193.9902219211
 21
130.3013250476
  0
LINE
  5
637
100
AcDbEntity
  8
30338490_HL
100
AcDbLine
 62
6
  6
HIDDEN
 10
194.1152219211
 20
142.8013250476
 11
194.1152219211
 21
160.8013250476
  0
LINE
  5
638
100
AcDbEntity
  8
30338490_CL
100
AcDbLine
 62
9
  6
CONTINUOUS
 10
196.2402219211
 20
173.3013250476
 11
196.2402219211
 21
156.4110972763
  0
LINE
  5
639
100
AcDbEntity
  8
30338490_CL
100
AcDbLine
 62
9
  6
CONTINUOUS
 10
196.2402219211
 20
147.191552819
 11
196.2402219211
 21
130.3013250476
  0
LINE
  5
63A
100
AcDbEntity
  8
30338490_HL
100
AcDbLine
 62
6
  6
HIDDEN
 10
196.9902219211
 20
136.3013250476
 11
196.9902219211
 21
135.8384775573
  0
LINE
  5
63B
100
AcDbEntity
  8
30338490_CL
100
AcDbLine
 62
7
  6
CONTINUOUS
 10
196.9902219211
 20
129.4037300647
 11
196.9902219211
 21
135.8384775573
  0
LINE
  5
63C
100
AcDbEntity
  8
30338490_CL
100
AcDbLine
 62
7
  6
CONTINUOUS
 10
196.9902219211
 20
136.3013250476
 11
196.9902219211
 21
145.8013250476
  0
LINE
  5
63D
100
AcDbEntity
  8
30338490_CL
100
AcDbLine
 62
7
  6
CONTINUOUS
 10
196.9902219211
 20
157.8013250476
 11
196.9902219211
 21
174.1989203014
  0
LINE
  5
63E
100
AcDbEntity
  8
30338490_HL
100
AcDbLine
 62
6
  6
HIDDEN
 10
197.1152219211
 20
142.8013250476
 11
197.1152219211
 21
160.8013250476
  0
LINE
  5
63F
100
AcDbEntity
  8
30338490_HL
100
AcDbLine
 62
6
  6
HIDDEN
 10
164.1399224595
 20
135.8013250476
 11
171.9190694984
 21
135.8013250476
  0
LINE
  5
640
100
AcDbEntity
  8
30338490_CL
100
AcDbLine
 62
7
  6
CONTINUOUS
 10
190.0652219211
 20
136.3013250476
 11
193.3165716804
 21
136.3013250476
  0
LINE
  5
641
100
AcDbEntity
  8
30338490_CL
100
AcDbLine
 62
7
  6
CONTINUOUS
 10
196.9138721618
 20
136.3013250476
 11
203.0652219211
 21
136.3013250476
  0
LINE
  5
642
100
AcDbEntity
  8
30338490_HL
100
AcDbLine
 62
6
  6
HIDDEN
 10
153.2152219211
 20
138.8013250476
 11
162.1191965173
 21
138.8013250476
  0
LINE
  5
643
100
AcDbEntity
  8
30338490_HL
100
AcDbLine
 62
6
  6
HIDDEN
 10
177.1152219211
 20
138.8013250476
 11
184.7152219211
 21
138.8013250476
  0
LINE
  5
644
100
AcDbEntity
  8
30338490_HL
100
AcDbLine
 62
6
  6
HIDDEN
 10
197.980136625
 20
155.2013250476
 11
197.980136625
 21
148.4013250476
  0
LINE
  5
645
100
AcDbEntity
  8
30338490_CL
100
AcDbLine
 62
7
  6
CONTINUOUS
 10
198.4927209959
 20
176.8013250476
 11
198.4927209959
 21
157.8013250476
  0
LINE
  5
646
100
AcDbEntity
  8
30338490_CL
100
AcDbLine
 62
7
  6
CONTINUOUS
 10
198.4927209959
 20
145.8013250476
 11
198.4927209959
 21
136.3013250476
  0
LINE
  5
647
100
AcDbEntity
  8
30338490_CL
100
AcDbLine
 62
7
  6
CONTINUOUS
 10
198.4927209959
 20
132.1862798017
 11
198.4927209959
 21
126.8013250476
  0
LINE
  5
648
100
AcDbEntity
  8
30338490_HL
100
AcDbLine
 62
6
  6
HIDDEN
 10
198.4927209959
 20
132.1862798017
 11
198.4927209959
 21
136.3013250476
  0
LINE
  5
649
100
AcDbEntity
  8
30338490_HL
100
AcDbLine
 62
6
  6
HIDDEN
 10
198.6152219211
 20
147.3013250476
 11
198.6152219211
 21
156.3013250476
  0
LINE
  5
64A
100
AcDbEntity
  8
30338490_HL
100
AcDbLine
 62
6
  6
HIDDEN
 10
197.980136625
 20
155.2013250476
 11
198.6152219211
 21
156.3013250476
  0
LINE
  5
64B
100
AcDbEntity
  8
30338490_CL
100
AcDbLine
 62
7
  6
CONTINUOUS
 10
175.1152219211
 20
132.6465244464
 11
175.7853321541
 21
132.8260799422
  0
LINE
  5
64C
100
AcDbEntity
  8
30338490_HL
100
AcDbLine
 62
6
  6
HIDDEN
 10
212.0652219211
 20
141.4513250476
 11
206.0652219211
 21
141.4513250476
  0
LINE
  5
64D
100
AcDbEntity
  8
30338490_HL
100
AcDbLine
 62
6
  6
HIDDEN
 10
197.1152219211
 20
142.8013250476
 11
194.1152219211
 21
142.8013250476
  0
LINE
  5
64E
100
AcDbEntity
  8
30338490_CL
100
AcDbLine
 62
9
  6
CONTINUOUS
 10
158.2152219211
 20
143.0708276582
 11
156.6056917901
 21
143.0708276582
  0
LINE
  5
64F
100
AcDbEntity
  8
30338490_HL
100
AcDbLine
 62
6
  6
HIDDEN
 10
211.5652219211
 20
143.4513250476
 11
206.5652219211
 21
143.4513250476
  0
LINE
  5
650
100
AcDbEntity
  8
30338490_HL
100
AcDbLine
 62
6
  6
HIDDEN
 10
194.1152219211
 20
143.8013250476
 11
187.1152219211
 21
143.8013250476
  0
LINE
  5
651
100
AcDbEntity
  8
30338490_HL
100
AcDbLine
 62
6
  6
HIDDEN
 10
197.980136625
 20
148.4013250476
 11
198.6152219211
 21
147.3013250476
  0
LINE
  5
652
100
AcDbEntity
  8
30338490_HL
100
AcDbLine
 62
6
  6
HIDDEN
 10
202.1152219211
 20
156.8013250476
 11
202.1152219211
 21
146.8013250476
  0
LINE
  5
653
100
AcDbEntity
  8
30338490_CL
100
AcDbLine
 62
7
  6
CONTINUOUS
 10
203.0652219211
 20
126.8013273939
 11
203.0652219211
 21
176.8013223308
  0
LINE
  5
654
100
AcDbEntity
  8
30338490_CL
100
AcDbLine
 62
9
  6
CONTINUOUS
 10
204.0652219211
 20
168.8013250476
 11
204.0652219211
 21
134.8013250476
  0
LINE
  5
655
100
AcDbEntity
  8
30338490_CL
100
AcDbLine
 62
7
  6
CONTINUOUS
 10
205.0652219211
 20
168.8013250476
 11
205.0652219211
 21
134.8013250476
  0
LINE
  5
656
100
AcDbEntity
  8
30252542_HP_HL
100
AcDbLine
 62
6
  6
HIDDEN
 10
206.6152219211
 20
156.1863250476
 11
207.2302219211
 21
156.8013250476
  0
LINE
  5
657
100
AcDbEntity
  8
30338490_HL
100
AcDbLine
 62
6
  6
HIDDEN
 10
211.5652219211
 20
160.1513250476
 11
209.0652219211
 21
158.6491735001
  0
LINE
  5
658
100
AcDbEntity
  8
30338490_HL
100
AcDbLine
 62
6
  6
HIDDEN
 10
194.1152219211
 20
144.3013250476
 11
187.1152219211
 21
144.3013250476
  0
LINE
  5
659
100
AcDbEntity
  8
30338490_HL
100
AcDbLine
 62
6
  6
HIDDEN
 10
218.6152219211
 20
144.6513250476
 11
231.1152219211
 21
144.6513250476
  0
LINE
  5
65A
100
AcDbEntity
  8
30338490_HL
100
AcDbLine
 62
6
  6
HIDDEN
 10
190.0652219211
 20
144.8013250476
 11
193.2489452235
 21
144.8013250476
  0
LINE
  5
65B
100
AcDbEntity
  8
30338490_HL
100
AcDbLine
 62
6
  6
HIDDEN
 10
196.9814986187
 20
144.8013250476
 11
203.0652219211
 21
144.8013250476
  0
LINE
  5
65C
100
AcDbEntity
  8
30338490_HL
100
AcDbLine
 62
6
  6
HIDDEN
 10
231.1152219211
 20
144.8013250476
 11
265.1152219211
 21
144.8013250476
  0
LINE
  5
65D
100
AcDbEntity
  8
30338490_CL
100
AcDbLine
 62
7
  6
CONTINUOUS
 10
190.0652219211
 20
145.8013250476
 11
193.3619940811
 21
145.8013250476
  0
LINE
  5
65E
100
AcDbEntity
  8
30338490_CL
100
AcDbLine
 62
7
  6
CONTINUOUS
 10
196.8684497611
 20
145.8013250476
 11
203.0652219211
 21
145.8013250476
  0
LINE
  5
65F
100
AcDbEntity
  8
30338490_HL
100
AcDbLine
 62
6
  6
HIDDEN
 10
158.2152219211
 20
146.5313250476
 11
155.2152219211
 21
146.5313250476
  0
LINE
  5
660
100
AcDbEntity
  8
30338490_CL
100
AcDbLine
 62
7
  6
CONTINUOUS
 10
153.2152219211
 20
146.5313250476
 11
155.2152219211
 21
146.5313250476
  0
LINE
  5
661
100
AcDbEntity
  8
30338490_HL
100
AcDbLine
 62
6
  6
HIDDEN
 10
218.6152219211
 20
146.8013250476
 11
202.1152219211
 21
146.8013250476
  0
LINE
  5
662
100
AcDbEntity
  8
30252542_HP_HL
100
AcDbLine
 62
6
  6
HIDDEN
 10
207.2302219211
 20
146.8013250476
 11
213.4152219211
 21
146.8013250476
  0
LINE
  5
663
100
AcDbEntity
  8
30252542_HP_HL
100
AcDbLine
 62
6
  6
HIDDEN
 10
218.6152219211
 20
146.9013250476
 11
220.1152219211
 21
146.9013250476
  0
LINE
  5
664
100
AcDbEntity
  8
30338490_CL
100
AcDbLine
 62
7
  6
CONTINUOUS
 10
196.2402219211
 20
147.191552819
 11
193.9902219211
 21
147.191552819
  0
LINE
  5
665
100
AcDbEntity
  8
30338490_HL
100
AcDbLine
 62
6
  6
HIDDEN
 10
198.6152219211
 20
147.3013250476
 11
218.0152219211
 21
147.3013250476
  0
LINE
  5
666
100
AcDbEntity
  8
30252542_HP_HL
100
AcDbLine
 62
6
  6
HIDDEN
 10
206.6152219211
 20
147.4163250476
 11
214.4804331678
 21
147.4163250476
  0
LINE
  5
667
100
AcDbEntity
  8
30252542_HP_HL
100
AcDbLine
 62
6
  6
HIDDEN
 10
215.6214397037
 20
147.9513250476
 11
217.8152219211
 21
147.9513250476
  0
LINE
  5
668
100
AcDbEntity
  8
30338490_HL
100
AcDbLine
 62
6
  6
HIDDEN
 10
211.5652219211
 20
143.4513250476
 11
209.0652219211
 21
144.9534765952
  0
LINE
  5
669
100
AcDbEntity
  8
30338490_HL
100
AcDbLine
 62
6
  6
HIDDEN
 10
179.1152219211
 20
172.0013250476
 11
179.4152219211
 21
171.7013250476
  0
LINE
  5
66A
100
AcDbEntity
  8
30252542_HP_HL
100
AcDbLine
 62
6
  6
HIDDEN
 10
206.6152219211
 20
147.4163250476
 11
207.2302219211
 21
146.8013250476
  0
LINE
  5
66B
100
AcDbEntity
  8
30338490_HL
100
AcDbLine
 62
6
  6
HIDDEN
 10
178.4152219211
 20
176.8013250476
 11
179.1152219211
 21
176.1013250476
  0
LINE
  5
66C
100
AcDbEntity
  8
30338490_HL
100
AcDbLine
 62
6
  6
HIDDEN
 10
183.5152219211
 20
171.7013250476
 11
184.1152219211
 21
171.1013250476
  0
LINE
  5
66D
100
AcDbEntity
  8
30338490_HL
100
AcDbLine
 62
6
  6
HIDDEN
 10
206.0652219211
 20
141.4513250476
 11
206.0652219211
 21
134.9516769993
  0
LINE
  5
66E
100
AcDbEntity
  8
30338490_HL
100
AcDbLine
 62
6
  6
HIDDEN
 10
206.0652219211
 20
162.1513250476
 11
206.0652219211
 21
168.6509730959
  0
LINE
  5
66F
100
AcDbEntity
  8
30338490_HL
100
AcDbLine
 62
6
  6
HIDDEN
 10
206.5652219211
 20
168.6513250476
 11
206.5652219211
 21
160.1513250476
  0
LINE
  5
670
100
AcDbEntity
  8
30338490_HL
100
AcDbLine
 62
6
  6
HIDDEN
 10
206.5652219211
 20
134.9513250476
 11
206.5652219211
 21
143.4513250476
  0
LINE
  5
671
100
AcDbEntity
  8
30252542_HP_HL
100
AcDbLine
 62
6
  6
HIDDEN
 10
206.6152219211
 20
156.1863250476
 11
206.6152219211
 21
147.4163250476
  0
LINE
  5
672
100
AcDbEntity
  8
30252542_HP_HL
100
AcDbLine
 62
6
  6
HIDDEN
 10
207.2302219211
 20
156.8013250476
 11
207.2302219211
 21
146.8013250476
  0
LINE
  5
673
100
AcDbEntity
  8
30338490_CL
100
AcDbLine
 62
30
  6
CONTINUOUS
 10
209.0652219211
 20
135.1375402822
 11
209.0652219211
 21
135.7087032725
  0
LINE
  5
674
100
AcDbEntity
  8
30338490_AXIS
100
AcDbLine
 62
3
  6
CENTER
 10
209.0652219211
 20
131.9512215627
 11
209.0652219211
 21
144.4513250476
  0
LINE
  5
675
100
AcDbEntity
  8
30338490_CL
100
AcDbLine
 62
30
  6
CONTINUOUS
 10
209.0652219211
 20
146.8063250476
 11
209.0652219211
 21
156.7963250447
  0
LINE
  5
676
100
AcDbEntity
  8
30338490_CL
100
AcDbLine
 62
30
  6
CONTINUOUS
 10
209.0652219211
 20
167.8939468042
 11
209.0652219211
 21
168.465109813
  0
LINE
  5
677
100
AcDbEntity
  8
30338490_AXIS
100
AcDbLine
 62
3
  6
CENTER
 10
209.0652219211
 20
155.6491735001
 11
209.0652219211
 21
173.6413250476
  0
LINE
  5
678
100
AcDbEntity
  8
30338490_CL
100
AcDbLine
 62
7
  6
CONTINUOUS
 10
193.2402219211
 20
129.4037297834
 11
191.7377228463
 21
126.8013250476
  0
LINE
  5
679
100
AcDbEntity
  8
30338490_HL
100
AcDbLine
 62
6
  6
HIDDEN
 10
179.8515806386
 20
126.801705964
 11
180.3652219211
 21
127.3153472465
  0
LINE
  5
67A
100
AcDbEntity
  8
30252542_HP_HL
100
AcDbLine
 62
6
  6
HIDDEN
 10
206.6152219211
 20
148.7913250476
 11
207.1252144735
 21
149.3013176
  0
LINE
  5
67B
100
AcDbEntity
  8
30338490_HL
100
AcDbLine
 62
6
  6
HIDDEN
 10
197.1152219211
 20
148.4013250476
 11
197.980136625
 21
148.4013250476
  0
LINE
  5
67C
100
AcDbEntity
  8
30252542_HP_HL
100
AcDbLine
 62
6
  6
HIDDEN
 10
206.7384705751
 20
149.3013250476
 11
219.991973267
 21
149.3013250476
  0
LINE
  5
67D
100
AcDbEntity
  8
30252542_HP_HL
100
AcDbLine
 62
6
  6
HIDDEN
 10
219.991973267
 20
151.8013250476
 11
215.1152219211
 21
151.8013250476
  0
LINE
  5
67E
100
AcDbEntity
  8
30338490_AXIS
100
AcDbLine
 62
3
  6
CENTER
 10
190.1152219211
 20
151.8013250476
 11
183.1652219211
 21
151.8013250476
  0
LINE
  5
67F
100
AcDbEntity
  8
30338490_AXIS
100
AcDbLine
 62
3
  6
CENTER
 10
169.6152219211
 20
151.8013250476
 11
163.6152219211
 21
151.8013250476
  0
LINE
  5
680
100
AcDbEntity
  8
30338490_AXIS
100
AcDbLine
 62
3
  6
CENTER
 10
272.1152219211
 20
151.8013250476
 11
147.2152219211
 21
151.8013250476
  0
LINE
  5
681
100
AcDbEntity
  8
30338490_AXIS
100
AcDbLine
 62
3
  6
CENTER
 10
169.6152219211
 20
151.8013250476
 11
175.6152219211
 21
151.8013250476
  0
LINE
  5
682
100
AcDbEntity
  8
30338490_AXIS
100
AcDbLine
 62
3
  6
CENTER
 10
190.1152219211
 20
151.8013250476
 11
197.0652219211
 21
151.8013250476
  0
LINE
  5
683
100
AcDbEntity
  8
30252542_HP_HL
100
AcDbLine
 62
6
  6
HIDDEN
 10
206.7384705751
 20
151.8013250476
 11
211.6152219211
 21
151.8013250476
  0
LINE
  5
684
100
AcDbEntity
  8
30338490_HL
100
AcDbLine
 62
6
  6
HIDDEN
 10
265.1152219211
 20
144.8013250476
 11
266.2023776638
 21
144.7062112447
  0
LINE
  5
685
100
AcDbEntity
  8
30252542_HP_HL
100
AcDbLine
 62
6
  6
HIDDEN
 10
206.6152219211
 20
154.8113250476
 11
207.1252144735
 21
154.3013324953
  0
LINE
  5
686
100
AcDbEntity
  8
30338490_CL
100
AcDbLine
 62
7
  6
CONTINUOUS
 10
193.2402219211
 20
174.1989203118
 11
191.7377228463
 21
176.8013250476
  0
LINE
  5
687
100
AcDbEntity
  8
30338490_HL
100
AcDbLine
 62
6
  6
HIDDEN
 10
211.5652219211
 20
168.6513250476
 11
211.5652219211
 21
160.1513250476
  0
LINE
  5
688
100
AcDbEntity
  8
30338490_HL
100
AcDbLine
 62
6
  6
HIDDEN
 10
211.5652219211
 20
134.9513250476
 11
211.5652219211
 21
143.4513250476
  0
LINE
  5
689
100
AcDbEntity
  8
30252542_HP_HL
100
AcDbLine
 62
6
  6
HIDDEN
 10
211.6152219211
 20
149.3013250476
 11
211.6152219211
 21
154.3013250476
  0
LINE
  5
68A
100
AcDbEntity
  8
30338490_HL
100
AcDbLine
 62
6
  6
HIDDEN
 10
212.0652219211
 20
141.4513250476
 11
212.0652219211
 21
134.9516769993
  0
LINE
  5
68B
100
AcDbEntity
  8
30338490_HL
100
AcDbLine
 62
6
  6
HIDDEN
 10
212.0652219211
 20
162.1513250476
 11
212.0652219211
 21
168.6509730959
  0
LINE
  5
68C
100
AcDbEntity
  8
30338490_CL
100
AcDbLine
 62
7
  6
CONTINUOUS
 10
213.0652219211
 20
168.8013250476
 11
213.0652219211
 21
134.8013250476
  0
LINE
  5
68D
100
AcDbEntity
  8
30252542_HP_HL
100
AcDbLine
 62
6
  6
HIDDEN
 10
213.4152219211
 20
156.8013250476
 11
213.4152219211
 21
146.8013250476
  0
LINE
  5
68E
100
AcDbEntity
  8
30338490_HL
100
AcDbLine
 62
6
  6
HIDDEN
 10
265.1152219211
 20
158.8013250476
 11
266.2023776638
 21
158.8964388506
  0
LINE
  5
68F
100
AcDbEntity
  8
30252542_HP_HL
100
AcDbLine
 62
6
  6
HIDDEN
 10
206.7384705751
 20
154.3013250476
 11
219.991973267
 21
154.3013250476
  0
LINE
  5
690
100
AcDbEntity
  8
30338490_HL
100
AcDbLine
 62
6
  6
HIDDEN
 10
197.1152219211
 20
155.2013250476
 11
197.980136625
 21
155.2013250476
  0
LINE
  5
691
100
AcDbEntity
  8
30252542_HP_HL
100
AcDbLine
 62
6
  6
HIDDEN
 10
215.6214397037
 20
155.6513250476
 11
217.8152219211
 21
155.6513250476
  0
LINE
  5
692
100
AcDbEntity
  8
30252542_HP_HL
100
AcDbLine
 62
6
  6
HIDDEN
 10
206.6152219211
 20
156.1863250476
 11
214.4804331678
 21
156.1863250476
  0
LINE
  5
693
100
AcDbEntity
  8
30338490_HL
100
AcDbLine
 62
6
  6
HIDDEN
 10
198.6152219211
 20
156.3013250476
 11
218.0152219211
 21
156.3013250476
  0
LINE
  5
694
100
AcDbEntity
  8
30338490_CL
100
AcDbLine
 62
7
  6
CONTINUOUS
 10
196.2402219211
 20
156.4110972763
 11
193.9902219211
 21
156.4110972763
  0
LINE
  5
695
100
AcDbEntity
  8
30252542_HP_HL
100
AcDbLine
 62
6
  6
HIDDEN
 10
214.4804331678
 20
156.1863250476
 11
214.4804331678
 21
147.4163250476
  0
LINE
  5
696
100
AcDbEntity
  8
30252542_HP_HL
100
AcDbLine
 62
6
  6
HIDDEN
 10
215.1152219211
 20
154.3013250476
 11
215.1152219211
 21
149.3013250476
  0
LINE
  5
697
100
AcDbEntity
  8
30252542_HP_CL
100
AcDbLine
 62
9
  6
CONTINUOUS
 10
215.2214397037
 20
147.8441453707
 11
215.2214397037
 21
155.7585047246
  0
LINE
  5
698
100
AcDbEntity
  8
30252542_HP_CL
100
AcDbLine
 62
9
  6
CONTINUOUS
 10
215.6214397037
 20
147.9513250476
 11
215.6214397037
 21
155.6513250476
  0
LINE
  5
699
100
AcDbEntity
  8
30252542_HP_CL
100
AcDbLine
 62
9
  6
CONTINUOUS
 10
217.8152219211
 20
147.9513250476
 11
217.8152219211
 21
155.6513250476
  0
LINE
  5
69A
100
AcDbEntity
  8
30338490_HL
100
AcDbLine
 62
6
  6
HIDDEN
 10
218.0152219211
 20
147.3013250476
 11
218.0152219211
 21
156.3013250476
  0
LINE
  5
69B
100
AcDbEntity
  8
30338490_HL
100
AcDbLine
 62
6
  6
HIDDEN
 10
218.0152219211
 20
156.3013250476
 11
218.6152219211
 21
157.3405555322
  0
LINE
  5
69C
100
AcDbEntity
  8
30252542_HP_HL
100
AcDbLine
 62
6
  6
HIDDEN
 10
219.6052293687
 20
154.3013324953
 11
220.1152219211
 21
154.8113250476
  0
LINE
  5
69D
100
AcDbEntity
  8
30338490_HL
100
AcDbLine
 62
6
  6
HIDDEN
 10
206.5652219211
 20
143.4513250476
 11
209.0652219211
 21
144.9534765952
  0
LINE
  5
69E
100
AcDbEntity
  8
30252542_HP_HL
100
AcDbLine
 62
6
  6
HIDDEN
 10
213.4152219211
 20
146.8013250476
 11
215.2214397037
 21
147.8441453707
  0
LINE
  5
69F
100
AcDbEntity
  8
30338490_HL
100
AcDbLine
 62
6
  6
HIDDEN
 10
180.3652219211
 20
134.0728336926
 11
184.0152219211
 21
135.4013250476
  0
LINE
  5
6A0
100
AcDbEntity
  8
30252542_HP_HL
100
AcDbLine
 62
6
  6
HIDDEN
 10
218.6152219211
 20
156.7013250476
 11
220.1152219211
 21
156.7013250476
  0
LINE
  5
6A1
100
AcDbEntity
  8
30338490_HL
100
AcDbLine
 62
6
  6
HIDDEN
 10
218.6152219211
 20
156.8013250476
 11
202.1152219211
 21
156.8013250476
  0
LINE
  5
6A2
100
AcDbEntity
  8
30252542_HP_HL
100
AcDbLine
 62
6
  6
HIDDEN
 10
207.2302219211
 20
156.8013250476
 11
213.4152219211
 21
156.8013250476
  0
LINE
  5
6A3
100
AcDbEntity
  8
30338490_CL
100
AcDbLine
 62
7
  6
CONTINUOUS
 10
155.2152219211
 20
157.0713250476
 11
153.2152219211
 21
157.0713250476
  0
LINE
  5
6A4
100
AcDbEntity
  8
30338490_HL
100
AcDbLine
 62
6
  6
HIDDEN
 10
155.2152219211
 20
157.0713250476
 11
158.2152219211
 21
157.0713250476
  0
LINE
  5
6A5
100
AcDbEntity
  8
30338490_CL
100
AcDbLine
 62
7
  6
CONTINUOUS
 10
190.0652219211
 20
157.8013250476
 11
193.3619940811
 21
157.8013250476
  0
LINE
  5
6A6
100
AcDbEntity
  8
30338490_CL
100
AcDbLine
 62
7
  6
CONTINUOUS
 10
196.8684497611
 20
157.8013250476
 11
203.0652219211
 21
157.8013250476
  0
LINE
  5
6A7
100
AcDbEntity
  8
30338490_HL
100
AcDbLine
 62
6
  6
HIDDEN
 10
203.0652219211
 20
158.8013250476
 11
196.9814986187
 21
158.8013250476
  0
LINE
  5
6A8
100
AcDbEntity
  8
30338490_HL
100
AcDbLine
 62
6
  6
HIDDEN
 10
193.2489452235
 20
158.8013250476
 11
190.0652219211
 21
158.8013250476
  0
LINE
  5
6A9
100
AcDbEntity
  8
30338490_HL
100
AcDbLine
 62
6
  6
HIDDEN
 10
231.1152219211
 20
158.8013250476
 11
265.1152219211
 21
158.8013250476
  0
LINE
  5
6AA
100
AcDbEntity
  8
30338490_HL
100
AcDbLine
 62
6
  6
HIDDEN
 10
218.6152219211
 20
158.9513250476
 11
231.1152219211
 21
158.9513250476
  0
LINE
  5
6AB
100
AcDbEntity
  8
30338490_HL
100
AcDbLine
 62
6
  6
HIDDEN
 10
194.1152219211
 20
159.3013250476
 11
187.1152219211
 21
159.3013250476
  0
LINE
  5
6AC
100
AcDbEntity
  8
30338490_HL
100
AcDbLine
 62
6
  6
HIDDEN
 10
194.1152219211
 20
159.8013250476
 11
187.1152219211
 21
159.8013250476
  0
LINE
  5
6AD
100
AcDbEntity
  8
30338490_HL
100
AcDbLine
 62
6
  6
HIDDEN
 10
211.5652219211
 20
160.1513250476
 11
206.5652219211
 21
160.1513250476
  0
LINE
  5
6AE
100
AcDbEntity
  8
30338490_CL
100
AcDbLine
 62
9
  6
CONTINUOUS
 10
156.6056917901
 20
160.531822437
 11
158.2152219211
 21
160.531822437
  0
LINE
  5
6AF
100
AcDbEntity
  8
30252542_HP_HL
100
AcDbLine
 62
6
  6
HIDDEN
 10
213.4152219211
 20
156.8013250476
 11
215.2214397037
 21
155.7585047246
  0
LINE
  5
6B0
100
AcDbEntity
  8
30338490_HL
100
AcDbLine
 62
6
  6
HIDDEN
 10
206.5652219211
 20
160.1513250476
 11
209.0652219211
 21
158.6491735001
  0
LINE
  5
6B1
100
AcDbEntity
  8
30252542_HP_HL
100
AcDbLine
 62
6
  6
HIDDEN
 10
219.6052293687
 20
149.3013176
 11
220.1152219211
 21
148.7913250476
  0
LINE
  5
6B2
100
AcDbEntity
  8
30338490_HL
100
AcDbLine
 62
6
  6
HIDDEN
 10
218.0152219211
 20
147.3013250476
 11
218.6152219211
 21
146.2620945631
  0
LINE
  5
6B3
100
AcDbEntity
  8
30338490_HL
100
AcDbLine
 62
6
  6
HIDDEN
 10
218.6152219211
 20
158.9513250476
 11
218.6152219211
 21
144.6513250476
  0
LINE
  5
6B4
100
AcDbEntity
  8
30252542_HP_HL
100
AcDbLine
 62
6
  6
HIDDEN
 10
218.6152219211
 20
146.9013460739
 11
218.6152219211
 21
156.7013040214
  0
LINE
  5
6B5
100
AcDbEntity
  8
30252542_HP_HL
100
AcDbLine
 62
6
  6
HIDDEN
 10
220.1152219211
 20
146.9013460739
 11
220.1152219211
 21
156.7013040214
  0
LINE
  5
6B6
100
AcDbEntity
  8
30338490_CL
100
AcDbLine
 62
7
  6
CONTINUOUS
 10
222.6435053445
 20
168.8013250476
 11
222.6435053445
 21
134.8013250476
  0
LINE
  5
6B7
100
AcDbEntity
  8
30338490_HL
100
AcDbLine
 62
6
  6
HIDDEN
 10
197.1152219211
 20
160.8013250476
 11
194.1152219211
 21
160.8013250476
  0
LINE
  5
6B8
100
AcDbEntity
  8
30338490_HL
100
AcDbLine
 62
6
  6
HIDDEN
 10
212.0652219211
 20
162.1513250476
 11
206.0652219211
 21
162.1513250476
  0
LINE
  5
6B9
100
AcDbEntity
  8
30338490_HL
100
AcDbLine
 62
6
  6
HIDDEN
 10
153.2152219211
 20
164.8013250476
 11
162.1191965173
 21
164.8013250476
  0
LINE
  5
6BA
100
AcDbEntity
  8
30338490_HL
100
AcDbLine
 62
6
  6
HIDDEN
 10
177.1152219211
 20
164.8013250476
 11
184.7152219211
 21
164.8013250476
  0
LINE
  5
6BB
100
AcDbEntity
  8
30338490_CL
100
AcDbLine
 62
7
  6
CONTINUOUS
 10
175.1152219211
 20
170.9561256488
 11
175.7853321541
 21
170.7765701531
  0
LINE
  5
6BC
100
AcDbEntity
  8
30338490_HL
100
AcDbLine
 62
6
  6
HIDDEN
 10
164.1399224595
 20
167.8013250476
 11
171.9190694984
 21
167.8013250476
  0
LINE
  5
6BD
100
AcDbEntity
  8
30338490_CL
100
AcDbLine
 62
7
  6
CONTINUOUS
 10
205.0652219211
 20
168.6513250476
 11
206.5652219211
 21
168.6513250476
  0
LINE
  5
6BE
100
AcDbEntity
  8
30338490_CL
100
AcDbLine
 62
7
  6
CONTINUOUS
 10
211.5652219211
 20
168.6513250476
 11
213.0652219211
 21
168.6513250476
  0
LINE
  5
6BF
100
AcDbEntity
  8
30338490_CL
100
AcDbLine
 62
7
  6
CONTINUOUS
 10
204.0652219211
 20
168.8013250476
 11
205.0652219211
 21
168.8013250476
  0
LINE
  5
6C0
100
AcDbEntity
  8
30338490_CL
100
AcDbLine
 62
7
  6
CONTINUOUS
 10
213.0652219211
 20
168.8013250476
 11
222.6435053445
 21
168.8013250476
  0
LINE
  5
6C1
100
AcDbEntity
  8
30338490_CL
100
AcDbLine
 62
7
  6
CONTINUOUS
 10
153.1651844791
 20
169.8564243741
 11
175.1152219211
 21
170.9561256488
  0
LINE
  5
6C2
100
AcDbEntity
  8
30338490_CL
100
AcDbLine
 62
7
  6
CONTINUOUS
 10
175.9406235812
 20
170.7561256488
 11
176.6152219211
 21
170.7561256488
  0
LINE
  5
6C3
100
AcDbEntity
  8
30338490_HL
100
AcDbLine
 62
6
  6
HIDDEN
 10
179.4152219211
 20
171.7013250476
 11
188.8152219211
 21
171.7013250476
  0
LINE
  5
6C4
100
AcDbEntity
  8
30338490_HL
100
AcDbLine
 62
6
  6
HIDDEN
 10
179.1152219211
 20
172.0013250476
 11
189.1152219211
 21
172.0013250476
  0
LINE
  5
6C5
100
AcDbEntity
  8
30338490_CL
100
AcDbLine
 62
7
  6
CONTINUOUS
 10
222.6435053445
 20
168.8013250476
 11
266.1936810168
 21
165.3738518897
  0
LINE
  5
6C6
100
AcDbEntity
  8
30338490_HL
100
AcDbLine
 62
6
  6
HIDDEN
 10
231.1152219211
 20
158.9513250476
 11
231.1152219211
 21
144.6513250476
  0
LINE
  5
6C7
100
AcDbEntity
  8
30338490_CL
100
AcDbLine
 62
7
  6
CONTINUOUS
 10
196.2402219211
 20
173.3013250476
 11
193.9902219211
 21
173.3013250476
  0
LINE
  5
6C8
100
AcDbEntity
  8
30338490_HL
100
AcDbLine
 62
6
  6
HIDDEN
 10
179.1152219211
 20
176.1013250476
 11
189.1152219211
 21
176.1013250476
  0
LINE
  5
6C9
100
AcDbEntity
  8
30338490_CL
100
AcDbLine
 62
7
  6
CONTINUOUS
 10
177.3152219211
 20
176.8013250476
 11
178.4152219211
 21
176.8013250476
  0
LINE
  5
6CA
100
AcDbEntity
  8
30338490_CL
100
AcDbLine
 62
7
  6
CONTINUOUS
 10
189.8152219211
 20
176.8013250476
 11
191.7377228463
 21
176.8013250476
  0
LINE
  5
6CB
100
AcDbEntity
  8
30338490_CL
100
AcDbLine
 62
7
  6
CONTINUOUS
 10
198.4927209959
 20
176.8013250476
 11
203.0652219211
 21
176.8013250476
  0
LINE
  5
6CC
100
AcDbEntity
  8
30338490_HL
100
AcDbLine
 62
6
  6
HIDDEN
 10
265.1152219211
 20
158.8013250476
 11
265.1152219211
 21
144.8013250476
  0
LINE
  5
6CD
100
AcDbEntity
  8
30338490_CL
100
AcDbLine
 62
9
  6
CONTINUOUS
 10
266.1936810168
 20
165.3738518897
 11
266.1936810168
 21
138.2287982056
  0
LINE
  5
6CE
100
AcDbEntity
  8
30338490_CL
100
AcDbLine
 62
9
  6
CONTINUOUS
 10
266.2023776638
 20
158.8964388506
 11
266.2023776638
 21
144.7062112447
  0
LINE
  5
6CF
100
AcDbEntity
  8
30338490_CL
100
AcDbLine
 62
7
  6
CONTINUOUS
 10
267.1152219211
 20
164.376934556
 11
267.1152219211
 21
139.2257155393
  0
ARC
  5
6D0
100
AcDbEntity
  8
30338490_CL
100
AcDbCircle
 62
7
  6
CONTINUOUS
 10
153.2152219211
 20
134.7449730638
 40
1.0
100
AcDbArc
 50
180.0
 51
267.131868059
  0
ARC
  5
6D1
100
AcDbEntity
  8
30338490_HL
100
AcDbCircle
 62
6
  6
HIDDEN
 10
164.1399224595
 20
136.3013250476
 40
0.5
100
AcDbArc
 50
210.0
 51
270.0
  0
ARC
  5
6D2
100
AcDbEntity
  8
30338490_HL
100
AcDbCircle
 62
6
  6
HIDDEN
 10
171.9190694984
 20
141.8013250476
 40
6.0
100
AcDbArc
 50
270.0
 51
330.0
  0
CIRCLE
  5
6D3
100
AcDbEntity
  8
30338490_CL
100
AcDbCircle
 62
7
  6
CONTINUOUS
 10
169.6152219211
 20
151.8013250476
 40
3.0
  0
ARC
  5
6D4
100
AcDbEntity
  8
30338490_CL
100
AcDbCircle
 62
7
  6
CONTINUOUS
 10
155.9541396338
 20
142.800793372
 40
2.9605501528
100
AcDbArc
 50
157.6891869488
 51
160.3969320769
  0
ARC
  5
6D5
100
AcDbEntity
  8
30338490_HL
100
AcDbCircle
 62
6
  6
HIDDEN
 10
155.8938440109
 20
142.823886717
 40
2.896001833
100
AcDbArc
 50
157.6590049873
 51
160.4271140384
  0
ARC
  5
6D6
100
AcDbEntity
  8
30338490_HL
100
AcDbCircle
 62
6
  6
HIDDEN
 10
158.2152219211
 20
148.0313250476
 40
1.5
100
AcDbArc
 50
270.0
 51
360.0
  0
ARC
  5
6D7
100
AcDbEntity
  8
30338490_HL
100
AcDbCircle
 62
6
  6
HIDDEN
 10
155.2152219211
 20
148.0313250476
 40
1.5
100
AcDbArc
 50
358.2222085101
 51
360.0
  0
ARC
  5
6D8
100
AcDbEntity
  8
30338490_CL
100
AcDbCircle
 62
7
  6
CONTINUOUS
 10
155.2152219211
 20
148.0313250476
 40
1.5
100
AcDbArc
 50
270.0
 51
358.2222085101
  0
ARC
  5
6D9
100
AcDbEntity
  8
30338490_CL
100
AcDbCircle
 62
7
  6
CONTINUOUS
 10
190.0652219211
 20
130.3013250476
 40
6.0
100
AcDbArc
 50
90.0
 51
161.6899415505
  0
ARC
  5
6DA
100
AcDbEntity
  8
30338490_HL
100
AcDbCircle
 62
6
  6
HIDDEN
 10
185.6152219211
 20
140.0013250476
 40
1.5
100
AcDbArc
 50
233.1301023542
 51
360.0
  0
ARC
  5
6DB
100
AcDbEntity
  8
30338490_CL
100
AcDbCircle
 62
7
  6
CONTINUOUS
 10
193.9902219211
 20
129.5513250476
 40
0.75
100
AcDbArc
 50
90.0
 51
180.0
  0
ARC
  5
6DC
100
AcDbEntity
  8
30338490_HL
100
AcDbCircle
 62
6
  6
HIDDEN
 10
176.6152219211
 20
132.2465244464
 40
0.6
100
AcDbArc
 50
352.0
 51
33.5448847176
  0
ARC
  5
6DD
100
AcDbEntity
  8
30338490_CL
100
AcDbCircle
 62
7
  6
CONTINUOUS
 10
175.9406235812
 20
132.2465244464
 40
0.6
100
AcDbArc
 50
90.0
 51
105.0
  0
ARC
  5
6DE
100
AcDbEntity
  8
30338490_CL
100
AcDbCircle
 62
7
  6
CONTINUOUS
 10
176.6152219211
 20
132.2465244464
 40
0.6
100
AcDbArc
 50
33.5448847176
 51
90.0
  0
ARC
  5
6DF
100
AcDbEntity
  8
30338490_HL
100
AcDbCircle
 62
6
  6
HIDDEN
 10
190.0652219211
 20
150.8013250476
 40
6.0
100
AcDbArc
 50
180.0
 51
270.0
  0
ARC
  5
6E0
100
AcDbEntity
  8
30338490_CL
100
AcDbCircle
 62
7
  6
CONTINUOUS
 10
190.0652219211
 20
151.8013250476
 40
6.0
100
AcDbArc
 50
90.0
 51
270.0
  0
CIRCLE
  5
6E1
100
AcDbEntity
  8
30338490_CL
100
AcDbCircle
 62
7
  6
CONTINUOUS
 10
190.1152219211
 20
151.8013250476
 40
3.95
  0
CIRCLE
  5
6E2
100
AcDbEntity
  8
30338490_CL
100
AcDbCircle
 62
7
  6
CONTINUOUS
 10
190.1152219211
 20
151.8013250476
 40
3.75
  0
CIRCLE
  5
6E3
100
AcDbEntity
  8
30338490_CL
100
AcDbCircle
 62
7
  6
CONTINUOUS
 10
190.1152219211
 20
151.8013250476
 40
0.1
  0
ARC
  5
6E4
100
AcDbEntity
  8
30338490_CL
100
AcDbCircle
 62
7
  6
CONTINUOUS
 10
78.955139357
 20
183.3961265187
 40
123.8642787058
100
AcDbArc
 50
335.5791909472
 51
337.318667407
  0
ARC
  5
6E5
100
AcDbEntity
  8
30338490_HL
100
AcDbCircle
 62
6
  6
HIDDEN
 10
190.0652219211
 20
152.8013250476
 40
6.0
100
AcDbArc
 50
90.0
 51
180.0
  0
ARC
  5
6E6
100
AcDbEntity
  8
30338490_HL
100
AcDbCircle
 62
6
  6
HIDDEN
 10
171.9190694984
 20
161.8013250476
 40
6.0
100
AcDbArc
 50
30.0
 51
90.0
  0
ARC
  5
6E7
100
AcDbEntity
  8
30338490_HL
100
AcDbCircle
 62
6
  6
HIDDEN
 10
155.9541396338
 20
160.8018567233
 40
2.9605501528
100
AcDbArc
 50
199.6030679231
 51
202.3108130512
  0
ARC
  5
6E8
100
AcDbEntity
  8
30338490_CL
100
AcDbCircle
 62
7
  6
CONTINUOUS
 10
155.8938440109
 20
160.7787633782
 40
2.896001833
100
AcDbArc
 50
199.5728859616
 51
202.3409950127
  0
ARC
  5
6E9
100
AcDbEntity
  8
30338490_HL
100
AcDbCircle
 62
6
  6
HIDDEN
 10
185.6152219211
 20
163.6013250476
 40
1.5
100
AcDbArc
 50
0.0
 51
126.8698976458
  0
ARC
  5
6EA
100
AcDbEntity
  8
30338490_HL
100
AcDbCircle
 62
6
  6
HIDDEN
 10
158.2152219211
 20
155.5713250476
 40
1.5
100
AcDbArc
 50
0.0
 51
90.0
  0
ARC
  5
6EB
100
AcDbEntity
  8
30338490_HL
100
AcDbCircle
 62
6
  6
HIDDEN
 10
155.2152219211
 20
155.5713250476
 40
1.5
100
AcDbArc
 50
0.0
 51
1.7777914899
  0
ARC
  5
6EC
100
AcDbEntity
  8
30338490_CL
100
AcDbCircle
 62
7
  6
CONTINUOUS
 10
155.2152219211
 20
155.5713250476
 40
1.5
100
AcDbArc
 50
1.7777914899
 51
90.0
  0
ARC
  5
6ED
100
AcDbEntity
  8
30338490_CL
100
AcDbCircle
 62
7
  6
CONTINUOUS
 10
153.2152219211
 20
168.8576770315
 40
1.0
100
AcDbArc
 50
92.868131941
 51
180.0
  0
ARC
  5
6EE
100
AcDbEntity
  8
30338490_CL
100
AcDbCircle
 62
7
  6
CONTINUOUS
 10
193.9902219211
 20
174.0513250476
 40
0.75
100
AcDbArc
 50
180.0
 51
270.0
  0
ARC
  5
6EF
100
AcDbEntity
  8
30338490_HL
100
AcDbCircle
 62
6
  6
HIDDEN
 10
176.6152219211
 20
171.3561256488
 40
0.6
100
AcDbArc
 50
326.4551152824
 51
8.0
  0
ARC
  5
6F0
100
AcDbEntity
  8
30338490_CL
100
AcDbCircle
 62
7
  6
CONTINUOUS
 10
175.9406235812
 20
171.3561256488
 40
0.6
100
AcDbArc
 50
255.0
 51
270.0
  0
ARC
  5
6F1
100
AcDbEntity
  8
30338490_CL
100
AcDbCircle
 62
7
  6
CONTINUOUS
 10
176.6152219211
 20
171.3561256488
 40
0.6
100
AcDbArc
 50
270.0
 51
326.4551152824
  0
ARC
  5
6F2
100
AcDbEntity
  8
30338490_HL
100
AcDbCircle
 62
6
  6
HIDDEN
 10
164.1399224595
 20
167.3013250476
 40
0.5
100
AcDbArc
 50
90.0
 51
150.0
  0
ARC
  5
6F3
100
AcDbEntity
  8
30338490_HL
100
AcDbCircle
 62
6
  6
HIDDEN
 10
209.0652219211
 20
151.8013250476
 40
3.0
100
AcDbArc
 50
194.9193054141
 51
195.0
  0
ARC
  5
6F4
100
AcDbEntity
  8
30338490_HL
100
AcDbCircle
 62
6
  6
HIDDEN
 10
209.1555855317
 20
117.4958846385
 40
17.6465969386
100
AcDbArc
 50
97.3470066811
 51
98.441012382
  0
ARC
  5
6F5
100
AcDbEntity
  8
30338490_HL
100
AcDbCircle
 62
6
  6
HIDDEN
 10
209.0754224571
 20
118.1845553399
 40
16.9533313595
100
AcDbArc
 50
90.4536707052
 51
97.3759400612
  0
ARC
  5
6F6
100
AcDbEntity
  8
30338490_HL
100
AcDbCircle
 62
6
  6
HIDDEN
 10
209.065257742
 20
118.4691339684
 40
16.6686830453
100
AcDbArc
 50
90.0001231283
 51
90.4264775912
  0
ARC
  5
6F7
100
AcDbEntity
  8
30338490_HL
100
AcDbCircle
 62
6
  6
HIDDEN
 10
209.0652054122
 20
118.4835011516
 40
16.654315862
100
AcDbArc
 50
89.7864243983
 51
89.9999432046
  0
ARC
  5
6F8
100
AcDbEntity
  8
30338490_HL
100
AcDbCircle
 62
6
  6
HIDDEN
 10
209.0652219211
 20
151.8013250476
 40
3.0
100
AcDbArc
 50
255.0
 51
255.0841935919
  0
ARC
  5
6F9
100
AcDbEntity
  8
30338490_CL
100
AcDbCircle
 62
3
  6
CONTINUOUS
 10
209.0652166342
 20
151.8012523453
 40
2.9999272977
100
AcDbArc
 50
255.0841935919
 51
194.9193054141
  0
CIRCLE
  5
6FA
100
AcDbEntity
  8
30338490_CL
100
AcDbCircle
 62
7
  6
CONTINUOUS
 10
209.0652219211
 20
151.8013250476
 40
2.5
  0
ARC
  5
6FB
100
AcDbEntity
  8
30338490_HL
100
AcDbCircle
 62
6
  6
HIDDEN
 10
266.1152219211
 20
143.7100165466
 40
1.0
100
AcDbArc
 50
0.0
 51
85.0
  0
ARC
  5
6FC
100
AcDbEntity
  8
30338490_CL
100
AcDbCircle
 62
7
  6
CONTINUOUS
 10
204.0652219211
 20
133.8013250476
 40
1.0
100
AcDbArc
 50
90.0
 51
180.0
  0
ARC
  5
6FD
100
AcDbEntity
  8
30338490_CL
100
AcDbCircle
 62
7
  6
CONTINUOUS
 10
266.1152219211
 20
139.2257155393
 40
1.0
100
AcDbArc
 50
274.5
 51
360.0
  0
ARC
  5
6FE
100
AcDbEntity
  8
30252542_HP_HL
100
AcDbCircle
 62
6
  6
HIDDEN
 10
215.6214397037
 20
147.1513250476
 40
0.8
100
AcDbArc
 50
90.0
 51
120.0
  0
ARC
  5
6FF
100
AcDbEntity
  8
30252542_HP_HL
100
AcDbCircle
 62
6
  6
HIDDEN
 10
217.8152219211
 20
147.1513250476
 40
0.8
100
AcDbArc
 50
0.0
 51
90.0
  0
ARC
  5
700
100
AcDbEntity
  8
30338490_CL
100
AcDbCircle
 62
7
  6
CONTINUOUS
 10
196.2402219211
 20
129.5513250476
 40
0.75
100
AcDbArc
 50
0.0
 51
90.0
  0
ARC
  5
701
100
AcDbEntity
  8
30338490_CL
100
AcDbCircle
 62
7
  6
CONTINUOUS
 10
311.275304485
 20
183.3961265186
 40
123.8642787056
100
AcDbArc
 50
202.681332593
 51
204.4208090528
  0
ARC
  5
702
100
AcDbEntity
  8
30338490_HL
100
AcDbCircle
 62
6
  6
HIDDEN
 10
208.9698541237
 20
186.141952666
 40
17.6821375543
100
AcDbArc
 50
277.6216966968
 51
278.4403150957
  0
ARC
  5
703
100
AcDbEntity
  8
30338490_HL
100
AcDbCircle
 62
6
  6
HIDDEN
 10
209.0535858246
 20
185.4441180863
 40
16.9793652858
100
AcDbArc
 50
270.4578194366
 51
277.653966584
  0
ARC
  5
704
100
AcDbEntity
  8
30338490_HL
100
AcDbCircle
 62
6
  6
HIDDEN
 10
209.0651861001
 20
185.1335161263
 40
16.6686830447
100
AcDbArc
 50
270.0001231286
 51
270.4264775762
  0
ARC
  5
705
100
AcDbEntity
  8
30338490_HL
100
AcDbCircle
 62
6
  6
HIDDEN
 10
209.06523843
 20
185.1191489023
 40
16.6543158207
100
AcDbArc
 50
269.7864244143
 51
269.9999432045
  0
ARC
  5
706
100
AcDbEntity
  8
30338490_HL
100
AcDbCircle
 62
6
  6
HIDDEN
 10
266.1152219211
 20
159.8926335487
 40
1.0
100
AcDbArc
 50
275.0
 51
360.0
  0
ARC
  5
707
100
AcDbEntity
  8
30338490_CL
100
AcDbCircle
 62
7
  6
CONTINUOUS
 10
204.0652219211
 20
169.8013250476
 40
1.0
100
AcDbArc
 50
180.0
 51
270.0
  0
ARC
  5
708
100
AcDbEntity
  8
30338490_CL
100
AcDbCircle
 62
7
  6
CONTINUOUS
 10
266.1152219211
 20
164.376934556
 40
1.0
100
AcDbArc
 50
0.0
 51
85.5
  0
ARC
  5
709
100
AcDbEntity
  8
30252542_HP_HL
100
AcDbCircle
 62
6
  6
HIDDEN
 10
215.6214397037
 20
156.4513250476
 40
0.8
100
AcDbArc
 50
240.0
 51
270.0
  0
ARC
  5
70A
100
AcDbEntity
  8
30252542_HP_HL
100
AcDbCircle
 62
6
  6
HIDDEN
 10
217.8152219211
 20
156.4513250476
 40
0.8
100
AcDbArc
 50
270.0
 51
360.0
  0
ARC
  5
70B
100
AcDbEntity
  8
30338490_CL
100
AcDbCircle
 62
7
  6
CONTINUOUS
 10
196.2402219211
 20
174.0513250476
 40
0.75
100
AcDbArc
 50
270.0
 51
360.0
  0
SPLINE
  5
70C
100
AcDbEntity
  8
30338490_HL
100
AcDbSpline
 62
6
  6
HIDDEN
 70
0
 71
3
 72
24
 73
20
 74
0
 42
0.0000001
 43
0.0000001
 44
0.0000000001
 40
0.0
 40
0.0
 40
0.0
 40
0.0
 40
0.1256151751
 40
0.2512167865
 40
0.3767956904
 40
0.5023349286
 40
0.5650811743
 40
0.6278025175
 40
0.6904869777
 40
0.7531135486
 40
0.8156421742
 40
0.8468479107
 40
0.8779878711
 40
0.9090236969
 40
0.9398799351
 40
0.9551975849
 40
0.9703862034
 40
0.9853666671
 40
1.0
 40
1.0
 40
1.0
 40
1.0
 10
153.2152219211
 20
159.6779408145
 30
0.0
 10
153.3615337644
 20
159.6988771128
 30
0.0
 10
153.6539685742
 20
159.7419716337
 30
0.0
 10
154.0919115569
 20
159.811048857
 30
0.0
 10
154.5288604792
 20
159.885652013
 30
0.0
 10
154.8918506934
 20
159.9537777658
 30
0.0
 10
155.1811549854
 20
160.0132245216
 30
0.0
 10
155.3973718198
 20
160.060819699
 30
0.0
 10
155.612591745
 20
160.1121624028
 30
0.0
 10
155.8263667821
 20
160.1683597726
 30
0.0
 10
156.002799275
 20
160.2207015829
 30
0.0
 10
156.1420880576
 20
160.2675196873
 30
0.0
 10
156.245117227
 20
160.3057734939
 30
0.0
 10
156.3460548745
 20
160.3482167222
 30
0.0
 10
156.4275881505
 20
160.3885460068
 30
0.0
 10
156.4896958748
 20
160.425438039
 30
0.0
 10
156.5337136567
 20
160.4560098429
 30
0.0
 10
156.5737946271
 20
160.4903938296
 30
0.0
 10
156.5964857975
 20
160.5172722399
 30
0.0
 10
156.6056917901
 20
160.531822437
 30
0.0
  0
SPLINE
  5
70D
100
AcDbEntity
  8
30338490_HL
100
AcDbSpline
 62
6
  6
HIDDEN
 70
0
 71
3
 72
22
 73
18
 74
0
 42
0.0000001
 43
0.0000001
 44
0.0000000001
 40
0.0
 40
0.0
 40
0.0
 40
0.0
 40
0.1235326399
 40
0.246385428
 40
0.3686372856
 40
0.4904443204
 40
0.5512917716
 40
0.6121921376
 40
0.6732798491
 40
0.7347982423
 40
0.7972249753
 40
0.8291113487
 40
0.8617027611
 40
0.8952597422
 40
0.9298804425
 40
0.9650909481
 40
1.0
 40
1.0
 40
1.0
 40
1.0
 10
158.7760241976
 20
160.5812062642
 30
0.0
 10
158.7709611601
 20
160.6369730731
 30
0.0
 10
158.758801232
 20
160.7480265616
 30
0.0
 10
158.7336003655
 20
160.9132740258
 30
0.0
 10
158.700270119
 20
161.076296585
 30
0.0
 10
158.6640543656
 20
161.2098275525
 30
0.0
 10
158.6282875241
 20
161.3143162185
 30
0.0
 10
158.5973017629
 20
161.3912338425
 30
0.0
 10
158.5610793079
 20
161.4662103118
 30
0.0
 10
158.517951392
 20
161.5382904409
 30
0.0
 10
158.4740991356
 20
161.5941131932
 30
0.0
 10
158.4321374457
 20
161.6336375316
 30
0.0
 10
158.39590164
 20
161.6596555086
 30
0.0
 10
158.3544045385
 20
161.6794844111
 30
0.0
 10
158.308073217
 20
161.6894917946
 30
0.0
 10
158.2600886917
 20
161.6865424329
 30
0.0
 10
158.2296192269
 20
161.6763505352
 30
0.0
 10
158.2152219211
 20
161.6697843555
 30
0.0
  0
SPLINE
  5
70E
100
AcDbEntity
  8
30338490_HL
100
AcDbSpline
 62
6
  6
HIDDEN
 70
0
 71
3
 72
18
 73
14
 74
0
 42
0.0000001
 43
0.0000001
 44
0.0000000001
 40
0.0
 40
0.0
 40
0.0
 40
0.0
 40
0.0599203524
 40
0.1205362498
 40
0.1817691645
 40
0.2434478698
 40
0.305443716
 40
0.3676768259
 40
0.4926822653
 40
0.6183223747
 40
0.7446469334
 40
0.8718082918
 40
1.0
 40
1.0
 40
1.0
 40
1.0
 10
158.7760241976
 20
143.021443831
 30
0.0
 10
158.7814074991
 20
143.0807381861
 30
0.0
 10
158.805903415
 20
143.1988957052
 30
0.0
 10
158.8694124816
 20
143.3682960965
 30
0.0
 10
158.9470945626
 20
143.5333864703
 30
0.0
 10
159.0315130708
 20
143.696581079
 30
0.0
 10
159.1181723087
 20
143.8597155028
 30
0.0
 10
159.2331016166
 20
144.0790726093
 30
0.0
 10
159.3700715303
 20
144.3583099122
 30
0.0
 10
159.5123928739
 20
144.7051912821
 30
0.0
 10
159.6242136271
 20
145.065565767
 30
0.0
 10
159.6974377347
 20
145.4384710172
 30
0.0
 10
159.7152219211
 20
145.6924644146
 30
0.0
 10
159.7152219211
 20
145.819838616
 30
0.0
  0
SPLINE
  5
70F
100
AcDbEntity
  8
30338490_HL
100
AcDbSpline
 62
6
  6
HIDDEN
 70
0
 71
3
 72
22
 73
18
 74
0
 42
0.0000001
 43
0.0000001
 44
0.0000000001
 40
0.0
 40
0.0
 40
0.0
 40
0.0
 40
0.0349037405
 40
0.0701097335
 40
0.1047281832
 40
0.1382860849
 40
0.1708776385
 40
0.2027648986
 40
0.2651922495
 40
0.3267111757
 40
0.3877997558
 40
0.4487007035
 40
0.5095487691
 40
0.6313572182
 40
0.7536107216
 40
0.8764652893
 40
1.0
 40
1.0
 40
1.0
 40
1.0
 10
158.2152219211
 20
141.9328657398
 30
0.0
 10
158.2296170386
 20
141.9263005581
 30
0.0
 10
158.2600816857
 20
141.9161086058
 30
0.0
 10
158.3080605054
 20
141.9131580817
 30
0.0
 10
158.3543899851
 20
141.9231608432
 30
0.0
 10
158.3958879227
 20
141.9429868534
 30
0.0
 10
158.432126685
 20
141.9690023085
 30
0.0
 10
158.4740895889
 20
142.0085266247
 30
0.0
 10
158.5179436901
 20
142.0643489541
 30
0.0
 10
158.5610745277
 20
142.1364285419
 30
0.0
 10
158.5972963792
 20
142.2114063304
 30
0.0
 10
158.628284282
 20
142.2883240734
 30
0.0
 10
158.664052063
 20
142.3928137281
 30
0.0
 10
158.7002687294
 20
142.5263461891
 30
0.0
 10
158.7335995842
 20
142.6893709014
 30
0.0
 10
158.7588009254
 20
142.8546208391
 30
0.0
 10
158.7709610745
 20
142.9656760786
 30
0.0
 10
158.7760241976
 20
143.021443831
 30
0.0
  0
SPLINE
  5
710
100
AcDbEntity
  8
30338490_HL
100
AcDbSpline
 62
6
  6
HIDDEN
 70
0
 71
3
 72
24
 73
20
 74
0
 42
0.0000001
 43
0.0000001
 44
0.0000000001
 40
0.0
 40
0.0
 40
0.0
 40
0.0
 40
0.1256151751
 40
0.2512167865
 40
0.3767956904
 40
0.5023349286
 40
0.5650811743
 40
0.6278025175
 40
0.6904869777
 40
0.7531135486
 40
0.8156421742
 40
0.8468479107
 40
0.8779878711
 40
0.9090236969
 40
0.9398799351
 40
0.9551975849
 40
0.9703862034
 40
0.9853666671
 40
1.0
 40
1.0
 40
1.0
 40
1.0
 10
153.2152219211
 20
143.9247092808
 30
0.0
 10
153.3615337644
 20
143.9037729824
 30
0.0
 10
153.6539685742
 20
143.8606784615
 30
0.0
 10
154.0919115569
 20
143.7916012383
 30
0.0
 10
154.5288604792
 20
143.7169980823
 30
0.0
 10
154.8918506934
 20
143.6488723295
 30
0.0
 10
155.1811549854
 20
143.5894255737
 30
0.0
 10
155.3973718198
 20
143.5418303963
 30
0.0
 10
155.612591745
 20
143.4904876924
 30
0.0
 10
155.8263667821
 20
143.4342903227
 30
0.0
 10
156.002799275
 20
143.3819485124
 30
0.0
 10
156.1420880576
 20
143.3351304079
 30
0.0
 10
156.245117227
 20
143.2968766013
 30
0.0
 10
156.3460548745
 20
143.2544333731
 30
0.0
 10
156.4275881505
 20
143.2141040885
 30
0.0
 10
156.4896958748
 20
143.1772120562
 30
0.0
 10
156.5337136567
 20
143.1466402523
 30
0.0
 10
156.5737946271
 20
143.1122562656
 30
0.0
 10
156.5964857975
 20
143.0853778554
 30
0.0
 10
156.6056917901
 20
143.0708276582
 30
0.0
  0
SPLINE
  5
711
100
AcDbEntity
  8
30338490_CL
100
AcDbSpline
 62
9
  6
CONTINUOUS
 70
0
 71
3
 72
9
 73
5
 74
0
 42
0.0000001
 43
0.0000001
 44
0.0000000001
 40
0.0
 40
0.0
 40
0.0
 40
0.0
 40
0.4926734491
 40
1.0
 40
1.0
 40
1.0
 40
1.0
 10
158.7760241976
 20
143.021443831
 30
0.0
 10
158.6849889552
 20
143.0381036166
 30
0.0
 10
158.4984561097
 20
143.0627510745
 30
0.0
 10
158.3105215479
 20
143.0708276582
 30
0.0
 10
158.2152219211
 20
143.0708276582
 30
0.0
  0
SPLINE
  5
712
100
AcDbEntity
  8
30338490_HL
100
AcDbSpline
 62
6
  6
HIDDEN
 70
0
 71
3
 72
14
 73
10
 74
0
 42
0.0000001
 43
0.0000001
 44
0.0000000001
 40
0.0
 40
0.0
 40
0.0
 40
0.0
 40
0.254455979
 40
0.3810540869
 40
0.5070624399
 40
0.6322940487
 40
0.7564770681
 40
0.8792194769
 40
1.0
 40
1.0
 40
1.0
 40
1.0
 10
158.2152219211
 20
141.9328657398
 30
0.0
 10
158.0613120097
 20
142.0030594378
 30
0.0
 10
157.8332494241
 20
142.1137884508
 30
0.0
 10
157.5380974232
 20
142.2767771621
 30
0.0
 10
157.3236080528
 20
142.407693085
 30
0.0
 10
157.117899726
 20
142.549290567
 30
0.0
 10
156.9244400967
 20
142.7039907445
 30
0.0
 10
156.7488513158
 20
142.8746783254
 30
0.0
 10
156.6486229795
 20
143.0029743267
 30
0.0
 10
156.6056917901
 20
143.0708276582
 30
0.0
  0
SPLINE
  5
713
100
AcDbEntity
  8
30338490_HL
100
AcDbSpline
 62
6
  6
HIDDEN
 70
0
 71
3
 72
14
 73
10
 74
0
 42
0.0000001
 43
0.0000001
 44
0.0000000001
 40
0.0
 40
0.0
 40
0.0
 40
0.0
 40
0.1207805147
 40
0.2435229308
 40
0.36770596
 40
0.4929375734
 40
0.6189459275
 40
0.7455440342
 40
1.0
 40
1.0
 40
1.0
 40
1.0
 10
156.6056917901
 20
160.531822437
 30
0.0
 10
156.6486229765
 20
160.5996757638
 30
0.0
 10
156.7488513132
 20
160.7279717636
 30
0.0
 10
156.9244400944
 20
160.8986593525
 30
0.0
 10
157.1178997354
 20
161.053359539
 30
0.0
 10
157.3236080704
 20
161.1949570271
 30
0.0
 10
157.5380974449
 20
161.3258729495
 30
0.0
 10
157.8332494434
 20
161.4888616469
 30
0.0
 10
158.0613120176
 20
161.5995906611
 30
0.0
 10
158.2152219211
 20
161.6697843555
 30
0.0
  0
SPLINE
  5
714
100
AcDbEntity
  8
30338490_CL
100
AcDbSpline
 62
9
  6
CONTINUOUS
 70
0
 71
3
 72
9
 73
5
 74
0
 42
0.0000001
 43
0.0000001
 44
0.0000000001
 40
0.0
 40
0.0
 40
0.0
 40
0.0
 40
0.5073265509
 40
1.0
 40
1.0
 40
1.0
 40
1.0
 10
158.2152219211
 20
160.531822437
 30
0.0
 10
158.3105215479
 20
160.531822437
 30
0.0
 10
158.4984561097
 20
160.5398990208
 30
0.0
 10
158.6849889552
 20
160.5645464787
 30
0.0
 10
158.7760241976
 20
160.5812062642
 30
0.0
  0
SPLINE
  5
715
100
AcDbEntity
  8
30338490_HL
100
AcDbSpline
 62
6
  6
HIDDEN
 70
0
 71
3
 72
11
 73
7
 74
0
 42
0.0000001
 43
0.0000001
 44
0.0000000001
 40
0.0
 40
0.0
 40
0.0
 40
0.0
 40
0.0330828828
 40
0.3553851507
 40
0.677690715
 40
1.0
 40
1.0
 40
1.0
 40
1.0
 10
193.3619921233
 20
157.801324697
 30
0.0
 10
193.3600344392
 20
157.8122566635
 30
0.0
 10
193.339271441
 20
157.9297381722
 30
0.0
 10
193.3050532473
 20
158.1546861786
 30
0.0
 10
193.269309509
 20
158.4773507957
 30
0.0
 10
193.2542029389
 20
158.6932668176
 30
0.0
 10
193.2489452235
 20
158.8013250476
 30
0.0
  0
SPLINE
  5
716
100
AcDbEntity
  8
30338490_HL
100
AcDbSpline
 62
6
  6
HIDDEN
 70
0
 71
3
 72
11
 73
7
 74
0
 42
0.0000001
 43
0.0000001
 44
0.0000000001
 40
0.0
 40
0.0
 40
0.0
 40
0.0
 40
0.3223060438
 40
0.6446082215
 40
0.9669071004
 40
1.0
 40
1.0
 40
1.0
 40
1.0
 10
193.2489452235
 20
144.8013250476
 30
0.0
 10
193.2542028861
 20
144.9093821914
 30
0.0
 10
193.2693092959
 20
145.1252959916
 30
0.0
 10
193.3050523239
 20
145.4479573048
 30
0.0
 10
193.3392705174
 20
145.67290641
 30
0.0
 10
193.3600337948
 20
145.7903901308
 30
0.0
 10
193.3619920688
 20
145.801325408
 30
0.0
  0
SPLINE
  5
717
100
AcDbEntity
  8
30338490_HL
100
AcDbSpline
 62
6
  6
HIDDEN
 70
0
 71
3
 72
11
 73
7
 74
0
 42
0.0000001
 43
0.0000001
 44
0.0000000001
 40
0.0
 40
0.0
 40
0.0
 40
0.0
 40
0.0330828549
 40
0.3553851318
 40
0.6776907063
 40
1.0
 40
1.0
 40
1.0
 40
1.0
 10
196.8684517179
 20
145.801325398
 30
0.0
 10
196.8704094004
 20
145.7903934408
 30
0.0
 10
196.8911723984
 20
145.6729119385
 30
0.0
 10
196.9253905915
 20
145.447963935
 30
0.0
 10
196.9611343329
 20
145.1252993089
 30
0.0
 10
196.9762409031
 20
144.9093832805
 30
0.0
 10
196.9814986187
 20
144.8013250476
 30
0.0
  0
SPLINE
  5
718
100
AcDbEntity
  8
30338490_HL
100
AcDbSpline
 62
6
  6
HIDDEN
 70
0
 71
3
 72
11
 73
7
 74
0
 42
0.0000001
 43
0.0000001
 44
0.0000000001
 40
0.0
 40
0.0
 40
0.0
 40
0.0
 40
0.3223060548
 40
0.6446082486
 40
0.9669071463
 40
1.0
 40
1.0
 40
1.0
 40
1.0
 10
196.9814986187
 20
158.8013250476
 30
0.0
 10
196.9762409559
 20
158.6932679002
 30
0.0
 10
196.9611345467
 20
158.4773540908
 30
0.0
 10
196.9253915115
 20
158.1546927629
 30
0.0
 10
196.8911733198
 20
157.9297436612
 30
0.0
 10
196.8704100439
 20
157.8122599494
 30
0.0
 10
196.8684517726
 20
157.8013246874
 30
0.0
  0
SPLINE
  5
719
100
AcDbEntity
  8
30338490_HL
100
AcDbSpline
 62
6
  6
HIDDEN
 70
0
 71
3
 72
18
 73
14
 74
0
 42
0.0000001
 43
0.0000001
 44
0.0000000001
 40
0.0
 40
0.0
 40
0.0
 40
0.0
 40
0.128191029
 40
0.2553522785
 40
0.381676861
 40
0.5073170824
 40
0.6323226176
 40
0.6945558041
 40
0.7565517216
 40
0.8182305061
 40
0.8794635104
 40
0.940079635
 40
1.0
 40
1.0
 40
1.0
 40
1.0
 10
159.7152219211
 20
157.7828114792
 30
0.0
 10
159.7152219211
 20
157.9101850061
 30
0.0
 10
159.6974378942
 20
158.164177617
 30
0.0
 10
159.6242141456
 20
158.5370821732
 30
0.0
 10
159.5123934951
 20
158.897456701
 30
0.0
 10
159.3700727334
 20
159.2443385731
 30
0.0
 10
159.2331021767
 20
159.5235758895
 30
0.0
 10
159.1181727309
 20
159.7429331943
 30
0.0
 10
159.0315133506
 20
159.9060677985
 30
0.0
 10
158.9470947821
 20
160.0692626479
 30
0.0
 10
158.8694127572
 20
160.234353481
 30
0.0
 10
158.8059035183
 20
160.4037541498
 30
0.0
 10
158.7814075003
 20
160.5219118965
 30
0.0
 10
158.7760241976
 20
160.5812062642
 30
0.0
  0
SPLINE
  5
71A
100
AcDbEntity
  8
30252542_HP_HL
100
AcDbSpline
 62
6
  6
HIDDEN
 70
0
 71
3
 72
15
 73
11
 74
0
 42
0.0000001
 43
0.0000001
 44
0.0000000001
 40
0.0
 40
0.0
 40
0.0
 40
0.0
 40
0.126812495
 40
0.2523288371
 40
0.3765810707
 40
0.5000000582
 40
0.6234190356
 40
0.7476712706
 40
0.8731875969
 40
1.0
 40
1.0
 40
1.0
 40
1.0
 10
219.991973267
 20
149.3013250476
 30
0.0
 10
219.9360512155
 20
149.3981848822
 30
0.0
 10
219.8319162097
 20
149.59522397
 30
0.0
 10
219.706925484
 20
149.9037233992
 30
0.0
 10
219.6246049796
 20
150.2236688274
 30
0.0
 10
219.5955629794
 20
150.5513251947
 30
0.0
 10
219.6246050535
 20
150.8789815536
 30
0.0
 10
219.7069255623
 20
151.1989269563
 30
0.0
 10
219.8319162702
 20
151.5074262933
 30
0.0
 10
219.936051256
 20
151.7044652832
 30
0.0
 10
219.991973267
 20
151.8013250476
 30
0.0
  0
SPLINE
  5
71B
100
AcDbEntity
  8
30252542_HP_HL
100
AcDbSpline
 62
6
  6
HIDDEN
 70
0
 71
3
 72
15
 73
11
 74
0
 42
0.0000001
 43
0.0000001
 44
0.0000000001
 40
0.0
 40
0.0
 40
0.0
 40
0.0
 40
0.1268123969
 40
0.2523287379
 40
0.3765809926
 40
0.4999999925
 40
0.6234189813
 40
0.7476712065
 40
0.8731875237
 40
1.0
 40
1.0
 40
1.0
 40
1.0
 10
219.991973267
 20
151.8013250476
 30
0.0
 10
219.9360512587
 20
151.8981848073
 30
0.0
 10
219.8319162661
 20
152.0952238021
 30
0.0
 10
219.706925553
 20
152.4037231642
 30
0.0
 10
219.6246050375
 20
152.7236686171
 30
0.0
 10
219.5955629748
 20
153.0513250172
 30
0.0
 10
219.624605012
 20
153.3789813941
 30
0.0
 10
219.7069255127
 20
153.6989267932
 30
0.0
 10
219.8319162352
 20
154.0074261745
 30
0.0
 10
219.9360512237
 20
154.2044652274
 30
0.0
 10
219.991973267
 20
154.3013250476
 30
0.0
  0
SPLINE
  5
71C
100
AcDbEntity
  8
30252542_HP_HL
100
AcDbSpline
 62
6
  6
HIDDEN
 70
0
 71
3
 72
15
 73
11
 74
0
 42
0.0000001
 43
0.0000001
 44
0.0000000001
 40
0.0
 40
0.0
 40
0.0
 40
0.0
 40
0.126812495
 40
0.2523288371
 40
0.3765810707
 40
0.5000000582
 40
0.6234190356
 40
0.7476712706
 40
0.8731875969
 40
1.0
 40
1.0
 40
1.0
 40
1.0
 10
206.7384705751
 20
149.3013250476
 30
0.0
 10
206.7943926267
 20
149.3981848822
 30
0.0
 10
206.8985276325
 20
149.59522397
 30
0.0
 10
207.0235183582
 20
149.9037233992
 30
0.0
 10
207.1058388626
 20
150.2236688274
 30
0.0
 10
207.1348808628
 20
150.5513251947
 30
0.0
 10
207.1058387887
 20
150.8789815536
 30
0.0
 10
207.0235182799
 20
151.1989269563
 30
0.0
 10
206.898527572
 20
151.5074262933
 30
0.0
 10
206.7943925862
 20
151.7044652832
 30
0.0
 10
206.7384705751
 20
151.8013250476
 30
0.0
  0
SPLINE
  5
71D
100
AcDbEntity
  8
30252542_HP_HL
100
AcDbSpline
 62
6
  6
HIDDEN
 70
0
 71
3
 72
15
 73
11
 74
0
 42
0.0000001
 43
0.0000001
 44
0.0000000001
 40
0.0
 40
0.0
 40
0.0
 40
0.0
 40
0.1268123969
 40
0.2523287379
 40
0.3765809926
 40
0.4999999925
 40
0.6234189813
 40
0.7476712065
 40
0.8731875237
 40
1.0
 40
1.0
 40
1.0
 40
1.0
 10
206.7384705751
 20
151.8013250476
 30
0.0
 10
206.7943925835
 20
151.8981848073
 30
0.0
 10
206.8985275761
 20
152.0952238021
 30
0.0
 10
207.0235182892
 20
152.4037231642
 30
0.0
 10
207.1058388047
 20
152.7236686171
 30
0.0
 10
207.1348808674
 20
153.0513250172
 30
0.0
 10
207.1058388302
 20
153.3789813941
 30
0.0
 10
207.0235183295
 20
153.6989267932
 30
0.0
 10
206.898527607
 20
154.0074261745
 30
0.0
 10
206.7943926184
 20
154.2044652274
 30
0.0
 10
206.7384705751
 20
154.3013250476
 30
0.0
  0
SPLINE
  5
71E
100
AcDbEntity
  8
30338490_HL
100
AcDbSpline
 62
6
  6
HIDDEN
 70
0
 71
3
 72
29
 73
25
 74
0
 42
0.0000001
 43
0.0000001
 44
0.0000000001
 40
0.0
 40
0.0
 40
0.0
 40
0.0
 40
0.0465116156
 40
0.0930232313
 40
0.1395348469
 40
0.1860464625
 40
0.2325580782
 40
0.2790696938
 40
0.3255813094
 40
0.3720929251
 40
0.4186045407
 40
0.4651161563
 40
0.511627772
 40
0.5581393876
 40
0.6046510032
 40
0.6511626189
 40
0.6976742345
 40
0.7441858501
 40
0.7906974658
 40
0.8372090814
 40
0.883720697
 40
0.9302323127
 40
0.9767439283
 40
1.0
 40
1.0
 40
1.0
 40
1.0
 10
209.0652219211
 20
135.2205379734
 30
0.0
 10
209.137759278
 20
135.2205335526
 30
0.0
 10
209.2828877932
 20
135.2195863593
 30
0.0
 10
209.4995979585
 20
135.2153162278
 30
0.0
 10
209.7141706432
 20
135.2082996133
 30
0.0
 10
209.9257365157
 20
135.1986630393
 30
0.0
 10
210.1329907582
 20
135.1866118129
 30
0.0
 10
210.3351271501
 20
135.1723733471
 30
0.0
 10
210.5306825263
 20
135.1562694632
 30
0.0
 10
210.7189048627
 20
135.1386121972
 30
0.0
 10
210.8982798763
 20
135.1198219251
 30
0.0
 10
211.068135259
 20
135.1002689768
 30
0.0
 10
211.2270171299
 20
135.080434914
 30
0.0
 10
211.3743919022
 20
135.0607079007
 30
0.0
 10
211.5089801866
 20
135.0415783537
 30
0.0
 10
211.6304333999
 20
135.0234063981
 30
0.0
 10
211.7377213666
 20
135.0066382598
 30
0.0
 10
211.8306811857
 20
134.9915687624
 30
0.0
 10
211.9085576851
 20
134.9785586626
 30
0.0
 10
211.9713232989
 20
134.9678180145
 30
0.0
 10
212.0184896979
 20
134.9595970197
 30
0.0
 10
212.0500868411
 20
134.9540181397
 30
0.0
 10
212.0632444665
 20
134.9516770044
 30
0.0
 10
212.065218118
 20
134.9513258326
 30
0.0
 10
212.0652181175
 20
134.9513258327
 30
0.0
  0
SPLINE
  5
71F
100
AcDbEntity
  8
30338490_HL
100
AcDbSpline
 62
6
  6
HIDDEN
 70
0
 71
3
 72
29
 73
25
 74
0
 42
0.0000001
 43
0.0000001
 44
0.0000000001
 40
0.0
 40
0.0
 40
0.0
 40
0.0
 40
0.0232555562
 40
0.0697671964
 40
0.1162788366
 40
0.1627904767
 40
0.2093021169
 40
0.2558137571
 40
0.3023253973
 40
0.3488370375
 40
0.3953486776
 40
0.4418603178
 40
0.488371958
 40
0.5348835982
 40
0.5813952384
 40
0.6279068786
 40
0.6744185187
 40
0.7209301589
 40
0.7674417991
 40
0.8139534393
 40
0.8604650795
 40
0.9069767196
 40
0.9534883598
 40
1.0
 40
1.0
 40
1.0
 40
1.0
 10
206.0652257246
 20
134.9513258327
 30
0.0
 10
206.0652257251
 20
134.9513258328
 30
0.0
 10
206.0671993195
 20
134.9516769943
 30
0.0
 10
206.0803566668
 20
134.9540180806
 30
0.0
 10
206.1119537992
 20
134.9595969588
 30
0.0
 10
206.1591196878
 20
134.9678178671
 30
0.0
 10
206.2218856562
 20
134.9785585771
 30
0.0
 10
206.2997612206
 20
134.9915685268
 30
0.0
 10
206.3927218999
 20
135.0066381669
 30
0.0
 10
206.5000084377
 20
135.0234060925
 30
0.0
 10
206.6214630517
 20
135.0415782641
 30
0.0
 10
206.7560494448
 20
135.0607075575
 30
0.0
 10
206.9034261042
 20
135.0804348339
 30
0.0
 10
207.0623057322
 20
135.1002686358
 30
0.0
 10
207.2321633735
 20
135.1198218589
 30
0.0
 10
207.4115359633
 20
135.1386118985
 30
0.0
 10
207.5997607678
 20
135.1562694149
 30
0.0
 10
207.7953137862
 20
135.1723731253
 30
0.0
 10
207.9974526425
 20
135.186611786
 30
0.0
 10
208.2047048837
 20
135.1986629119
 30
0.0
 10
208.4162728812
 20
135.2082996045
 30
0.0
 10
208.6308444232
 20
135.2153161883
 30
0.0
 10
208.8475560097
 20
135.2195863636
 30
0.0
 10
208.9926845594
 20
135.2205335548
 30
0.0
 10
209.0652219211
 20
135.2205379734
 30
0.0
  0
LINE
  5
720
100
AcDbEntity
  8
30338490_HL
100
AcDbLine
 62
6
  6
HIDDEN
 10
184.1152241864
 20
127.1153472589
 11
184.0999537916
 21
127.1153431798
  0
LINE
  5
721
100
AcDbEntity
  8
30338490_HL
100
AcDbLine
 62
6
  6
HIDDEN
 10
179.8654783298
 20
126.8034023185
 11
179.8512002104
 21
126.8013252309
  0
SPLINE
  5
722
100
AcDbEntity
  8
30338490_HL
100
AcDbSpline
 62
6
  6
HIDDEN
 70
0
 71
3
 72
29
 73
25
 74
0
 42
0.0000001
 43
0.0000001
 44
0.0000000001
 40
0.0
 40
0.0
 40
0.0
 40
0.0
 40
0.0232555562
 40
0.0697671964
 40
0.1162788366
 40
0.1627904767
 40
0.2093021169
 40
0.2558137571
 40
0.3023253973
 40
0.3488370375
 40
0.3953486776
 40
0.4418603178
 40
0.488371958
 40
0.5348835982
 40
0.5813952384
 40
0.6279068786
 40
0.6744185187
 40
0.7209301589
 40
0.7674417991
 40
0.8139534393
 40
0.8604650795
 40
0.9069767196
 40
0.9534883598
 40
1.0
 40
1.0
 40
1.0
 40
1.0
 10
212.0652181175
 20
168.6513242625
 30
0.0
 10
212.0652181171
 20
168.6513242625
 30
0.0
 10
212.0632445227
 20
168.6509731009
 30
0.0
 10
212.0500871754
 20
168.6486320147
 30
0.0
 10
212.018490043
 20
168.6430531365
 30
0.0
 10
211.9713241543
 20
168.6348322282
 30
0.0
 10
211.908558186
 20
168.6240915182
 30
0.0
 10
211.8306826216
 20
168.6110815685
 30
0.0
 10
211.7377219423
 20
168.5960119284
 30
0.0
 10
211.6304354045
 20
168.5792440027
 30
0.0
 10
211.5089807905
 20
168.5610718312
 30
0.0
 10
211.3743943974
 20
168.5419425377
 30
0.0
 10
211.227017738
 20
168.5222152614
 30
0.0
 10
211.06813811
 20
168.5023814594
 30
0.0
 10
210.8982804686
 20
168.4828282364
 30
0.0
 10
210.7189078789
 20
168.4640381968
 30
0.0
 10
210.5306830744
 20
168.4463806803
 30
0.0
 10
210.335130056
 20
168.43027697
 30
0.0
 10
210.1329911997
 20
168.4160383092
 30
0.0
 10
209.9257389585
 20
168.4039871833
 30
0.0
 10
209.714170961
 20
168.3943504908
 30
0.0
 10
209.499599419
 20
168.3873339069
 30
0.0
 10
209.2828878325
 20
168.3830637316
 30
0.0
 10
209.1377592828
 20
168.3821165404
 30
0.0
 10
209.0652219211
 20
168.3821121218
 30
0.0
  0
SPLINE
  5
723
100
AcDbEntity
  8
30338490_HL
100
AcDbSpline
 62
6
  6
HIDDEN
 70
0
 71
3
 72
29
 73
25
 74
0
 42
0.0000001
 43
0.0000001
 44
0.0000000001
 40
0.0
 40
0.0
 40
0.0
 40
0.0
 40
0.0465116156
 40
0.0930232313
 40
0.1395348469
 40
0.1860464625
 40
0.2325580782
 40
0.2790696938
 40
0.3255813094
 40
0.3720929251
 40
0.4186045407
 40
0.4651161563
 40
0.511627772
 40
0.5581393876
 40
0.6046510032
 40
0.6511626189
 40
0.6976742345
 40
0.7441858501
 40
0.7906974658
 40
0.8372090814
 40
0.883720697
 40
0.9302323127
 40
0.9767439283
 40
1.0
 40
1.0
 40
1.0
 40
1.0
 10
209.0652219211
 20
168.3821121218
 30
0.0
 10
208.9926845642
 20
168.3821165426
 30
0.0
 10
208.847556049
 20
168.3830637359
 30
0.0
 10
208.6308458837
 20
168.3873338675
 30
0.0
 10
208.416273199
 20
168.3943504819
 30
0.0
 10
208.2047073265
 20
168.403987056
 30
0.0
 10
207.997453084
 20
168.4160382823
 30
0.0
 10
207.7953166921
 20
168.4302767482
 30
0.0
 10
207.5997613158
 20
168.446380632
 30
0.0
 10
207.4115389795
 20
168.4640378981
 30
0.0
 10
207.2321639659
 20
168.4828281702
 30
0.0
 10
207.0623085832
 20
168.5023811185
 30
0.0
 10
206.9034267123
 20
168.5222151812
 30
0.0
 10
206.75605194
 20
168.5419421946
 30
0.0
 10
206.6214636556
 20
168.5610717415
 30
0.0
 10
206.5000104423
 20
168.5792436971
 30
0.0
 10
206.3927224755
 20
168.5960118354
 30
0.0
 10
206.2997626565
 20
168.6110813328
 30
0.0
 10
206.2218861571
 20
168.6240914326
 30
0.0
 10
206.1591205433
 20
168.6348320808
 30
0.0
 10
206.1119541443
 20
168.6430530756
 30
0.0
 10
206.0803570011
 20
168.6486319555
 30
0.0
 10
206.0671993757
 20
168.6509730909
 30
0.0
 10
206.0652257242
 20
168.6513242626
 30
0.0
 10
206.0652257246
 20
168.6513242625
 30
0.0
  0
LINE
  5
724
100
AcDbEntity
  8
30338490_HL
100
AcDbLine
 62
6
  6
HIDDEN
 10
211.5652219211
 20
134.9513250476
 11
211.5643545508
 21
134.9514537887
  0
SPLINE
  5
725
100
AcDbEntity
  8
30338490_HL
100
AcDbSpline
 62
6
  6
HIDDEN
 70
0
 71
3
 72
10
 73
6
 74
0
 42
0.0000001
 43
0.0000001
 44
0.0000000001
 40
0.0
 40
0.0
 40
0.0
 40
0.0
 40
0.301950709
 40
0.6224151102
 40
1.0
 40
1.0
 40
1.0
 40
1.0
 10
211.5643545508
 20
134.9514537887
 30
0.0
 10
211.320825348
 20
134.9875827446
 30
0.0
 10
210.817213238
 20
135.0516080039
 30
0.0
 10
210.0043741009
 20
135.1186289774
 30
0.0
 10
209.4351463996
 20
135.1365540267
 30
0.0
 10
209.1272858538
 20
135.137701308
 30
0.0
  0
LINE
  5
726
100
AcDbEntity
  8
30338490_HL
100
AcDbLine
 62
6
  6
HIDDEN
 10
206.5652219211
 20
168.6513250476
 11
206.5660505491
 21
168.6512020543
  0
SPLINE
  5
727
100
AcDbEntity
  8
30338490_HL
100
AcDbSpline
 62
6
  6
HIDDEN
 70
0
 71
3
 72
10
 73
6
 74
0
 42
0.0000001
 43
0.0000001
 44
0.0000000001
 40
0.0
 40
0.0
 40
0.0
 40
0.0
 40
0.3017461858
 40
0.6222814208
 40
1.0
 40
1.0
 40
1.0
 40
1.0
 10
206.5660505491
 20
168.6512020543
 30
0.0
 10
206.8094185201
 20
168.6150958448
 30
0.0
 10
207.3129293469
 20
168.5510761996
 30
0.0
 10
208.1257798501
 20
168.4840328507
 30
0.0
 10
208.6951835216
 20
168.466096493
 30
0.0
 10
209.0031579932
 20
168.4649487872
 30
0.0
  0
LINE
  5
728
100
AcDbEntity
  8
30338490_HL
100
AcDbLine
 62
6
  6
HIDDEN
 10
178.4152219211
 20
176.8013250476
 11
178.4165052848
 21
176.8010866933
  0
LINE
  5
729
100
AcDbEntity
  8
30338490_HL
100
AcDbLine
 62
6
  6
HIDDEN
 10
189.8139333447
 20
176.8010857255
 11
189.8152219211
 21
176.8013250476
  0
LINE
  5
72A
100
AcDbEntity
  8
30338490_HL
100
AcDbLine
 62
6
  6
HIDDEN
 10
188.3792436318
 20
126.8013252309
 11
188.3766316794
 21
126.8017055912
  0
LINE
  5
72B
100
AcDbEntity
  8
30338490_HL
100
AcDbLine
 62
6
  6
HIDDEN
 10
188.3766316794
 20
126.8017055912
 11
188.3719747471
 21
126.8023834824
  0
LINE
  5
72C
100
AcDbEntity
  8
30338490_HL
100
AcDbLine
 62
6
  6
HIDDEN
 10
184.1305227386
 20
127.1153431645
 11
184.1152241864
 21
127.1153472589
  0
SPLINE
  5
72D
100
AcDbEntity
  8
30338490_CL
100
AcDbSpline
 62
3
  6
CONTINUOUS
 70
0
 71
3
 72
29
 73
25
 74
0
 42
0.0000001
 43
0.0000001
 44
0.0000000001
 40
0.0
 40
0.0
 40
0.0
 40
0.0
 40
0.0232555562
 40
0.0697671964
 40
0.1162788366
 40
0.1627904767
 40
0.2093021169
 40
0.2558137571
 40
0.3023253973
 40
0.3488370375
 40
0.3953486776
 40
0.4418603178
 40
0.488371958
 40
0.5348835982
 40
0.5813952384
 40
0.6279068786
 40
0.6744185187
 40
0.7209301589
 40
0.7674417991
 40
0.8139534393
 40
0.8604650795
 40
0.9069767196
 40
0.9534883598
 40
1.0
 40
1.0
 40
1.0
 40
1.0
 10
212.0652181175
 20
134.9513258327
 30
0.0
 10
212.0652181171
 20
134.9513258328
 30
0.0
 10
212.0632445227
 20
134.9516769943
 30
0.0
 10
212.0500871754
 20
134.9540180806
 30
0.0
 10
212.018490043
 20
134.9595969588
 30
0.0
 10
211.9713241543
 20
134.9678178671
 30
0.0
 10
211.908558186
 20
134.9785585771
 30
0.0
 10
211.8306826216
 20
134.9915685268
 30
0.0
 10
211.7377219423
 20
135.0066381669
 30
0.0
 10
211.6304354045
 20
135.0234060925
 30
0.0
 10
211.5089807905
 20
135.0415782641
 30
0.0
 10
211.3743943974
 20
135.0607075575
 30
0.0
 10
211.227017738
 20
135.0804348339
 30
0.0
 10
211.06813811
 20
135.1002686358
 30
0.0
 10
210.8982804686
 20
135.1198218589
 30
0.0
 10
210.7189078789
 20
135.1386118985
 30
0.0
 10
210.5306830744
 20
135.1562694149
 30
0.0
 10
210.335130056
 20
135.1723731253
 30
0.0
 10
210.1329911997
 20
135.186611786
 30
0.0
 10
209.9257389585
 20
135.1986629119
 30
0.0
 10
209.714170961
 20
135.2082996045
 30
0.0
 10
209.499599419
 20
135.2153161883
 30
0.0
 10
209.2828878325
 20
135.2195863636
 30
0.0
 10
209.1377592828
 20
135.2205335548
 30
0.0
 10
209.0652219211
 20
135.2205379734
 30
0.0
  0
SPLINE
  5
72E
100
AcDbEntity
  8
30338490_CL
100
AcDbSpline
 62
3
  6
CONTINUOUS
 70
0
 71
3
 72
29
 73
25
 74
0
 42
0.0000001
 43
0.0000001
 44
0.0000000001
 40
0.0
 40
0.0
 40
0.0
 40
0.0
 40
0.0465116156
 40
0.0930232313
 40
0.1395348469
 40
0.1860464625
 40
0.2325580782
 40
0.2790696938
 40
0.3255813094
 40
0.3720929251
 40
0.4186045407
 40
0.4651161563
 40
0.511627772
 40
0.5581393876
 40
0.6046510032
 40
0.6511626189
 40
0.6976742345
 40
0.7441858501
 40
0.7906974658
 40
0.8372090814
 40
0.883720697
 40
0.9302323127
 40
0.9767439283
 40
1.0
 40
1.0
 40
1.0
 40
1.0
 10
209.0652219211
 20
135.2205379734
 30
0.0
 10
208.9926845642
 20
135.2205335526
 30
0.0
 10
208.847556049
 20
135.2195863593
 30
0.0
 10
208.6308458837
 20
135.2153162278
 30
0.0
 10
208.416273199
 20
135.2082996133
 30
0.0
 10
208.2047073265
 20
135.1986630393
 30
0.0
 10
207.997453084
 20
135.1866118129
 30
0.0
 10
207.7953166921
 20
135.1723733471
 30
0.0
 10
207.5997613158
 20
135.1562694632
 30
0.0
 10
207.4115389795
 20
135.1386121972
 30
0.0
 10
207.2321639659
 20
135.1198219251
 30
0.0
 10
207.0623085832
 20
135.1002689768
 30
0.0
 10
206.9034267123
 20
135.080434914
 30
0.0
 10
206.75605194
 20
135.0607079007
 30
0.0
 10
206.6214636556
 20
135.0415783537
 30
0.0
 10
206.5000104423
 20
135.0234063981
 30
0.0
 10
206.3927224755
 20
135.0066382598
 30
0.0
 10
206.2997626565
 20
134.9915687624
 30
0.0
 10
206.2218861571
 20
134.9785586626
 30
0.0
 10
206.1591205433
 20
134.9678180145
 30
0.0
 10
206.1119541443
 20
134.9595970197
 30
0.0
 10
206.0803570011
 20
134.9540181397
 30
0.0
 10
206.0671993757
 20
134.9516770044
 30
0.0
 10
206.0652257242
 20
134.9513258326
 30
0.0
 10
206.0652257246
 20
134.9513258327
 30
0.0
  0
SPLINE
  5
72F
100
AcDbEntity
  8
30338490_CL
100
AcDbSpline
 62
3
  6
CONTINUOUS
 70
0
 71
3
 72
29
 73
25
 74
0
 42
0.0000001
 43
0.0000001
 44
0.0000000001
 40
0.0
 40
0.0
 40
0.0
 40
0.0
 40
0.0465116156
 40
0.0930232313
 40
0.1395348469
 40
0.1860464625
 40
0.2325580782
 40
0.2790696938
 40
0.3255813094
 40
0.3720929251
 40
0.4186045407
 40
0.4651161563
 40
0.511627772
 40
0.5581393876
 40
0.6046510032
 40
0.6511626189
 40
0.6976742345
 40
0.7441858501
 40
0.7906974658
 40
0.8372090814
 40
0.883720697
 40
0.9302323127
 40
0.9767439283
 40
1.0
 40
1.0
 40
1.0
 40
1.0
 10
209.0652219211
 20
168.3821121218
 30
0.0
 10
209.137759278
 20
168.3821165426
 30
0.0
 10
209.2828877932
 20
168.3830637359
 30
0.0
 10
209.4995979585
 20
168.3873338675
 30
0.0
 10
209.7141706432
 20
168.3943504819
 30
0.0
 10
209.9257365157
 20
168.403987056
 30
0.0
 10
210.1329907582
 20
168.4160382823
 30
0.0
 10
210.3351271501
 20
168.4302767482
 30
0.0
 10
210.5306825263
 20
168.446380632
 30
0.0
 10
210.7189048627
 20
168.4640378981
 30
0.0
 10
210.8982798763
 20
168.4828281702
 30
0.0
 10
211.068135259
 20
168.5023811185
 30
0.0
 10
211.2270171299
 20
168.5222151812
 30
0.0
 10
211.3743919022
 20
168.5419421946
 30
0.0
 10
211.5089801866
 20
168.5610717415
 30
0.0
 10
211.6304333999
 20
168.5792436971
 30
0.0
 10
211.7377213666
 20
168.5960118354
 30
0.0
 10
211.8306811857
 20
168.6110813328
 30
0.0
 10
211.9085576851
 20
168.6240914326
 30
0.0
 10
211.9713232989
 20
168.6348320808
 30
0.0
 10
212.0184896979
 20
168.6430530756
 30
0.0
 10
212.0500868411
 20
168.6486319555
 30
0.0
 10
212.0632444665
 20
168.6509730909
 30
0.0
 10
212.065218118
 20
168.6513242626
 30
0.0
 10
212.0652181175
 20
168.6513242625
 30
0.0
  0
SPLINE
  5
730
100
AcDbEntity
  8
30338490_CL
100
AcDbSpline
 62
3
  6
CONTINUOUS
 70
0
 71
3
 72
29
 73
25
 74
0
 42
0.0000001
 43
0.0000001
 44
0.0000000001
 40
0.0
 40
0.0
 40
0.0
 40
0.0
 40
0.0232555562
 40
0.0697671964
 40
0.1162788366
 40
0.1627904767
 40
0.2093021169
 40
0.2558137571
 40
0.3023253973
 40
0.3488370375
 40
0.3953486776
 40
0.4418603178
 40
0.488371958
 40
0.5348835982
 40
0.5813952384
 40
0.6279068786
 40
0.6744185187
 40
0.7209301589
 40
0.7674417991
 40
0.8139534393
 40
0.8604650795
 40
0.9069767196
 40
0.9534883598
 40
1.0
 40
1.0
 40
1.0
 40
1.0
 10
206.0652257246
 20
168.6513242625
 30
0.0
 10
206.0652257251
 20
168.6513242625
 30
0.0
 10
206.0671993195
 20
168.6509731009
 30
0.0
 10
206.0803566668
 20
168.6486320147
 30
0.0
 10
206.1119537992
 20
168.6430531365
 30
0.0
 10
206.1591196878
 20
168.6348322282
 30
0.0
 10
206.2218856562
 20
168.6240915182
 30
0.0
 10
206.2997612206
 20
168.6110815685
 30
0.0
 10
206.3927218999
 20
168.5960119284
 30
0.0
 10
206.5000084377
 20
168.5792440027
 30
0.0
 10
206.6214630517
 20
168.5610718312
 30
0.0
 10
206.7560494448
 20
168.5419425377
 30
0.0
 10
206.9034261042
 20
168.5222152614
 30
0.0
 10
207.0623057322
 20
168.5023814594
 30
0.0
 10
207.2321633735
 20
168.4828282364
 30
0.0
 10
207.4115359633
 20
168.4640381968
 30
0.0
 10
207.5997607678
 20
168.4463806803
 30
0.0
 10
207.7953137862
 20
168.43027697
 30
0.0
 10
207.9974526425
 20
168.4160383092
 30
0.0
 10
208.2047048837
 20
168.4039871833
 30
0.0
 10
208.4162728812
 20
168.3943504908
 30
0.0
 10
208.6308444232
 20
168.3873339069
 30
0.0
 10
208.8475560097
 20
168.3830637316
 30
0.0
 10
208.9926845594
 20
168.3821165404
 30
0.0
 10
209.0652219211
 20
168.3821121218
 30
0.0
  0
SPLINE
  5
731
100
AcDbEntity
  8
30338490_CL
100
AcDbSpline
 62
7
  6
CONTINUOUS
 70
0
 71
3
 72
22
 73
18
 74
0
 42
0.0000001
 43
0.0000001
 44
0.0000000001
 40
0.0
 40
0.0
 40
0.0
 40
0.0
 40
0.1877499049
 40
0.3696246066
 40
0.5396893037
 40
0.6918738671
 40
0.7593126574
 40
0.8199254698
 40
0.8729259562
 40
0.9175557175
 40
0.9531137571
 40
0.9672965445
 40
0.9789933887
 40
0.9881499747
 40
0.9947225806
 40
0.9986790377
 40
1.0
 40
1.0
 40
1.0
 40
1.0
 10
184.1152196577
 20
127.1153472589
 30
0.0
 10
184.3830287153
 20
127.1153472589
 30
0.0
 10
184.9102965012
 20
127.1079453266
 30
0.0
 10
185.6795406228
 20
127.075946726
 30
0.0
 10
186.3970655213
 20
127.0274207124
 30
0.0
 10
186.9506729891
 20
126.9769431412
 30
0.0
 10
187.3481421123
 20
126.9344177399
 30
0.0
 10
187.604676172
 20
126.9046226818
 30
0.0
 10
187.8286770401
 20
126.8768003647
 30
0.0
 10
188.0170480152
 20
126.8521055138
 30
0.0
 10
188.1504198912
 20
126.8338746052
 30
0.0
 10
188.2372063355
 20
126.8217050128
 30
0.0
 10
188.2866875266
 20
126.8146879067
 30
0.0
 10
188.3254088869
 20
126.8091128645
 30
0.0
 10
188.3532073844
 20
126.8051436603
 30
0.0
 10
188.3699219287
 20
126.8026306101
 30
0.0
 10
188.3773846064
 20
126.8016324451
 30
0.0
 10
188.3792436318
 20
126.8013252309
 30
0.0
  0
SPLINE
  5
732
100
AcDbEntity
  8
30338490_CL
100
AcDbSpline
 62
7
  6
CONTINUOUS
 70
0
 71
3
 72
10
 73
6
 74
0
 42
0.0000001
 43
0.0000001
 44
0.0000000001
 40
0.0
 40
0.0
 40
0.0
 40
0.0
 40
0.2941947562
 40
0.618208213
 40
1.0
 40
1.0
 40
1.0
 40
1.0
 10
206.5652219211
 20
134.9513250476
 30
0.0
 10
206.8086153678
 20
134.9874596669
 30
0.0
 10
207.3216573814
 20
135.0526961577
 30
0.0
 10
208.1554922195
 20
135.1208148519
 30
0.0
 10
208.7459218006
 20
135.1378170136
 30
0.0
 10
209.0652219211
 20
135.1378170136
 30
0.0
  0
SPLINE
  5
733
100
AcDbEntity
  8
30338490_CL
100
AcDbSpline
 62
7
  6
CONTINUOUS
 70
0
 71
3
 72
10
 73
6
 74
0
 42
0.0000001
 43
0.0000001
 44
0.0000000001
 40
0.0
 40
0.0
 40
0.0
 40
0.0
 40
0.2941947563
 40
0.6182082132
 40
1.0
 40
1.0
 40
1.0
 40
1.0
 10
211.5652219211
 20
168.6513250476
 30
0.0
 10
211.3218284743
 20
168.6151904284
 30
0.0
 10
210.8087864606
 20
168.5499539376
 30
0.0
 10
209.9749516225
 20
168.4818352434
 30
0.0
 10
209.3845220415
 20
168.4648330817
 30
0.0
 10
209.0652219211
 20
168.4648330817
 30
0.0
  0
LINE
  5
734
100
AcDbEntity
  8
30338490_CL
100
AcDbLine
 62
7
  6
CONTINUOUS
 10
179.8512002104
 20
126.8013252309
 11
179.8584694042
 21
126.8023835274
  0
SPLINE
  5
735
100
AcDbEntity
  8
30338490_CL
100
AcDbSpline
 62
7
  6
CONTINUOUS
 70
0
 71
3
 72
10
 73
6
 74
0
 42
0.0000001
 43
0.0000001
 44
0.0000000001
 40
0.0
 40
0.0
 40
0.0
 40
0.0
 40
0.3273289459
 40
0.6424030012
 40
1.0
 40
1.0
 40
1.0
 40
1.0
 10
179.8584694042
 20
126.8023835274
 30
0.0
 10
180.3196820148
 20
126.8694835691
 30
0.0
 10
181.2279268774
 20
126.9810669241
 30
0.0
 10
182.6480565271
 20
127.0897312405
 30
0.0
 10
183.606054302
 20
127.1153472589
 30
0.0
 10
184.1152196577
 20
127.1153472589
 30
0.0
  0
SPLINE
  5
736
100
AcDbEntity
  8
30338490_CL
100
AcDbSpline
 62
7
  6
CONTINUOUS
 70
0
 71
3
 72
10
 73
6
 74
0
 42
0.0000001
 43
0.0000001
 44
0.0000000001
 40
0.0
 40
0.0
 40
0.0
 40
0.0
 40
0.3817917893
 40
0.705805246
 40
1.0
 40
1.0
 40
1.0
 40
1.0
 10
209.0652219211
 20
135.1378170136
 30
0.0
 10
209.3845220435
 20
135.1378170136
 30
0.0
 10
209.9749516265
 20
135.1208148518
 30
0.0
 10
210.8087864646
 20
135.0526961572
 30
0.0
 10
211.3218284762
 20
134.9874596666
 30
0.0
 10
211.5652219211
 20
134.9513250476
 30
0.0
  0
SPLINE
  5
737
100
AcDbEntity
  8
30338490_CL
100
AcDbSpline
 62
7
  6
CONTINUOUS
 70
0
 71
3
 72
10
 73
6
 74
0
 42
0.0000001
 43
0.0000001
 44
0.0000000001
 40
0.0
 40
0.0
 40
0.0
 40
0.0
 40
0.3817917892
 40
0.7058052459
 40
1.0
 40
1.0
 40
1.0
 40
1.0
 10
209.0652219211
 20
168.4648330817
 30
0.0
 10
208.7459217988
 20
168.4648330817
 30
0.0
 10
208.1554922159
 20
168.4818352435
 30
0.0
 10
207.3216573778
 20
168.549953938
 30
0.0
 10
206.8086153661
 20
168.6151904286
 30
0.0
 10
206.5652219211
 20
168.6513250476
 30
0.0
  0
SPLINE
  5
738
100
AcDbEntity
  8
30338490_CL
100
AcDbSpline
 62
7
  6
CONTINUOUS
 70
0
 71
3
 72
15
 73
11
 74
0
 42
0.0000001
 43
0.0000001
 44
0.0000000001
 40
0.0
 40
0.0
 40
0.0
 40
0.0
 40
0.0423606454
 40
0.1565791522
 40
0.3171919153
 40
0.5000000008
 40
0.6828080867
 40
0.8434208492
 40
0.9576393554
 40
1.0
 40
1.0
 40
1.0
 40
1.0
 10
189.8152219211
 20
176.8013250476
 30
0.0
 10
189.6560506113
 20
176.7717703125
 30
0.0
 10
189.0669163508
 20
176.6666508734
 30
0.0
 10
187.8679759211
 20
176.4853734646
 30
0.0
 10
186.1267951395
 20
176.3093796743
 30
0.0
 10
184.1152219106
 20
176.2378864686
 30
0.0
 10
182.1036486838
 20
176.3093796754
 30
0.0
 10
180.3624679058
 20
176.4853734667
 30
0.0
 10
179.1635274834
 20
176.6666508747
 30
0.0
 10
178.5743932281
 20
176.771770313
 30
0.0
 10
178.4152219211
 20
176.8013250476
 30
0.0
  0
SPLINE
  5
739
100
AcDbEntity
  8
30338490_CL
100
AcDbSpline
 62
7
  6
CONTINUOUS
 70
0
 71
3
 72
21
 73
17
 74
0
 42
0.0000001
 43
0.0000001
 44
0.0000000001
 40
0.0
 40
0.0
 40
0.0
 40
0.0
 40
0.125028355
 40
0.2500553664
 40
0.3750804771
 40
0.50010134
 40
0.5626156541
 40
0.6251290848
 40
0.6876409418
 40
0.7501490766
 40
0.8126480764
 40
0.8751165295
 40
0.9063686116
 40
0.9376088193
 40
0.9688215832
 40
1.0
 40
1.0
 40
1.0
 40
1.0
 10
196.8684497611
 20
145.8013250476
 30
0.0
 10
196.8567708321
 20
145.8665169449
 30
0.0
 10
196.8316440463
 20
145.9965914305
 30
0.0
 10
196.7881599348
 20
146.1904952315
 30
0.0
 10
196.7380638691
 20
146.3828021138
 30
0.0
 10
196.6896839291
 20
146.5412201263
 30
0.0
 10
196.6457774969
 20
146.6662060941
 30
0.0
 10
196.6097309423
 20
146.7588037647
 30
0.0
 10
196.5698757444
 20
146.8498342502
 30
0.0
 10
196.5251495138
 20
146.9386090671
 30
0.0
 10
196.4738962045
 20
147.0237816367
 30
0.0
 10
196.4233159362
 20
147.0897426329
 30
0.0
 10
196.3756633965
 20
147.1358915601
 30
0.0
 10
196.3353762666
 20
147.1652727275
 30
0.0
 10
196.2899621567
 20
147.1862561409
 30
0.0
 10
196.2567376867
 20
147.191552819
 30
0.0
 10
196.2402219211
 20
147.191552819
 30
0.0
  0
SPLINE
  5
73A
100
AcDbEntity
  8
30338490_CL
100
AcDbSpline
 62
7
  6
CONTINUOUS
 70
0
 71
3
 72
9
 73
5
 74
0
 42
0.0000001
 43
0.0000001
 44
0.0000000001
 40
0.0
 40
0.0
 40
0.0
 40
0.0
 40
0.2504437678
 40
1.0
 40
1.0
 40
1.0
 40
1.0
 10
196.9902219211
 20
135.8384775573
 30
0.0
 10
196.9902219211
 20
135.8777380645
 30
0.0
 10
196.9839043453
 20
136.0344107104
 30
0.0
 10
196.9522997768
 20
136.1902830136
 30
0.0
 10
196.9138721618
 20
136.3013250476
 30
0.0
  0
SPLINE
  5
73B
100
AcDbEntity
  8
30338490_CL
100
AcDbSpline
 62
7
  6
CONTINUOUS
 70
0
 71
3
 72
21
 73
17
 74
0
 42
0.0000001
 43
0.0000001
 44
0.0000000001
 40
0.0
 40
0.0
 40
0.0
 40
0.0
 40
0.0311784225
 40
0.0623911935
 40
0.0936314018
 40
0.1248834842
 40
0.1873519378
 40
0.249850939
 40
0.3123590758
 40
0.3748709334
 40
0.4373843641
 40
0.499898677
 40
0.6249195368
 40
0.7499446432
 40
0.87497165
 40
1.0
 40
1.0
 40
1.0
 40
1.0
 10
196.2402219211
 20
156.4110972763
 30
0.0
 10
196.2567376897
 20
156.4110972763
 30
0.0
 10
196.2899621663
 20
156.4163939578
 30
0.0
 10
196.3353762818
 20
156.4373773759
 30
0.0
 10
196.375663414
 20
156.4667585476
 30
0.0
 10
196.4233159504
 20
156.5129074793
 30
0.0
 10
196.4738962164
 20
156.5788684783
 30
0.0
 10
196.5251495282
 20
156.6640410489
 30
0.0
 10
196.5698757557
 20
156.7528158697
 30
0.0
 10
196.6097309542
 20
156.8438463564
 30
0.0
 10
196.6457775041
 20
156.9364440286
 30
0.0
 10
196.689683938
 20
157.0614299933
 30
0.0
 10
196.7380638746
 20
157.2198480022
 30
0.0
 10
196.7881599365
 20
157.4121548789
 30
0.0
 10
196.8316440483
 20
157.6060586723
 30
0.0
 10
196.8567708326
 20
157.7361331529
 30
0.0
 10
196.8684497611
 20
157.8013250476
 30
0.0
  0
SPLINE
  5
73C
100
AcDbEntity
  8
30338490_CL
100
AcDbSpline
 62
7
  6
CONTINUOUS
 70
0
 71
3
 72
23
 73
19
 74
0
 42
0.0000001
 43
0.0000001
 44
0.0000000001
 40
0.0
 40
0.0
 40
0.0
 40
0.0
 40
0.0332018633
 40
0.0660730464
 40
0.0983710945
 40
0.1301855421
 40
0.1616724372
 40
0.1929462531
 40
0.2551032568
 40
0.3169956248
 40
0.3787618011
 40
0.4404770702
 40
0.5021909292
 40
0.5639424771
 40
0.6257671016
 40
0.749718289
 40
0.8743700578
 40
1.0
 40
1.0
 40
1.0
 40
1.0
 10
155.2152219211
 20
160.0210429145
 30
0.0
 10
155.2483683474
 20
160.0281748824
 30
0.0
 10
155.3165694989
 20
160.0341040404
 30
0.0
 10
155.4162487587
 20
160.0148602571
 30
0.0
 10
155.5076244145
 20
159.9753327891
 30
0.0
 10
155.5908775976
 20
159.9239428167
 30
0.0
 10
155.6678111017
 20
159.8653846338
 30
0.0
 10
155.7637450195
 20
159.7812001008
 30
0.0
 10
155.8746187636
 20
159.6674648187
 30
0.0
 10
155.9972082484
 20
159.5224889526
 30
0.0
 10
156.1108395343
 20
159.3709624842
 30
0.0
 10
156.2160921347
 20
159.2137368553
 30
0.0
 10
156.3129575963
 20
159.0512276637
 30
0.0
 10
156.4011049245
 20
158.8836887867
 30
0.0
 10
156.5063665139
 20
158.6537695938
 30
0.0
 10
156.6132872762
 20
158.3544504932
 30
0.0
 10
156.69558647
 20
157.9801985805
 30
0.0
 10
156.7152219211
 20
157.724262908
 30
0.0
 10
156.7152219211
 20
157.5959723369
 30
0.0
  0
SPLINE
  5
73D
100
AcDbEntity
  8
30338490_CL
100
AcDbSpline
 62
7
  6
CONTINUOUS
 70
0
 71
3
 72
10
 73
6
 74
0
 42
0.0000001
 43
0.0000001
 44
0.0000000001
 40
0.0
 40
0.0
 40
0.0
 40
0.0
 40
0.5001321193
 40
0.7501252109
 40
1.0
 40
1.0
 40
1.0
 40
1.0
 10
153.2152219211
 20
159.6779408145
 30
0.0
 10
153.5501590207
 20
159.7258681927
 30
0.0
 10
154.0519041552
 20
159.8023794536
 30
0.0
 10
154.7181951945
 20
159.9197151414
 30
0.0
 10
155.0499591693
 20
159.9854840693
 30
0.0
 10
155.2152219211
 20
160.0210429145
 30
0.0
  0
SPLINE
  5
73E
100
AcDbEntity
  8
30338490_CL
100
AcDbSpline
 62
7
  6
CONTINUOUS
 70
0
 71
3
 72
11
 73
7
 74
0
 42
0.0000001
 43
0.0000001
 44
0.0000000001
 40
0.0
 40
0.0
 40
0.0
 40
0.0
 40
0.2478094474
 40
0.4962019875
 40
0.7465732729
 40
1.0
 40
1.0
 40
1.0
 40
1.0
 10
153.0259535763
 20
160.4458964066
 30
0.0
 10
153.0281382066
 20
160.3918590269
 30
0.0
 10
153.038259826
 20
160.2838186363
 30
0.0
 10
153.0688706496
 20
160.1235967502
 30
0.0
 10
153.111905909
 20
159.9650582043
 30
0.0
 10
153.1466700567
 20
159.8607026724
 30
0.0
 10
153.1651844791
 20
159.8085861902
 30
0.0
  0
SPLINE
  5
73F
100
AcDbEntity
  8
30338490_CL
100
AcDbSpline
 62
7
  6
CONTINUOUS
 70
0
 71
3
 72
46
 73
42
 74
0
 42
0.0000001
 43
0.0000001
 44
0.0000000001
 40
0.0
 40
0.0
 40
0.0
 40
0.0
 40
0.0651523726
 40
0.1305239155
 40
0.196200193
 40
0.2291935908
 40
0.2623217558
 40
0.2956174308
 40
0.3291247484
 40
0.3629051853
 40
0.3970481613
 40
0.4142966425
 40
0.4316927242
 40
0.4492659576
 40
0.4670503966
 40
0.4850683735
 40
0.4941532198
 40
0.5032377366
 40
0.5121950536
 40
0.5207209752
 40
0.5283365718
 40
0.534875918
 40
0.5407728596
 40
0.5465020329
 40
0.5522874484
 40
0.5581987967
 40
0.5704157763
 40
0.5831056534
 40
0.5961715931
 40
0.6095401068
 40
0.6231583439
 40
0.63698764
 40
0.6651680054
 40
0.6939221144
 40
0.7231462771
 40
0.752769812
 40
0.7827421975
 40
0.8130257934
 40
0.8744150581
 40
0.936775258
 40
1.0
 40
1.0
 40
1.0
 40
1.0
 10
152.2333772667
 20
160.0860742917
 30
0.0
 10
152.2341551886
 20
160.1834067083
 30
0.0
 10
152.2362611716
 20
160.3783954061
 30
0.0
 10
152.2415701653
 20
160.6714669432
 30
0.0
 10
152.2484990055
 20
160.9164485261
 30
0.0
 10
152.2562746776
 20
161.1131987673
 30
0.0
 10
152.2635232527
 20
161.2615506001
 30
0.0
 10
152.2725458577
 20
161.4105757059
 30
0.0
 10
152.2838576484
 20
161.5604252226
 30
0.0
 10
152.2982134152
 20
161.7112889434
 30
0.0
 10
152.3136243518
 20
161.837621677
 30
0.0
 10
152.3290153934
 20
161.9392367233
 30
0.0
 10
152.3425772603
 20
162.0160699497
 30
0.0
 10
152.3587112425
 20
162.0932323123
 30
0.0
 10
152.3783491291
 20
162.1705445598
 30
0.0
 10
152.398835806
 20
162.2344852252
 30
0.0
 10
152.4191839102
 20
162.2846049103
 30
0.0
 10
152.4370346557
 20
162.3210378291
 30
0.0
 10
152.4580327514
 20
162.3548354529
 30
0.0
 10
152.4825764918
 20
162.3834637556
 30
0.0
 10
152.510580444
 20
162.4034773197
 30
0.0
 10
152.5402494403
 20
162.411431184
 30
0.0
 10
152.5677228981
 20
162.4080325921
 30
0.0
 10
152.5917345065
 20
162.397406712
 30
0.0
 10
152.6130766416
 20
162.3822977233
 30
0.0
 10
152.6391435214
 20
162.357752
 30
0.0
 10
152.6677227486
 20
162.3213849815
 30
0.0
 10
152.6974784206
 20
162.2730167885
 30
0.0
 10
152.724168271
 20
162.2209631702
 30
0.0
 10
152.7484309579
 20
162.1662413902
 30
0.0
 10
152.770700006
 20
162.1094582739
 30
0.0
 10
152.7983085312
 20
162.0310582426
 30
0.0
 10
152.8290501777
 20
161.929855294
 30
0.0
 10
152.8611722762
 20
161.8051813647
 30
0.0
 10
152.8894883193
 20
161.677385019
 30
0.0
 10
152.9145145578
 20
161.547057065
 30
0.0
 10
152.9366195758
 20
161.4145999003
 30
0.0
 10
152.9626784337
 20
161.234732656
 30
0.0
 10
152.9890723054
 20
161.0060765773
 30
0.0
 10
153.0120852144
 20
160.7276537525
 30
0.0
 10
153.0221380255
 20
160.5402750182
 30
0.0
 10
153.0259535763
 20
160.4458964066
 30
0.0
  0
SPLINE
  5
740
100
AcDbEntity
  8
30338490_CL
100
AcDbSpline
 62
7
  6
CONTINUOUS
 70
0
 71
3
 72
23
 73
19
 74
0
 42
0.0000001
 43
0.0000001
 44
0.0000000001
 40
0.0
 40
0.0
 40
0.0
 40
0.0
 40
0.1256293669
 40
0.250281012
 40
0.374232226
 40
0.4360568729
 40
0.497808441
 40
0.5595223413
 40
0.6212376696
 40
0.6830039098
 40
0.7448963417
 40
0.8070534047
 40
0.8383272798
 40
0.8698142516
 40
0.9016288323
 40
0.9339269931
 40
0.9667982255
 40
1.0
 40
1.0
 40
1.0
 40
1.0
 10
156.7152219211
 20
146.0066777583
 30
0.0
 10
156.7152219211
 20
145.8783877741
 30
0.0
 10
156.6955865979
 20
145.6224528186
 30
0.0
 10
156.6132878017
 20
145.2482015265
 30
0.0
 10
156.5063673307
 20
144.9488823972
 30
0.0
 10
156.4011057919
 20
144.7189631009
 30
0.0
 10
156.3129585008
 20
144.5514241066
 30
0.0
 10
156.2160930724
 20
144.3889147537
 30
0.0
 10
156.1108405592
 20
144.2316888584
 30
0.0
 10
155.9972090532
 20
144.080162315
 30
0.0
 10
155.8746196236
 20
143.935186159
 30
0.0
 10
155.7637458677
 20
143.8214506207
 30
0.0
 10
155.6678118095
 20
143.7372659401
 30
0.0
 10
155.5908780578
 20
143.678707631
 30
0.0
 10
155.5076246501
 20
143.6273173993
 30
0.0
 10
155.4162487174
 20
143.5877897814
 30
0.0
 10
155.3165693621
 20
143.5685460852
 30
0.0
 10
155.2483682589
 20
143.5744752319
 30
0.0
 10
155.2152219211
 20
143.5816071807
 30
0.0
  0
SPLINE
  5
741
100
AcDbEntity
  8
30338490_CL
100
AcDbSpline
 62
7
  6
CONTINUOUS
 70
0
 71
3
 72
21
 73
17
 74
0
 42
0.0000001
 43
0.0000001
 44
0.0000000001
 40
0.0
 40
0.0
 40
0.0
 40
0.0
 40
0.062721265
 40
0.1253804187
 40
0.187967773
 40
0.2504777736
 40
0.375153278
 40
0.4996412496
 40
0.56195283
 40
0.6243007896
 40
0.6867121417
 40
0.7492068381
 40
0.8117943706
 40
0.874470342
 40
0.9372156208
 40
1.0
 40
1.0
 40
1.0
 40
1.0
 10
169.6152219211
 20
155.3013250476
 30
0.0
 10
169.739511192
 20
155.3066560661
 30
0.0
 10
169.9885878501
 20
155.3061916006
 30
0.0
 10
170.3603252257
 20
155.2722186283
 30
0.0
 10
170.7271982155
 20
155.2052777718
 30
0.0
 10
171.2051606913
 20
155.0728882759
 30
0.0
 10
171.7765074413
 20
154.8274008604
 30
0.0
 10
172.2922024832
 20
154.4798934708
 30
0.0
 10
172.657649455
 20
154.1462125043
 30
0.0
 10
172.9054908225
 20
153.8691777494
 30
0.0
 10
173.123374994
 20
153.5675472252
 30
0.0
 10
173.3078794025
 20
153.2438086175
 30
0.0
 10
173.4556551727
 20
152.90112526
 30
0.0
 10
173.5636994696
 20
152.5433436763
 30
0.0
 10
173.6295856959
 20
152.1750836523
 30
0.0
 10
173.6443487963
 20
151.925853778
 30
0.0
 10
173.6443487963
 20
151.8013250476
 30
0.0
  0
SPLINE
  5
742
100
AcDbEntity
  8
30338490_CL
100
AcDbSpline
 62
7
  6
CONTINUOUS
 70
0
 71
3
 72
10
 73
6
 74
0
 42
0.0000001
 43
0.0000001
 44
0.0000000001
 40
0.0
 40
0.0
 40
0.0
 40
0.0
 40
0.2379858002
 40
0.6144920041
 40
1.0
 40
1.0
 40
1.0
 40
1.0
 10
152.2333772667
 20
143.5165758036
 30
0.0
 10
152.232955525
 20
143.5693434854
 30
0.0
 10
152.2297734079
 20
143.7055776144
 30
0.0
 10
152.2199673044
 20
143.927083
 30
0.0
 10
152.2152219211
 20
144.0960276669
 30
0.0
 10
152.2152219211
 20
144.1815076114
 30
0.0
  0
SPLINE
  5
743
100
AcDbEntity
  8
30338490_CL
100
AcDbSpline
 62
7
  6
CONTINUOUS
 70
0
 71
3
 72
46
 73
42
 74
0
 42
0.0000001
 43
0.0000001
 44
0.0000000001
 40
0.0
 40
0.0
 40
0.0
 40
0.0
 40
0.0632245143
 40
0.1255845217
 40
0.1869736267
 40
0.2172571602
 40
0.2472295041
 40
0.2768530087
 40
0.3060771256
 40
0.3348312728
 40
0.3630116656
 40
0.3768409576
 40
0.3904591914
 40
0.4038276895
 40
0.4168934963
 40
0.4295833229
 40
0.4418001314
 40
0.4477115105
 40
0.4534970056
 40
0.45922644
 40
0.465123964
 40
0.4716641707
 40
0.4792826452
 40
0.4878090659
 40
0.4967660232
 40
0.5058499963
 40
0.5149343604
 40
0.5329518734
 40
0.5507360129
 40
0.568309101
 40
0.5857050588
 40
0.6029534407
 40
0.6370962358
 40
0.6708764971
 40
0.7043836516
 40
0.7376791758
 40
0.7708071983
 40
0.8038004728
 40
0.8694765196
 40
0.9348478548
 40
1.0
 40
1.0
 40
1.0
 40
1.0
 10
153.0259535763
 20
143.1567536887
 30
0.0
 10
153.0221380399
 20
143.0623754329
 30
0.0
 10
153.0120852719
 20
142.8749973572
 30
0.0
 10
152.9890725097
 20
142.5965754373
 30
0.0
 10
152.9626787792
 20
142.3679200057
 30
0.0
 10
152.9366200653
 20
142.1880531696
 30
0.0
 10
152.9145151843
 20
142.0555962106
 30
0.0
 10
152.8894891885
 20
141.9252684077
 30
0.0
 10
152.8611728553
 20
141.7974722104
 30
0.0
 10
152.8290513072
 20
141.6727981362
 30
0.0
 10
152.7983098535
 20
141.5715950482
 30
0.0
 10
152.7707014321
 20
141.4931949596
 30
0.0
 10
152.7484325138
 20
141.4364118551
 30
0.0
 10
152.7241705217
 20
141.3816899983
 30
0.0
 10
152.697480108
 20
141.3296370497
 30
0.0
 10
152.6677255137
 20
141.2812687687
 30
0.0
 10
152.6391458556
 20
141.2449025587
 30
0.0
 10
152.6130799796
 20
141.2203559358
 30
0.0
 10
152.5917376497
 20
141.2052462557
 30
0.0
 10
152.5677251029
 20
141.1946190744
 30
0.0
 10
152.5402493377
 20
141.1912191471
 30
0.0
 10
152.5105731
 20
141.1991731492
 30
0.0
 10
152.4825670918
 20
141.2191958341
 30
0.0
 10
152.458022397
 20
141.2478286748
 30
0.0
 10
152.4370268511
 20
141.281627304
 30
0.0
 10
152.4191784183
 20
141.3180589499
 30
0.0
 10
152.3988318556
 20
141.3681768636
 30
0.0
 10
152.3783471244
 20
141.4321161416
 30
0.0
 10
152.3587083457
 20
141.5094267464
 30
0.0
 10
152.3425762613
 20
141.5865886437
 30
0.0
 10
152.3290142716
 20
141.6634212559
 30
0.0
 10
152.3136233782
 20
141.7650357061
 30
0.0
 10
152.2982129276
 20
141.8913677873
 30
0.0
 10
152.2838572263
 20
142.0422307066
 30
0.0
 10
152.2725454843
 20
142.1920794683
 30
0.0
 10
152.2635229174
 20
142.3411038687
 30
0.0
 10
152.25627466
 20
142.4894550686
 30
0.0
 10
152.2484989612
 20
142.6862045327
 30
0.0
 10
152.2415703302
 20
142.9311852402
 30
0.0
 10
152.2362609404
 20
143.2242557252
 30
0.0
 10
152.2341551858
 20
143.4192437432
 30
0.0
 10
152.2333772667
 20
143.5165758036
 30
0.0
  0
SPLINE
  5
744
100
AcDbEntity
  8
30338490_CL
100
AcDbSpline
 62
7
  6
CONTINUOUS
 70
0
 71
3
 72
9
 73
5
 74
0
 42
0.0000001
 43
0.0000001
 44
0.0000000001
 40
0.0
 40
0.0
 40
0.0
 40
0.0
 40
0.2504119371
 40
1.0
 40
1.0
 40
1.0
 40
1.0
 10
193.3165716804
 20
136.3013250476
 30
0.0
 10
193.3037325562
 20
136.2642245805
 30
0.0
 10
193.2591535138
 20
136.1138089288
 30
0.0
 10
193.2402219211
 20
135.9559969396
 30
0.0
 10
193.2402219211
 20
135.8384775573
 30
0.0
  0
SPLINE
  5
745
100
AcDbEntity
  8
30338490_CL
100
AcDbSpline
 62
7
  6
CONTINUOUS
 70
0
 71
3
 72
11
 73
7
 74
0
 42
0.0000001
 43
0.0000001
 44
0.0000000001
 40
0.0
 40
0.0
 40
0.0
 40
0.0
 40
0.2534271566
 40
0.5037986984
 40
0.7521911424
 40
1.0
 40
1.0
 40
1.0
 40
1.0
 10
153.1651844791
 20
143.7940639051
 30
0.0
 10
153.1466700254
 20
143.7419473346
 30
0.0
 10
153.1119058388
 20
143.6375916582
 30
0.0
 10
153.0688705544
 20
143.4790529845
 30
0.0
 10
153.0382598168
 20
143.3188311782
 30
0.0
 10
153.0281382014
 20
143.2107909396
 30
0.0
 10
153.0259535763
 20
143.1567536887
 30
0.0
  0
SPLINE
  5
746
100
AcDbEntity
  8
30338490_CL
100
AcDbSpline
 62
7
  6
CONTINUOUS
 70
0
 71
3
 72
10
 73
6
 74
0
 42
0.0000001
 43
0.0000001
 44
0.0000000001
 40
0.0
 40
0.0
 40
0.0
 40
0.0
 40
0.5001321193
 40
0.7501252109
 40
1.0
 40
1.0
 40
1.0
 40
1.0
 10
153.2152219211
 20
143.9247092808
 30
0.0
 10
153.5501590207
 20
143.8767819026
 30
0.0
 10
154.0519041552
 20
143.8002706417
 30
0.0
 10
154.7181951945
 20
143.6829349538
 30
0.0
 10
155.0499591693
 20
143.617166026
 30
0.0
 10
155.2152219211
 20
143.5816071807
 30
0.0
  0
SPLINE
  5
747
100
AcDbEntity
  8
30338490_CL
100
AcDbSpline
 62
7
  6
CONTINUOUS
 70
0
 71
3
 72
9
 73
5
 74
0
 42
0.0000001
 43
0.0000001
 44
0.0000000001
 40
0.0
 40
0.0
 40
0.0
 40
0.0
 40
0.2573971937
 40
1.0
 40
1.0
 40
1.0
 40
1.0
 10
152.2152219211
 20
159.4211424839
 30
0.0
 10
152.2152219211
 20
159.4782155863
 30
0.0
 10
152.2193682831
 20
159.6999361949
 30
0.0
 10
152.2320612878
 20
159.921421011
 30
0.0
 10
152.2333772667
 20
160.0860742917
 30
0.0
  0
SPLINE
  5
748
100
AcDbEntity
  8
30338490_CL
100
AcDbSpline
 62
7
  6
CONTINUOUS
 70
0
 71
3
 72
19
 73
15
 74
0
 42
0.0000001
 43
0.0000001
 44
0.0000000001
 40
0.0
 40
0.0
 40
0.0
 40
0.0
 40
0.0625686572
 40
0.1251262357
 40
0.1876669169
 40
0.2501863401
 40
0.3126858512
 40
0.3751709643
 40
0.4999871998
 40
0.6248678398
 40
0.7498459836
 40
0.8124213362
 40
0.8750004677
 40
1.0
 40
1.0
 40
1.0
 40
1.0
 10
165.9705537172
 20
151.8013250476
 30
0.0
 10
165.9705537172
 20
151.9175584647
 30
0.0
 10
165.9832387023
 20
152.1502029734
 30
0.0
 10
166.0399674187
 20
152.4948407227
 30
0.0
 10
166.1333651884
 20
152.8313305072
 30
0.0
 10
166.2618050915
 20
153.15590354
 30
0.0
 10
166.4232268748
 20
153.4652895817
 30
0.0
 10
166.6788888302
 20
153.8533552356
 30
0.0
 10
167.0689608406
 20
154.2879164661
 30
0.0
 10
167.6259817148
 20
154.7115364023
 30
0.0
 10
168.1464714229
 20
154.9757302735
 30
0.0
 10
168.5851424487
 20
155.1305006686
 30
0.0
 10
169.0353941683
 20
155.2471789938
 30
0.0
 10
169.3832243519
 20
155.2913742022
 30
0.0
 10
169.6152219211
 20
155.3013250476
 30
0.0
  0
SPLINE
  5
749
100
AcDbEntity
  8
30338490_CL
100
AcDbSpline
 62
7
  6
CONTINUOUS
 70
0
 71
3
 72
19
 73
15
 74
0
 42
0.0000001
 43
0.0000001
 44
0.0000000001
 40
0.0
 40
0.0
 40
0.0
 40
0.0
 40
0.1249995328
 40
0.1875786638
 40
0.2501540177
 40
0.3751321608
 40
0.5000128028
 40
0.6248290366
 40
0.6873141496
 40
0.7498136609
 40
0.8123330841
 40
0.8748737657
 40
0.9374313446
 40
1.0
 40
1.0
 40
1.0
 40
1.0
 10
169.6152219211
 20
148.3013250476
 30
0.0
 10
169.383224351
 20
148.3112758931
 30
0.0
 10
169.0353941674
 20
148.3554711013
 30
0.0
 10
168.5851424457
 20
148.4721494276
 30
0.0
 10
168.1464714199
 20
148.6269198231
 30
0.0
 10
167.6259817076
 20
148.8911136971
 30
0.0
 10
167.0689608348
 20
149.3147336344
 30
0.0
 10
166.6788888255
 20
149.7492948661
 30
0.0
 10
166.4232268723
 20
150.1373605179
 30
0.0
 10
166.2618050892
 20
150.4467465599
 30
0.0
 10
166.1333651866
 20
150.771319594
 30
0.0
 10
166.0399674163
 20
151.10780938
 30
0.0
 10
165.9832387025
 20
151.452447128
 30
0.0
 10
165.9705537172
 20
151.685091634
 30
0.0
 10
165.9705537172
 20
151.8013250476
 30
0.0
  0
SPLINE
  5
74A
100
AcDbEntity
  8
30338490_CL
100
AcDbSpline
 62
7
  6
CONTINUOUS
 70
0
 71
3
 72
21
 73
17
 74
0
 42
0.0000001
 43
0.0000001
 44
0.0000000001
 40
0.0
 40
0.0
 40
0.0
 40
0.0
 40
0.1250283487
 40
0.2500553544
 40
0.3750804599
 40
0.5001013193
 40
0.5626156323
 40
0.6251290625
 40
0.6876409191
 40
0.7501490515
 40
0.8126480446
 40
0.8751164933
 40
0.9063685741
 40
0.937608776
 40
0.9688215334
 40
1.0
 40
1.0
 40
1.0
 40
1.0
 10
193.3619940811
 20
157.8013250476
 30
0.0
 10
193.3736730095
 20
157.7361331536
 30
0.0
 10
193.3987997936
 20
157.6060586742
 30
0.0
 10
193.4422839045
 20
157.4121548824
 30
0.0
 10
193.4923799659
 20
157.2198480069
 30
0.0
 10
193.5407599029
 20
157.0614299989
 30
0.0
 10
193.5846663342
 20
156.9364440337
 30
0.0
 10
193.6207128862
 20
156.8438463632
 30
0.0
 10
193.6605680817
 20
156.7528158786
 30
0.0
 10
193.7052943085
 20
156.6640410655
 30
0.0
 10
193.756547611
 20
156.5788685001
 30
0.0
 10
193.8071278699
 20
156.5129075057
 30
0.0
 10
193.8547803959
 20
156.4667585731
 30
0.0
 10
193.8950675157
 20
156.4373774041
 30
0.0
 10
193.9404816359
 20
156.4163939685
 30
0.0
 10
193.9737061292
 20
156.4110972763
 30
0.0
 10
193.9902219211
 20
156.4110972763
 30
0.0
  0
SPLINE
  5
74B
100
AcDbEntity
  8
30338490_CL
100
AcDbSpline
 62
7
  6
CONTINUOUS
 70
0
 71
3
 72
21
 73
17
 74
0
 42
0.0000001
 43
0.0000001
 44
0.0000000001
 40
0.0
 40
0.0
 40
0.0
 40
0.0
 40
0.062784376
 40
0.1255296492
 40
0.1882056154
 40
0.2507931428
 40
0.3132878341
 40
0.3756991813
 40
0.4380471357
 40
0.5003587119
 40
0.6248466735
 40
0.7495221814
 40
0.8120321874
 40
0.8746195528
 40
0.9372787188
 40
1.0
 40
1.0
 40
1.0
 40
1.0
 10
173.6443487963
 20
151.8013250476
 30
0.0
 10
173.6443487963
 20
151.6767963237
 30
0.0
 10
173.6295856985
 20
151.4275664667
 30
0.0
 10
173.5636994791
 20
151.05930647
 30
0.0
 10
173.4556552025
 20
150.7015249131
 30
0.0
 10
173.3078794506
 20
150.3588415812
 30
0.0
 10
173.1233750723
 20
150.0351029911
 30
0.0
 10
172.9054909311
 20
149.7334724821
 30
0.0
 10
172.6576495962
 20
149.4564377366
 30
0.0
 10
172.2922026746
 20
149.1227567722
 30
0.0
 10
171.7765076717
 20
148.7752493637
 30
0.0
 10
171.2051609416
 20
148.5297619068
 30
0.0
 10
170.7271984348
 20
148.3973723729
 30
0.0
 10
170.3603253917
 20
148.330431489
 30
0.0
 10
169.9885879389
 20
148.2964584952
 30
0.0
 10
169.7395112241
 20
148.2959940278
 30
0.0
 10
169.6152219211
 20
148.3013250476
 30
0.0
  0
SPLINE
  5
74C
100
AcDbEntity
  8
30338490_CL
100
AcDbSpline
 62
7
  6
CONTINUOUS
 70
0
 71
3
 72
21
 73
17
 74
0
 42
0.0000001
 43
0.0000001
 44
0.0000000001
 40
0.0
 40
0.0
 40
0.0
 40
0.0
 40
0.0311784608
 40
0.062391211
 40
0.0936314124
 40
0.1248834929
 40
0.1873519412
 40
0.2498509327
 40
0.3123590632
 40
0.3748709192
 40
0.4373843494
 40
0.4998986636
 40
0.6249195261
 40
0.7499446359
 40
0.8749716463
 40
1.0
 40
1.0
 40
1.0
 40
1.0
 10
193.9902219211
 20
147.191552819
 30
0.0
 10
193.9737061322
 20
147.191552819
 30
0.0
 10
193.9404816457
 20
147.1862561302
 30
0.0
 10
193.8950675311
 20
147.1652726994
 30
0.0
 10
193.8547804136
 20
147.1358915347
 30
0.0
 10
193.8071278842
 20
147.0897426065
 30
0.0
 10
193.756547623
 20
147.0237816151
 30
0.0
 10
193.705294323
 20
146.9386090506
 30
0.0
 10
193.6605680931
 20
146.8498342415
 30
0.0
 10
193.6207128981
 20
146.7588037581
 30
0.0
 10
193.5846663414
 20
146.6662060892
 30
0.0
 10
193.5407599118
 20
146.5412201209
 30
0.0
 10
193.4923799714
 20
146.3828021092
 30
0.0
 10
193.4422839062
 20
146.190495228
 30
0.0
 10
193.3987997956
 20
145.9965914286
 30
0.0
 10
193.37367301
 20
145.8665169443
 30
0.0
 10
193.3619940811
 20
145.8013250476
 30
0.0
  0
ENDSEC
  0
SECTION
  2
OBJECTS
  0
DICTIONARY
  5
C
100
AcDbDictionary
280
0
281
1
  3
ACAD_GROUP
350
D
  3
ACAD_MLINESTYLE
350
17
  3
ACAD_LAYOUT
350
1A
  3
ACAD_PLOTSETTINGS
350
19
  3
ACAD_PLOTSTYLENAME
350
E
  0
DICTIONARY
  5
D
102
{ACAD_REACTORS
330
C
102
}
100
AcDbDictionary
280
0
281
1
  0
ACDBDICTIONARYWDFLT
  5
E
102
{ACAD_REACTORS
330
C
102
}
100
AcDbDictionary
281
1
  3
Normal
350
F
100
AcDbDictionaryWithDefault
340
F
  0
DICTIONARY
  5
17
102
{ACAD_REACTORS
330
C
102
}
100
AcDbDictionary
280
0
281
1
  3
Standard
350
18
  0
DICTIONARY
  5
19
102
{ACAD_REACTORS
330
C
102
}
100
AcDbDictionary
281
1
  0
DICTIONARY
  5
1A
102
{ACAD_REACTORS
330
C
102
}
100
AcDbDictionary
281
1
  3
Model
350
74D
  3
Layout1
350
74E
  0
ACDBPLACEHOLDER
  5
F
102
{ACAD_REACTORS
330
E
102
}
  0
MLINESTYLE
  5
18
102
{ACAD_REACTORS
330
17
102
}
100
AcDbMlineStyle
  2
STANDARD
 70
0
  3

 62
256
 51
90.0
 52
90.0
 71
2
 49
0.5
 62
256
  6
BYLAYER
 49
-0.5
 62
256
  6
BYLAYER
  0
LAYOUT
  5
74D
102
{ACAD_REACTORS
330
1A
102
}
100
AcDbPlotSettings
  1

  2
none_device
  4
ISO_A3_(420.00_x_297.00_MM)
  6

 40
0.0
 41
0.0
 42
0.0
 43
0.0
 44
420.0
 45
297.0
 46
0.0
 47
0.0
 48
0.0
 49
0.0
140
0.0
141
0.0
142
1.0
143
1.0
 70
1024
 72
1
 73
0
 74
0
  7

 75
0
147
1.0
148
0.0
149
0.0
100
AcDbLayout
  1
Model
 70
0
 71
0
 10
0.0
 20
0.0
 11
420.0
 21
297.0
 12
0.0
 22
0.0
 32
0.0
 14
0.0
 24
0.0
 34
0.0
 15
0.0
 25
0.0
 35
0.0
146
0.0
 13
0.0
 23
0.0
 33
0.0
 16
1.0
 26
0.0
 36
0.0
 17
0.0
 27
1.0
 37
0.0
 76
0
330
217
345
0
346
0
  0
LAYOUT
  5
74E
102
{ACAD_REACTORS
330
1A
102
}
100
AcDbPlotSettings
  1

  2
none_device
  4
ISO_A3_(420.00_x_297.00_MM)
  6

 40
0.0
 41
0.0
 42
0.0
 43
0.0
 44
420.0
 45
297.0
 46
0.0
 47
0.0
 48
0.0
 49
0.0
140
0.0
141
0.0
142
1.0
143
1.0
 70
0
 72
1
 73
0
 74
0
  7

 75
0
147
1.0
148
0.0
149
0.0
100
AcDbLayout
  1
Layout1
 70
0
 71
1
 10
0.0
 20
0.0
 11
420.0
 21
297.0
 12
0.0
 22
0.0
 32
0.0
 14
0.0
 24
0.0
 34
0.0
 15
0.0
 25
0.0
 35
0.0
146
0.0
 13
0.0
 23
0.0
 33
0.0
 16
1.0
 26
0.0
 36
0.0
 17
0.0
 27
1.0
 37
0.0
 76
0
330
218
345
0
346
0
  0
ENDSEC
  0
EOF
