999
DXF file: 606077388-000-00-ed1.dxf
999
Pro/ENGINEER 2011220 by Parametric Technology Corporation
  0
SECTION
  2
HEADER
  9
$ACADVER
  1
AC1015
  9
$DWGCODEPAGE
  3
ANSI_1252
  9
$EXTMAX
 10
420.0
 20
297.0
 30
0.0
  9
$EXTMIN
 10
0.0
 20
0.0
 30
0.0
  9
$LIMMIN
 10
0.0
 20
0.0
  9
$LIMMAX
 10
420.0
 20
297.0
  9
$VIEWCTR
 10
210.0
 20
148.5
  9
$VIEWSIZE
 40
297.0
  9
$CLAYER
  8
0
  9
$LTSCALE
 40
23.1
  9
$CELTYPE
  6
BYLAYER
  9
$DIMSCALE
 40
1.0
  9
$DIMASZ
 40
3.5
  9
$DIMEXO
 40
2.625
  9
$DIMDLI
 40
15.96
  9
$DIMEXE
 40
7.56
  9
$DIMCEN
 40
3.78
  9
$DIMLFAC
 40
1.0
  9
$DIMBLK
  1
_FILLED
  9
$DIMTXT
 40
3.5
  9
$DIMTOL
 70
1
  9
$DIMLIM
 70
0
  9
$DIMTFAC
 40
1.0
  9
$DIMTP
 40
0.005
  9
$DIMTM
 40
0.005
  9
$PDMODE
 70
3
  9
$PDSIZE
 40
0.3125
  9
$HANDSEED
  5
718
  9
$TILEMODE
 70
1
  9
$MEASUREMENT
 70
1
  9
$INSUNITS
 70
4
  0
ENDSEC
  0
SECTION
  2
CLASSES
  0
CLASS
  1
ACDBDICTIONARYWDFLT
  2
AcDbDictionaryWithDefault
  3
AutoCAD 2000
 90
0
280
0
281
0
  0
CLASS
  1
ACDBPLACEHOLDER
  2
AcDbPlaceHolder
  3
AutoCAD 2000
 90
0
280
0
281
0
  0
CLASS
  1
LAYOUT
  2
AcDbLayout
  3
AutoCAD 2000
 90
0
280
0
281
0
  0
ENDSEC
  0
SECTION
  2
TABLES
  0
TABLE
  2
VPORT
  5
8
100
AcDbSymbolTable
 70
2
  0
VPORT
  5
1F4
100
AcDbSymbolTableRecord
100
AcDbViewportTableRecord
  2
*ACTIVE
 70
0
 10
0.0
 20
0.0
 11
1.0
 21
1.0
 12
210.0
 22
148.5
 13
0.0
 23
0.0
 14
1.0
 24
1.0
 15
0.0
 25
0.0
 16
0.0
 26
0.0
 36
1.0
 17
0.0
 27
0.0
 37
0.0
 40
297.0
 41
1.4141414141
 42
50.0
 43
0.0
 44
0.0
 50
0.0
 51
0.0
 71
0
 72
100
 73
1
 74
1
 75
0
 76
0
 77
0
 78
0
  0
ENDTAB
  0
TABLE
  2
LTYPE
  5
5
100
AcDbSymbolTable
 70
6
  0
LTYPE
  5
14
100
AcDbSymbolTableRecord
100
AcDbLinetypeTableRecord
  2
BYBLOCK
 70
0
  3

 72
65
 73
0
 40
0.0
  0
LTYPE
  5
15
100
AcDbSymbolTableRecord
100
AcDbLinetypeTableRecord
  2
BYLAYER
 70
0
  3

 72
65
 73
0
 40
0.0
  0
LTYPE
  5
16
100
AcDbSymbolTableRecord
100
AcDbLinetypeTableRecord
  2
CONTINUOUS
 70
64
  3
Solid line
 72
65
 73
0
 40
0.0
  0
LTYPE
  5
1F5
100
AcDbSymbolTableRecord
100
AcDbLinetypeTableRecord
  2
CENTER
 70
64
  3
____ _ ____ _ ____ _ ____ _ ____ _ ____ _ ____
 72
65
 73
4
 40
0.6
 49
0.375
 74
0
 49
-0.075
 74
0
 49
0.075
 74
0
 49
-0.075
 74
0
  0
LTYPE
  5
1F6
100
AcDbSymbolTableRecord
100
AcDbLinetypeTableRecord
  2
HIDDEN
 70
64
  3
- - - - - - - - - - - - - - - - - - - -
 72
65
 73
2
 40
0.2
 49
0.1
 74
0
 49
-0.1
 74
0
  0
LTYPE
  5
1F7
100
AcDbSymbolTableRecord
100
AcDbLinetypeTableRecord
  2
PHANTOM
 70
64
  3
_____ _ _ _____ _ _ _____ _ _ _____
 72
65
 73
6
 40
0.8
 49
0.45
 74
0
 49
-0.05
 74
0
 49
0.1
 74
0
 49
-0.05
 74
0
 49
0.1
 74
0
 49
-0.05
 74
0
  0
LTYPE
  5
1F8
100
AcDbSymbolTableRecord
100
AcDbLinetypeTableRecord
  2
DOT
 70
64
  3
. . . . . . . . . . . . . . . . . . . .
 72
65
 73
2
 40
0.2
 49
0.1
 74
0
 49
-0.1
 74
0
  0
LTYPE
  5
1F9
100
AcDbSymbolTableRecord
100
AcDbLinetypeTableRecord
  2
DASHED
 70
64
  3
- - - - - - - - - - - - - - - - - - - -
 72
65
 73
2
 40
0.2
 49
0.1
 74
0
 49
-0.1
 74
0
  0
ENDTAB
  0
TABLE
  2
LAYER
  5
2
100
AcDbSymbolTable
 70
36
  0
LAYER
  5
10
100
AcDbSymbolTableRecord
100
AcDbLayerTableRecord
  2
0
 70
0
 62
7
  6
CONTINUOUS
370
-3
390
F
  0
LAYER
  5
1FA
100
AcDbSymbolTableRecord
100
AcDbLayerTableRecord
  2
DEFAULT_1
 70
0
 62
7
  6
CENTER
370
-3
390
F
  0
LAYER
  5
1FB
100
AcDbSymbolTableRecord
100
AcDbLayerTableRecord
  2
DEFAULT_2
 70
0
 62
6
  6
HIDDEN
370
-3
390
F
  0
LAYER
  5
1FC
100
AcDbSymbolTableRecord
100
AcDbLayerTableRecord
  2
DEFAULT_3
 70
0
 62
7
  6
PHANTOM
370
-3
390
F
  0
LAYER
  5
1FD
100
AcDbSymbolTableRecord
100
AcDbLayerTableRecord
  2
COLLECTION01
 70
0
 62
7
  6
CONTINUOUS
370
-3
390
F
  0
LAYER
  5
1FE
100
AcDbSymbolTableRecord
100
AcDbLayerTableRecord
  2
COLLECTION02
 70
0
 62
7
  6
CONTINUOUS
370
-3
390
F
  0
LAYER
  5
1FF
100
AcDbSymbolTableRecord
100
AcDbLayerTableRecord
  2
COLLECTION03
 70
0
 62
7
  6
CONTINUOUS
370
-3
390
F
  0
LAYER
  5
200
100
AcDbSymbolTableRecord
100
AcDbLayerTableRecord
  2
COLLECTION12
 70
0
 62
7
  6
CONTINUOUS
370
-3
390
F
  0
LAYER
  5
201
100
AcDbSymbolTableRecord
100
AcDbLayerTableRecord
  2
COLLECTION04
 70
0
 62
7
  6
CONTINUOUS
370
-3
390
F
  0
LAYER
  5
202
100
AcDbSymbolTableRecord
100
AcDbLayerTableRecord
  2
COLLECTION06
 70
0
 62
7
  6
CONTINUOUS
370
-3
390
F
  0
LAYER
  5
203
100
AcDbSymbolTableRecord
100
AcDbLayerTableRecord
  2
COLLECTION07
 70
0
 62
7
  6
CONTINUOUS
370
-3
390
F
  0
LAYER
  5
204
100
AcDbSymbolTableRecord
100
AcDbLayerTableRecord
  2
COLLECTION09
 70
0
 62
7
  6
CONTINUOUS
370
-3
390
F
  0
LAYER
  5
205
100
AcDbSymbolTableRecord
100
AcDbLayerTableRecord
  2
COLLECTION10
 70
0
 62
7
  6
CONTINUOUS
370
-3
390
F
  0
LAYER
  5
206
100
AcDbSymbolTableRecord
100
AcDbLayerTableRecord
  2
COLLECTION13
 70
0
 62
7
  6
CONTINUOUS
370
-3
390
F
  0
LAYER
  5
207
100
AcDbSymbolTableRecord
100
AcDbLayerTableRecord
  2
COLLECTION15
 70
0
 62
7
  6
CONTINUOUS
370
-3
390
F
  0
LAYER
  5
208
100
AcDbSymbolTableRecord
100
AcDbLayerTableRecord
  2
COLLECTION16
 70
0
 62
7
  6
CONTINUOUS
370
-3
390
F
  0
LAYER
  5
209
100
AcDbSymbolTableRecord
100
AcDbLayerTableRecord
  2
606077388-000-00-ED1_FORMAT
 70
0
 62
7
  6
CONTINUOUS
370
-3
390
F
  0
LAYER
  5
20A
100
AcDbSymbolTableRecord
100
AcDbLayerTableRecord
  2
606077388-000-00-ED1_DIM
 70
0
 62
7
  6
CONTINUOUS
370
-3
390
F
  0
LAYER
  5
20B
100
AcDbSymbolTableRecord
100
AcDbLayerTableRecord
  2
30261743_DIM
 70
0
 62
7
  6
CONTINUOUS
370
-3
390
F
  0
LAYER
  5
20C
100
AcDbSymbolTableRecord
100
AcDbLayerTableRecord
  2
30338519_DIM
 70
0
 62
7
  6
CONTINUOUS
370
-3
390
F
  0
LAYER
  5
20D
100
AcDbSymbolTableRecord
100
AcDbLayerTableRecord
  2
606077388-000-00-ED1_CL
 70
0
 62
7
  6
CONTINUOUS
370
-3
390
F
  0
LAYER
  5
20E
100
AcDbSymbolTableRecord
100
AcDbLayerTableRecord
  2
30338519_CL
 70
0
 62
7
  6
CONTINUOUS
370
-3
390
F
  0
LAYER
  5
20F
100
AcDbSymbolTableRecord
100
AcDbLayerTableRecord
  2
30338519_HL
 70
0
 62
7
  6
CONTINUOUS
370
-3
390
F
  0
LAYER
  5
210
100
AcDbSymbolTableRecord
100
AcDbLayerTableRecord
  2
30338519_AXIS
 70
0
 62
7
  6
CONTINUOUS
370
-3
390
F
  0
LAYER
  5
211
100
AcDbSymbolTableRecord
100
AcDbLayerTableRecord
  2
30252542_HL
 70
0
 62
7
  6
CONTINUOUS
370
-3
390
F
  0
LAYER
  5
212
100
AcDbSymbolTableRecord
100
AcDbLayerTableRecord
  2
30252542_CL
 70
0
 62
7
  6
CONTINUOUS
370
-3
390
F
  0
ENDTAB
  0
TABLE
  2
STYLE
  5
3
100
AcDbSymbolTable
 70
1
  0
STYLE
  5
11
100
AcDbSymbolTableRecord
100
AcDbTextStyleTableRecord
  2
STANDARD
 70
0
 40
0.0
 41
0.7
 50
0.0
 71
0
 42
0.2
  3
TXT.SHX
  4

  0
STYLE
  5
213
100
AcDbSymbolTableRecord
100
AcDbTextStyleTableRecord
  2
TEXTSTYLE_1
 70
0
 40
0.0
 41
0.8
 50
0.0
 71
0
 42
0.2
  3
gdt
  4

  0
STYLE
  5
214
100
AcDbSymbolTableRecord
100
AcDbTextStyleTableRecord
  2
TEXTSTYLE_2
 70
0
 40
0.0
 41
0.675
 50
0.0
 71
0
 42
0.2
  3
TXT.SHX
  4

  0
STYLE
  5
215
100
AcDbSymbolTableRecord
100
AcDbTextStyleTableRecord
  2
TEXTSTYLE_3
 70
0
 40
0.0
 41
0.7
 50
0.0
 71
0
 42
0.2
  3
gdt
  4

  0
ENDTAB
  0
TABLE
  2
VIEW
  5
6
100
AcDbSymbolTable
 70
0
  0
ENDTAB
  0
TABLE
  2
UCS
  5
7
100
AcDbSymbolTable
 70
0
  0
ENDTAB
  0
TABLE
  2
APPID
  5
9
100
AcDbSymbolTable
 70
1
  0
APPID
  5
216
100
AcDbSymbolTableRecord
100
AcDbRegAppTableRecord
  2
ACAD
 70
0
  0
ENDTAB
  0
TABLE
  2
BLOCK_RECORD
  5
1
100
AcDbSymbolTable
 70
0
  0
BLOCK_RECORD
  5
217
100
AcDbSymbolTableRecord
100
AcDbBlockTableRecord
  2
*Model_Space
  0
BLOCK_RECORD
  5
218
100
AcDbSymbolTableRecord
100
AcDbBlockTableRecord
  2
*Paper_Space
  0
BLOCK_RECORD
  5
219
100
AcDbSymbolTableRecord
100
AcDbBlockTableRecord
  2
_FILLED
  0
BLOCK_RECORD
  5
21A
100
AcDbSymbolTableRecord
100
AcDbBlockTableRecord
  2
_DOT
  0
BLOCK_RECORD
  5
21B
100
AcDbSymbolTableRecord
100
AcDbBlockTableRecord
  2
*D0
  0
BLOCK_RECORD
  5
21C
100
AcDbSymbolTableRecord
100
AcDbBlockTableRecord
  2
*D1
  0
BLOCK_RECORD
  5
21D
100
AcDbSymbolTableRecord
100
AcDbBlockTableRecord
  2
*D2
  0
BLOCK_RECORD
  5
21E
100
AcDbSymbolTableRecord
100
AcDbBlockTableRecord
  2
*D3
  0
BLOCK_RECORD
  5
21F
100
AcDbSymbolTableRecord
100
AcDbBlockTableRecord
  2
*D4
  0
BLOCK_RECORD
  5
220
100
AcDbSymbolTableRecord
100
AcDbBlockTableRecord
  2
*D5
  0
BLOCK_RECORD
  5
221
100
AcDbSymbolTableRecord
100
AcDbBlockTableRecord
  2
*D6
  0
BLOCK_RECORD
  5
222
100
AcDbSymbolTableRecord
100
AcDbBlockTableRecord
  2
*D7
  0
BLOCK_RECORD
  5
223
100
AcDbSymbolTableRecord
100
AcDbBlockTableRecord
  2
*D8
  0
BLOCK_RECORD
  5
224
100
AcDbSymbolTableRecord
100
AcDbBlockTableRecord
  2
*D9
  0
BLOCK_RECORD
  5
225
100
AcDbSymbolTableRecord
100
AcDbBlockTableRecord
  2
*D10
  0
BLOCK_RECORD
  5
226
100
AcDbSymbolTableRecord
100
AcDbBlockTableRecord
  2
BOMBALLOON_BL5
  0
BLOCK_RECORD
  5
227
100
AcDbSymbolTableRecord
100
AcDbBlockTableRecord
  2
NOTE_HSK_BL4
  0
BLOCK_RECORD
  5
228
100
AcDbSymbolTableRecord
100
AcDbBlockTableRecord
  2
GEOM_TOLERANCE_SYMBOLS_BL3
  0
BLOCK_RECORD
  5
229
100
AcDbSymbolTableRecord
100
AcDbBlockTableRecord
  2
GEOM_TOLERANCE_SYMBOLS_BL2
  0
BLOCK_RECORD
  5
22A
100
AcDbSymbolTableRecord
100
AcDbBlockTableRecord
  2
GEOM_TOLERANCE_SYMBOLS_BL1
  0
BLOCK_RECORD
  5
22B
100
AcDbSymbolTableRecord
100
AcDbBlockTableRecord
  2
BARCODEBOX_BL0
  0
ENDTAB
  0
TABLE
  2
DIMSTYLE
  5
A
100
AcDbSymbolTable
 70
1
100
AcDbDimStyleTable
 71
0
  0
DIMSTYLE
105
22C
100
AcDbSymbolTableRecord
100
AcDbDimStyleTableRecord
  2
STANDARD
 70
0
  3

  4

 40
1.0
 41
3.5
 42
0.0625
 43
0.38
 44
0.18
 45
0.0
 46
0.0
 47
0.005
 48
0.005
140
3.5
141
0.09
142
0.0
143
25.4
144
1.0
145
0.0
146
1.0
147
0.09
 71
1.0
 72
0.0
 73
0
 74
0
 75
0
 76
0
 77
1
 78
8
170
0
171
2
172
0
173
0
174
0
175
0
176
0
177
0
178
2
270
2
271
3
272
3
273
2
274
2
275
0
280
0
281
0
282
0
283
1
284
8
285
0
286
0
287
3
288
0
340
11
341
219
342
219
343
219
344
219
  0
DIMSTYLE
105
22D
100
AcDbSymbolTableRecord
100
AcDbDimStyleTableRecord
  2
DIMSTYLE_1
 70
0
  3

  4

 40
1.0
 41
3.5
 42
0.0625
 43
0.38
 44
0.18
 45
0.0
 46
0.0
 47
0.05
 48
0.05
140
3.5
141
0.09
142
0.0
143
25.4
144
1.0
145
0.0
146
1.0
147
0.09
 71
0.0
 72
0.0
 73
0
 74
0
 75
0
 76
0
 77
1
 78
8
170
0
171
2
172
0
173
0
174
0
175
0
176
0
177
0
178
2
270
2
271
3
272
3
273
2
274
2
275
0
280
0
281
0
282
0
283
1
284
8
285
0
286
0
287
3
288
0
340
11
341
219
342
219
343
219
344
219
  0
DIMSTYLE
105
22E
100
AcDbSymbolTableRecord
100
AcDbDimStyleTableRecord
  2
DIMSTYLE_2
 70
0
  3

  4

 40
1.0
 41
3.5
 42
0.0625
 43
0.38
 44
0.18
 45
0.0
 46
0.0
 47
0.25
 48
0.25
140
3.5
141
0.09
142
0.0
143
25.4
144
1.0
145
0.0
146
1.0
147
0.09
 71
1.0
 72
0.0
 73
0
 74
0
 75
0
 76
0
 77
1
 78
8
170
0
171
2
172
0
173
0
174
0
175
0
176
0
177
0
178
2
270
2
271
2
272
2
273
2
274
2
275
0
280
0
281
0
282
0
283
1
284
8
285
0
286
0
287
3
288
0
340
11
341
219
342
219
343
219
344
219
  0
DIMSTYLE
105
22F
100
AcDbSymbolTableRecord
100
AcDbDimStyleTableRecord
  2
DIMSTYLE_3
 70
0
  3

  4

 40
1.0
 41
3.5
 42
0.0625
 43
0.38
 44
0.18
 45
0.0
 46
0.0
 47
0.1
 48
0.1
140
3.5
141
0.09
142
0.0
143
25.4
144
1.0
145
0.0
146
1.0
147
0.09
 71
0.0
 72
0.0
 73
0
 74
0
 75
0
 76
0
 77
1
 78
8
170
0
171
2
172
0
173
0
174
0
175
0
176
0
177
0
178
2
270
2
271
3
272
3
273
2
274
2
275
0
280
0
281
0
282
0
283
1
284
8
285
0
286
0
287
3
288
0
340
11
341
219
342
219
343
219
344
219
  0
DIMSTYLE
105
230
100
AcDbSymbolTableRecord
100
AcDbDimStyleTableRecord
  2
DIMSTYLE_4
 70
0
  3

  4

 40
1.0
 41
3.5
 42
0.0625
 43
0.38
 44
0.18
 45
0.0
 46
0.0
 47
0.05
 48
0.05
140
3.5
141
0.09
142
0.0
143
25.4
144
1.0
145
0.0
146
1.0
147
0.09
 71
0.0
 72
0.0
 73
0
 74
0
 75
0
 76
0
 77
1
 78
8
170
0
171
2
172
0
173
0
174
0
175
0
176
0
177
0
178
2
270
2
271
3
272
3
273
2
274
2
275
0
280
0
281
0
282
0
283
1
284
8
285
0
286
0
287
3
288
0
340
11
341
219
342
219
343
219
344
219
  0
DIMSTYLE
105
231
100
AcDbSymbolTableRecord
100
AcDbDimStyleTableRecord
  2
DIMSTYLE_5
 70
0
  3

  4

 40
1.0
 41
3.5
 42
0.0625
 43
0.38
 44
0.18
 45
0.0
 46
0.0
 47
0.15
 48
0.15
140
3.5
141
0.09
142
0.0
143
25.4
144
1.0
145
0.0
146
1.0
147
0.09
 71
0.0
 72
0.0
 73
0
 74
0
 75
0
 76
0
 77
1
 78
8
170
0
171
2
172
0
173
0
174
0
175
0
176
0
177
0
178
2
270
2
271
3
272
3
273
2
274
2
275
0
280
0
281
0
282
0
283
1
284
8
285
0
286
0
287
3
288
0
340
11
341
219
342
219
343
219
344
219
  0
ENDTAB
  0
ENDSEC
  0
SECTION
  2
BLOCKS
  0
BLOCK
  5
20
100
AcDbEntity
  8
0
100
AcDbBlockBegin
  2
*Model_Space
 70
0
 10
0.0
 20
0.0
 30
0.0
  3
*Model_Space
  1

  0
ENDBLK
  5
21
100
AcDbEntity
  8
0
100
AcDbBlockEnd
  0
BLOCK
  5
1C
100
AcDbEntity
  8
0
100
AcDbBlockBegin
  2
*Paper_Space
 70
0
 10
0.0
 20
0.0
 30
0.0
  3
*Paper_Space
  1

  0
ENDBLK
  5
1D
100
AcDbEntity
  8
0
100
AcDbBlockEnd
  0
BLOCK
  5
232
100
AcDbEntity
  8
606077388-000-00-ED1_CL
100
AcDbBlockBegin
 62
3
  6
CONTINUOUS
  2
BOMBALLOON_BL5
 70
64
 10
272.6065800766
 20
122.3772872909
  3
BOMBALLOON_BL5
  1

  0
CIRCLE
  5
233
100
AcDbEntity
  8
606077388-000-00-ED1_CL
100
AcDbCircle
 62
3
  6
CONTINUOUS
 10
272.6065800766
 20
122.3772872909
 40
6.125
  0
LINE
  5
234
100
AcDbEntity
  8
606077388-000-00-ED1_CL
100
AcDbLine
 62
3
  6
CONTINUOUS
 10
266.4815800766
 20
122.3772872909
 11
278.7315800766
 21
122.3772872909
  0
TEXT
  5
235
100
AcDbEntity
  8
606077388-000-00-ED1_CL
100
AcDbText
 62
2
  6
CONTINUOUS
 10
271.5017623683
 20
123.3160893743
  7
STANDARD
 40
3.5
  1
1
 41
0.5714285714
 72
0
100
AcDbText
  0
TEXT
  5
236
100
AcDbEntity
  8
606077388-000-00-ED1_CL
100
AcDbText
 62
2
  6
CONTINUOUS
 10
271.6020227849
 20
118.2028081243
  7
STANDARD
 40
3.5
  1
1
 41
0.5714285714
 72
0
100
AcDbText
  0
ENDBLK
  5
237
100
AcDbEntity
  8
0
  6
BYBLOCK
 62
0
100
AcDbBlockEnd
  0
BLOCK
  5
238
100
AcDbEntity
  8
606077388-000-00-ED1_CL
100
AcDbBlockBegin
 62
3
  6
CONTINUOUS
  2
NOTE_HSK_BL4
 70
64
 10
211.1245636473
 20
225.9410773034
  3
NOTE_HSK_BL4
  1

  0
TEXT
  5
239
100
AcDbEntity
  8
606077388-000-00-ED1_CL
100
AcDbText
 62
2
  6
CONTINUOUS
 10
169.3983731711
 20
230.9410773034
  7
STANDARD
 40
5.0
  1
TRENNSTELLE HSK-A63
 41
0.7631578947
 72
0
100
AcDbText
  0
TEXT
  5
23A
100
AcDbEntity
  8
606077388-000-00-ED1_CL
100
AcDbText
 62
2
  6
CONTINUOUS
 10
169.3983731711
 20
223.4410773034
  7
STANDARD
 40
5.0
  1
(AEHNLICH DIN 69893-1)
 41
0.7251082251
 72
0
100
AcDbText
  0
TEXT
  5
23B
100
AcDbEntity
  8
606077388-000-00-ED1_CL
100
AcDbText
 62
2
  6
CONTINUOUS
 10
169.3983731711
 20
215.9410773034
  7
STANDARD
 40
5.0
  1
NACH  MN609 BLATT 2-4
 41
0.7947845805
 72
0
100
AcDbText
  0
ENDBLK
  5
23C
100
AcDbEntity
  8
0
  6
BYBLOCK
 62
0
100
AcDbBlockEnd
  0
BLOCK
  5
23D
100
AcDbEntity
  8
606077388-000-00-ED1_CL
100
AcDbBlockBegin
 62
3
  6
CONTINUOUS
  2
GEOM_TOLERANCE_SYMBOLS_BL3
 70
64
 10
151.6338549675
 20
179.10972595
  3
GEOM_TOLERANCE_SYMBOLS_BL3
  1

  0
LINE
  5
23E
100
AcDbEntity
  8
606077388-000-00-ED1_CL
100
AcDbLine
 62
3
  6
CONTINUOUS
 10
153.5850983108
 20
172.8927830996
 11
150.5888562829
 21
172.7426707735
  0
LINE
  5
23F
100
AcDbEntity
  8
606077388-000-00-ED1_CL
100
AcDbLine
 62
3
  6
CONTINUOUS
 10
147.9631082212
 20
185.1267981256
 11
154.9543396196
 21
185.4770602198
  0
LINE
  5
240
100
AcDbEntity
  8
606077388-000-00-ED1_CL
100
AcDbLine
 62
3
  6
CONTINUOUS
 10
154.9543396196
 20
185.4770602198
 11
155.3046017137
 21
178.4858288214
  0
LINE
  5
241
100
AcDbEntity
  8
606077388-000-00-ED1_CL
100
AcDbLine
 62
3
  6
CONTINUOUS
 10
155.3046017137
 20
178.4858288214
 11
148.3133703154
 21
178.1355667273
  0
LINE
  5
242
100
AcDbEntity
  8
606077388-000-00-ED1_CL
100
AcDbLine
 62
3
  6
CONTINUOUS
 10
148.3133703154
 20
178.1355667273
 11
147.9631082212
 21
185.1267981256
  0
LINE
  5
243
100
AcDbEntity
  8
606077388-000-00-ED1_CL
100
AcDbLine
 62
3
  6
CONTINUOUS
 10
150.5832855806
 20
172.7423916802
 11
151.9590983406
 21
175.3144557465
  0
LINE
  5
244
100
AcDbEntity
  8
606077388-000-00-ED1_CL
100
AcDbLine
 62
3
  6
CONTINUOUS
 10
151.9590983406
 20
175.3144557465
 11
153.5795276084
 21
172.8925040063
  0
LINE
  5
245
100
AcDbEntity
  8
606077388-000-00-ED1_CL
100
AcDbLine
 62
3
  6
CONTINUOUS
 10
151.9590983406
 20
175.3144557465
 11
151.8089860146
 21
178.3106977743
  0
LINE
  5
246
100
AcDbEntity
  8
606077388-000-00-ED1_CL
100
AcDbLine
 62
3
  6
CONTINUOUS
 10
150.685945666
 20
172.7475349711
 11
150.6773894226
 21
172.9183175893
  0
LINE
  5
247
100
AcDbEntity
  8
606077388-000-00-ED1_CL
100
AcDbLine
 62
3
  6
CONTINUOUS
 10
150.7858204003
 20
172.7525387153
 11
150.7689400596
 21
173.0894703148
  0
LINE
  5
248
100
AcDbEntity
  8
606077388-000-00-ED1_CL
100
AcDbLine
 62
3
  6
CONTINUOUS
 10
150.8856951345
 20
172.7575424595
 11
150.8604906966
 21
173.2606230403
  0
LINE
  5
249
100
AcDbEntity
  8
606077388-000-00-ED1_CL
100
AcDbLine
 62
3
  6
CONTINUOUS
 10
150.9855698688
 20
172.7625462037
 11
150.9520413336
 21
173.4317757659
  0
LINE
  5
24A
100
AcDbEntity
  8
606077388-000-00-ED1_CL
100
AcDbLine
 62
3
  6
CONTINUOUS
 10
151.085444603
 20
172.7675499479
 11
151.0435919706
 21
173.6029284914
  0
LINE
  5
24B
100
AcDbEntity
  8
606077388-000-00-ED1_CL
100
AcDbLine
 62
3
  6
CONTINUOUS
 10
151.1853193373
 20
172.7725536921
 11
151.1351426076
 21
173.7740812169
  0
LINE
  5
24C
100
AcDbEntity
  8
606077388-000-00-ED1_CL
100
AcDbLine
 62
3
  6
CONTINUOUS
 10
151.2851940716
 20
172.7775574363
 11
151.2266932446
 21
173.9452339424
  0
LINE
  5
24D
100
AcDbEntity
  8
606077388-000-00-ED1_CL
100
AcDbLine
 62
3
  6
CONTINUOUS
 10
151.3850688058
 20
172.7825611805
 11
151.3182438816
 21
174.1163866679
  0
LINE
  5
24E
100
AcDbEntity
  8
606077388-000-00-ED1_CL
100
AcDbLine
 62
3
  6
CONTINUOUS
 10
151.4849435401
 20
172.7875649247
 11
151.4097945186
 21
174.2875393934
  0
LINE
  5
24F
100
AcDbEntity
  8
606077388-000-00-ED1_CL
100
AcDbLine
 62
3
  6
CONTINUOUS
 10
151.5848182744
 20
172.7925686689
 11
151.5013451556
 21
174.4586921189
  0
LINE
  5
250
100
AcDbEntity
  8
606077388-000-00-ED1_CL
100
AcDbLine
 62
3
  6
CONTINUOUS
 10
151.6846930086
 20
172.7975724131
 11
151.5928957926
 21
174.6298448444
  0
LINE
  5
251
100
AcDbEntity
  8
606077388-000-00-ED1_CL
100
AcDbLine
 62
3
  6
CONTINUOUS
 10
151.7845677429
 20
172.8025761573
 11
151.6844464296
 21
174.8009975699
  0
LINE
  5
252
100
AcDbEntity
  8
606077388-000-00-ED1_CL
100
AcDbLine
 62
3
  6
CONTINUOUS
 10
151.8844424771
 20
172.8075799015
 11
151.7759970666
 21
174.9721502955
  0
LINE
  5
253
100
AcDbEntity
  8
606077388-000-00-ED1_CL
100
AcDbLine
 62
3
  6
CONTINUOUS
 10
151.9843172114
 20
172.8125836457
 11
151.8675477036
 21
175.143303021
  0
LINE
  5
254
100
AcDbEntity
  8
606077388-000-00-ED1_CL
100
AcDbLine
 62
3
  6
CONTINUOUS
 10
152.0841919457
 20
172.8175873899
 11
151.9590983406
 21
175.3144557465
  0
LINE
  5
255
100
AcDbEntity
  8
606077388-000-00-ED1_CL
100
AcDbLine
 62
3
  6
CONTINUOUS
 10
152.1840666799
 20
172.8225911341
 11
152.0673281826
 21
175.1526915403
  0
LINE
  5
256
100
AcDbEntity
  8
606077388-000-00-ED1_CL
100
AcDbLine
 62
3
  6
CONTINUOUS
 10
152.2839414142
 20
172.8275948783
 11
152.1755580246
 21
174.9909273341
  0
LINE
  5
257
100
AcDbEntity
  8
606077388-000-00-ED1_CL
100
AcDbLine
 62
3
  6
CONTINUOUS
 10
152.3838161485
 20
172.8325986225
 11
152.2837878666
 21
174.829163128
  0
LINE
  5
258
100
AcDbEntity
  8
606077388-000-00-ED1_CL
100
AcDbLine
 62
3
  6
CONTINUOUS
 10
152.4836908827
 20
172.8376023667
 11
152.3920177086
 21
174.6673989218
  0
LINE
  5
259
100
AcDbEntity
  8
606077388-000-00-ED1_CL
100
AcDbLine
 62
3
  6
CONTINUOUS
 10
152.583565617
 20
172.8426061109
 11
152.5002475506
 21
174.5056347156
  0
LINE
  5
25A
100
AcDbEntity
  8
606077388-000-00-ED1_CL
100
AcDbLine
 62
3
  6
CONTINUOUS
 10
152.6834403512
 20
172.8476098551
 11
152.6084773926
 21
174.3438705095
  0
LINE
  5
25B
100
AcDbEntity
  8
606077388-000-00-ED1_CL
100
AcDbLine
 62
3
  6
CONTINUOUS
 10
152.7833150855
 20
172.8526135993
 11
152.7167072346
 21
174.1821063033
  0
LINE
  5
25C
100
AcDbEntity
  8
606077388-000-00-ED1_CL
100
AcDbLine
 62
3
  6
CONTINUOUS
 10
152.8831898198
 20
172.8576173435
 11
152.8249370766
 21
174.0203420971
  0
LINE
  5
25D
100
AcDbEntity
  8
606077388-000-00-ED1_CL
100
AcDbLine
 62
3
  6
CONTINUOUS
 10
152.983064554
 20
172.8626210877
 11
152.9331669186
 21
173.858577891
  0
LINE
  5
25E
100
AcDbEntity
  8
606077388-000-00-ED1_CL
100
AcDbLine
 62
3
  6
CONTINUOUS
 10
153.0829392883
 20
172.8676248319
 11
153.0413967606
 21
173.6968136848
  0
LINE
  5
25F
100
AcDbEntity
  8
606077388-000-00-ED1_CL
100
AcDbLine
 62
3
  6
CONTINUOUS
 10
153.1828140226
 20
172.8726285761
 11
153.1496266026
 21
173.5350494786
  0
LINE
  5
260
100
AcDbEntity
  8
606077388-000-00-ED1_CL
100
AcDbLine
 62
3
  6
CONTINUOUS
 10
153.2826887568
 20
172.8776323203
 11
153.2578564446
 21
173.3732852724
  0
LINE
  5
261
100
AcDbEntity
  8
606077388-000-00-ED1_CL
100
AcDbLine
 62
3
  6
CONTINUOUS
 10
153.3825634911
 20
172.8826360645
 11
153.3660862866
 21
173.2115210663
  0
LINE
  5
262
100
AcDbEntity
  8
606077388-000-00-ED1_CL
100
AcDbLine
 62
3
  6
CONTINUOUS
 10
153.4824382253
 20
172.8876398087
 11
153.4743161286
 21
173.0497568601
  0
TEXT
  5
263
100
AcDbEntity
  8
606077388-000-00-ED1_CL
100
AcDbText
 62
2
  6
CONTINUOUS
 10
150.6261367449
 20
180.0007896569
  7
STANDARD
 40
3.5
  1
A
 50
2.868131941
 41
0.8571428571
 72
0
100
AcDbText
  0
ENDBLK
  5
264
100
AcDbEntity
  8
0
  6
BYBLOCK
 62
0
100
AcDbBlockEnd
  0
BLOCK
  5
265
100
AcDbEntity
  8
606077388-000-00-ED1_CL
100
AcDbBlockBegin
 62
3
  6
CONTINUOUS
  2
GEOM_TOLERANCE_SYMBOLS_BL2
 70
64
 10
325.1740614056
 20
122.3775483782
  3
GEOM_TOLERANCE_SYMBOLS_BL2
  1

  0
LINE
  5
266
100
AcDbEntity
  8
606077388-000-00-ED1_CL
100
AcDbLine
 62
3
  6
CONTINUOUS
 10
309.6556440106
 20
125.8772875149
 11
309.6556440106
 21
118.8772872909
  0
LINE
  5
267
100
AcDbEntity
  8
606077388-000-00-ED1_CL
100
AcDbLine
 62
3
  6
CONTINUOUS
 10
309.6556440106
 20
118.8772872909
 11
331.6556447146
 21
118.8772872909
  0
LINE
  5
268
100
AcDbEntity
  8
606077388-000-00-ED1_CL
100
AcDbLine
 62
3
  6
CONTINUOUS
 10
338.6556449386
 20
118.8772872909
 11
338.6556449386
 21
125.8772875149
  0
LINE
  5
269
100
AcDbEntity
  8
606077388-000-00-ED1_CL
100
AcDbLine
 62
3
  6
CONTINUOUS
 10
331.6556447146
 20
125.8772875149
 11
309.6556440106
 21
125.8772875149
  0
LINE
  5
26A
100
AcDbEntity
  8
606077388-000-00-ED1_CL
100
AcDbLine
 62
3
  6
CONTINUOUS
 10
316.6556442346
 20
125.8772875149
 11
316.6556442346
 21
118.8772872909
  0
LINE
  5
26B
100
AcDbEntity
  8
606077388-000-00-ED1_CL
100
AcDbLine
 62
3
  6
CONTINUOUS
 10
331.6556447146
 20
125.8772875149
 11
331.6556447146
 21
118.8772872909
  0
LINE
  5
26C
100
AcDbEntity
  8
606077388-000-00-ED1_CL
100
AcDbLine
 62
3
  6
CONTINUOUS
 10
331.6556447146
 20
125.8772875149
 11
338.6556449386
 21
125.8772875149
  0
LINE
  5
26D
100
AcDbEntity
  8
606077388-000-00-ED1_CL
100
AcDbLine
 62
3
  6
CONTINUOUS
 10
331.6556447146
 20
118.8772872909
 11
338.6556449386
 21
118.8772872909
  0
LINE
  5
26E
100
AcDbEntity
  8
606077388-000-00-ED1_CL
100
AcDbLine
 62
3
  6
CONTINUOUS
 10
304.6556440106
 20
122.3772872909
 11
309.6556440106
 21
122.3772872909
  0
LINE
  5
26F
100
AcDbEntity
  8
606077388-000-00-ED1_CL
100
AcDbLine
 62
3
  6
CONTINUOUS
 10
338.6924785766
 20
125.8778094655
 11
345.6924788006
 21
125.8778094655
  0
LINE
  5
270
100
AcDbEntity
  8
606077388-000-00-ED1_CL
100
AcDbLine
 62
3
  6
CONTINUOUS
 10
345.6924785766
 20
125.8778094655
 11
345.6924785766
 21
118.8778092415
  0
LINE
  5
271
100
AcDbEntity
  8
606077388-000-00-ED1_CL
100
AcDbLine
 62
3
  6
CONTINUOUS
 10
338.6924785766
 20
118.8778094655
 11
345.6924788006
 21
118.8778094655
  0
TEXT
  5
272
100
AcDbEntity
  8
606077388-000-00-ED1_CL
100
AcDbText
 62
2
  6
CONTINUOUS
 10
309.8056440154
 20
121.1772873645
  7
TEXTSTYLE_3
 40
2.4000000768
  1
t
 41
1.0
 72
0
100
AcDbText
  0
TEXT
  5
273
100
AcDbEntity
  8
606077388-000-00-ED1_CL
100
AcDbText
 62
2
  6
CONTINUOUS
 10
317.7806442706
 20
120.6272873469
  7
STANDARD
 40
3.500000112
  1
0.003
 41
0.7285714286
 72
0
100
AcDbText
  0
TEXT
  5
274
100
AcDbEntity
  8
606077388-000-00-ED1_CL
100
AcDbText
 62
2
  6
CONTINUOUS
 10
333.6556447786
 20
120.6272873469
  7
STANDARD
 40
3.500000112
  1
A
 41
0.8571428571
 72
0
100
AcDbText
  0
TEXT
  5
275
100
AcDbEntity
  8
606077388-000-00-ED1_CL
100
AcDbText
 62
2
  6
CONTINUOUS
 10
340.8174786886
 20
120.6278093859
  7
STANDARD
 40
3.5
  1
B
 41
0.7857142857
 72
0
100
AcDbText
  0
ENDBLK
  5
276
100
AcDbEntity
  8
0
  6
BYBLOCK
 62
0
100
AcDbBlockEnd
  0
BLOCK
  5
277
100
AcDbEntity
  8
606077388-000-00-ED1_CL
100
AcDbBlockBegin
 62
3
  6
CONTINUOUS
  2
GEOM_TOLERANCE_SYMBOLS_BL1
 70
64
 10
163.4056019686
 20
192.6715231832
  3
GEOM_TOLERANCE_SYMBOLS_BL1
  1

  0
LINE
  5
278
100
AcDbEntity
  8
606077388-000-00-ED1_CL
100
AcDbLine
 62
3
  6
CONTINUOUS
 10
169.6556019686
 20
191.1715231832
 11
167.1556019686
 21
192.6715231832
  0
LINE
  5
279
100
AcDbEntity
  8
606077388-000-00-ED1_CL
100
AcDbLine
 62
3
  6
CONTINUOUS
 10
167.1556019686
 20
192.6715231832
 11
169.6556019686
 21
194.1715231832
  0
LINE
  5
27A
100
AcDbEntity
  8
606077388-000-00-ED1_CL
100
AcDbLine
 62
3
  6
CONTINUOUS
 10
169.6556019686
 20
194.1715231832
 11
169.6556019686
 21
191.1715231832
  0
LINE
  5
27B
100
AcDbEntity
  8
606077388-000-00-ED1_CL
100
AcDbLine
 62
3
  6
CONTINUOUS
 10
167.1556019686
 20
192.6715231832
 11
164.1556019686
 21
192.6715231832
  0
LINE
  5
27C
100
AcDbEntity
  8
606077388-000-00-ED1_CL
100
AcDbLine
 62
3
  6
CONTINUOUS
 10
164.1556019686
 20
189.1715231832
 11
164.1556019686
 21
196.1715231832
  0
LINE
  5
27D
100
AcDbEntity
  8
606077388-000-00-ED1_CL
100
AcDbLine
 62
3
  6
CONTINUOUS
 10
164.1556019686
 20
196.1715231832
 11
157.1556019686
 21
196.1715231832
  0
LINE
  5
27E
100
AcDbEntity
  8
606077388-000-00-ED1_CL
100
AcDbLine
 62
3
  6
CONTINUOUS
 10
157.1556019686
 20
196.1715231832
 11
157.1556019686
 21
189.1715231832
  0
LINE
  5
27F
100
AcDbEntity
  8
606077388-000-00-ED1_CL
100
AcDbLine
 62
3
  6
CONTINUOUS
 10
157.1556019686
 20
189.1715231832
 11
164.1556019686
 21
189.1715231832
  0
LINE
  5
280
100
AcDbEntity
  8
606077388-000-00-ED1_CL
100
AcDbLine
 62
3
  6
CONTINUOUS
 10
169.6556019686
 20
194.0687343386
 11
169.4842872276
 21
194.0687343386
  0
LINE
  5
281
100
AcDbEntity
  8
606077388-000-00-ED1_CL
100
AcDbLine
 62
3
  6
CONTINUOUS
 10
169.6556019686
 20
193.9687343386
 11
169.3176205609
 21
193.9687343386
  0
LINE
  5
282
100
AcDbEntity
  8
606077388-000-00-ED1_CL
100
AcDbLine
 62
3
  6
CONTINUOUS
 10
169.6556019686
 20
193.8687343386
 11
169.1509538942
 21
193.8687343386
  0
LINE
  5
283
100
AcDbEntity
  8
606077388-000-00-ED1_CL
100
AcDbLine
 62
3
  6
CONTINUOUS
 10
169.6556019686
 20
193.7687343386
 11
168.9842872276
 21
193.7687343386
  0
LINE
  5
284
100
AcDbEntity
  8
606077388-000-00-ED1_CL
100
AcDbLine
 62
3
  6
CONTINUOUS
 10
169.6556019686
 20
193.6687343386
 11
168.8176205609
 21
193.6687343386
  0
LINE
  5
285
100
AcDbEntity
  8
606077388-000-00-ED1_CL
100
AcDbLine
 62
3
  6
CONTINUOUS
 10
169.6556019686
 20
193.5687343386
 11
168.6509538942
 21
193.5687343386
  0
LINE
  5
286
100
AcDbEntity
  8
606077388-000-00-ED1_CL
100
AcDbLine
 62
3
  6
CONTINUOUS
 10
169.6556019686
 20
193.4687343386
 11
168.4842872276
 21
193.4687343386
  0
LINE
  5
287
100
AcDbEntity
  8
606077388-000-00-ED1_CL
100
AcDbLine
 62
3
  6
CONTINUOUS
 10
169.6556019686
 20
193.3687343386
 11
168.3176205609
 21
193.3687343386
  0
LINE
  5
288
100
AcDbEntity
  8
606077388-000-00-ED1_CL
100
AcDbLine
 62
3
  6
CONTINUOUS
 10
169.6556019686
 20
193.2687343386
 11
168.1509538942
 21
193.2687343386
  0
LINE
  5
289
100
AcDbEntity
  8
606077388-000-00-ED1_CL
100
AcDbLine
 62
3
  6
CONTINUOUS
 10
169.6556019686
 20
193.1687343386
 11
167.9842872276
 21
193.1687343386
  0
LINE
  5
28A
100
AcDbEntity
  8
606077388-000-00-ED1_CL
100
AcDbLine
 62
3
  6
CONTINUOUS
 10
169.6556019686
 20
193.0687343386
 11
167.8176205609
 21
193.0687343386
  0
LINE
  5
28B
100
AcDbEntity
  8
606077388-000-00-ED1_CL
100
AcDbLine
 62
3
  6
CONTINUOUS
 10
169.6556019686
 20
192.9687343386
 11
167.6509538942
 21
192.9687343386
  0
LINE
  5
28C
100
AcDbEntity
  8
606077388-000-00-ED1_CL
100
AcDbLine
 62
3
  6
CONTINUOUS
 10
169.6556019686
 20
192.8687343386
 11
167.4842872276
 21
192.8687343386
  0
LINE
  5
28D
100
AcDbEntity
  8
606077388-000-00-ED1_CL
100
AcDbLine
 62
3
  6
CONTINUOUS
 10
169.6556019686
 20
192.7687343386
 11
167.3176205609
 21
192.7687343386
  0
LINE
  5
28E
100
AcDbEntity
  8
606077388-000-00-ED1_CL
100
AcDbLine
 62
3
  6
CONTINUOUS
 10
169.6556019686
 20
192.6687343386
 11
167.160250043
 21
192.6687343386
  0
LINE
  5
28F
100
AcDbEntity
  8
606077388-000-00-ED1_CL
100
AcDbLine
 62
3
  6
CONTINUOUS
 10
169.6556019686
 20
192.5687343386
 11
167.3269167096
 21
192.5687343386
  0
LINE
  5
290
100
AcDbEntity
  8
606077388-000-00-ED1_CL
100
AcDbLine
 62
3
  6
CONTINUOUS
 10
169.6556019686
 20
192.4687343386
 11
167.4935833763
 21
192.4687343386
  0
LINE
  5
291
100
AcDbEntity
  8
606077388-000-00-ED1_CL
100
AcDbLine
 62
3
  6
CONTINUOUS
 10
169.6556019686
 20
192.3687343386
 11
167.660250043
 21
192.3687343386
  0
LINE
  5
292
100
AcDbEntity
  8
606077388-000-00-ED1_CL
100
AcDbLine
 62
3
  6
CONTINUOUS
 10
169.6556019686
 20
192.2687343386
 11
167.8269167096
 21
192.2687343386
  0
LINE
  5
293
100
AcDbEntity
  8
606077388-000-00-ED1_CL
100
AcDbLine
 62
3
  6
CONTINUOUS
 10
169.6556019686
 20
192.1687343386
 11
167.9935833763
 21
192.1687343386
  0
LINE
  5
294
100
AcDbEntity
  8
606077388-000-00-ED1_CL
100
AcDbLine
 62
3
  6
CONTINUOUS
 10
169.6556019686
 20
192.0687343386
 11
168.160250043
 21
192.0687343386
  0
LINE
  5
295
100
AcDbEntity
  8
606077388-000-00-ED1_CL
100
AcDbLine
 62
3
  6
CONTINUOUS
 10
169.6556019686
 20
191.9687343386
 11
168.3269167096
 21
191.9687343386
  0
LINE
  5
296
100
AcDbEntity
  8
606077388-000-00-ED1_CL
100
AcDbLine
 62
3
  6
CONTINUOUS
 10
169.6556019686
 20
191.8687343386
 11
168.4935833763
 21
191.8687343386
  0
LINE
  5
297
100
AcDbEntity
  8
606077388-000-00-ED1_CL
100
AcDbLine
 62
3
  6
CONTINUOUS
 10
169.6556019686
 20
191.7687343386
 11
168.660250043
 21
191.7687343386
  0
LINE
  5
298
100
AcDbEntity
  8
606077388-000-00-ED1_CL
100
AcDbLine
 62
3
  6
CONTINUOUS
 10
169.6556019686
 20
191.6687343386
 11
168.8269167096
 21
191.6687343386
  0
LINE
  5
299
100
AcDbEntity
  8
606077388-000-00-ED1_CL
100
AcDbLine
 62
3
  6
CONTINUOUS
 10
169.6556019686
 20
191.5687343386
 11
168.9935833763
 21
191.5687343386
  0
LINE
  5
29A
100
AcDbEntity
  8
606077388-000-00-ED1_CL
100
AcDbLine
 62
3
  6
CONTINUOUS
 10
169.6556019686
 20
191.4687343386
 11
169.160250043
 21
191.4687343386
  0
LINE
  5
29B
100
AcDbEntity
  8
606077388-000-00-ED1_CL
100
AcDbLine
 62
3
  6
CONTINUOUS
 10
169.6556019686
 20
191.3687343386
 11
169.3269167096
 21
191.3687343386
  0
LINE
  5
29C
100
AcDbEntity
  8
606077388-000-00-ED1_CL
100
AcDbLine
 62
3
  6
CONTINUOUS
 10
169.6556019686
 20
191.2687343386
 11
169.4935833763
 21
191.2687343386
  0
TEXT
  5
29D
100
AcDbEntity
  8
606077388-000-00-ED1_CL
100
AcDbText
 62
2
  6
CONTINUOUS
 10
159.6806019686
 20
190.9215231832
  7
STANDARD
 40
3.5
  1
B
 41
0.7857142857
 72
0
100
AcDbText
  0
ENDBLK
  5
29E
100
AcDbEntity
  8
0
  6
BYBLOCK
 62
0
100
AcDbBlockEnd
  0
BLOCK
  5
29F
100
AcDbEntity
  8
606077388-000-00-ED1_FORMAT
100
AcDbBlockBegin
 62
3
  6
CONTINUOUS
  2
BARCODEBOX_BL0
 70
64
 10
87.5
 20
46.5
  3
BARCODEBOX_BL0
  1

  0
LINE
  5
2A0
100
AcDbEntity
  8
606077388-000-00-ED1_FORMAT
100
AcDbLine
 62
3
  6
CONTINUOUS
 10
48.0
 20
83.0
 11
53.0
 21
83.0
  0
LINE
  5
2A1
100
AcDbEntity
  8
606077388-000-00-ED1_FORMAT
100
AcDbLine
 62
3
  6
CONTINUOUS
 10
53.0
 20
83.0
 11
53.0
 21
78.0
  0
LINE
  5
2A2
100
AcDbEntity
  8
606077388-000-00-ED1_FORMAT
100
AcDbLine
 62
3
  6
CONTINUOUS
 10
135.0
 20
65.0
 11
140.0
 21
65.0
  0
LINE
  5
2A3
100
AcDbEntity
  8
606077388-000-00-ED1_FORMAT
100
AcDbLine
 62
3
  6
CONTINUOUS
 10
140.0
 20
65.0
 11
140.0
 21
60.0
  0
LINE
  5
2A4
100
AcDbEntity
  8
606077388-000-00-ED1_FORMAT
100
AcDbLine
 62
3
  6
CONTINUOUS
 10
91.5
 20
65.0
 11
101.5
 21
65.0
  0
LINE
  5
2A5
100
AcDbEntity
  8
606077388-000-00-ED1_FORMAT
100
AcDbLine
 62
3
  6
CONTINUOUS
 10
140.0
 20
42.5
 11
140.0
 21
32.5
  0
LINE
  5
2A6
100
AcDbEntity
  8
606077388-000-00-ED1_FORMAT
100
AcDbLine
 62
3
  6
CONTINUOUS
 10
140.0
 20
10.0
 11
140.0
 21
15.0
  0
LINE
  5
2A7
100
AcDbEntity
  8
606077388-000-00-ED1_FORMAT
100
AcDbLine
 62
3
  6
CONTINUOUS
 10
40.0
 20
83.0
 11
35.0
 21
83.0
  0
LINE
  5
2A8
100
AcDbEntity
  8
606077388-000-00-ED1_FORMAT
100
AcDbLine
 62
3
  6
CONTINUOUS
 10
58.0
 20
65.0
 11
48.0
 21
65.0
  0
LINE
  5
2A9
100
AcDbEntity
  8
606077388-000-00-ED1_FORMAT
100
AcDbLine
 62
3
  6
CONTINUOUS
 10
53.0
 20
65.0
 11
53.0
 21
70.0
  0
LINE
  5
2AA
100
AcDbEntity
  8
606077388-000-00-ED1_FORMAT
100
AcDbLine
 62
3
  6
CONTINUOUS
 10
35.0
 20
65.0
 11
40.0
 21
65.0
  0
TEXT
  5
2AB
100
AcDbEntity
  8
606077388-000-00-ED1_FORMAT
100
AcDbText
 62
2
  6
CONTINUOUS
 10
139.0
 20
11.0
  7
STANDARD
 40
2.0
  1
BARCODE-ZONE
 50
90.0
 41
0.7876984127
 72
0
100
AcDbText
  0
ENDBLK
  5
2AC
100
AcDbEntity
  8
0
  6
BYBLOCK
 62
0
100
AcDbBlockEnd
  0
BLOCK
  5
2AD
100
AcDbEntity
  8
0
100
AcDbBlockBegin
  2
_FILLED
 70
64
 10
0.0
 20
0.0
  3
_FILLED
  1

  0
SOLID
  5
2AE
100
AcDbEntity
  8
0
  6
BYBLOCK
 62
0
100
AcDbTrace
 10
0.0
 20
0.0
 11
-1.0
 21
0.125
 12
-1.0
 22
-0.125
 13
-1.0
 23
-0.125
  0
ENDBLK
  5
2AF
100
AcDbEntity
  8
0
  6
BYBLOCK
 62
0
100
AcDbBlockEnd
  0
BLOCK
  5
2B0
100
AcDbEntity
  8
0
100
AcDbBlockBegin
  2
_DOT
 70
64
 10
0.0
 20
0.0
  3
_DOT
  1

  0
LWPOLYLINE
  5
2B1
100
AcDbEntity
  8
0
  6
BYBLOCK
 62
0
100
AcDbPolyline
 90
2
 70
1
 43
0.125
 10
-0.0625
 20
0.0
 42
1.0
 10
0.0625
 20
0.0
 42
1.0
  0
LINE
  5
2B2
100
AcDbEntity
  8
0
  6
BYBLOCK
 62
0
100
AcDbLine
 10
-0.125
 20
0.0
 11
-1.0
 21
0.0
  0
ENDBLK
  5
2B3
100
AcDbEntity
  8
0
  6
BYBLOCK
 62
0
100
AcDbBlockEnd
  0
BLOCK
  5
2B4
100
AcDbEntity
  8
606077388-000-00-ED1_DIM
100
AcDbBlockBegin
 62
3
  6
CONTINUOUS
  2
*D0
 70
65
 10
0.0
 20
0.0
  3
*D0
  1

  0
TEXT
  5
2B5
100
AcDbEntity
  8
606077388-000-00-ED1_DIM
100
AcDbText
 62
2
  6
CONTINUOUS
 10
205.8567380514
 20
122.9063056244
  7
STANDARD
 40
3.5
  1
R
 50
-52.8004843679
 41
0.7857142857
 72
0
100
AcDbText
  0
TEXT
  5
2B6
100
AcDbEntity
  8
606077388-000-00-ED1_DIM
100
AcDbText
 62
2
  6
CONTINUOUS
 10
207.5193670995
 20
120.7158342942
  7
STANDARD
 40
3.5
  1
5
 50
-52.8004843679
 41
0.7142857143
 72
0
100
AcDbText
  0
LINE
  5
2B7
100
AcDbEntity
  8
606077388-000-00-ED1_DIM
100
AcDbLine
 62
3
  6
CONTINUOUS
 10
197.582640063
 20
132.3599624368
 11
208.3338799018
 21
118.1954783878
  0
INSERT
  5
2B8
100
AcDbEntity
  8
606077388-000-00-ED1_DIM
100
AcDbBlockReference
 62
3
  6
CONTINUOUS
  2
_FILLED
 10
197.582640063
 20
132.3599624368
 41
3.5
 42
3.5
 43
3.5
 50
127.1995156321
  0
ENDBLK
  5
2B9
100
AcDbEntity
  8
0
  6
BYBLOCK
 62
0
100
AcDbBlockEnd
  0
BLOCK
  5
2BA
100
AcDbEntity
  8
606077388-000-00-ED1_DIM
100
AcDbBlockBegin
 62
3
  6
CONTINUOUS
  2
*D1
 70
65
 10
0.0
 20
0.0
  3
*D1
  1

  0
TEXT
  5
2BB
100
AcDbEntity
  8
606077388-000-00-ED1_DIM
100
AcDbText
 62
2
  6
CONTINUOUS
 10
259.7913250546
 20
186.6830949614
  7
STANDARD
 40
3.5
  1
4.5
 50
-65.1764613615
 41
0.6904761905
 72
1
 11
261.3131906299
 21
183.3930265472
100
AcDbText
  0
TEXT
  5
2BC
100
AcDbEntity
  8
606077388-000-00-ED1_DIM
100
AcDbText
 62
2
  6
CONTINUOUS
 10
262.8350562053
 20
180.1029581329
  7
TEXTSTYLE_3
 40
3.5
  1
~
 50
-65.1764613615
 41
1.0
 72
1
 11
263.3248520226
 21
179.0440855398
100
AcDbText
  0
TEXT
  5
2BD
100
AcDbEntity
  8
606077388-000-00-ED1_DIM
100
AcDbText
 62
2
  6
CONTINUOUS
 10
264.2911405069
 20
178.2056210645
  7
TEXTSTYLE_3
 40
2.45
  1
`
 50
-65.1764613615
 41
1.0
 72
1
 11
264.8911403831
 21
176.908502138
100
AcDbText
  0
TEXT
  5
2BE
100
AcDbEntity
  8
606077388-000-00-ED1_DIM
100
AcDbText
 62
2
  6
CONTINUOUS
 10
265.4911402594
 20
175.6113832114
  7
STANDARD
 40
2.45
  1
0.25
 50
-65.1764613615
 41
0.7142857143
 72
1
 11
266.9605277115
 21
172.4347654321
100
AcDbText
  0
TEXT
  5
2BF
100
AcDbEntity
  8
606077388-000-00-ED1_DIM
100
AcDbText
 62
2
  6
CONTINUOUS
 10
268.4299151635
 20
169.2581476528
  7
TEXTSTYLE_3
 40
2.45
  1
~
 50
-65.1764613615
 41
1.0
 72
1
 11
268.7727722357
 21
168.5169368377
100
AcDbText
  0
LINE
  5
2C0
100
AcDbEntity
  8
606077388-000-00-ED1_DIM
100
AcDbLine
 62
3
  6
CONTINUOUS
 10
257.4494108199
 20
163.9119695047
 11
264.7193353176
 21
163.3398140382
  0
LINE
  5
2C1
100
AcDbEntity
  8
606077388-000-00-ED1_DIM
100
AcDbLine
 62
3
  6
CONTINUOUS
 10
257.1842099998
 20
165.3772872909
 11
264.7993878597
 21
165.3772872909
  0
ARC
  5
2C2
100
AcDbEntity
  8
606077388-000-00-ED1_DIM
100
AcDbCircle
 62
3
  6
CONTINUOUS
 10
238.8307830239
 20
165.3772872909
 40
24.4686048358
100
AcDbArc
 50
341.4503768447
 51
355.5
  0
ARC
  5
2C3
100
AcDbEntity
  8
606077388-000-00-ED1_DIM
100
AcDbCircle
 62
3
  6
CONTINUOUS
 10
238.8307830239
 20
165.3772872909
 40
24.4686048358
100
AcDbArc
 50
0.0
 51
24.8235386385
  0
ARC
  5
2C4
100
AcDbEntity
  8
606077388-000-00-ED1_DIM
100
AcDbCircle
 62
3
  6
CONTINUOUS
 10
238.8307830239
 20
165.3772872909
 40
24.4686048358
100
AcDbArc
 50
355.5
 51
360.0
  0
SOLID
  5
2C5
100
AcDbEntity
  8
606077388-000-00-ED1_DIM
100
AcDbTrace
 62
3
  6
CONTINUOUS
 10
263.1333015074
 20
159.9314301625
 11
263.223959317
 21
163.4575026818
 12
262.268134666
 22
160.06224047
 13
262.268134666
 23
160.06224047
  0
SOLID
  5
2C6
100
AcDbEntity
  8
606077388-000-00-ED1_DIM
100
AcDbTrace
 62
3
  6
CONTINUOUS
 10
262.6128989001
 20
168.8370761802
 11
263.2993878597
 21
165.3772872909
 12
263.4856619793
 22
168.8996030352
 13
263.4856619793
 23
168.8996030352
  0
ENDBLK
  5
2C7
100
AcDbEntity
  8
0
  6
BYBLOCK
 62
0
100
AcDbBlockEnd
  0
BLOCK
  5
2C8
100
AcDbEntity
  8
30261743_DIM
100
AcDbBlockBegin
 62
3
  6
CONTINUOUS
  2
*D2
 70
65
 10
0.0
 20
0.0
  3
*D2
  1

  0
TEXT
  5
2C9
100
AcDbEntity
  8
30261743_DIM
100
AcDbText
 62
2
  6
CONTINUOUS
 10
224.169250491
 20
113.2522872909
  7
STANDARD
 40
3.5
  1
10
 41
0.6785714286
 72
2
 11
228.919250491
 21
113.2522872909
100
AcDbText
  0
TEXT
  5
2CA
100
AcDbEntity
  8
30261743_DIM
100
AcDbText
 62
2
  6
CONTINUOUS
 10
198.0025838243
 20
107.1272872909
  7
STANDARD
 40
3.5
  1
VERSTELLWEG
 41
0.803030303
 72
2
 11
228.919250491
 21
107.1272872909
100
AcDbText
  0
LINE
  5
2CB
100
AcDbEntity
  8
30261743_DIM
100
AcDbLine
 62
3
  6
CONTINUOUS
 10
242.6556019686
 20
149.3772872909
 11
242.6556019686
 21
110.8772872909
  0
LINE
  5
2CC
100
AcDbEntity
  8
30261743_DIM
100
AcDbLine
 62
3
  6
CONTINUOUS
 10
252.6556019686
 20
149.3772872909
 11
252.6556019686
 21
110.8772872909
  0
LINE
  5
2CD
100
AcDbEntity
  8
30261743_DIM
100
AcDbLine
 62
3
  6
CONTINUOUS
 10
242.6556019686
 20
112.3772872909
 11
247.6556019686
 21
112.3772872909
  0
LINE
  5
2CE
100
AcDbEntity
  8
30261743_DIM
100
AcDbLine
 62
3
  6
CONTINUOUS
 10
247.6556019686
 20
112.3772872909
 11
198.0025838243
 21
112.3772872909
  0
LINE
  5
2CF
100
AcDbEntity
  8
30261743_DIM
100
AcDbLine
 62
3
  6
CONTINUOUS
 10
252.6556019686
 20
112.3772872909
 11
247.6556019686
 21
112.3772872909
  0
INSERT
  5
2D0
100
AcDbEntity
  8
30261743_DIM
100
AcDbBlockReference
 62
3
  6
CONTINUOUS
  2
_FILLED
 10
242.6556019686
 20
112.3772872909
 41
3.5
 42
3.5
 43
3.5
 50
180.0
  0
INSERT
  5
2D1
100
AcDbEntity
  8
30261743_DIM
100
AcDbBlockReference
 62
3
  6
CONTINUOUS
  2
_FILLED
 10
252.6556019686
 20
112.3772872909
 41
3.5
 42
3.5
 43
3.5
  0
ENDBLK
  5
2D2
100
AcDbEntity
  8
0
  6
BYBLOCK
 62
0
100
AcDbBlockEnd
  0
BLOCK
  5
2D3
100
AcDbEntity
  8
30338519_DIM
100
AcDbBlockBegin
 62
3
  6
CONTINUOUS
  2
*D3
 70
65
 10
0.0
 20
0.0
  3
*D3
  1

  0
TEXT
  5
2D4
100
AcDbEntity
  8
30338519_DIM
100
AcDbText
 62
2
  6
CONTINUOUS
 10
244.5425491384
 20
177.2522872909
  7
STANDARD
 40
3.5
  1
M
 41
0.8571428571
 72
0
100
AcDbText
  0
TEXT
  5
2D5
100
AcDbEntity
  8
30338519_DIM
100
AcDbText
 62
2
  6
CONTINUOUS
 10
247.5425491384
 20
177.2522872909
  7
STANDARD
 40
3.5
  1
6
 41
0.7857142857
 72
0
100
AcDbText
  0
TEXT
  5
2D6
100
AcDbEntity
  8
30338519_DIM
100
AcDbText
 62
2
  6
CONTINUOUS
 10
250.2925491384
 20
177.2522872909
  7
STANDARD
 40
3.5
  1
(
 41
0.4285714286
 72
0
100
AcDbText
  0
TEXT
  5
2D7
100
AcDbEntity
  8
30338519_DIM
100
AcDbText
 62
2
  6
CONTINUOUS
 10
251.7925491384
 20
177.2522872909
  7
STANDARD
 40
3.5
  1
4
 41
0.7857142857
 72
0
100
AcDbText
  0
TEXT
  5
2D8
100
AcDbEntity
  8
30338519_DIM
100
AcDbText
 62
2
  6
CONTINUOUS
 10
254.5425491384
 20
177.2522872909
  7
STANDARD
 40
3.5
  1
x)
 41
0.5714285714
 72
0
100
AcDbText
  0
LINE
  5
2D9
100
AcDbEntity
  8
30338519_DIM
100
AcDbLine
 62
3
  6
CONTINUOUS
 10
228.6556019686
 20
165.2273885517
 11
228.6556019686
 21
177.8772872909
  0
LINE
  5
2DA
100
AcDbEntity
  8
30338519_DIM
100
AcDbLine
 62
3
  6
CONTINUOUS
 10
234.6556019686
 20
165.2273885517
 11
234.6556019686
 21
177.8772872909
  0
LINE
  5
2DB
100
AcDbEntity
  8
30338519_DIM
100
AcDbLine
 62
3
  6
CONTINUOUS
 10
228.6556019686
 20
176.3772872909
 11
222.6556019686
 21
176.3772872909
  0
LINE
  5
2DC
100
AcDbEntity
  8
30338519_DIM
100
AcDbLine
 62
3
  6
CONTINUOUS
 10
222.6556019686
 20
176.3772872909
 11
231.6556019686
 21
176.3772872909
  0
LINE
  5
2DD
100
AcDbEntity
  8
30338519_DIM
100
AcDbLine
 62
3
  6
CONTINUOUS
 10
234.6556019686
 20
176.3772872909
 11
258.5425491384
 21
176.3772872909
  0
LINE
  5
2DE
100
AcDbEntity
  8
30338519_DIM
100
AcDbLine
 62
3
  6
CONTINUOUS
 10
258.5425491384
 20
176.3772872909
 11
231.6556019686
 21
176.3772872909
  0
INSERT
  5
2DF
100
AcDbEntity
  8
30338519_DIM
100
AcDbBlockReference
 62
3
  6
CONTINUOUS
  2
_FILLED
 10
228.6556019686
 20
176.3772872909
 41
3.5
 42
3.5
 43
3.5
  0
INSERT
  5
2E0
100
AcDbEntity
  8
30338519_DIM
100
AcDbBlockReference
 62
3
  6
CONTINUOUS
  2
_FILLED
 10
234.6556019686
 20
176.3772872909
 41
3.5
 42
3.5
 43
3.5
 50
180.0
  0
ENDBLK
  5
2E1
100
AcDbEntity
  8
0
  6
BYBLOCK
 62
0
100
AcDbBlockEnd
  0
BLOCK
  5
2E2
100
AcDbEntity
  8
30338519_DIM
100
AcDbBlockBegin
 62
3
  6
CONTINUOUS
  2
*D4
 70
65
 10
0.0
 20
0.0
  3
*D4
  1

  0
TEXT
  5
2E3
100
AcDbEntity
  8
30338519_DIM
100
AcDbText
 62
2
  6
CONTINUOUS
 10
258.0306019686
 20
93.2522872909
  7
STANDARD
 40
3.5
  1
58
 41
0.75
 72
1
 11
260.6556019686
 21
93.2522872909
100
AcDbText
  0
LINE
  5
2E4
100
AcDbEntity
  8
30338519_DIM
100
AcDbLine
 62
3
  6
CONTINUOUS
 10
231.6556019686
 20
138.3016777826
 11
231.6556019686
 21
90.8772872909
  0
LINE
  5
2E5
100
AcDbEntity
  8
30338519_DIM
100
AcDbLine
 62
3
  6
CONTINUOUS
 10
289.6556019686
 20
138.3016777826
 11
289.6556019686
 21
90.8772872909
  0
LINE
  5
2E6
100
AcDbEntity
  8
30338519_DIM
100
AcDbLine
 62
3
  6
CONTINUOUS
 10
231.6556019686
 20
92.3772872909
 11
260.6556019686
 21
92.3772872909
  0
LINE
  5
2E7
100
AcDbEntity
  8
30338519_DIM
100
AcDbLine
 62
3
  6
CONTINUOUS
 10
289.6556019686
 20
92.3772872909
 11
260.6556019686
 21
92.3772872909
  0
INSERT
  5
2E8
100
AcDbEntity
  8
30338519_DIM
100
AcDbBlockReference
 62
3
  6
CONTINUOUS
  2
_FILLED
 10
231.6556019686
 20
92.3772872909
 41
3.5
 42
3.5
 43
3.5
 50
180.0
  0
INSERT
  5
2E9
100
AcDbEntity
  8
30338519_DIM
100
AcDbBlockReference
 62
3
  6
CONTINUOUS
  2
_FILLED
 10
289.6556019686
 20
92.3772872909
 41
3.5
 42
3.5
 43
3.5
  0
ENDBLK
  5
2EA
100
AcDbEntity
  8
0
  6
BYBLOCK
 62
0
100
AcDbBlockEnd
  0
BLOCK
  5
2EB
100
AcDbEntity
  8
30338519_DIM
100
AcDbBlockBegin
 62
3
  6
CONTINUOUS
  2
*D5
 70
65
 10
0.0
 20
0.0
  3
*D5
  1

  0
TEXT
  5
2EC
100
AcDbEntity
  8
30338519_DIM
100
AcDbText
 62
2
  6
CONTINUOUS
 10
263.4056019686
 20
103.2522872909
  7
STANDARD
 40
3.5
  1
47
 41
0.7857142857
 72
1
 11
266.1556019686
 21
103.2522872909
100
AcDbText
  0
LINE
  5
2ED
100
AcDbEntity
  8
30338519_DIM
100
AcDbLine
 62
3
  6
CONTINUOUS
 10
242.6556019686
 20
138.3016777826
 11
242.6556019686
 21
100.8772872909
  0
LINE
  5
2EE
100
AcDbEntity
  8
30338519_DIM
100
AcDbLine
 62
3
  6
CONTINUOUS
 10
289.6556019686
 20
138.3016777826
 11
289.6556019686
 21
100.8772872909
  0
LINE
  5
2EF
100
AcDbEntity
  8
30338519_DIM
100
AcDbLine
 62
3
  6
CONTINUOUS
 10
242.6556019686
 20
102.3772872909
 11
266.1556019686
 21
102.3772872909
  0
LINE
  5
2F0
100
AcDbEntity
  8
30338519_DIM
100
AcDbLine
 62
3
  6
CONTINUOUS
 10
289.6556019686
 20
102.3772872909
 11
266.1556019686
 21
102.3772872909
  0
INSERT
  5
2F1
100
AcDbEntity
  8
30338519_DIM
100
AcDbBlockReference
 62
3
  6
CONTINUOUS
  2
_FILLED
 10
242.6556019686
 20
102.3772872909
 41
3.5
 42
3.5
 43
3.5
 50
180.0
  0
INSERT
  5
2F2
100
AcDbEntity
  8
30338519_DIM
100
AcDbBlockReference
 62
3
  6
CONTINUOUS
  2
_FILLED
 10
289.6556019686
 20
102.3772872909
 41
3.5
 42
3.5
 43
3.5
  0
ENDBLK
  5
2F3
100
AcDbEntity
  8
0
  6
BYBLOCK
 62
0
100
AcDbBlockEnd
  0
BLOCK
  5
2F4
100
AcDbEntity
  8
30338519_DIM
100
AcDbBlockBegin
 62
3
  6
CONTINUOUS
  2
*D6
 70
65
 10
0.0
 20
0.0
  3
*D6
  1

  0
TEXT
  5
2F5
100
AcDbEntity
  8
30338519_DIM
100
AcDbText
 62
2
  6
CONTINUOUS
 10
225.9056019686
 20
197.2522872909
  7
STANDARD
 40
3.5
  1
120
 41
0.7142857143
 72
1
 11
229.6556019686
 21
197.2522872909
100
AcDbText
  0
LINE
  5
2F6
100
AcDbEntity
  8
30338519_DIM
100
AcDbLine
 62
3
  6
CONTINUOUS
 10
289.6556019686
 20
197.8772872909
 11
289.6556019686
 21
152.3165185228
  0
LINE
  5
2F7
100
AcDbEntity
  8
30338519_DIM
100
AcDbLine
 62
3
  6
CONTINUOUS
 10
169.6556019686
 20
149.3772872909
 11
169.6556019686
 21
197.8772872909
  0
LINE
  5
2F8
100
AcDbEntity
  8
30338519_DIM
100
AcDbLine
 62
3
  6
CONTINUOUS
 10
289.6556019686
 20
196.3772872909
 11
229.6556019686
 21
196.3772872909
  0
LINE
  5
2F9
100
AcDbEntity
  8
30338519_DIM
100
AcDbLine
 62
3
  6
CONTINUOUS
 10
169.6556019686
 20
196.3772872909
 11
229.6556019686
 21
196.3772872909
  0
INSERT
  5
2FA
100
AcDbEntity
  8
30338519_DIM
100
AcDbBlockReference
 62
3
  6
CONTINUOUS
  2
_FILLED
 10
289.6556019686
 20
196.3772872909
 41
3.5
 42
3.5
 43
3.5
  0
INSERT
  5
2FB
100
AcDbEntity
  8
30338519_DIM
100
AcDbBlockReference
 62
3
  6
CONTINUOUS
  2
_FILLED
 10
169.6556019686
 20
196.3772872909
 41
3.5
 42
3.5
 43
3.5
 50
180.0
  0
ENDBLK
  5
2FC
100
AcDbEntity
  8
0
  6
BYBLOCK
 62
0
100
AcDbBlockEnd
  0
BLOCK
  5
2FD
100
AcDbEntity
  8
30338519_DIM
100
AcDbBlockBegin
 62
3
  6
CONTINUOUS
  2
*D7
 70
65
 10
0.0
 20
0.0
  3
*D7
  1

  0
TEXT
  5
2FE
100
AcDbEntity
  8
30338519_DIM
100
AcDbText
 62
2
  6
CONTINUOUS
 10
126.8806019686
 20
125.9000000968
  7
STANDARD
 40
3.5
  1
M
 50
90.0
 41
0.8571428571
 72
2
 11
126.8806019686
 21
128.9000000968
100
AcDbText
  0
TEXT
  5
2FF
100
AcDbEntity
  8
30338519_DIM
100
AcDbText
 62
2
  6
CONTINUOUS
 10
126.8806019686
 20
128.9000000968
  7
STANDARD
 40
3.5
  1
10
 50
90.0
 41
0.6785714286
 72
2
 11
126.8806019686
 21
133.6500000968
100
AcDbText
  0
TEXT
  5
300
100
AcDbEntity
  8
30338519_DIM
100
AcDbText
 62
2
  6
CONTINUOUS
 10
126.8806019686
 20
133.6500000968
  7
STANDARD
 40
3.5
  1
x1
 50
90.0
 41
0.6428571429
 72
2
 11
126.8806019686
 21
138.1500000968
100
AcDbText
  0
LINE
  5
301
100
AcDbEntity
  8
30338519_DIM
100
AcDbLine
 62
3
  6
CONTINUOUS
 10
224.6556019686
 20
144.3772872909
 11
126.2556019686
 21
144.3772872909
  0
LINE
  5
302
100
AcDbEntity
  8
30338519_DIM
100
AcDbLine
 62
3
  6
CONTINUOUS
 10
224.6556019686
 20
154.3772872909
 11
126.2556019686
 21
154.3772872909
  0
LINE
  5
303
100
AcDbEntity
  8
30338519_DIM
100
AcDbLine
 62
3
  6
CONTINUOUS
 10
127.7556019686
 20
144.3772872909
 11
127.7556019686
 21
125.9000000968
  0
LINE
  5
304
100
AcDbEntity
  8
30338519_DIM
100
AcDbLine
 62
3
  6
CONTINUOUS
 10
127.7556019686
 20
125.9000000968
 11
127.7556019686
 21
149.3772872909
  0
LINE
  5
305
100
AcDbEntity
  8
30338519_DIM
100
AcDbLine
 62
3
  6
CONTINUOUS
 10
127.7556019686
 20
154.3772872909
 11
127.7556019686
 21
160.3772872909
  0
LINE
  5
306
100
AcDbEntity
  8
30338519_DIM
100
AcDbLine
 62
3
  6
CONTINUOUS
 10
127.7556019686
 20
160.3772872909
 11
127.7556019686
 21
149.3772872909
  0
INSERT
  5
307
100
AcDbEntity
  8
30338519_DIM
100
AcDbBlockReference
 62
3
  6
CONTINUOUS
  2
_FILLED
 10
127.7556019686
 20
144.3772872909
 41
3.5
 42
3.5
 43
3.5
 50
90.0
  0
INSERT
  5
308
100
AcDbEntity
  8
30338519_DIM
100
AcDbBlockReference
 62
3
  6
CONTINUOUS
  2
_FILLED
 10
127.7556019686
 20
154.3772872909
 41
3.5
 42
3.5
 43
3.5
 50
270.0
  0
ENDBLK
  5
309
100
AcDbEntity
  8
0
  6
BYBLOCK
 62
0
100
AcDbBlockEnd
  0
BLOCK
  5
30A
100
AcDbEntity
  8
30338519_DIM
100
AcDbBlockBegin
 62
3
  6
CONTINUOUS
  2
*D8
 70
65
 10
0.0
 20
0.0
  3
*D8
  1

  0
TEXT
  5
30B
100
AcDbEntity
  8
30338519_DIM
100
AcDbText
 62
2
  6
CONTINUOUS
 10
303.7806019686
 20
169.0537023853
  7
TEXTSTYLE_3
 40
3.5
  1
n
 50
90.0
 41
1.0
 72
0
100
AcDbText
  0
TEXT
  5
30C
100
AcDbEntity
  8
30338519_DIM
100
AcDbText
 62
2
  6
CONTINUOUS
 10
303.7806019686
 20
173.7203690519
  7
STANDARD
 40
3.5
  1
12
 50
90.0
 41
0.6785714286
 72
0
100
AcDbText
  0
LINE
  5
30D
100
AcDbEntity
  8
30338519_DIM
100
AcDbLine
 62
3
  6
CONTINUOUS
 10
286.6556019686
 20
143.3772872909
 11
306.1556019686
 21
143.3772872909
  0
LINE
  5
30E
100
AcDbEntity
  8
30338519_DIM
100
AcDbLine
 62
3
  6
CONTINUOUS
 10
286.6556019686
 20
155.3772872909
 11
306.1556019686
 21
155.3772872909
  0
LINE
  5
30F
100
AcDbEntity
  8
30338519_DIM
100
AcDbLine
 62
3
  6
CONTINUOUS
 10
304.6556019686
 20
143.3772872909
 11
304.6556019686
 21
137.3772872909
  0
LINE
  5
310
100
AcDbEntity
  8
30338519_DIM
100
AcDbLine
 62
3
  6
CONTINUOUS
 10
304.6556019686
 20
137.3772872909
 11
304.6556019686
 21
149.3772872909
  0
LINE
  5
311
100
AcDbEntity
  8
30338519_DIM
100
AcDbLine
 62
3
  6
CONTINUOUS
 10
304.6556019686
 20
155.3772872909
 11
304.6556019686
 21
178.4703690519
  0
LINE
  5
312
100
AcDbEntity
  8
30338519_DIM
100
AcDbLine
 62
3
  6
CONTINUOUS
 10
304.6556019686
 20
178.4703690519
 11
304.6556019686
 21
149.3772872909
  0
INSERT
  5
313
100
AcDbEntity
  8
30338519_DIM
100
AcDbBlockReference
 62
3
  6
CONTINUOUS
  2
_FILLED
 10
304.6556019686
 20
143.3772872909
 41
3.5
 42
3.5
 43
3.5
 50
90.0
  0
INSERT
  5
314
100
AcDbEntity
  8
30338519_DIM
100
AcDbBlockReference
 62
3
  6
CONTINUOUS
  2
_FILLED
 10
304.6556019686
 20
155.3772872909
 41
3.5
 42
3.5
 43
3.5
 50
270.0
  0
ENDBLK
  5
315
100
AcDbEntity
  8
0
  6
BYBLOCK
 62
0
100
AcDbBlockEnd
  0
BLOCK
  5
316
100
AcDbEntity
  8
30338519_DIM
100
AcDbBlockBegin
 62
3
  6
CONTINUOUS
  2
*D9
 70
65
 10
0.0
 20
0.0
  3
*D9
  1

  0
TEXT
  5
317
100
AcDbEntity
  8
30338519_DIM
100
AcDbText
 62
2
  6
CONTINUOUS
 10
323.7806019686
 20
144.4189539576
  7
TEXTSTYLE_3
 40
3.5
  1
n
 50
90.0
 41
1.0
 72
1
 11
323.7806019686
 21
146.7522872909
100
AcDbText
  0
TEXT
  5
318
100
AcDbEntity
  8
30338519_DIM
100
AcDbText
 62
2
  6
CONTINUOUS
 10
323.7806019686
 20
149.0856206243
  7
STANDARD
 40
3.5
  1
32
 50
90.0
 41
0.75
 72
1
 11
323.7806019686
 21
151.7106206243
100
AcDbText
  0
LINE
  5
319
100
AcDbEntity
  8
30338519_DIM
100
AcDbLine
 62
3
  6
CONTINUOUS
 10
238.8307830239
 20
133.3772872909
 11
326.1556019686
 21
133.3772872909
  0
LINE
  5
31A
100
AcDbEntity
  8
30338519_DIM
100
AcDbLine
 62
3
  6
CONTINUOUS
 10
238.8307830239
 20
165.3772872909
 11
326.1556019686
 21
165.3772872909
  0
LINE
  5
31B
100
AcDbEntity
  8
30338519_DIM
100
AcDbLine
 62
3
  6
CONTINUOUS
 10
324.6556019686
 20
133.3772872909
 11
324.6556019686
 21
149.3772872909
  0
LINE
  5
31C
100
AcDbEntity
  8
30338519_DIM
100
AcDbLine
 62
3
  6
CONTINUOUS
 10
324.6556019686
 20
165.3772872909
 11
324.6556019686
 21
149.3772872909
  0
INSERT
  5
31D
100
AcDbEntity
  8
30338519_DIM
100
AcDbBlockReference
 62
3
  6
CONTINUOUS
  2
_FILLED
 10
324.6556019686
 20
133.3772872909
 41
3.5
 42
3.5
 43
3.5
 50
270.0
  0
INSERT
  5
31E
100
AcDbEntity
  8
30338519_DIM
100
AcDbBlockReference
 62
3
  6
CONTINUOUS
  2
_FILLED
 10
324.6556019686
 20
165.3772872909
 41
3.5
 42
3.5
 43
3.5
 50
90.0
  0
ENDBLK
  5
31F
100
AcDbEntity
  8
0
  6
BYBLOCK
 62
0
100
AcDbBlockEnd
  0
BLOCK
  5
320
100
AcDbEntity
  8
30338519_DIM
100
AcDbBlockBegin
 62
3
  6
CONTINUOUS
  2
*D10
 70
65
 10
0.0
 20
0.0
  3
*D10
  1

  0
TEXT
  5
321
100
AcDbEntity
  8
30338519_DIM
100
AcDbText
 62
2
  6
CONTINUOUS
 10
313.7806019686
 20
144.2939539576
  7
TEXTSTYLE_3
 40
3.5
  1
n
 50
90.0
 41
1.0
 72
1
 11
313.7806019686
 21
146.6272872909
100
AcDbText
  0
TEXT
  5
322
100
AcDbEntity
  8
30338519_DIM
100
AcDbText
 62
2
  6
CONTINUOUS
 10
313.7806019686
 20
148.9606206243
  7
STANDARD
 40
3.5
  1
24
 50
90.0
 41
0.7857142857
 72
1
 11
313.7806019686
 21
151.7106206243
100
AcDbText
  0
LINE
  5
323
100
AcDbEntity
  8
30338519_DIM
100
AcDbLine
 62
3
  6
CONTINUOUS
 10
289.6556019686
 20
137.3772872909
 11
316.1556019686
 21
137.3772872909
  0
LINE
  5
324
100
AcDbEntity
  8
30338519_DIM
100
AcDbLine
 62
3
  6
CONTINUOUS
 10
289.6556019686
 20
161.3772872909
 11
316.1556019686
 21
161.3772872909
  0
LINE
  5
325
100
AcDbEntity
  8
30338519_DIM
100
AcDbLine
 62
3
  6
CONTINUOUS
 10
314.6556019686
 20
137.3772872909
 11
314.6556019686
 21
149.3772872909
  0
LINE
  5
326
100
AcDbEntity
  8
30338519_DIM
100
AcDbLine
 62
3
  6
CONTINUOUS
 10
314.6556019686
 20
161.3772872909
 11
314.6556019686
 21
149.3772872909
  0
INSERT
  5
327
100
AcDbEntity
  8
30338519_DIM
100
AcDbBlockReference
 62
3
  6
CONTINUOUS
  2
_FILLED
 10
314.6556019686
 20
137.3772872909
 41
3.5
 42
3.5
 43
3.5
 50
270.0
  0
INSERT
  5
328
100
AcDbEntity
  8
30338519_DIM
100
AcDbBlockReference
 62
3
  6
CONTINUOUS
  2
_FILLED
 10
314.6556019686
 20
161.3772872909
 41
3.5
 42
3.5
 43
3.5
 50
90.0
  0
ENDBLK
  5
329
100
AcDbEntity
  8
0
  6
BYBLOCK
 62
0
100
AcDbBlockEnd
  0
ENDSEC
  0
SECTION
  2
ENTITIES
  0
TEXT
  5
32A
100
AcDbEntity
  8
606077388-000-00-ED1_FORMAT
100
AcDbText
 62
90
  6
CONTINUOUS
 10
34.0
 20
287.75
  7
TEXTSTYLE_2
 40
3.5
  1
1
 41
0.5714285714
 72
1
 11
35.0
 21
287.75
100
AcDbText
  0
TEXT
  5
32B
100
AcDbEntity
  8
606077388-000-00-ED1_FORMAT
100
AcDbText
 62
90
  6
CONTINUOUS
 10
83.625
 20
287.75
  7
TEXTSTYLE_2
 40
3.5
  1
2
 41
0.7857142857
 72
1
 11
85.0
 21
287.75
100
AcDbText
  0
TEXT
  5
32C
100
AcDbEntity
  8
606077388-000-00-ED1_FORMAT
100
AcDbText
 62
90
  6
CONTINUOUS
 10
133.75
 20
287.75
  7
TEXTSTYLE_2
 40
3.5
  1
3
 41
0.7142857143
 72
1
 11
135.0
 21
287.75
100
AcDbText
  0
TEXT
  5
32D
100
AcDbEntity
  8
606077388-000-00-ED1_FORMAT
100
AcDbText
 62
90
  6
CONTINUOUS
 10
183.625
 20
287.75
  7
TEXTSTYLE_2
 40
3.5
  1
4
 41
0.7857142857
 72
1
 11
185.0
 21
287.75
100
AcDbText
  0
TEXT
  5
32E
100
AcDbEntity
  8
606077388-000-00-ED1_FORMAT
100
AcDbText
 62
90
  6
CONTINUOUS
 10
233.75
 20
287.75
  7
TEXTSTYLE_2
 40
3.5
  1
5
 41
0.7142857143
 72
1
 11
235.0
 21
287.75
100
AcDbText
  0
TEXT
  5
32F
100
AcDbEntity
  8
606077388-000-00-ED1_FORMAT
100
AcDbText
 62
90
  6
CONTINUOUS
 10
283.625
 20
287.75
  7
TEXTSTYLE_2
 40
3.5
  1
6
 41
0.7857142857
 72
1
 11
285.0
 21
287.75
100
AcDbText
  0
TEXT
  5
330
100
AcDbEntity
  8
606077388-000-00-ED1_FORMAT
100
AcDbText
 62
90
  6
CONTINUOUS
 10
333.625
 20
287.75
  7
TEXTSTYLE_2
 40
3.5
  1
7
 41
0.7857142857
 72
1
 11
335.0
 21
287.75
100
AcDbText
  0
TEXT
  5
331
100
AcDbEntity
  8
606077388-000-00-ED1_FORMAT
100
AcDbText
 62
90
  6
CONTINUOUS
 10
383.625
 20
287.75
  7
TEXTSTYLE_2
 40
3.5
  1
8
 41
0.7857142857
 72
1
 11
385.0
 21
287.75
100
AcDbText
  0
TEXT
  5
332
100
AcDbEntity
  8
606077388-000-00-ED1_FORMAT
100
AcDbText
 62
90
  6
CONTINUOUS
 10
133.75
 20
5.75
  7
TEXTSTYLE_2
 40
3.5
  1
3
 41
0.7142857143
 72
1
 11
135.0
 21
5.75
100
AcDbText
  0
TEXT
  5
333
100
AcDbEntity
  8
606077388-000-00-ED1_FORMAT
100
AcDbText
 62
90
  6
CONTINUOUS
 10
83.625
 20
5.75
  7
TEXTSTYLE_2
 40
3.5
  1
2
 41
0.7857142857
 72
1
 11
85.0
 21
5.75
100
AcDbText
  0
TEXT
  5
334
100
AcDbEntity
  8
606077388-000-00-ED1_FORMAT
100
AcDbText
 62
90
  6
CONTINUOUS
 10
34.0
 20
5.75
  7
TEXTSTYLE_2
 40
3.5
  1
1
 41
0.5714285714
 72
1
 11
35.0
 21
5.75
100
AcDbText
  0
TEXT
  5
335
100
AcDbEntity
  8
606077388-000-00-ED1_FORMAT
100
AcDbText
 62
90
  6
CONTINUOUS
 10
19.0
 20
262.75
  7
TEXTSTYLE_2
 40
3.5
  1
A
 41
0.8571428571
 72
1
 11
20.5
 21
262.75
100
AcDbText
  0
TEXT
  5
336
100
AcDbEntity
  8
606077388-000-00-ED1_FORMAT
100
AcDbText
 62
90
  6
CONTINUOUS
 10
411.0
 20
262.75
  7
TEXTSTYLE_2
 40
3.5
  1
A
 41
0.8571428571
 72
1
 11
412.5
 21
262.75
100
AcDbText
  0
TEXT
  5
337
100
AcDbEntity
  8
606077388-000-00-ED1_FORMAT
100
AcDbText
 62
90
  6
CONTINUOUS
 10
411.125
 20
221.75
  7
TEXTSTYLE_2
 40
3.5
  1
B
 41
0.7857142857
 72
1
 11
412.5
 21
221.75
100
AcDbText
  0
TEXT
  5
338
100
AcDbEntity
  8
606077388-000-00-ED1_FORMAT
100
AcDbText
 62
90
  6
CONTINUOUS
 10
19.125
 20
221.75
  7
TEXTSTYLE_2
 40
3.5
  1
B
 41
0.7857142857
 72
1
 11
20.5
 21
221.75
100
AcDbText
  0
TEXT
  5
339
100
AcDbEntity
  8
606077388-000-00-ED1_FORMAT
100
AcDbText
 62
90
  6
CONTINUOUS
 10
19.0416666667
 20
171.75
  7
TEXTSTYLE_2
 40
3.5
  1
C
 41
0.8333333333
 72
1
 11
20.5
 21
171.75
100
AcDbText
  0
TEXT
  5
33A
100
AcDbEntity
  8
606077388-000-00-ED1_FORMAT
100
AcDbText
 62
90
  6
CONTINUOUS
 10
411.0416666667
 20
171.75
  7
TEXTSTYLE_2
 40
3.5
  1
C
 41
0.8333333333
 72
1
 11
412.5
 21
171.75
100
AcDbText
  0
TEXT
  5
33B
100
AcDbEntity
  8
606077388-000-00-ED1_FORMAT
100
AcDbText
 62
90
  6
CONTINUOUS
 10
410.9166666667
 20
121.75
  7
TEXTSTYLE_2
 40
3.5
  1
D
 41
0.9047619048
 72
1
 11
412.5
 21
121.75
100
AcDbText
  0
TEXT
  5
33C
100
AcDbEntity
  8
606077388-000-00-ED1_FORMAT
100
AcDbText
 62
90
  6
CONTINUOUS
 10
18.9166666667
 20
121.75
  7
TEXTSTYLE_2
 40
3.5
  1
D
 41
0.9047619048
 72
1
 11
20.5
 21
121.75
100
AcDbText
  0
TEXT
  5
33D
100
AcDbEntity
  8
606077388-000-00-ED1_FORMAT
100
AcDbText
 62
90
  6
CONTINUOUS
 10
19.25
 20
71.75
  7
TEXTSTYLE_2
 40
3.5
  1
E
 41
0.7142857143
 72
1
 11
20.5
 21
71.75
100
AcDbText
  0
TEXT
  5
33E
100
AcDbEntity
  8
606077388-000-00-ED1_FORMAT
100
AcDbText
 62
90
  6
CONTINUOUS
 10
411.25
 20
71.75
  7
TEXTSTYLE_2
 40
3.5
  1
E
 41
0.7142857143
 72
1
 11
412.5
 21
71.75
100
AcDbText
  0
TEXT
  5
33F
100
AcDbEntity
  8
606077388-000-00-ED1_FORMAT
100
AcDbText
 62
90
  6
CONTINUOUS
 10
411.25
 20
21.75
  7
TEXTSTYLE_2
 40
3.5
  1
F
 41
0.7142857143
 72
1
 11
412.5
 21
21.75
100
AcDbText
  0
TEXT
  5
340
100
AcDbEntity
  8
606077388-000-00-ED1_FORMAT
100
AcDbText
 62
90
  6
CONTINUOUS
 10
19.25
 20
21.75
  7
TEXTSTYLE_2
 40
3.5
  1
F
 41
0.7142857143
 72
1
 11
20.5
 21
21.75
100
AcDbText
  0
TEXT
  5
341
100
AcDbEntity
  8
606077388-000-00-ED1_FORMAT
100
AcDbText
 62
2
  6
CONTINUOUS
 10
266.0792011722
 20
283.4479128464
  7
STANDARD
 40
1.9999997015
  1
INDEX
 41
0.780952381
 72
0
100
AcDbText
  0
TEXT
  5
342
100
AcDbEntity
  8
606077388-000-00-ED1_FORMAT
100
AcDbText
 62
2
  6
CONTINUOUS
 10
267.8411056711
 20
280.4479132942
  7
STANDARD
 40
1.9999997015
  1
NR.
 41
0.7142857143
 72
0
100
AcDbText
  0
TEXT
  5
343
100
AcDbEntity
  8
606077388-000-00-ED1_FORMAT
100
AcDbText
 62
2
  6
CONTINUOUS
 10
310.3389765087
 20
281.9588201847
  7
STANDARD
 40
1.9999997015
  1
ART DER AENDERUNG
 41
0.799719888
 72
0
100
AcDbText
  0
TEXT
  5
344
100
AcDbEntity
  8
606077388-000-00-ED1_FORMAT
100
AcDbText
 62
2
  6
CONTINUOUS
 10
379.9980938591
 20
282.0962316584
  7
STANDARD
 40
1.9999997015
  1
DATUM
 41
0.8523809524
 72
0
100
AcDbText
  0
TEXT
  5
345
100
AcDbEntity
  8
606077388-000-00-ED1_FORMAT
100
AcDbText
 62
2
  6
CONTINUOUS
 10
397.8615854447
 20
282.0962316584
  7
STANDARD
 40
1.9999997015
  1
NAME
 41
0.8035714286
 72
0
100
AcDbText
  0
TEXT
  5
346
100
AcDbEntity
  8
606077388-000-00-ED1_FORMAT
100
AcDbText
 62
2
  6
CONTINUOUS
 10
27.6553587823
 20
149.7733961004
  7
STANDARD
 40
3.0
  1
VORGANGS-NR.:
 50
90.0
 41
0.7399267399
 72
0
100
AcDbText
  0
TEXT
  5
347
100
AcDbEntity
  8
606077388-000-00-ED1_FORMAT
100
AcDbText
 62
2
  6
CONTINUOUS
 10
27.9024680453
 20
94.666552576
  7
STANDARD
 40
3.0
  1
PROJEKT-NR.:
 50
90.0
 41
0.7142857143
 72
0
100
AcDbText
  0
TEXT
  5
348
100
AcDbEntity
  8
606077388-000-00-ED1_FORMAT
100
AcDbText
 62
2
  6
CONTINUOUS
 10
27.9024680453
 20
11.0873145846
  7
STANDARD
 40
3.0
  1
KUNDE:
 50
90.0
 41
0.7222222222
 72
0
100
AcDbText
  0
TEXT
  5
349
100
AcDbEntity
  8
606077388-000-00-ED1_FORMAT
100
AcDbText
 62
2
  6
CONTINUOUS
 10
225.0528335394
 20
61.7772757079
  7
STANDARD
 40
1.4000001944
  1
DIE ZEICHNUNGEN,  MODELLE  ETC. BLEIBEN  UNSER  AUSSCHLIESSLICHES
 41
0.7549450549
 72
0
100
AcDbText
  0
TEXT
  5
34A
100
AcDbEntity
  8
606077388-000-00-ED1_FORMAT
100
AcDbText
 62
2
  6
CONTINUOUS
 10
225.0528335394
 20
58.9772753192
  7
STANDARD
 40
1.4000001944
  1
EIGENTUM. SIE WERDEN NUR ZU DEM VEREINBARTEN  ZWECK ANVERTRAUT
 41
0.7976190476
 72
0
100
AcDbText
  0
TEXT
  5
34B
100
AcDbEntity
  8
606077388-000-00-ED1_FORMAT
100
AcDbText
 62
2
  6
CONTINUOUS
 10
225.0528335394
 20
56.1772749305
  7
STANDARD
 40
1.4000001944
  1
UND DUERFEN ZU KEINEM ANDEREN  ZWECK VERWENDET WERDEN. KOPIEN
 41
0.8040593286
 72
0
100
AcDbText
  0
TEXT
  5
34C
100
AcDbEntity
  8
606077388-000-00-ED1_FORMAT
100
AcDbText
 62
2
  6
CONTINUOUS
 10
225.0528335394
 20
53.3772745417
  7
STANDARD
 40
1.4000001944
  1
ODER  SONSTIGE  VERVIELFAELTIGUNGEN  DUERFEN  NUR ZU DEM VEREIN-
 41
0.7689732143
 72
0
100
AcDbText
  0
TEXT
  5
34D
100
AcDbEntity
  8
606077388-000-00-ED1_FORMAT
100
AcDbText
 62
2
  6
CONTINUOUS
 10
225.0528335394
 20
50.577274153
  7
STANDARD
 40
1.4000001944
  1
BARTEN ZWECK ANGEFERTIGT WERDEN. WEDER ORIGINALE NOCH VERVIEL-
 41
0.7949308756
 72
0
100
AcDbText
  0
TEXT
  5
34E
100
AcDbEntity
  8
606077388-000-00-ED1_FORMAT
100
AcDbText
 62
2
  6
CONTINUOUS
 10
225.0528335394
 20
47.7772737643
  7
STANDARD
 40
1.4000001944
  1
FAELTIGUNGEN  DUERFEN  DRITTEN  AUSGEHAENDIGT ODER IN SONSTIGER
 41
0.776266062
 72
0
100
AcDbText
  0
TEXT
  5
34F
100
AcDbEntity
  8
606077388-000-00-ED1_FORMAT
100
AcDbText
 62
2
  6
CONTINUOUS
 10
225.0528335394
 20
44.9772733756
  7
STANDARD
 40
1.4000001944
  1
WEISE ZUGAENGLICH GEMACHT WERDEN.
 41
0.803030303
 72
0
100
AcDbText
  0
TEXT
  5
350
100
AcDbEntity
  8
606077388-000-00-ED1_FORMAT
100
AcDbText
 62
2
  6
CONTINUOUS
 10
225.1601630615
 20
39.378272574
  7
STANDARD
 40
1.8000002499
  1
MASSE OHNE TOLERANZANGABE
 41
0.7857142857
 72
0
100
AcDbText
  0
TEXT
  5
351
100
AcDbEntity
  8
606077388-000-00-ED1_FORMAT
100
AcDbText
 62
2
  6
CONTINUOUS
 10
236.0244502841
 20
36.6782721992
  7
STANDARD
 40
1.8000002499
  1
ISO 2768-F
 41
0.7571428571
 72
0
100
AcDbText
  0
TEXT
  5
352
100
AcDbEntity
  8
606077388-000-00-ED1_FORMAT
100
AcDbText
 62
2
  6
CONTINUOUS
 10
262.1543713235
 20
39.5917730329
  7
STANDARD
 40
1.8000002499
  1
UNBEMASSTE EINZELHEITEN
 41
0.7608695652
 72
0
100
AcDbText
  0
TEXT
  5
353
100
AcDbEntity
  8
606077388-000-00-ED1_FORMAT
100
AcDbText
 62
2
  6
CONTINUOUS
 10
267.382943478
 20
36.8917726581
  7
STANDARD
 40
1.8000002499
  1
NACH WERKSNORM
 41
0.8350340136
 72
0
100
AcDbText
  0
TEXT
  5
354
100
AcDbEntity
  8
606077388-000-00-ED1_FORMAT
100
AcDbText
 62
2
  6
CONTINUOUS
 10
150.063304016
 20
38.7910868059
  7
STANDARD
 40
2.0
  1
ZUSAETZLICH ZU VA-NR. 07.05.01 BESCHRIFTET MIT:
 41
0.7507598784
 72
1
 11
185.3490183017
 21
38.7910868059
100
AcDbText
  0
TEXT
  5
355
100
AcDbEntity
  8
606077388-000-00-ED1_FORMAT
100
AcDbText
 62
2
  6
CONTINUOUS
 10
224.7601228044
 20
20.7999897947
  7
STANDARD
 40
2.5
  1
TECHNISCHE SPEZIFIKATION:
 41
0.7466666667
 72
0
100
AcDbText
  0
TEXT
  5
356
100
AcDbEntity
  8
606077388-000-00-ED1_FORMAT
100
AcDbText
 62
2
  6
CONTINUOUS
 10
224.8199471988
 20
31.7602174681
  7
STANDARD
 40
2.5
  1
BENENNUNG:
 41
0.7285714286
 72
0
100
AcDbText
  0
TEXT
  5
357
100
AcDbEntity
  8
606077388-000-00-ED1_FORMAT
100
AcDbText
 62
2
  6
CONTINUOUS
 10
224.5262063004
 20
11.0903924223
  7
STANDARD
 40
1.6000002221
  1
ERSATZ F. ZCHNR.:
 41
0.7380952381
 72
0
100
AcDbText
  0
TEXT
  5
358
100
AcDbEntity
  8
606077388-000-00-ED1_FORMAT
100
AcDbText
 62
2
  6
CONTINUOUS
 10
300.4889576042
 20
10.8414910836
  7
STANDARD
 40
1.6000002221
  1
ERSETZT D. ZCHNR.:
 41
0.7473544974
 72
0
100
AcDbText
  0
TEXT
  5
359
100
AcDbEntity
  8
606077388-000-00-ED1_FORMAT
100
AcDbText
 62
2
  6
CONTINUOUS
 10
379.498513208
 20
60.814916182
  7
STANDARD
 40
2.0000002777
  1
DATUM
 41
0.8523809524
 72
0
100
AcDbText
  0
TEXT
  5
35A
100
AcDbEntity
  8
606077388-000-00-ED1_FORMAT
100
AcDbText
 62
2
  6
CONTINUOUS
 10
398.0389134502
 20
60.814916182
  7
STANDARD
 40
2.0000002777
  1
NAME
 41
0.8035714286
 72
0
100
AcDbText
  0
TEXT
  5
35B
100
AcDbEntity
  8
606077388-000-00-ED1_FORMAT
100
AcDbText
 62
2
  6
CONTINUOUS
 10
366.6248819325
 20
54.9911796252
  7
STANDARD
 40
2.0000002777
  1
GEZ.
 41
0.7142857143
 72
0
100
AcDbText
  0
TEXT
  5
35C
100
AcDbEntity
  8
606077388-000-00-ED1_FORMAT
100
AcDbText
 62
2
  6
CONTINUOUS
 10
366.6248819325
 20
48.9031554343
  7
STANDARD
 40
2.0
  1
GEPR.
 41
0.7285714286
 72
0
100
AcDbText
  0
TEXT
  5
35D
100
AcDbEntity
  8
606077388-000-00-ED1_FORMAT
100
AcDbText
 62
2
  6
CONTINUOUS
 10
366.6248819325
 20
42.8151311047
  7
STANDARD
 40
2.0
  1
FREIG.
 41
0.7023809524
 72
0
100
AcDbText
  0
TEXT
  5
35E
100
AcDbEntity
  8
606077388-000-00-ED1_FORMAT
100
AcDbText
 62
2
  6
CONTINUOUS
 10
300.5448732723
 20
20.8921153842
  7
STANDARD
 40
2.5
  1
MATERIALNUMMER:
 41
0.7571428571
 72
0
100
AcDbText
  0
TEXT
  5
35F
100
AcDbEntity
  8
606077388-000-00-ED1_FORMAT
100
AcDbText
 62
2
  6
CONTINUOUS
 10
345.5006276188
 20
20.8921153842
  7
STANDARD
 40
2.5
  1
ZEICHNUNGSNUMMER:
 41
0.7549019608
 72
0
100
AcDbText
  0
TEXT
  5
360
100
AcDbEntity
  8
606077388-000-00-ED1_FORMAT
100
AcDbText
 62
2
  6
CONTINUOUS
 10
400.7764463981
 20
32.1524019301
  7
STANDARD
 40
2.0
  1
ORIGIN
 41
0.7380952381
 72
0
100
AcDbText
  0
TEXT
  5
361
100
AcDbEntity
  8
606077388-000-00-ED1_FORMAT
100
AcDbText
 62
2
  6
CONTINUOUS
 10
400.4059589228
 20
21.1649440759
  7
STANDARD
 40
2.5
  1
INDEX
 41
0.780952381
 72
0
100
AcDbText
  0
TEXT
  5
362
100
AcDbEntity
  8
606077388-000-00-ED1_FORMAT
100
AcDbText
 62
2
  6
CONTINUOUS
 10
366.825457919
 20
36.6922441013
  7
STANDARD
 40
2.0000002777
  1
MASSSTAB: 
 41
0.7714285714
 72
0
100
AcDbText
  0
TEXT
  5
363
100
AcDbEntity
  8
606077388-000-00-ED1_FORMAT
100
AcDbText
 62
2
  6
CONTINUOUS
 10
382.2540314895
 20
36.6922441013
  7
STANDARD
 40
2.0000002777
  1
1:1
 41
0.5
 72
0
100
AcDbText
  0
TEXT
  5
364
100
AcDbEntity
  8
606077388-000-00-ED1_FORMAT
100
AcDbText
 62
2
  6
CONTINUOUS
 10
148.8802806988
 20
67.4938922276
  7
STANDARD
 40
2.0000002777
  1
POS
 41
0.7857142857
 72
0
100
AcDbText
  0
TEXT
  5
365
100
AcDbEntity
  8
606077388-000-00-ED1_FORMAT
100
AcDbText
 62
2
  6
CONTINUOUS
 10
156.2800350516
 20
67.4938922276
  7
STANDARD
 40
2.0000002777
  1
TYP
 41
0.8333333333
 72
0
100
AcDbText
  0
TEXT
  5
366
100
AcDbEntity
  8
606077388-000-00-ED1_FORMAT
100
AcDbText
 62
2
  6
CONTINUOUS
 10
163.3396899162
 20
67.5421772957
  7
STANDARD
 40
2.0000002777
  1
MENGE
 41
0.7714285714
 72
0
100
AcDbText
  0
TEXT
  5
367
100
AcDbEntity
  8
606077388-000-00-ED1_FORMAT
100
AcDbText
 62
2
  6
CONTINUOUS
 10
172.6578100909
 20
67.5585023576
  7
STANDARD
 40
2.0000002777
  1
ME
 41
0.7857142857
 72
0
100
AcDbText
  0
TEXT
  5
368
100
AcDbEntity
  8
606077388-000-00-ED1_FORMAT
100
AcDbText
 62
2
  6
CONTINUOUS
 10
181.2151302056
 20
67.5585023576
  7
STANDARD
 40
2.0000002777
  1
MATERIALNUMMER
 41
0.7857142857
 72
0
100
AcDbText
  0
TEXT
  5
369
100
AcDbEntity
  8
606077388-000-00-ED1_FORMAT
100
AcDbText
 62
2
  6
CONTINUOUS
 10
257.4508902212
 20
67.6477439033
  7
STANDARD
 40
2.0000002777
  1
BENENNUNG
 41
0.7698412698
 72
0
100
AcDbText
  0
TEXT
  5
36A
100
AcDbEntity
  8
606077388-000-00-ED1_FORMAT
100
AcDbText
 62
2
  6
CONTINUOUS
 10
321.8093099266
 20
67.455938924
  7
STANDARD
 40
2.0000002777
  1
TECHNISCHE SPEZIFIKATION
 41
0.7628968254
 72
0
100
AcDbText
  0
TEXT
  5
36B
100
AcDbEntity
  8
606077388-000-00-ED1_FORMAT
100
AcDbText
 62
2
  6
CONTINUOUS
 10
378.8634420866
 20
67.8395488825
  7
STANDARD
 40
2.0000002777
  1
KUNDENNUMMER
 41
0.7956349206
 72
0
100
AcDbText
  0
TEXT
  5
36C
100
AcDbEntity
  8
606077388-000-00-ED1_FORMAT
100
AcDbText
 62
2
  6
CONTINUOUS
 10
334.8050437149
 20
48.3350050929
  7
TEXTSTYLE_2
 40
1.8000001121
  1
Dr. Kress KG
 41
0.7361111111
 72
0
100
AcDbText
  0
TEXT
  5
36D
100
AcDbEntity
  8
606077388-000-00-ED1_FORMAT
100
AcDbText
 62
7
  6
CONTINUOUS
 10
334.8050437149
 20
57.9850056872
  7
TEXTSTYLE_2
 40
2.5000001557
  1
MAPAL
 41
0.8
 72
0
100
AcDbText
  0
TEXT
  5
36E
100
AcDbEntity
  8
606077388-000-00-ED1_FORMAT
100
AcDbText
 62
2
  6
CONTINUOUS
 10
334.8050437149
 20
53.3350053976
  7
TEXTSTYLE_2
 40
1.8000001121
  1
Präzisionswerkzeuge
 41
0.7034461153
 72
0
100
AcDbText
  0
TEXT
  5
36F
100
AcDbEntity
  8
606077388-000-00-ED1_FORMAT
100
AcDbText
 62
2
  6
CONTINUOUS
 10
378.2047936993
 20
10.9096736719
  7
STANDARD
 40
1.6
  1
BLATT   V.   BLAETTERN
 41
0.7781385281
 72
0
100
AcDbText
  0
TEXT
  5
370
100
AcDbEntity
  8
606077388-000-00-ED1_FORMAT
100
AcDbText
 62
2
  6
CONTINUOUS
 10
385.137224502
 20
10.8641703019
  7
STANDARD
 40
1.6
  1
1
 41
0.5714285714
 72
0
100
AcDbText
  0
TEXT
  5
371
100
AcDbEntity
  8
606077388-000-00-ED1_FORMAT
100
AcDbText
 62
2
  6
CONTINUOUS
 10
391.2747609807
 20
10.9140689725
  7
STANDARD
 40
1.6
  1
1
 41
0.5714285714
 72
0
100
AcDbText
  0
TEXT
  5
372
100
AcDbEntity
  8
606077388-000-00-ED1_FORMAT
100
AcDbText
 62
2
  6
CONTINUOUS
 10
398.7751202552
 20
36.7556960436
  7
STANDARD
 40
2.0
  1
A3
 41
0.7857142857
 72
0
100
AcDbText
  0
TEXT
  5
373
100
AcDbEntity
  8
606077388-000-00-ED1_FORMAT
100
AcDbText
 62
2
  6
CONTINUOUS
 10
23.9272382303
 20
282.7195210512
  7
STANDARD
 40
1.9999995576
  1
MASCH.-NR.:
 41
0.7186147186
 72
0
100
AcDbText
  0
TEXT
  5
374
100
AcDbEntity
  8
606077388-000-00-ED1_FORMAT
100
AcDbText
 62
2
  6
CONTINUOUS
 10
61.221262923
 20
282.7441697896
  7
STANDARD
 40
1.9999995184
  1
STATION:
 41
0.7410714286
 72
0
100
AcDbText
  0
TEXT
  5
375
100
AcDbEntity
  8
606077388-000-00-ED1_FORMAT
100
AcDbText
 62
2
  6
CONTINUOUS
 10
99.2119750426
 20
282.7441697896
  7
STANDARD
 40
1.9999995184
  1
SPINDEL:
 41
0.7023809524
 72
0
100
AcDbText
  0
TEXT
  5
376
100
AcDbEntity
  8
606077388-000-00-ED1_FORMAT
100
AcDbText
 62
2
  6
CONTINUOUS
 10
23.5637846434
 20
277.4328879656
  7
STANDARD
 40
1.9999995576
  1
WERKST.-BEN.:
 41
0.7527472527
 72
0
100
AcDbText
  0
TEXT
  5
377
100
AcDbEntity
  8
606077388-000-00-ED1_FORMAT
100
AcDbText
 62
2
  6
CONTINUOUS
 10
23.7506774
 20
266.657832536
  7
STANDARD
 40
1.9999995184
  1
WERKSTOFF:
 41
0.7857142857
 72
0
100
AcDbText
  0
TEXT
  5
378
100
AcDbEntity
  8
606077388-000-00-ED1_FORMAT
100
AcDbText
 62
2
  6
CONTINUOUS
 10
99.2058269153
 20
260.6643446337
  7
STANDARD
 40
1.9999995184
  1
BOHRUNGS-NR.:
 41
0.7307692308
 72
0
100
AcDbText
  0
TEXT
  5
379
100
AcDbEntity
  8
606077388-000-00-ED1_FORMAT
100
AcDbText
 62
2
  6
CONTINUOUS
 10
23.8681648642
 20
272.062255871
  7
STANDARD
 40
1.9999995576
  1
WERKST.-NR.:
 41
0.755952381
 72
0
100
AcDbText
  0
TEXT
  5
37A
100
AcDbEntity
  8
606077388-000-00-ED1_FORMAT
100
AcDbText
 62
2
  6
CONTINUOUS
 10
61.140009526
 20
260.6643443929
  7
STANDARD
 40
2.0
  1
OP-NR.:
 41
0.6836734694
 72
0
100
AcDbText
  0
TEXT
  5
37B
100
AcDbEntity
  8
606077388-000-00-ED1_FORMAT
100
AcDbText
 62
2
  6
CONTINUOUS
 10
23.9309790234
 20
260.9091406462
  7
STANDARD
 40
2.0
  1
TOOL-NR.:
 41
0.6984126984
 72
0
100
AcDbText
  0
INSERT
  5
37C
100
AcDbEntity
  8
606077388-000-00-ED1_FORMAT
100
AcDbBlockReference
 62
3
  6
CONTINUOUS
  2
BARCODEBOX_BL0
 10
87.5
 20
46.5
  0
DIMENSION
  5
37D
100
AcDbEntity
  8
606077388-000-00-ED1_DIM
100
AcDbDimension
 62
3
  6
CONTINUOUS
  2
*D0
 10
200.6056019686
 20
128.3772872909
 11
208.8377293529
 21
121.8734378398
 70
164
 71
1
 42
5.0
  1
<>
  3
DIMSTYLE_1
100
AcDbRadialDimension
 15
197.582640063
 25
132.3599624368
  0
DIMENSION
  5
37E
100
AcDbEntity
  8
606077388-000-00-ED1_DIM
100
AcDbDimension
 62
3
  6
CONTINUOUS
  2
*D1
 10
264.7993878597
 20
165.3772872909
 11
267.712149389
 21
179.5525592978
 70
162
 71
2
 42
0.0785398163
  3
DIMSTYLE_2
100
AcDb2LineAngularDimension
 13
264.7193353176
 23
163.3398140382
 14
257.4494108199
 24
163.9119695047
 15
257.1842099998
 25
165.3772872909
 16
263.2805234522
 26
164.4166543732
  0
DIMENSION
  5
37F
100
AcDbEntity
  8
30261743_DIM
100
AcDbDimension
 62
3
  6
CONTINUOUS
  2
*D2
 10
252.6556019686
 20
112.3772872909
 11
195.6275838243
 21
111.9397872909
 70
160
 71
3
 42
10.0
  1
<>\PVERSTELLWEG
  3
DIMSTYLE_3
100
AcDbAlignedDimension
 13
242.6556019686
 23
149.3772872909
 14
252.6556019686
 24
149.3772872909
100
AcDbRotatedDimension
  0
DIMENSION
  5
380
100
AcDbEntity
  8
30338519_DIM
100
AcDbDimension
 62
3
  6
CONTINUOUS
  2
*D3
 10
234.6556019686
 20
176.3772872909
 11
251.5425491384
 21
179.0022872909
 70
160
 71
1
 42
6.0
  1
M<>(4x)
  3
DIMSTYLE_4
100
AcDbAlignedDimension
 13
228.6556019686
 23
165.2273885517
 14
234.6556019686
 24
165.2273885517
100
AcDbRotatedDimension
  0
DIMENSION
  5
381
100
AcDbEntity
  8
30338519_DIM
100
AcDbDimension
 62
3
  6
CONTINUOUS
  2
*D4
 10
289.6556019686
 20
92.3772872909
 11
258.0306019686
 21
95.0022872909
 70
160
 71
2
 42
58.0
  3
DIMSTYLE_5
100
AcDbAlignedDimension
 13
231.6556019686
 23
138.3016777826
 14
289.6556019686
 24
138.3016777826
100
AcDbRotatedDimension
  0
DIMENSION
  5
382
100
AcDbEntity
  8
30338519_DIM
100
AcDbDimension
 62
3
  6
CONTINUOUS
  2
*D5
 10
289.6556019686
 20
102.3772872909
 11
263.4056019686
 21
105.0022872909
 70
160
 71
2
 42
47.0
  3
DIMSTYLE_5
100
AcDbAlignedDimension
 13
242.6556019686
 23
138.3016777826
 14
289.6556019686
 24
138.3016777826
100
AcDbRotatedDimension
  0
DIMENSION
  5
383
100
AcDbEntity
  8
30338519_DIM
100
AcDbDimension
 62
3
  6
CONTINUOUS
  2
*D6
 10
169.6556019686
 20
196.3772872909
 11
225.9056019686
 21
199.0022872909
 70
160
 71
2
 42
120.0
  3
DIMSTYLE_5
100
AcDbAlignedDimension
 13
289.6556019686
 23
152.3165185228
 14
169.6556019686
 24
149.3772872909
 50
180.0
100
AcDbRotatedDimension
  0
INSERT
  5
384
100
AcDbEntity
  8
606077388-000-00-ED1_CL
100
AcDbBlockReference
 62
3
  6
CONTINUOUS
  2
GEOM_TOLERANCE_SYMBOLS_BL1
 10
163.4056019686
 20
192.6715231832
  0
DIMENSION
  5
385
100
AcDbEntity
  8
30338519_DIM
100
AcDbDimension
 62
3
  6
CONTINUOUS
  2
*D7
 10
127.7556019686
 20
154.3772872909
 11
126.8668872311
 21
128.6725126083
 70
160
 71
3
 42
10.0
  1
M<>x1
  3
DIMSTYLE_3
100
AcDbAlignedDimension
 13
224.6556019686
 23
144.3772872909
 14
224.6556019686
 24
154.3772872909
 50
90.0
100
AcDbRotatedDimension
  0
DIMENSION
  5
386
100
AcDbEntity
  8
30338519_DIM
100
AcDbDimension
 62
3
  6
CONTINUOUS
  2
*D8
 10
304.6556019686
 20
155.3772872909
 11
302.0306019686
 21
173.7620357186
 70
160
 71
1
 42
12.0
  1
%%c<>
  3
DIMSTYLE_3
100
AcDbAlignedDimension
 13
286.6556019686
 23
143.3772872909
 14
286.6556019686
 24
155.3772872909
 50
90.0
100
AcDbRotatedDimension
  0
LEADER
  5
387
100
AcDbEntity
  8
606077388-000-00-ED1_CL
100
AcDbLeader
 62
3
  6
CONTINUOUS
  3
STANDARD
 71
1
 72
0
 73
2
 75
0
 76
3
 10
304.6556019686
 20
143.3772872909
 30
0.0
 10
304.6556019686
 20
122.3772872909
 30
0.0
 10
304.6556440106
 20
122.3772872909
 30
0.0
340
388
1001
ACAD
1000
DSTYLE
1002
{
1070
77
1070
0
1002
}
  0
INSERT
  5
388
102
{ACAD_REACTORS
330
387
102
}
100
AcDbEntity
  8
606077388-000-00-ED1_CL
100
AcDbBlockReference
 62
3
  6
CONTINUOUS
  2
GEOM_TOLERANCE_SYMBOLS_BL2
 10
325.1740614056
 20
122.3775483782
  0
TEXT
  5
389
100
AcDbEntity
  8
0
100
AcDbText
 62
2
  6
CONTINUOUS
 10
309.6556019686
 20
110.6272872909
  7
STANDARD
 40
3.5
  1
FUER SCHAEFTE MIT
 41
0.7759103641
 72
0
100
AcDbText
  0
TEXT
  5
38A
100
AcDbEntity
  8
0
100
AcDbText
 62
2
  6
CONTINUOUS
 10
309.6556019686
 20
105.3772872909
  7
STANDARD
 40
3.5
  1
TOLERANZFELD h6
 41
0.7650793651
 72
0
100
AcDbText
  0
LEADER
  5
38B
100
AcDbEntity
  8
0
100
AcDbLeader
 62
3
  6
CONTINUOUS
  3
STANDARD
 71
1
 72
0
 73
3
 75
0
 76
3
 10
304.6556019686
 20
143.3772872909
 30
0.0
 10
304.6556019686
 20
112.3772872909
 30
0.0
 10
309.6556019686
 20
112.3772872909
 30
0.0
1001
ACAD
1000
DSTYLE
1002
{
1070
77
1070
0
1002
}
  0
DIMENSION
  5
38C
100
AcDbEntity
  8
30338519_DIM
100
AcDbDimension
 62
3
  6
CONTINUOUS
  2
*D9
 10
324.6556019686
 20
165.3772872909
 11
323.1414511419
 21
147.1609205624
 70
160
 71
2
 42
32.0
  1
%%c<>
  3
DIMSTYLE_5
100
AcDbAlignedDimension
 13
238.8307830239
 23
133.3772872909
 14
238.8307830239
 24
165.3772872909
 50
90.0
100
AcDbRotatedDimension
  0
DIMENSION
  5
38D
100
AcDbEntity
  8
30338519_DIM
100
AcDbDimension
 62
3
  6
CONTINUOUS
  2
*D10
 10
314.6556019686
 20
161.3772872909
 11
313.1694557429
 21
147.1050457709
 70
160
 71
2
 42
24.0
  1
%%c<>
  3
DIMSTYLE_3
100
AcDbAlignedDimension
 13
289.6556019686
 23
137.3772872909
 14
289.6556019686
 24
161.3772872909
 50
90.0
100
AcDbRotatedDimension
  0
LINE
  5
38E
100
AcDbEntity
  8
606077388-000-00-ED1_FORMAT
100
AcDbLine
 62
3
  6
CONTINUOUS
 10
264.9
 20
287.0000007463
 11
410.0
 21
287.0000007463
  0
LINE
  5
38F
100
AcDbEntity
  8
606077388-000-00-ED1_FORMAT
100
AcDbLine
 62
3
  6
CONTINUOUS
 10
264.9
 20
287.0000007463
 11
264.9
 21
225.0000007463
  0
LINE
  5
390
100
AcDbEntity
  8
606077388-000-00-ED1_FORMAT
100
AcDbLine
 62
3
  6
CONTINUOUS
 10
264.9
 20
225.0000007463
 11
410.0
 21
225.0000007463
  0
LINE
  5
391
100
AcDbEntity
  8
606077388-000-00-ED1_FORMAT
100
AcDbLine
 62
3
  6
CONTINUOUS
 10
410.0
 20
287.0000007463
 11
410.0
 21
225.0000007463
  0
LINE
  5
392
100
AcDbEntity
  8
606077388-000-00-ED1_FORMAT
100
AcDbLine
 62
3
  6
CONTINUOUS
 10
23.0
 20
10.0
 11
23.0
 21
210.0
  0
LINE
  5
393
100
AcDbEntity
  8
606077388-000-00-ED1_FORMAT
100
AcDbLine
 62
3
  6
CONTINUOUS
 10
23.0
 20
10.0
 11
29.0
 21
10.0
  0
LINE
  5
394
100
AcDbEntity
  8
606077388-000-00-ED1_FORMAT
100
AcDbLine
 62
3
  6
CONTINUOUS
 10
29.0
 20
10.0
 11
29.0
 21
210.0
  0
LINE
  5
395
100
AcDbEntity
  8
606077388-000-00-ED1_FORMAT
100
AcDbLine
 62
3
  6
CONTINUOUS
 10
23.0
 20
210.0
 11
29.0
 21
210.0
  0
LINE
  5
396
100
AcDbEntity
  8
606077388-000-00-ED1_FORMAT
100
AcDbLine
 62
3
  6
CONTINUOUS
 10
146.999991584
 20
65.00000176
 11
410.000001584
 21
65.00000176
  0
LINE
  5
397
100
AcDbEntity
  8
606077388-000-00-ED1_FORMAT
100
AcDbLine
 62
3
  6
CONTINUOUS
 10
146.999991584
 20
65.00000176
 11
146.999991584
 21
78.50000176
  0
LINE
  5
398
100
AcDbEntity
  8
606077388-000-00-ED1_FORMAT
100
AcDbLine
 62
3
  6
CONTINUOUS
 10
146.999991584
 20
72.50000176
 11
410.000001584
 21
72.50000176
  0
LINE
  5
399
100
AcDbEntity
  8
606077388-000-00-ED1_FORMAT
100
AcDbLine
 62
3
  6
CONTINUOUS
 10
146.999991584
 20
78.50000176
 11
410.000001584
 21
78.50000176
  0
LINE
  5
39A
100
AcDbEntity
  8
606077388-000-00-ED1_FORMAT
100
AcDbLine
 62
3
  6
CONTINUOUS
 10
154.499991584
 20
65.00000176
 11
154.499991584
 21
78.50000176
  0
LINE
  5
39B
100
AcDbEntity
  8
606077388-000-00-ED1_FORMAT
100
AcDbLine
 62
3
  6
CONTINUOUS
 10
161.999991584
 20
65.00000176
 11
161.999991584
 21
78.50000176
  0
LINE
  5
39C
100
AcDbEntity
  8
606077388-000-00-ED1_FORMAT
100
AcDbLine
 62
3
  6
CONTINUOUS
 10
171.398801584
 20
65.00000176
 11
171.398801584
 21
78.50000176
  0
LINE
  5
39D
100
AcDbEntity
  8
606077388-000-00-ED1_FORMAT
100
AcDbLine
 62
3
  6
CONTINUOUS
 10
176.398801584
 20
65.00000176
 11
176.398801584
 21
78.50000176
  0
LINE
  5
39E
100
AcDbEntity
  8
606077388-000-00-ED1_FORMAT
100
AcDbLine
 62
3
  6
CONTINUOUS
 10
208.000001584
 20
65.00000176
 11
208.000001584
 21
78.50000176
  0
LINE
  5
39F
100
AcDbEntity
  8
606077388-000-00-ED1_FORMAT
100
AcDbLine
 62
3
  6
CONTINUOUS
 10
314.000001584
 20
65.00000176
 11
314.000001584
 21
78.50000176
  0
LINE
  5
3A0
100
AcDbEntity
  8
606077388-000-00-ED1_FORMAT
100
AcDbLine
 62
3
  6
CONTINUOUS
 10
366.000001584
 20
65.00000176
 11
366.000001584
 21
78.50000176
  0
LINE
  5
3A1
100
AcDbEntity
  8
606077388-000-00-ED1_FORMAT
100
AcDbLine
 62
3
  6
CONTINUOUS
 10
410.000001584
 20
65.00000176
 11
410.000001584
 21
78.50000176
  0
TEXT
  5
3A2
100
AcDbEntity
  8
606077388-000-00-ED1_FORMAT
100
AcDbText
 62
2
  6
CONTINUOUS
 10
148.224991584
 20
74.25000176
  7
STANDARD
 40
2.0
  1
1
 41
0.5714285714
 72
0
100
AcDbText
  0
TEXT
  5
3A3
100
AcDbEntity
  8
606077388-000-00-ED1_FORMAT
100
AcDbText
 62
2
  6
CONTINUOUS
 10
163.224991584
 20
74.25000176
  7
STANDARD
 40
2.0
  1
1
 41
0.5714285714
 72
0
100
AcDbText
  0
TEXT
  5
3A4
100
AcDbEntity
  8
606077388-000-00-ED1_FORMAT
100
AcDbText
 62
2
  6
CONTINUOUS
 10
177.623801584
 20
74.25000176
  7
STANDARD
 40
2.0
  1
30252542
 41
0.7589285714
 72
0
100
AcDbText
  0
TEXT
  5
3A5
100
AcDbEntity
  8
606077388-000-00-ED1_FORMAT
100
AcDbText
 62
2
  6
CONTINUOUS
 10
209.225001584
 20
74.25000176
  7
STANDARD
 40
2.0
  1
ANSCHLAGSCHRAUBE
 41
0.7916666667
 72
0
100
AcDbText
  0
TEXT
  5
3A6
100
AcDbEntity
  8
606077388-000-00-ED1_FORMAT
100
AcDbText
 62
2
  6
CONTINUOUS
 10
315.225001584
 20
74.25000176
  7
STANDARD
 40
2.0
  1
M10X1 SW5
 41
0.8095238095
 72
0
100
AcDbText
  0
TEXT
  5
3A7
100
AcDbEntity
  8
606077388-000-00-ED1_FORMAT
100
AcDbText
 62
2
  6
CONTINUOUS
 10
406.5928587269
 20
76.72000176
  7
STANDARD
 40
0.03
  1
30252542
 41
0.7589285714
 72
2
 11
406.775001584
 21
76.72000176
100
AcDbText
  0
TEXT
  5
3A8
100
AcDbEntity
  8
606077388-000-00-ED1_FORMAT
100
AcDbText
 62
2
  6
CONTINUOUS
 10
407.7257158697
 20
76.72000176
  7
STANDARD
 40
0.03
  1
KA
 41
0.8214285714
 72
2
 11
407.775001584
 21
76.72000176
100
AcDbText
  0
LINE
  5
3A9
100
AcDbEntity
  8
606077388-000-00-ED1_FORMAT
100
AcDbLine
 62
3
  6
CONTINUOUS
 10
23.0
 20
287.0
 11
135.0
 21
287.0
  0
LINE
  5
3AA
100
AcDbEntity
  8
606077388-000-00-ED1_FORMAT
100
AcDbLine
 62
3
  6
CONTINUOUS
 10
23.0
 20
287.0
 11
23.0
 21
259.00001
  0
LINE
  5
3AB
100
AcDbEntity
  8
606077388-000-00-ED1_FORMAT
100
AcDbLine
 62
3
  6
CONTINUOUS
 10
23.0
 20
259.00001
 11
135.0
 21
259.00001
  0
LINE
  5
3AC
100
AcDbEntity
  8
606077388-000-00-ED1_FORMAT
100
AcDbLine
 62
3
  6
CONTINUOUS
 10
135.0
 20
287.0
 11
135.0
 21
259.00001
  0
LINE
  5
3AD
100
AcDbEntity
  8
606077388-000-00-ED1_FORMAT
100
AcDbLine
 62
3
  6
CONTINUOUS
 10
146.999991584
 20
65.00000176
 11
409.999961584
 21
65.00000176
  0
LINE
  5
3AE
100
AcDbEntity
  8
606077388-000-00-ED1_FORMAT
100
AcDbLine
 62
3
  6
CONTINUOUS
 10
146.999991584
 20
65.00000176
 11
146.999991584
 21
10.00000176
  0
LINE
  5
3AF
100
AcDbEntity
  8
606077388-000-00-ED1_FORMAT
100
AcDbLine
 62
3
  6
CONTINUOUS
 10
146.999991584
 20
10.00000176
 11
409.999961584
 21
10.00000176
  0
LINE
  5
3B0
100
AcDbEntity
  8
606077388-000-00-ED1_FORMAT
100
AcDbLine
 62
3
  6
CONTINUOUS
 10
409.999961584
 20
65.00000176
 11
409.999961584
 21
10.00000176
  0
TEXT
  5
3B1
100
AcDbEntity
  8
606077388-000-00-ED1_FORMAT
100
AcDbText
 62
2
  6
CONTINUOUS
 10
184.5178487269
 20
60.75000176
  7
STANDARD
 40
2.5
  1
 
 41
0.7857142857
 72
1
 11
185.499991584
 21
60.75000176
100
AcDbText
  0
TEXT
  5
3B2
100
AcDbEntity
  8
606077388-000-00-ED1_FORMAT
100
AcDbText
 62
2
  6
CONTINUOUS
 10
154.130943965
 20
58.24975176
  7
STANDARD
 40
2.5
  1
AUSWUCHTGUETE DIN ISO 1940-G 
 41
0.7939244663
 72
1
 11
182.9107058697
 21
58.24975176
100
AcDbText
  0
TEXT
  5
3B3
100
AcDbEntity
  8
606077388-000-00-ED1_FORMAT
100
AcDbText
 62
2
  6
CONTINUOUS
 10
211.6904677745
 20
58.24975176
  7
STANDARD
 40
2.5
  1
2.5
 41
0.6904761905
 72
1
 11
214.2797534888
 21
58.24975176
100
AcDbText
  0
TEXT
  5
3B4
100
AcDbEntity
  8
606077388-000-00-ED1_FORMAT
100
AcDbText
 62
2
  6
CONTINUOUS
 10
184.5178487269
 20
56.57968176
  7
STANDARD
 40
2.5
  1
 
 41
0.7857142857
 72
1
 11
185.499991584
 21
56.57968176
100
AcDbText
  0
TEXT
  5
3B5
100
AcDbEntity
  8
606077388-000-00-ED1_FORMAT
100
AcDbText
 62
2
  6
CONTINUOUS
 10
167.7321344411
 20
52.82968176
  7
STANDARD
 40
2.5
  1
(KOMPLETT MONTIERT)
 41
0.7481203008
 72
1
 11
185.499991584
 21
52.82968176
100
AcDbText
  0
TEXT
  5
3B6
100
AcDbEntity
  8
606077388-000-00-ED1_FORMAT
100
AcDbText
 62
2
  6
CONTINUOUS
 10
378.122491584
 20
54.95468176
  7
STANDARD
 40
2.0
  1
11.06.13
 41
0.6428571429
 72
0
100
AcDbText
  0
TEXT
  5
3B7
100
AcDbEntity
  8
606077388-000-00-ED1_FORMAT
100
AcDbText
 62
2
  6
CONTINUOUS
 10
398.5915837269
 20
54.95468176
  7
STANDARD
 40
2.0
  1
REM
 41
0.7857142857
 72
1
 11
400.948726584
 21
54.95468176
100
AcDbText
  0
TEXT
  5
3B8
100
AcDbEntity
  8
606077388-000-00-ED1_FORMAT
100
AcDbText
 62
2
  6
CONTINUOUS
 10
157.8511820602
 20
46.82968176
  7
STANDARD
 40
2.5
  1
FUER NENNDREHZAHL 
 41
0.7724867725
 72
1
 11
175.2321344411
 21
46.82968176
100
AcDbText
  0
TEXT
  5
3B9
100
AcDbEntity
  8
606077388-000-00-ED1_FORMAT
100
AcDbText
 62
2
  6
CONTINUOUS
 10
192.6130868221
 20
46.82968176
  7
STANDARD
 40
2.5
  1
25000
 41
0.7714285714
 72
1
 11
197.4345153935
 21
46.82968176
100
AcDbText
  0
TEXT
  5
3BA
100
AcDbEntity
  8
606077388-000-00-ED1_FORMAT
100
AcDbText
 62
2
  6
CONTINUOUS
 10
202.255943965
 20
46.82968176
  7
STANDARD
 40
2.5
  1
 MIN
 41
0.7678571429
 72
1
 11
206.0952296792
 21
46.82968176
100
AcDbText
  0
TEXT
  5
3BB
100
AcDbEntity
  8
606077388-000-00-ED1_FORMAT
100
AcDbText
 62
2
  6
CONTINUOUS
 10
209.9345153935
 20
48.70468176
  7
STANDARD
 40
2.5
  1
-1
 41
0.6428571429
 72
1
 11
211.5416582507
 21
48.70468176
100
AcDbText
  0
TEXT
  5
3BC
100
AcDbEntity
  8
606077388-000-00-ED1_FORMAT
100
AcDbText
 62
7
  6
CONTINUOUS
 10
225.224991584
 20
26.00000176
  7
STANDARD
 40
2.5
  1
THERMOCHUCK, HSK, STANDARDAUSFUEHRUNG
 41
0.7889317889
 72
0
100
AcDbText
  0
TEXT
  5
3BD
100
AcDbEntity
  8
606077388-000-00-ED1_FORMAT
100
AcDbText
 62
2
  6
CONTINUOUS
 10
402.5951996792
 20
26.00000176
  7
STANDARD
 40
2.0
  1
EHD
 41
0.8015873016
 72
1
 11
404.999961584
 21
26.00000176
100
AcDbText
  0
TEXT
  5
3BE
100
AcDbEntity
  8
606077388-000-00-ED1_FORMAT
100
AcDbText
 62
7
  6
CONTINUOUS
 10
225.224991584
 20
15.25000176
  7
STANDARD
 40
2.5
  1
MTC-HSK-A063-12-120-1-0-A
 41
0.7504761905
 72
0
100
AcDbText
  0
TEXT
  5
3BF
100
AcDbEntity
  8
606077388-000-00-ED1_FORMAT
100
AcDbText
 62
7
  6
CONTINUOUS
 10
301.224991584
 20
15.25000176
  7
STANDARD
 40
2.5
  1
30261743
 41
0.7410714286
 72
0
100
AcDbText
  0
TEXT
  5
3C0
100
AcDbEntity
  8
606077388-000-00-ED1_FORMAT
100
AcDbText
 62
7
  6
CONTINUOUS
 10
346.224991584
 20
15.25000176
  7
STANDARD
 40
2.5
  1
606077388-000-00-ED1
 41
0.7630952381
 72
0
100
AcDbText
  0
TEXT
  5
3C1
100
AcDbEntity
  8
606077388-000-00-ED1_FORMAT
100
AcDbText
 62
2
  6
CONTINUOUS
 10
403.0356758697
 20
15.25000176
  7
STANDARD
 40
2.5
  1
00
 41
0.7857142857
 72
1
 11
404.999961584
 21
15.25000176
100
AcDbText
  0
LINE
  5
3C2
100
AcDbEntity
  8
606077388-000-00-ED1_FORMAT
100
AcDbLine
 62
3
  6
CONTINUOUS
 10
29.0
 20
10.0
 11
29.0
 21
145.0
  0
LINE
  5
3C3
100
AcDbEntity
  8
606077388-000-00-ED1_FORMAT
100
AcDbLine
 62
3
  6
CONTINUOUS
 10
29.0
 20
10.0
 11
35.0
 21
10.0
  0
LINE
  5
3C4
100
AcDbEntity
  8
606077388-000-00-ED1_FORMAT
100
AcDbLine
 62
3
  6
CONTINUOUS
 10
35.0
 20
10.0
 11
35.0
 21
145.0
  0
LINE
  5
3C5
100
AcDbEntity
  8
606077388-000-00-ED1_FORMAT
100
AcDbLine
 62
3
  6
CONTINUOUS
 10
29.0
 20
80.0
 11
35.0
 21
80.0
  0
LINE
  5
3C6
100
AcDbEntity
  8
606077388-000-00-ED1_FORMAT
100
AcDbLine
 62
3
  6
CONTINUOUS
 10
29.0
 20
145.0
 11
35.0
 21
145.0
  0
TEXT
  5
3C7
100
AcDbEntity
  8
606077388-000-00-ED1_FORMAT
100
AcDbText
 62
2
  6
CONTINUOUS
 10
34.0
 20
11.225
  7
STANDARD
 40
3.0
  1
AEHNLICH:
 50
90.0
 41
0.7116402116
 72
0
100
AcDbText
  0
TEXT
  5
3C8
100
AcDbEntity
  8
606077388-000-00-ED1_FORMAT
100
AcDbText
 62
2
  6
CONTINUOUS
 10
34.0
 20
81.225
  7
STANDARD
 40
3.0
  1
SKIZZE:
 50
90.0
 41
0.693877551
 72
0
100
AcDbText
  0
LINE
  5
3C9
100
AcDbEntity
  8
606077388-000-00-ED1_FORMAT
100
AcDbLine
 62
3
  6
CONTINUOUS
 10
365.999998592
 20
35.0000008
 11
294.999998592
 21
35.0000008
  0
LINE
  5
3CA
100
AcDbEntity
  8
606077388-000-00-ED1_FORMAT
100
AcDbLine
 62
3
  6
CONTINUOUS
 10
365.999998592
 20
35.0000008
 11
365.999998592
 21
43.5000008
  0
LINE
  5
3CB
100
AcDbEntity
  8
606077388-000-00-ED1_FORMAT
100
AcDbLine
 62
3
  6
CONTINUOUS
 10
365.999998592
 20
43.5000008
 11
294.999998592
 21
43.5000008
  0
LINE
  5
3CC
100
AcDbEntity
  8
606077388-000-00-ED1_FORMAT
100
AcDbLine
 62
3
  6
CONTINUOUS
 10
294.999998592
 20
35.0000008
 11
294.999998592
 21
43.5000008
  0
TEXT
  5
3CD
100
AcDbEntity
  8
606077388-000-00-ED1_FORMAT
100
AcDbText
 62
2
  6
CONTINUOUS
 10
304.9642843063
 20
38.0000008
  7
STANDARD
 40
2.5
  1
PATENTRECHTLICH GESCHUETZT
 41
0.7857142857
 72
1
 11
330.499998592
 21
38.0000008
100
AcDbText
  0
INSERT
  5
3CE
100
AcDbEntity
  8
606077388-000-00-ED1_CL
100
AcDbBlockReference
 62
3
  6
CONTINUOUS
  2
GEOM_TOLERANCE_SYMBOLS_BL3
 10
151.6338549675
 20
179.10972595
  0
INSERT
  5
3CF
100
AcDbEntity
  8
606077388-000-00-ED1_CL
100
AcDbBlockReference
 62
3
  6
CONTINUOUS
  2
NOTE_HSK_BL4
 10
211.1245636473
 20
225.9410773034
  0
LEADER
  5
3D0
100
AcDbEntity
  8
606077388-000-00-ED1_CL
100
AcDbLeader
 62
3
  6
CONTINUOUS
  3
STANDARD
 71
1
 72
0
 73
2
 75
0
 76
2
 10
231.3366995051
 20
146.8772872909
 30
0.0
 10
267.3397461613
 20
125.5039605243
 30
0.0
340
3D1
1001
ACAD
1000
DSTYLE
1002
{
1070
77
1070
0
1070
341
1005
21A
1002
}
  0
INSERT
  5
3D1
102
{ACAD_REACTORS
330
3D0
102
}
100
AcDbEntity
  8
606077388-000-00-ED1_CL
100
AcDbBlockReference
 62
3
  6
CONTINUOUS
  2
BOMBALLOON_BL5
 10
272.6065800766
 20
122.3772872909
  0
LINE
  5
3D2
100
AcDbEntity
  8
606077388-000-00-ED1_FORMAT
100
AcDbLine
 62
6
  6
HIDDEN
 10
0.0
 20
297.0
 11
0.0
 21
0.0
  0
LINE
  5
3D3
100
AcDbEntity
  8
606077388-000-00-ED1_FORMAT
100
AcDbLine
 62
7
  6
CONTINUOUS
 10
18.0
 20
292.0
 11
18.0
 21
5.0
  0
LINE
  5
3D4
100
AcDbEntity
  8
606077388-000-00-ED1_FORMAT
100
AcDbLine
 62
3
  6
CONTINUOUS
 10
23.0
 20
259.0000097341
 11
23.0
 21
10.0
  0
LINE
  5
3D5
100
AcDbEntity
  8
606077388-000-00-ED1_FORMAT
100
AcDbLine
 62
7
  6
CONTINUOUS
 10
23.0
 20
259.0000097341
 11
23.0
 21
287.0
  0
LINE
  5
3D6
100
AcDbEntity
  8
606077388-000-00-ED1_FORMAT
100
AcDbLine
 62
3
  6
CONTINUOUS
 10
28.9999998068
 20
9.9999999122
 11
28.9999998068
 21
209.9999964
  0
LINE
  5
3D7
100
AcDbEntity
  8
606077388-000-00-ED1_FORMAT
100
AcDbLine
 62
3
  6
CONTINUOUS
 10
60.0
 20
10.0
 11
60.0
 21
5.0
  0
LINE
  5
3D8
100
AcDbEntity
  8
606077388-000-00-ED1_FORMAT
100
AcDbLine
 62
3
  6
CONTINUOUS
 10
60.0
 20
287.0
 11
60.0
 21
292.0
  0
LINE
  5
3D9
100
AcDbEntity
  8
606077388-000-00-ED1_FORMAT
100
AcDbLine
 62
7
  6
CONTINUOUS
 10
60.4999978194
 20
259.0000097341
 11
60.4999978194
 21
265.0000076482
  0
LINE
  5
3DA
100
AcDbEntity
  8
606077388-000-00-ED1_FORMAT
100
AcDbLine
 62
7
  6
CONTINUOUS
 10
60.500027184
 20
281.0047710842
 11
60.500027184
 21
287.0
  0
LINE
  5
3DB
100
AcDbEntity
  8
606077388-000-00-ED1_FORMAT
100
AcDbLine
 62
6
  6
HIDDEN
 10
0.0
 20
0.0
 11
420.0
 21
0.0
  0
LINE
  5
3DC
100
AcDbEntity
  8
606077388-000-00-ED1_FORMAT
100
AcDbLine
 62
7
  6
CONTINUOUS
 10
18.0
 20
5.0
 11
415.0
 21
5.0
  0
LINE
  5
3DD
100
AcDbEntity
  8
606077388-000-00-ED1_FORMAT
100
AcDbLine
 62
3
  6
CONTINUOUS
 10
23.0
 20
10.0
 11
146.999991584
 21
10.0
  0
LINE
  5
3DE
100
AcDbEntity
  8
606077388-000-00-ED1_FORMAT
100
AcDbLine
 62
7
  6
CONTINUOUS
 10
146.999991584
 20
10.0
 11
410.0
 21
10.0
  0
LINE
  5
3DF
100
AcDbEntity
  8
606077388-000-00-ED1_FORMAT
100
AcDbLine
 62
7
  6
CONTINUOUS
 10
410.0
 20
13.500000112
 11
223.999992048
 21
13.500000112
  0
LINE
  5
3E0
100
AcDbEntity
  8
606077388-000-00-ED1_FORMAT
100
AcDbLine
 62
90
  6
CONTINUOUS
 10
312.2078938594
 20
51.4102448407
 11
310.7759784871
 21
51.0971573578
  0
LINE
  5
3E1
100
AcDbEntity
  8
606077388-000-00-ED1_FORMAT
100
AcDbLine
 62
90
  6
CONTINUOUS
 10
319.4917077896
 20
52.901936523
 11
319.3296594397
 21
52.8683099645
  0
LINE
  5
3E2
100
AcDbEntity
  8
606077388-000-00-ED1_FORMAT
100
AcDbLine
 62
7
  6
CONTINUOUS
 10
410.0
 20
24.250000456
 11
223.999992048
 21
24.250000456
  0
LINE
  5
3E3
100
AcDbEntity
  8
606077388-000-00-ED1_FORMAT
100
AcDbLine
 62
7
  6
CONTINUOUS
 10
98.4999894133
 20
259.0000097341
 11
98.4999894133
 21
265.0000076482
  0
LINE
  5
3E4
100
AcDbEntity
  8
606077388-000-00-ED1_FORMAT
100
AcDbLine
 62
7
  6
CONTINUOUS
 10
98.5000134045
 20
281.0047710842
 11
98.5000134045
 21
287.0
  0
LINE
  5
3E5
100
AcDbEntity
  8
606077388-000-00-ED1_FORMAT
100
AcDbLine
 62
90
  6
CONTINUOUS
 10
321.735726484
 20
56.8852055088
 11
323.4244472923
 21
57.2541096455
  0
LINE
  5
3E6
100
AcDbEntity
  8
606077388-000-00-ED1_FORMAT
100
AcDbLine
 62
90
  6
CONTINUOUS
 10
318.9722070248
 20
53.9466639135
 11
319.1567773488
 21
53.9852228758
  0
LINE
  5
3E7
100
AcDbEntity
  8
606077388-000-00-ED1_FORMAT
100
AcDbLine
 62
90
  6
CONTINUOUS
 10
312.8827596241
 20
51.5341805479
 11
312.6779866622
 21
51.4975518225
  0
LINE
  5
3E8
100
AcDbEntity
  8
606077388-000-00-ED1_FORMAT
100
AcDbLine
 62
90
  6
CONTINUOUS
 10
313.0814290701
 20
51.5666398089
 11
312.8827596241
 21
51.5341805479
  0
LINE
  5
3E9
100
AcDbEntity
  8
606077388-000-00-ED1_FORMAT
100
AcDbLine
 62
90
  6
CONTINUOUS
 10
313.2753377736
 20
51.5952614843
 11
313.0814290701
 21
51.5666398089
  0
LINE
  5
3EA
100
AcDbEntity
  8
606077388-000-00-ED1_FORMAT
100
AcDbLine
 62
90
  6
CONTINUOUS
 10
319.3296594397
 20
52.8683099645
 11
319.1589746146
 21
52.8447618368
  0
LINE
  5
3EB
100
AcDbEntity
  8
606077388-000-00-ED1_FORMAT
100
AcDbLine
 62
90
  6
CONTINUOUS
 10
313.4658590257
 20
51.6203545645
 11
313.2753377736
 21
51.5952614843
  0
LINE
  5
3EC
100
AcDbEntity
  8
606077388-000-00-ED1_FORMAT
100
AcDbLine
 62
90
  6
CONTINUOUS
 10
313.6543355999
 20
51.6422471134
 11
313.4658590257
 21
51.6203545645
  0
LINE
  5
3ED
100
AcDbEntity
  8
606077388-000-00-ED1_FORMAT
100
AcDbLine
 62
90
  6
CONTINUOUS
 10
313.842171305
 20
51.6612557511
 11
313.6543355999
 21
51.6422471134
  0
LINE
  5
3EE
100
AcDbEntity
  8
606077388-000-00-ED1_FORMAT
100
AcDbLine
 62
90
  6
CONTINUOUS
 10
314.0306783968
 20
51.6777047267
 11
313.842171305
 21
51.6612557511
  0
LINE
  5
3EF
100
AcDbEntity
  8
606077388-000-00-ED1_FORMAT
100
AcDbLine
 62
90
  6
CONTINUOUS
 10
315.8962180637
 20
51.8284043516
 11
315.6792380698
 21
51.8104561999
  0
LINE
  5
3F0
100
AcDbEntity
  8
606077388-000-00-ED1_FORMAT
100
AcDbLine
 62
90
  6
CONTINUOUS
 10
318.7601098437
 20
53.9302530848
 11
318.9722070248
 21
53.9466639135
  0
LINE
  5
3F1
100
AcDbEntity
  8
606077388-000-00-ED1_FORMAT
100
AcDbLine
 62
90
  6
CONTINUOUS
 10
319.1589746146
 20
52.8447618368
 11
318.9797143495
 21
52.8313264722
  0
LINE
  5
3F2
100
AcDbEntity
  8
606077388-000-00-ED1_FORMAT
100
AcDbLine
 62
90
  6
CONTINUOUS
 10
314.221260684
 20
51.6919106602
 11
314.0306783968
 21
51.6777047267
  0
LINE
  5
3F3
100
AcDbEntity
  8
606077388-000-00-ED1_FORMAT
100
AcDbLine
 62
90
  6
CONTINUOUS
 10
315.4687888379
 20
52.775513633
 11
314.4483114794
 21
52.701374987
  0
LINE
  5
3F4
100
AcDbEntity
  8
606077388-000-00-ED1_FORMAT
100
AcDbLine
 62
90
  6
CONTINUOUS
 10
316.110634581
 20
51.8401879522
 11
315.8962180637
 21
51.8284043516
  0
LINE
  5
3F5
100
AcDbEntity
  8
606077388-000-00-ED1_FORMAT
100
AcDbLine
 62
7
  6
CONTINUOUS
 10
223.999992048
 20
35.0000008
 11
410.0
 21
35.0000008
  0
LINE
  5
3F6
100
AcDbEntity
  8
606077388-000-00-ED1_FORMAT
100
AcDbLine
 62
7
  6
CONTINUOUS
 10
410.0
 20
40.9546819905
 11
365.999998592
 21
40.9546819905
  0
LINE
  5
3F7
100
AcDbEntity
  8
606077388-000-00-ED1_FORMAT
100
AcDbLine
 62
7
  6
CONTINUOUS
 10
365.999998592
 20
43.500001072
 11
146.999991584
 21
43.500001072
  0
LINE
  5
3F8
100
AcDbEntity
  8
606077388-000-00-ED1_FORMAT
100
AcDbLine
 62
7
  6
CONTINUOUS
 10
410.0
 20
46.9546821825
 11
365.999998592
 21
46.9546821825
  0
LINE
  5
3F9
100
AcDbEntity
  8
606077388-000-00-ED1_FORMAT
100
AcDbLine
 62
90
  6
CONTINUOUS
 10
316.8693931732
 20
47.6402784804
 11
317.6933373163
 21
47.6402784804
  0
LINE
  5
3FA
100
AcDbEntity
  8
606077388-000-00-ED1_FORMAT
100
AcDbLine
 62
3
  6
CONTINUOUS
 10
110.0
 20
10.0
 11
110.0
 21
5.0
  0
LINE
  5
3FB
100
AcDbEntity
  8
606077388-000-00-ED1_FORMAT
100
AcDbLine
 62
3
  6
CONTINUOUS
 10
110.0
 20
287.0
 11
110.0
 21
292.0
  0
LINE
  5
3FC
100
AcDbEntity
  8
606077388-000-00-ED1_FORMAT
100
AcDbLine
 62
90
  6
CONTINUOUS
 10
314.5568930292
 20
53.7608995891
 11
315.336312023
 21
53.8016825201
  0
LINE
  5
3FD
100
AcDbEntity
  8
606077388-000-00-ED1_FORMAT
100
AcDbLine
 62
90
  6
CONTINUOUS
 10
317.504647119
 20
56.61847423
 11
317.7463768704
 21
56.6283962582
  0
LINE
  5
3FE
100
AcDbEntity
  8
606077388-000-00-ED1_FORMAT
100
AcDbLine
 62
90
  6
CONTINUOUS
 10
317.7463768704
 20
56.6283962582
 11
317.9648522258
 21
56.6358997682
  0
LINE
  5
3FF
100
AcDbEntity
  8
606077388-000-00-ED1_FORMAT
100
AcDbLine
 62
90
  6
CONTINUOUS
 10
316.3231284907
 20
51.8472298838
 11
316.110634581
 21
51.8401879522
  0
LINE
  5
400
100
AcDbEntity
  8
606077388-000-00-ED1_FORMAT
100
AcDbLine
 62
90
  6
CONTINUOUS
 10
317.9648522258
 20
56.6358997682
 11
318.1659935957
 21
56.6412594182
  0
LINE
  5
401
100
AcDbEntity
  8
606077388-000-00-ED1_FORMAT
100
AcDbLine
 62
90
  6
CONTINUOUS
 10
318.1659935957
 20
56.6412594182
 11
318.3558434611
 21
56.6447384223
  0
LINE
  5
402
100
AcDbEntity
  8
606077388-000-00-ED1_FORMAT
100
AcDbLine
 62
90
  6
CONTINUOUS
 10
316.5344322148
 20
51.8509568432
 11
316.3231284907
 21
51.8472298838
  0
LINE
  5
403
100
AcDbEntity
  8
606077388-000-00-ED1_FORMAT
100
AcDbLine
 62
90
  6
CONTINUOUS
 10
318.9797143495
 20
52.8313264722
 11
318.7919396796
 21
52.828049647
  0
LINE
  5
404
100
AcDbEntity
  8
606077388-000-00-ED1_FORMAT
100
AcDbLine
 62
90
  6
CONTINUOUS
 10
318.310067091
 20
47.930279414
 11
316.2669761435
 21
47.930279414
  0
LINE
  5
405
100
AcDbEntity
  8
606077388-000-00-ED1_FORMAT
100
AcDbLine
 62
90
  6
CONTINUOUS
 10
315.6645591138
 20
48.2202803476
 11
318.9268273833
 21
48.2202803476
  0
LINE
  5
406
100
AcDbEntity
  8
606077388-000-00-ED1_FORMAT
100
AcDbLine
 62
3
  6
CONTINUOUS
 10
23.0
 20
48.5
 11
18.0
 21
48.5
  0
LINE
  5
407
100
AcDbEntity
  8
606077388-000-00-ED1_FORMAT
100
AcDbLine
 62
3
  6
CONTINUOUS
 10
410.0
 20
48.5
 11
415.0
 21
48.5
  0
LINE
  5
408
100
AcDbEntity
  8
606077388-000-00-ED1_FORMAT
100
AcDbLine
 62
90
  6
CONTINUOUS
 10
319.5435571581
 20
48.5102774665
 11
315.0621420841
 21
48.5102774665
  0
LINE
  5
409
100
AcDbEntity
  8
606077388-000-00-ED1_FORMAT
100
AcDbLine
 62
90
  6
CONTINUOUS
 10
314.4597250544
 20
48.8002784001
 11
320.1602869328
 21
48.8002784001
  0
LINE
  5
40A
100
AcDbEntity
  8
606077388-000-00-ED1_FORMAT
100
AcDbLine
 62
90
  6
CONTINUOUS
 10
328.4875274416
 20
49.0902793337
 11
328.1043792244
 21
49.0902793337
  0
LINE
  5
40B
100
AcDbEntity
  8
606077388-000-00-ED1_FORMAT
100
AcDbLine
 62
90
  6
CONTINUOUS
 10
320.7770472251
 20
49.0902793337
 11
313.8573080247
 21
49.0902793337
  0
LINE
  5
40C
100
AcDbEntity
  8
606077388-000-00-ED1_FORMAT
100
AcDbLine
 62
90
  6
CONTINUOUS
 10
306.5293961914
 20
49.3802802673
 11
307.1344987681
 21
49.3802802673
  0
LINE
  5
40D
100
AcDbEntity
  8
606077388-000-00-ED1_FORMAT
100
AcDbLine
 62
90
  6
CONTINUOUS
 10
313.254890995
 20
49.3802802673
 11
321.3937769999
 21
49.3802802673
  0
LINE
  5
40E
100
AcDbEntity
  8
606077388-000-00-ED1_FORMAT
100
AcDbLine
 62
90
  6
CONTINUOUS
 10
327.5346465229
 20
49.3802802673
 11
328.1114898205
 21
49.3802802673
  0
LINE
  5
40F
100
AcDbEntity
  8
606077388-000-00-ED1_FORMAT
100
AcDbLine
 62
90
  6
CONTINUOUS
 10
328.2963042852
 20
49.3802802673
 11
328.8704925534
 21
49.3802802673
  0
LINE
  5
410
100
AcDbEntity
  8
606077388-000-00-ED1_FORMAT
100
AcDbLine
 62
90
  6
CONTINUOUS
 10
328.8858123785
 20
49.6702773862
 11
328.2963042852
 21
49.6702773862
  0
LINE
  5
411
100
AcDbEntity
  8
606077388-000-00-ED1_FORMAT
100
AcDbLine
 62
90
  6
CONTINUOUS
 10
327.5366912008
 20
49.6702773862
 11
326.9648833038
 21
49.6702773862
  0
LINE
  5
412
100
AcDbEntity
  8
606077388-000-00-ED1_FORMAT
100
AcDbLine
 62
90
  6
CONTINUOUS
 10
322.0105067746
 20
49.6702773862
 11
312.6524739653
 21
49.6702773862
  0
LINE
  5
413
100
AcDbEntity
  8
606077388-000-00-ED1_FORMAT
100
AcDbLine
 62
90
  6
CONTINUOUS
 10
307.6516801968
 20
49.6702773862
 11
307.1118852413
 21
49.6702773862
  0
LINE
  5
414
100
AcDbEntity
  8
606077388-000-00-ED1_FORMAT
100
AcDbLine
 62
90
  6
CONTINUOUS
 10
306.8541337604
 20
49.6702773862
 11
306.2529679515
 21
49.6702773862
  0
LINE
  5
415
100
AcDbEntity
  8
606077388-000-00-ED1_FORMAT
100
AcDbLine
 62
90
  6
CONTINUOUS
 10
306.2529679515
 20
49.9602783197
 11
306.8542558307
 21
49.9602783197
  0
LINE
  5
416
100
AcDbEntity
  8
606077388-000-00-ED1_FORMAT
100
AcDbLine
 62
90
  6
CONTINUOUS
 10
307.6427080283
 20
49.9602783197
 11
308.1688921431
 21
49.9602783197
  0
LINE
  5
417
100
AcDbEntity
  8
606077388-000-00-ED1_FORMAT
100
AcDbLine
 62
90
  6
CONTINUOUS
 10
312.0500569355
 20
49.9602783197
 11
322.6272365493
 21
49.9602783197
  0
LINE
  5
418
100
AcDbEntity
  8
606077388-000-00-ED1_FORMAT
100
AcDbLine
 62
90
  6
CONTINUOUS
 10
326.3951200848
 20
49.9602783197
 11
326.961892581
 21
49.9602783197
  0
LINE
  5
419
100
AcDbEntity
  8
606077388-000-00-ED1_FORMAT
100
AcDbLine
 62
90
  6
CONTINUOUS
 10
328.2963042852
 20
49.9602783197
 11
328.8858123785
 21
49.9602783197
  0
LINE
  5
41A
100
AcDbEntity
  8
606077388-000-00-ED1_FORMAT
100
AcDbLine
 62
90
  6
CONTINUOUS
 10
328.8858123785
 20
50.2502792533
 11
328.2963042852
 21
50.2502792533
  0
LINE
  5
41B
100
AcDbEntity
  8
606077388-000-00-ED1_FORMAT
100
AcDbLine
 62
90
  6
CONTINUOUS
 10
326.3870939612
 20
50.2502792533
 11
325.8253873833
 21
50.2502792533
  0
LINE
  5
41C
100
AcDbEntity
  8
606077388-000-00-ED1_FORMAT
100
AcDbLine
 62
90
  6
CONTINUOUS
 10
323.2439968416
 20
50.2502792533
 11
311.4476093883
 21
50.2502792533
  0
LINE
  5
41D
100
AcDbEntity
  8
606077388-000-00-ED1_FORMAT
100
AcDbLine
 62
90
  6
CONTINUOUS
 10
308.6563494488
 20
50.2502792533
 11
308.1735308152
 21
50.2502792533
  0
LINE
  5
41E
100
AcDbEntity
  8
606077388-000-00-ED1_FORMAT
100
AcDbLine
 62
90
  6
CONTINUOUS
 10
306.8543473835
 20
50.2502792533
 11
306.2529679515
 21
50.2502792533
  0
LINE
  5
41F
100
AcDbEntity
  8
606077388-000-00-ED1_FORMAT
100
AcDbLine
 62
90
  6
CONTINUOUS
 10
306.2529679515
 20
50.5402801869
 11
306.8544389362
 21
50.5402801869
  0
LINE
  5
420
100
AcDbEntity
  8
606077388-000-00-ED1_FORMAT
100
AcDbLine
 62
90
  6
CONTINUOUS
 10
308.4533770241
 20
50.5402801869
 11
308.6559222027
 21
50.5402801869
  0
LINE
  5
421
100
AcDbEntity
  8
606077388-000-00-ED1_FORMAT
100
AcDbLine
 62
90
  6
CONTINUOUS
 10
310.8451923586
 20
50.5402801869
 11
323.8607266164
 21
50.5402801869
  0
LINE
  5
422
100
AcDbEntity
  8
606077388-000-00-ED1_FORMAT
100
AcDbLine
 62
90
  6
CONTINUOUS
 10
325.2556241642
 20
50.5402801869
 11
325.8122953414
 21
50.5402801869
  0
LINE
  5
423
100
AcDbEntity
  8
606077388-000-00-ED1_FORMAT
100
AcDbLine
 62
90
  6
CONTINUOUS
 10
328.2963042852
 20
50.5402801869
 11
328.8858123785
 21
50.5402801869
  0
LINE
  5
424
100
AcDbEntity
  8
606077388-000-00-ED1_FORMAT
100
AcDbLine
 62
90
  6
CONTINUOUS
 10
328.8858123785
 20
50.8302773058
 11
328.2963042852
 21
50.8302773058
  0
LINE
  5
425
100
AcDbEntity
  8
606077388-000-00-ED1_FORMAT
100
AcDbLine
 62
90
  6
CONTINUOUS
 10
325.4072355017
 20
50.8302773058
 11
325.1310514025
 21
50.8302773058
  0
LINE
  5
426
100
AcDbEntity
  8
606077388-000-00-ED1_FORMAT
100
AcDbLine
 62
90
  6
CONTINUOUS
 10
324.4774563911
 20
50.8302773058
 11
310.2427753289
 21
50.8302773058
  0
LINE
  5
427
100
AcDbEntity
  8
606077388-000-00-ED1_FORMAT
100
AcDbLine
 62
90
  6
CONTINUOUS
 10
308.6555254742
 20
50.8302773058
 11
308.4533770241
 21
50.8302773058
  0
LINE
  5
428
100
AcDbEntity
  8
606077388-000-00-ED1_FORMAT
100
AcDbLine
 62
90
  6
CONTINUOUS
 10
306.8545304889
 20
50.8302773058
 11
306.2529679515
 21
50.8302773058
  0
LINE
  5
429
100
AcDbEntity
  8
606077388-000-00-ED1_FORMAT
100
AcDbLine
 62
90
  6
CONTINUOUS
 10
306.2529679515
 20
51.1202782394
 11
306.8546220417
 21
51.1202782394
  0
LINE
  5
42A
100
AcDbEntity
  8
606077388-000-00-ED1_FORMAT
100
AcDbLine
 62
90
  6
CONTINUOUS
 10
308.4533770241
 20
51.1202782394
 11
308.655098228
 21
51.1202782394
  0
LINE
  5
42B
100
AcDbEntity
  8
606077388-000-00-ED1_FORMAT
100
AcDbLine
 62
90
  6
CONTINUOUS
 10
309.6403582992
 20
51.1202782394
 11
310.7759784871
 21
51.1202782394
  0
LINE
  5
42C
100
AcDbEntity
  8
606077388-000-00-ED1_FORMAT
100
AcDbLine
 62
90
  6
CONTINUOUS
 10
310.8817219019
 20
51.1202782394
 11
323.7463467264
 21
51.1202782394
  0
LINE
  5
42D
100
AcDbEntity
  8
606077388-000-00-ED1_FORMAT
100
AcDbLine
 62
90
  6
CONTINUOUS
 10
324.5632718261
 20
51.1202782394
 11
325.0942166834
 21
51.1202782394
  0
LINE
  5
42E
100
AcDbEntity
  8
606077388-000-00-ED1_FORMAT
100
AcDbLine
 62
90
  6
CONTINUOUS
 10
325.1310514025
 20
51.1202782394
 11
325.4072355017
 21
51.1202782394
  0
LINE
  5
42F
100
AcDbEntity
  8
606077388-000-00-ED1_FORMAT
100
AcDbLine
 62
90
  6
CONTINUOUS
 10
327.9700103195
 20
51.1202782394
 11
328.8858123785
 21
51.1202782394
  0
LINE
  5
430
100
AcDbEntity
  8
606077388-000-00-ED1_FORMAT
100
AcDbLine
 62
90
  6
CONTINUOUS
 10
328.2166228837
 20
51.410279173
 11
327.2521758022
 21
51.410279173
  0
LINE
  5
431
100
AcDbEntity
  8
606077388-000-00-ED1_FORMAT
100
AcDbLine
 62
90
  6
CONTINUOUS
 10
325.4072355017
 20
51.410279173
 11
324.5094082974
 21
51.410279173
  0
LINE
  5
432
100
AcDbEntity
  8
606077388-000-00-ED1_FORMAT
100
AcDbLine
 62
90
  6
CONTINUOUS
 10
322.9744655749
 20
51.410279173
 11
312.2078938594
 21
51.410279173
  0
LINE
  5
433
100
AcDbEntity
  8
606077388-000-00-ED1_FORMAT
100
AcDbLine
 62
90
  6
CONTINUOUS
 10
310.7759784871
 20
51.410279173
 11
309.7665484926
 21
51.410279173
  0
LINE
  5
434
100
AcDbEntity
  8
606077388-000-00-ED1_FORMAT
100
AcDbLine
 62
90
  6
CONTINUOUS
 10
309.5571978936
 20
51.410279173
 11
309.0379412695
 21
51.410279173
  0
LINE
  5
435
100
AcDbEntity
  8
606077388-000-00-ED1_FORMAT
100
AcDbLine
 62
90
  6
CONTINUOUS
 10
308.6546709819
 20
51.410279173
 11
308.4533770241
 21
51.410279173
  0
LINE
  5
436
100
AcDbEntity
  8
606077388-000-00-ED1_FORMAT
100
AcDbLine
 62
90
  6
CONTINUOUS
 10
306.8547135944
 20
51.410279173
 11
306.2529679515
 21
51.410279173
  0
LINE
  5
437
100
AcDbEntity
  8
606077388-000-00-ED1_FORMAT
100
AcDbLine
 62
90
  6
CONTINUOUS
 10
306.2529679515
 20
51.7002801066
 11
306.8548356647
 21
51.7002801066
  0
LINE
  5
438
100
AcDbEntity
  8
606077388-000-00-ED1_FORMAT
100
AcDbLine
 62
90
  6
CONTINUOUS
 10
308.4533770241
 20
51.7002801066
 11
309.4360431009
 21
51.7002801066
  0
LINE
  5
439
100
AcDbEntity
  8
606077388-000-00-ED1_FORMAT
100
AcDbLine
 62
90
  6
CONTINUOUS
 10
309.889900551
 20
51.7002801066
 11
310.7759784871
 21
51.7002801066
  0
LINE
  5
43A
100
AcDbEntity
  8
606077388-000-00-ED1_FORMAT
100
AcDbLine
 62
90
  6
CONTINUOUS
 10
312.2078938594
 20
51.7002801066
 11
312.7341084918
 21
51.7002801066
  0
LINE
  5
43B
100
AcDbEntity
  8
606077388-000-00-ED1_FORMAT
100
AcDbLine
 62
90
  6
CONTINUOUS
 10
314.2231222564
 20
51.7002801066
 11
320.5559473578
 21
51.7002801066
  0
LINE
  5
43C
100
AcDbEntity
  8
606077388-000-00-ED1_FORMAT
100
AcDbLine
 62
90
  6
CONTINUOUS
 10
322.0495387594
 20
51.7002801066
 11
322.9518825656
 21
51.7002801066
  0
LINE
  5
43D
100
AcDbEntity
  8
606077388-000-00-ED1_FORMAT
100
AcDbLine
 62
90
  6
CONTINUOUS
 10
324.4555752862
 20
51.7002801066
 11
325.4072355017
 21
51.7002801066
  0
LINE
  5
43E
100
AcDbEntity
  8
606077388-000-00-ED1_FORMAT
100
AcDbLine
 62
90
  6
CONTINUOUS
 10
326.932168458
 20
51.7002801066
 11
327.4721770366
 21
51.7002801066
  0
LINE
  5
43F
100
AcDbEntity
  8
606077388-000-00-ED1_FORMAT
100
AcDbLine
 62
90
  6
CONTINUOUS
 10
316.7452476576
 20
51.8527840833
 11
316.5344322148
 21
51.8527840833
  0
LINE
  5
440
100
AcDbEntity
  8
606077388-000-00-ED1_FORMAT
100
AcDbLine
 62
90
  6
CONTINUOUS
 10
316.9563377587
 20
51.854138301
 11
316.7452476576
 21
51.854138301
  0
LINE
  5
441
100
AcDbEntity
  8
606077388-000-00-ED1_FORMAT
100
AcDbLine
 62
90
  6
CONTINUOUS
 10
317.1683433871
 20
51.8564423783
 11
316.9563377587
 21
51.8564423783
  0
LINE
  5
442
100
AcDbEntity
  8
606077388-000-00-ED1_FORMAT
100
AcDbLine
 62
90
  6
CONTINUOUS
 10
327.4483428066
 20
51.9902772255
 11
326.932168458
 21
51.9902772255
  0
LINE
  5
443
100
AcDbEntity
  8
606077388-000-00-ED1_FORMAT
100
AcDbLine
 62
90
  6
CONTINUOUS
 10
325.4072355017
 20
51.9902772255
 11
324.4017422751
 21
51.9902772255
  0
LINE
  5
444
100
AcDbEntity
  8
606077388-000-00-ED1_FORMAT
100
AcDbLine
 62
90
  6
CONTINUOUS
 10
322.3748866801
 20
51.9902772255
 11
322.1039821222
 21
51.9902772255
  0
LINE
  5
445
100
AcDbEntity
  8
606077388-000-00-ED1_FORMAT
100
AcDbLine
 62
90
  6
CONTINUOUS
 10
320.6219568834
 20
51.9902772255
 11
318.793435041
 21
51.9902772255
  0
LINE
  5
446
100
AcDbEntity
  8
606077388-000-00-ED1_FORMAT
100
AcDbLine
 62
90
  6
CONTINUOUS
 10
317.504647119
 20
51.9902772255
 11
317.1344993909
 21
51.9902772255
  0
LINE
  5
447
100
AcDbEntity
  8
606077388-000-00-ED1_FORMAT
100
AcDbLine
 62
90
  6
CONTINUOUS
 10
315.6400229794
 20
51.9902772255
 11
314.2883688425
 21
51.9902772255
  0
LINE
  5
448
100
AcDbEntity
  8
606077388-000-00-ED1_FORMAT
100
AcDbLine
 62
90
  6
CONTINUOUS
 10
312.8143697273
 20
51.9902772255
 11
312.2078938594
 21
51.9902772255
  0
LINE
  5
449
100
AcDbEntity
  8
606077388-000-00-ED1_FORMAT
100
AcDbLine
 62
90
  6
CONTINUOUS
 10
310.7759784871
 20
51.9902772255
 11
310.0132526095
 21
51.9902772255
  0
LINE
  5
44A
100
AcDbEntity
  8
606077388-000-00-ED1_FORMAT
100
AcDbLine
 62
90
  6
CONTINUOUS
 10
309.3149188258
 20
51.9902772255
 11
308.4533770241
 21
51.9902772255
  0
LINE
  5
44B
100
AcDbEntity
  8
606077388-000-00-ED1_FORMAT
100
AcDbLine
 62
90
  6
CONTINUOUS
 10
306.8549272175
 20
51.9902772255
 11
306.2529679515
 21
51.9902772255
  0
LINE
  5
44C
100
AcDbEntity
  8
606077388-000-00-ED1_FORMAT
100
AcDbLine
 62
90
  6
CONTINUOUS
 10
306.2529679515
 20
52.280278159
 11
306.8550187702
 21
52.280278159
  0
LINE
  5
44D
100
AcDbEntity
  8
606077388-000-00-ED1_FORMAT
100
AcDbLine
 62
90
  6
CONTINUOUS
 10
308.4533770241
 20
52.280278159
 11
309.1937640331
 21
52.280278159
  0
LINE
  5
44E
100
AcDbEntity
  8
606077388-000-00-ED1_FORMAT
100
AcDbLine
 62
90
  6
CONTINUOUS
 10
310.1365741504
 20
52.280278159
 11
310.7759784871
 21
52.280278159
  0
LINE
  5
44F
100
AcDbEntity
  8
606077388-000-00-ED1_FORMAT
100
AcDbLine
 62
90
  6
CONTINUOUS
 10
312.2078938594
 20
52.280278159
 11
312.8946309628
 21
52.280278159
  0
LINE
  5
450
100
AcDbEntity
  8
606077388-000-00-ED1_FORMAT
100
AcDbLine
 62
90
  6
CONTINUOUS
 10
314.353584911
 20
52.280278159
 11
315.576760036
 21
52.280278159
  0
LINE
  5
451
100
AcDbEntity
  8
606077388-000-00-ED1_FORMAT
100
AcDbLine
 62
90
  6
CONTINUOUS
 10
317.0611656461
 20
52.280278159
 11
317.504647119
 21
52.280278159
  0
LINE
  5
452
100
AcDbEntity
  8
606077388-000-00-ED1_FORMAT
100
AcDbLine
 62
90
  6
CONTINUOUS
 10
318.7929162422
 20
52.280278159
 11
320.6879358914
 21
52.280278159
  0
LINE
  5
453
100
AcDbEntity
  8
606077388-000-00-ED1_FORMAT
100
AcDbLine
 62
90
  6
CONTINUOUS
 10
324.3479092639
 20
52.280278159
 11
325.4072355017
 21
52.280278159
  0
LINE
  5
454
100
AcDbEntity
  8
606077388-000-00-ED1_FORMAT
100
AcDbLine
 62
90
  6
CONTINUOUS
 10
326.932168458
 20
52.280278159
 11
327.7005706055
 21
52.280278159
  0
LINE
  5
455
100
AcDbEntity
  8
606077388-000-00-ED1_FORMAT
100
AcDbLine
 62
90
  6
CONTINUOUS
 10
328.2963653203
 20
52.5702790926
 11
326.932168458
 21
52.5702790926
  0
LINE
  5
456
100
AcDbEntity
  8
606077388-000-00-ED1_FORMAT
100
AcDbLine
 62
90
  6
CONTINUOUS
 10
325.4072355017
 20
52.5702790926
 11
324.2940457352
 21
52.5702790926
  0
LINE
  5
457
100
AcDbEntity
  8
606077388-000-00-ED1_FORMAT
100
AcDbLine
 62
90
  6
CONTINUOUS
 10
320.7539148995
 20
52.5702790926
 11
318.7923974433
 21
52.5702790926
  0
LINE
  5
458
100
AcDbEntity
  8
606077388-000-00-ED1_FORMAT
100
AcDbLine
 62
90
  6
CONTINUOUS
 10
317.504647119
 20
52.5702790926
 11
316.9878624188
 21
52.5702790926
  0
LINE
  5
459
100
AcDbEntity
  8
606077388-000-00-ED1_FORMAT
100
AcDbLine
 62
90
  6
CONTINUOUS
 10
315.5135276102
 20
52.5702790926
 11
314.4188314971
 21
52.5702790926
  0
LINE
  5
45A
100
AcDbEntity
  8
606077388-000-00-ED1_FORMAT
100
AcDbLine
 62
90
  6
CONTINUOUS
 10
312.9748921982
 20
52.5702790926
 11
312.2078938594
 21
52.5702790926
  0
LINE
  5
45B
100
AcDbEntity
  8
606077388-000-00-ED1_FORMAT
100
AcDbLine
 62
90
  6
CONTINUOUS
 10
310.7759784871
 20
52.5702790926
 11
310.2599262088
 21
52.5702790926
  0
LINE
  5
45C
100
AcDbEntity
  8
606077388-000-00-ED1_FORMAT
100
AcDbLine
 62
90
  6
CONTINUOUS
 10
309.0726397579
 20
52.5702790926
 11
308.4533770241
 21
52.5702790926
  0
LINE
  5
45D
100
AcDbEntity
  8
606077388-000-00-ED1_FORMAT
100
AcDbLine
 62
90
  6
CONTINUOUS
 10
306.855110323
 20
52.5702790926
 11
306.2529679515
 21
52.5702790926
  0
LINE
  5
45E
100
AcDbEntity
  8
606077388-000-00-ED1_FORMAT
100
AcDbLine
 62
90
  6
CONTINUOUS
 10
306.0443192568
 20
52.8602800262
 11
306.8552018757
 21
52.8602800262
  0
LINE
  5
45F
100
AcDbEntity
  8
606077388-000-00-ED1_FORMAT
100
AcDbLine
 62
90
  6
CONTINUOUS
 10
308.4533770241
 20
52.8602800262
 11
308.9514849652
 21
52.8602800262
  0
LINE
  5
460
100
AcDbEntity
  8
606077388-000-00-ED1_FORMAT
100
AcDbLine
 62
90
  6
CONTINUOUS
 10
310.3832782673
 20
52.8602800262
 11
310.7759784871
 21
52.8602800262
  0
LINE
  5
461
100
AcDbEntity
  8
606077388-000-00-ED1_FORMAT
100
AcDbLine
 62
90
  6
CONTINUOUS
 10
312.2078938594
 20
52.8602800262
 11
313.0551534337
 21
52.8602800262
  0
LINE
  5
462
100
AcDbEntity
  8
606077388-000-00-ED1_FORMAT
100
AcDbLine
 62
90
  6
CONTINUOUS
 10
316.914528674
 20
52.8602800262
 11
317.504647119
 21
52.8602800262
  0
LINE
  5
463
100
AcDbEntity
  8
606077388-000-00-ED1_FORMAT
100
AcDbLine
 62
90
  6
CONTINUOUS
 10
319.304635024
 20
52.8602800262
 11
320.8198939075
 21
52.8602800262
  0
LINE
  5
464
100
AcDbEntity
  8
606077388-000-00-ED1_FORMAT
100
AcDbLine
 62
90
  6
CONTINUOUS
 10
324.240212724
 20
52.8602800262
 11
325.4072355017
 21
52.8602800262
  0
LINE
  5
465
100
AcDbEntity
  8
606077388-000-00-ED1_FORMAT
100
AcDbLine
 62
90
  6
CONTINUOUS
 10
326.932168458
 20
52.8602800262
 11
328.8921600352
 21
52.8602800262
  0
LINE
  5
466
100
AcDbEntity
  8
606077388-000-00-ED1_FORMAT
100
AcDbLine
 62
7
  6
CONTINUOUS
 10
410.0
 20
52.9546823745
 11
365.999998592
 21
52.9546823745
  0
LINE
  5
467
100
AcDbEntity
  8
606077388-000-00-ED1_FORMAT
100
AcDbLine
 62
90
  6
CONTINUOUS
 10
329.48795475
 20
53.1502809598
 11
326.932168458
 21
53.1502809598
  0
LINE
  5
468
100
AcDbEntity
  8
606077388-000-00-ED1_FORMAT
100
AcDbLine
 62
90
  6
CONTINUOUS
 10
325.4072355017
 20
53.1502809598
 11
324.1863797128
 21
53.1502809598
  0
LINE
  5
469
100
AcDbEntity
  8
606077388-000-00-ED1_FORMAT
100
AcDbLine
 62
90
  6
CONTINUOUS
 10
320.8859034331
 20
53.1502809598
 11
320.0719995738
 21
53.1502809598
  0
LINE
  5
46A
100
AcDbEntity
  8
606077388-000-00-ED1_FORMAT
100
AcDbLine
 62
90
  6
CONTINUOUS
 10
317.504647119
 20
53.1502809598
 11
316.8411949292
 21
53.1502809598
  0
LINE
  5
46B
100
AcDbEntity
  8
606077388-000-00-ED1_FORMAT
100
AcDbLine
 62
90
  6
CONTINUOUS
 10
313.1354146692
 20
53.1502809598
 11
312.2078938594
 21
53.1502809598
  0
LINE
  5
46C
100
AcDbEntity
  8
606077388-000-00-ED1_FORMAT
100
AcDbLine
 62
90
  6
CONTINUOUS
 10
310.7759784871
 20
53.1502809598
 11
310.5066303258
 21
53.1502809598
  0
LINE
  5
46D
100
AcDbEntity
  8
606077388-000-00-ED1_FORMAT
100
AcDbLine
 62
90
  6
CONTINUOUS
 10
308.8303606901
 20
53.1502809598
 11
308.4533770241
 21
53.1502809598
  0
LINE
  5
46E
100
AcDbEntity
  8
606077388-000-00-ED1_FORMAT
100
AcDbLine
 62
90
  6
CONTINUOUS
 10
306.8552934284
 20
53.1502809598
 11
305.4760513992
 21
53.1502809598
  0
LINE
  5
46F
100
AcDbEntity
  8
606077388-000-00-ED1_FORMAT
100
AcDbLine
 62
90
  6
CONTINUOUS
 10
304.9078140591
 20
53.4402780787
 11
306.8554154988
 21
53.4402780787
  0
LINE
  5
470
100
AcDbEntity
  8
606077388-000-00-ED1_FORMAT
100
AcDbLine
 62
90
  6
CONTINUOUS
 10
308.4533770241
 20
53.4402780787
 11
308.7092058974
 21
53.4402780787
  0
LINE
  5
471
100
AcDbEntity
  8
606077388-000-00-ED1_FORMAT
100
AcDbLine
 62
90
  6
CONTINUOUS
 10
310.6299823842
 20
53.4402780787
 11
310.7759784871
 21
53.4402780787
  0
LINE
  5
472
100
AcDbEntity
  8
606077388-000-00-ED1_FORMAT
100
AcDbLine
 62
90
  6
CONTINUOUS
 10
312.2078938594
 20
53.4402780787
 11
313.2157064222
 21
53.4402780787
  0
LINE
  5
473
100
AcDbEntity
  8
606077388-000-00-ED1_FORMAT
100
AcDbLine
 62
90
  6
CONTINUOUS
 10
316.7678611844
 20
53.4402780787
 11
317.504647119
 21
53.4402780787
  0
LINE
  5
474
100
AcDbEntity
  8
606077388-000-00-ED1_FORMAT
100
AcDbLine
 62
90
  6
CONTINUOUS
 10
320.3908472499
 20
53.4402780787
 11
320.9518824411
 21
53.4402780787
  0
LINE
  5
475
100
AcDbEntity
  8
606077388-000-00-ED1_FORMAT
100
AcDbLine
 62
90
  6
CONTINUOUS
 10
322.2457362814
 20
53.4402780787
 11
322.8289272357
 21
53.4402780787
  0
LINE
  5
476
100
AcDbEntity
  8
606077388-000-00-ED1_FORMAT
100
AcDbLine
 62
90
  6
CONTINUOUS
 10
324.1325161841
 20
53.4402780787
 11
325.4072355017
 21
53.4402780787
  0
LINE
  5
477
100
AcDbEntity
  8
606077388-000-00-ED1_FORMAT
100
AcDbLine
 62
90
  6
CONTINUOUS
 10
326.932168458
 20
53.4402780787
 11
330.0837494649
 21
53.4402780787
  0
LINE
  5
478
100
AcDbEntity
  8
606077388-000-00-ED1_FORMAT
100
AcDbLine
 62
90
  6
CONTINUOUS
 10
330.6795441797
 20
53.7302790123
 11
326.932168458
 21
53.7302790123
  0
LINE
  5
479
100
AcDbEntity
  8
606077388-000-00-ED1_FORMAT
100
AcDbLine
 62
90
  6
CONTINUOUS
 10
325.4072355017
 20
53.7302790123
 11
324.0786831729
 21
53.7302790123
  0
LINE
  5
47A
100
AcDbEntity
  8
606077388-000-00-ED1_FORMAT
100
AcDbLine
 62
90
  6
CONTINUOUS
 10
322.784432604
 20
53.7302790123
 11
322.2876064012
 21
53.7302790123
  0
LINE
  5
47B
100
AcDbEntity
  8
606077388-000-00-ED1_FORMAT
100
AcDbLine
 62
90
  6
CONTINUOUS
 10
321.0178614491
 20
53.7302790123
 11
320.5930262176
 21
53.7302790123
  0
LINE
  5
47C
100
AcDbEntity
  8
606077388-000-00-ED1_FORMAT
100
AcDbLine
 62
90
  6
CONTINUOUS
 10
317.504647119
 20
53.7302790123
 11
316.6945274396
 21
53.7302790123
  0
LINE
  5
47D
100
AcDbEntity
  8
606077388-000-00-ED1_FORMAT
100
AcDbLine
 62
90
  6
CONTINUOUS
 10
313.2959676577
 20
53.7302790123
 11
312.2078938594
 21
53.7302790123
  0
LINE
  5
47E
100
AcDbEntity
  8
606077388-000-00-ED1_FORMAT
100
AcDbLine
 62
90
  6
CONTINUOUS
 10
310.7759784871
 20
53.7302790123
 11
310.7533344427
 21
53.7302790123
  0
LINE
  5
47F
100
AcDbEntity
  8
606077388-000-00-ED1_FORMAT
100
AcDbLine
 62
90
  6
CONTINUOUS
 10
308.5880816223
 20
53.7302790123
 11
308.4533770241
 21
53.7302790123
  0
LINE
  5
480
100
AcDbEntity
  8
606077388-000-00-ED1_FORMAT
100
AcDbLine
 62
90
  6
CONTINUOUS
 10
306.8555070515
 20
53.7302790123
 11
304.3395462015
 21
53.7302790123
  0
LINE
  5
481
100
AcDbEntity
  8
606077388-000-00-ED1_FORMAT
100
AcDbLine
 62
90
  6
CONTINUOUS
 10
303.7713088614
 20
54.0202799459
 11
306.8555986042
 21
54.0202799459
  0
LINE
  5
482
100
AcDbEntity
  8
606077388-000-00-ED1_FORMAT
100
AcDbLine
 62
90
  6
CONTINUOUS
 10
308.4533770241
 20
54.0202799459
 11
308.4669268296
 21
54.0202799459
  0
LINE
  5
483
100
AcDbEntity
  8
606077388-000-00-ED1_FORMAT
100
AcDbLine
 62
90
  6
CONTINUOUS
 10
312.2078938594
 20
54.0202799459
 11
313.3762288931
 21
54.0202799459
  0
LINE
  5
484
100
AcDbEntity
  8
606077388-000-00-ED1_FORMAT
100
AcDbLine
 62
90
  6
CONTINUOUS
 10
314.6156393707
 20
54.0202799459
 11
315.2890708091
 21
54.0202799459
  0
LINE
  5
485
100
AcDbEntity
  8
606077388-000-00-ED1_FORMAT
100
AcDbLine
 62
90
  6
CONTINUOUS
 10
316.6212242124
 20
54.0202799459
 11
317.504647119
 21
54.0202799459
  0
LINE
  5
486
100
AcDbEntity
  8
606077388-000-00-ED1_FORMAT
100
AcDbLine
 62
90
  6
CONTINUOUS
 10
318.7596825975
 20
54.0202799459
 11
319.2434777937
 21
54.0202799459
  0
LINE
  5
487
100
AcDbEntity
  8
606077388-000-00-ED1_FORMAT
100
AcDbLine
 62
90
  6
CONTINUOUS
 10
320.7216578174
 20
54.0202799459
 11
321.0838404571
 21
54.0202799459
  0
LINE
  5
488
100
AcDbEntity
  8
606077388-000-00-ED1_FORMAT
100
AcDbLine
 62
90
  6
CONTINUOUS
 10
322.329476521
 20
54.0202799459
 11
322.7399379724
 21
54.0202799459
  0
LINE
  5
489
100
AcDbEntity
  8
606077388-000-00-ED1_FORMAT
100
AcDbLine
 62
90
  6
CONTINUOUS
 10
324.0248501618
 20
54.0202799459
 11
325.4072355017
 21
54.0202799459
  0
LINE
  5
48A
100
AcDbEntity
  8
606077388-000-00-ED1_FORMAT
100
AcDbLine
 62
90
  6
CONTINUOUS
 10
326.932168458
 20
54.0202799459
 11
331.2753083769
 21
54.0202799459
  0
LINE
  5
48B
100
AcDbEntity
  8
606077388-000-00-ED1_FORMAT
100
AcDbLine
 62
3
  6
CONTINUOUS
 10
302.0615309229
 20
54.2350054536
 11
302.435676454
 21
54.2350054536
  0
LINE
  5
48C
100
AcDbEntity
  8
606077388-000-00-ED1_FORMAT
100
AcDbLine
 62
90
  6
CONTINUOUS
 10
331.5333039985
 20
54.3102808795
 11
326.932168458
 21
54.3102808795
  0
LINE
  5
48D
100
AcDbEntity
  8
606077388-000-00-ED1_FORMAT
100
AcDbLine
 62
90
  6
CONTINUOUS
 10
325.4072355017
 20
54.3102808795
 11
323.9710171506
 21
54.3102808795
  0
LINE
  5
48E
100
AcDbEntity
  8
606077388-000-00-ED1_FORMAT
100
AcDbLine
 62
90
  6
CONTINUOUS
 10
322.6954433407
 20
54.3102808795
 11
322.3713771584
 21
54.3102808795
  0
LINE
  5
48F
100
AcDbEntity
  8
606077388-000-00-ED1_FORMAT
100
AcDbLine
 62
90
  6
CONTINUOUS
 10
321.1498499827
 20
54.3102808795
 11
320.7964869236
 21
54.3102808795
  0
LINE
  5
490
100
AcDbEntity
  8
606077388-000-00-ED1_FORMAT
100
AcDbLine
 62
90
  6
CONTINUOUS
 10
319.5666894837
 20
54.3102808795
 11
318.758339824
 21
54.3102808795
  0
LINE
  5
491
100
AcDbEntity
  8
606077388-000-00-ED1_FORMAT
100
AcDbLine
 62
90
  6
CONTINUOUS
 10
317.504647119
 20
54.3102808795
 11
316.5478904676
 21
54.3102808795
  0
LINE
  5
492
100
AcDbEntity
  8
606077388-000-00-ED1_FORMAT
100
AcDbLine
 62
90
  6
CONTINUOUS
 10
315.2263876998
 20
54.3102808795
 11
314.6813132029
 21
54.3102808795
  0
LINE
  5
493
100
AcDbEntity
  8
606077388-000-00-ED1_FORMAT
100
AcDbLine
 62
90
  6
CONTINUOUS
 10
313.4564901286
 20
54.3102808795
 11
312.2078938594
 21
54.3102808795
  0
LINE
  5
494
100
AcDbEntity
  8
606077388-000-00-ED1_FORMAT
100
AcDbLine
 62
90
  6
CONTINUOUS
 10
306.855690157
 20
54.3102808795
 11
303.517005867
 21
54.3102808795
  0
LINE
  5
495
100
AcDbEntity
  8
606077388-000-00-ED1_FORMAT
100
AcDbLine
 62
90
  6
CONTINUOUS
 10
304.1583328113
 20
54.6002779983
 11
306.8557817097
 21
54.6002779983
  0
LINE
  5
496
100
AcDbEntity
  8
606077388-000-00-ED1_FORMAT
100
AcDbLine
 62
90
  6
CONTINUOUS
 10
312.2078938594
 20
54.6002779983
 11
313.5367513641
 21
54.6002779983
  0
LINE
  5
497
100
AcDbEntity
  8
606077388-000-00-ED1_FORMAT
100
AcDbLine
 62
90
  6
CONTINUOUS
 10
314.7469870351
 20
54.6002779983
 11
315.1637045904
 21
54.6002779983
  0
LINE
  5
498
100
AcDbEntity
  8
606077388-000-00-ED1_FORMAT
100
AcDbLine
 62
90
  6
CONTINUOUS
 10
316.4745567228
 20
54.6002779983
 11
317.504647119
 21
54.6002779983
  0
LINE
  5
499
100
AcDbEntity
  8
606077388-000-00-ED1_FORMAT
100
AcDbLine
 62
90
  6
CONTINUOUS
 10
318.7569970505
 20
54.6002779983
 11
319.6591272336
 21
54.6002779983
  0
LINE
  5
49A
100
AcDbEntity
  8
606077388-000-00-ED1_FORMAT
100
AcDbLine
 62
90
  6
CONTINUOUS
 10
320.8410120729
 20
54.6002779983
 11
321.2158289907
 21
54.6002779983
  0
LINE
  5
49B
100
AcDbEntity
  8
606077388-000-00-ED1_FORMAT
100
AcDbLine
 62
90
  6
CONTINUOUS
 10
322.4132472782
 20
54.6002779983
 11
322.650948709
 21
54.6002779983
  0
LINE
  5
49C
100
AcDbEntity
  8
606077388-000-00-ED1_FORMAT
100
AcDbLine
 62
90
  6
CONTINUOUS
 10
323.9171536218
 20
54.6002779983
 11
325.4072355017
 21
54.6002779983
  0
LINE
  5
49D
100
AcDbEntity
  8
606077388-000-00-ED1_FORMAT
100
AcDbLine
 62
90
  6
CONTINUOUS
 10
326.932168458
 20
54.6002779983
 11
330.8277070307
 21
54.6002779983
  0
LINE
  5
49E
100
AcDbEntity
  8
606077388-000-00-ED1_FORMAT
100
AcDbLine
 62
90
  6
CONTINUOUS
 10
330.1221100629
 20
54.8902789319
 11
326.932168458
 21
54.8902789319
  0
LINE
  5
49F
100
AcDbEntity
  8
606077388-000-00-ED1_FORMAT
100
AcDbLine
 62
90
  6
CONTINUOUS
 10
325.4072355017
 20
54.8902789319
 11
323.8633206107
 21
54.8902789319
  0
LINE
  5
4A0
100
AcDbEntity
  8
606077388-000-00-ED1_FORMAT
100
AcDbLine
 62
90
  6
CONTINUOUS
 10
322.6064540773
 20
54.8902789319
 11
322.455117398
 21
54.8902789319
  0
LINE
  5
4A1
100
AcDbEntity
  8
606077388-000-00-ED1_FORMAT
100
AcDbLine
 62
90
  6
CONTINUOUS
 10
321.2818079987
 20
54.8902789319
 11
320.8535242807
 21
54.8902789319
  0
LINE
  5
4A2
100
AcDbEntity
  8
606077388-000-00-ED1_FORMAT
100
AcDbLine
 62
90
  6
CONTINUOUS
 10
319.671090125
 20
54.8902789319
 11
318.755654277
 21
54.8902789319
  0
LINE
  5
4A3
100
AcDbEntity
  8
606077388-000-00-ED1_FORMAT
100
AcDbLine
 62
90
  6
CONTINUOUS
 10
317.504647119
 20
54.8902789319
 11
316.401222978
 21
54.8902789319
  0
LINE
  5
4A4
100
AcDbEntity
  8
606077388-000-00-ED1_FORMAT
100
AcDbLine
 62
90
  6
CONTINUOUS
 10
315.101021481
 20
54.8902789319
 11
314.8126608674
 21
54.8902789319
  0
LINE
  5
4A5
100
AcDbEntity
  8
606077388-000-00-ED1_FORMAT
100
AcDbLine
 62
90
  6
CONTINUOUS
 10
313.6170125995
 20
54.8902789319
 11
312.2078938594
 21
54.8902789319
  0
LINE
  5
4A6
100
AcDbEntity
  8
606077388-000-00-ED1_FORMAT
100
AcDbLine
 62
90
  6
CONTINUOUS
 10
306.8558732625
 20
54.8902789319
 11
304.7996902731
 21
54.8902789319
  0
LINE
  5
4A7
100
AcDbEntity
  8
606077388-000-00-ED1_FORMAT
100
AcDbLine
 62
90
  6
CONTINUOUS
 10
305.4410172173
 20
55.1802798655
 11
306.8559953328
 21
55.1802798655
  0
LINE
  5
4A8
100
AcDbEntity
  8
606077388-000-00-ED1_FORMAT
100
AcDbLine
 62
90
  6
CONTINUOUS
 10
309.4869159068
 20
55.1802798655
 11
309.6559527825
 21
55.1802798655
  0
LINE
  5
4A9
100
AcDbEntity
  8
606077388-000-00-ED1_FORMAT
100
AcDbLine
 62
90
  6
CONTINUOUS
 10
312.2078938594
 20
55.1802798655
 11
313.6973043526
 21
55.1802798655
  0
LINE
  5
4AA
100
AcDbEntity
  8
606077388-000-00-ED1_FORMAT
100
AcDbLine
 62
90
  6
CONTINUOUS
 10
314.8783346996
 20
55.1802798655
 11
315.0383383716
 21
55.1802798655
  0
LINE
  5
4AB
100
AcDbEntity
  8
606077388-000-00-ED1_FORMAT
100
AcDbLine
 62
90
  6
CONTINUOUS
 10
316.3278892332
 20
55.1802798655
 11
317.504647119
 21
55.1802798655
  0
LINE
  5
4AC
100
AcDbEntity
  8
606077388-000-00-ED1_FORMAT
100
AcDbLine
 62
90
  6
CONTINUOUS
 10
318.7542809859
 20
55.1802798655
 11
319.6139306976
 21
55.1802798655
  0
LINE
  5
4AD
100
AcDbEntity
  8
606077388-000-00-ED1_FORMAT
100
AcDbLine
 62
90
  6
CONTINUOUS
 10
320.8345118283
 20
55.1802798655
 11
321.3477870068
 21
55.1802798655
  0
LINE
  5
4AE
100
AcDbEntity
  8
606077388-000-00-ED1_FORMAT
100
AcDbLine
 62
90
  6
CONTINUOUS
 10
323.8094875995
 20
55.1802798655
 11
325.4072355017
 21
55.1802798655
  0
LINE
  5
4AF
100
AcDbEntity
  8
606077388-000-00-ED1_FORMAT
100
AcDbLine
 62
90
  6
CONTINUOUS
 10
326.932168458
 20
55.1802798655
 11
329.4165436128
 21
55.1802798655
  0
LINE
  5
4B0
100
AcDbEntity
  8
606077388-000-00-ED1_FORMAT
100
AcDbLine
 62
90
  6
CONTINUOUS
 10
328.710946645
 20
55.4702807991
 11
326.932168458
 21
55.4702807991
  0
LINE
  5
4B1
100
AcDbEntity
  8
606077388-000-00-ED1_FORMAT
100
AcDbLine
 62
90
  6
CONTINUOUS
 10
325.4072355017
 20
55.4702807991
 11
323.7556240708
 21
55.4702807991
  0
LINE
  5
4B2
100
AcDbEntity
  8
606077388-000-00-ED1_FORMAT
100
AcDbLine
 62
90
  6
CONTINUOUS
 10
321.4137660148
 20
55.4702807991
 11
320.7832728114
 21
55.4702807991
  0
LINE
  5
4B3
100
AcDbEntity
  8
606077388-000-00-ED1_FORMAT
100
AcDbLine
 62
90
  6
CONTINUOUS
 10
319.2926416151
 20
55.4702807991
 11
318.7529382123
 21
55.4702807991
  0
LINE
  5
4B4
100
AcDbEntity
  8
606077388-000-00-ED1_FORMAT
100
AcDbLine
 62
90
  6
CONTINUOUS
 10
317.504647119
 20
55.4702807991
 11
316.254586006
 21
55.4702807991
  0
LINE
  5
4B5
100
AcDbEntity
  8
606077388-000-00-ED1_FORMAT
100
AcDbLine
 62
90
  6
CONTINUOUS
 10
314.9756552623
 20
55.4702807991
 11
314.9440085318
 21
55.4702807991
  0
LINE
  5
4B6
100
AcDbEntity
  8
606077388-000-00-ED1_FORMAT
100
AcDbLine
 62
90
  6
CONTINUOUS
 10
313.777565588
 20
55.4702807991
 11
312.2078938594
 21
55.4702807991
  0
LINE
  5
4B7
100
AcDbEntity
  8
606077388-000-00-ED1_FORMAT
100
AcDbLine
 62
90
  6
CONTINUOUS
 10
309.8534320429
 20
55.4702807991
 11
309.3890765452
 21
55.4702807991
  0
LINE
  5
4B8
100
AcDbEntity
  8
606077388-000-00-ED1_FORMAT
100
AcDbLine
 62
90
  6
CONTINUOUS
 10
306.8560868855
 20
55.4702807991
 11
306.0823441616
 21
55.4702807991
  0
LINE
  5
4B9
100
AcDbEntity
  8
606077388-000-00-ED1_FORMAT
100
AcDbLine
 62
90
  6
CONTINUOUS
 10
306.2538224437
 20
55.760277918
 11
306.8561784383
 21
55.760277918
  0
LINE
  5
4BA
100
AcDbEntity
  8
606077388-000-00-ED1_FORMAT
100
AcDbLine
 62
90
  6
CONTINUOUS
 10
309.2912371837
 20
55.760277918
 11
310.0508807857
 21
55.760277918
  0
LINE
  5
4BB
100
AcDbEntity
  8
606077388-000-00-ED1_FORMAT
100
AcDbLine
 62
90
  6
CONTINUOUS
 10
312.2078938594
 20
55.760277918
 11
313.8578268235
 21
55.760277918
  0
LINE
  5
4BC
100
AcDbEntity
  8
606077388-000-00-ED1_FORMAT
100
AcDbLine
 62
90
  6
CONTINUOUS
 10
316.1812522612
 20
55.760277918
 11
317.504647119
 21
55.760277918
  0
LINE
  5
4BD
100
AcDbEntity
  8
606077388-000-00-ED1_FORMAT
100
AcDbLine
 62
90
  6
CONTINUOUS
 10
320.6674280777
 20
55.760277918
 11
321.4797755404
 21
55.760277918
  0
LINE
  5
4BE
100
AcDbEntity
  8
606077388-000-00-ED1_FORMAT
100
AcDbLine
 62
90
  6
CONTINUOUS
 10
323.7017910596
 20
55.760277918
 11
325.4072355017
 21
55.760277918
  0
LINE
  5
4BF
100
AcDbEntity
  8
606077388-000-00-ED1_FORMAT
100
AcDbLine
 62
90
  6
CONTINUOUS
 10
326.932168458
 20
55.760277918
 11
328.0053496772
 21
55.760277918
  0
LINE
  5
4C0
100
AcDbEntity
  8
606077388-000-00-ED1_FORMAT
100
AcDbLine
 62
90
  6
CONTINUOUS
 10
327.5174346078
 20
56.0502788516
 11
326.932168458
 21
56.0502788516
  0
LINE
  5
4C1
100
AcDbEntity
  8
606077388-000-00-ED1_FORMAT
100
AcDbLine
 62
90
  6
CONTINUOUS
 10
325.4072355017
 20
56.0502788516
 11
323.6479580484
 21
56.0502788516
  0
LINE
  5
4C2
100
AcDbEntity
  8
606077388-000-00-ED1_FORMAT
100
AcDbLine
 62
90
  6
CONTINUOUS
 10
321.5457545484
 20
56.0502788516
 11
320.4613123422
 21
56.0502788516
  0
LINE
  5
4C3
100
AcDbEntity
  8
606077388-000-00-ED1_FORMAT
100
AcDbLine
 62
90
  6
CONTINUOUS
 10
317.504647119
 20
56.0502788516
 11
316.1079185164
 21
56.0502788516
  0
LINE
  5
4C4
100
AcDbEntity
  8
606077388-000-00-ED1_FORMAT
100
AcDbLine
 62
90
  6
CONTINUOUS
 10
313.938088059
 20
56.0502788516
 11
312.2078938594
 21
56.0502788516
  0
LINE
  5
4C5
100
AcDbEntity
  8
606077388-000-00-ED1_FORMAT
100
AcDbLine
 62
90
  6
CONTINUOUS
 10
310.2483295284
 20
56.0502788516
 11
309.1933978221
 21
56.0502788516
  0
LINE
  5
4C6
100
AcDbEntity
  8
606077388-000-00-ED1_FORMAT
100
AcDbLine
 62
90
  6
CONTINUOUS
 10
306.856269991
 20
56.0502788516
 11
306.2538224437
 21
56.0502788516
  0
LINE
  5
4C7
100
AcDbEntity
  8
606077388-000-00-ED1_FORMAT
100
AcDbLine
 62
90
  6
CONTINUOUS
 10
306.2538224437
 20
56.3402797852
 11
306.8563615437
 21
56.3402797852
  0
LINE
  5
4C8
100
AcDbEntity
  8
606077388-000-00-ED1_FORMAT
100
AcDbLine
 62
90
  6
CONTINUOUS
 10
309.0955584605
 20
56.3402797852
 11
310.4458087888
 21
56.3402797852
  0
LINE
  5
4C9
100
AcDbEntity
  8
606077388-000-00-ED1_FORMAT
100
AcDbLine
 62
90
  6
CONTINUOUS
 10
312.2078938594
 20
56.3402797852
 11
314.0183492945
 21
56.3402797852
  0
LINE
  5
4CA
100
AcDbEntity
  8
606077388-000-00-ED1_FORMAT
100
AcDbLine
 62
90
  6
CONTINUOUS
 10
316.0345847716
 20
56.3402797852
 11
317.504647119
 21
56.3402797852
  0
LINE
  5
4CB
100
AcDbEntity
  8
606077388-000-00-ED1_FORMAT
100
AcDbLine
 62
90
  6
CONTINUOUS
 10
320.0910425437
 20
56.3402797852
 11
321.6117335564
 21
56.3402797852
  0
LINE
  5
4CC
100
AcDbEntity
  8
606077388-000-00-ED1_FORMAT
100
AcDbLine
 62
90
  6
CONTINUOUS
 10
323.5941250373
 20
56.3402797852
 11
325.4072355017
 21
56.3402797852
  0
LINE
  5
4CD
100
AcDbEntity
  8
606077388-000-00-ED1_FORMAT
100
AcDbLine
 62
90
  6
CONTINUOUS
 10
326.932168458
 20
56.3402797852
 11
327.5174346078
 21
56.3402797852
  0
LINE
  5
4CE
100
AcDbEntity
  8
606077388-000-00-ED1_FORMAT
100
AcDbLine
 62
90
  6
CONTINUOUS
 10
327.5174346078
 20
56.6302807188
 11
326.932168458
 21
56.6302807188
  0
LINE
  5
4CF
100
AcDbEntity
  8
606077388-000-00-ED1_FORMAT
100
AcDbLine
 62
90
  6
CONTINUOUS
 10
325.4072355017
 20
56.6302807188
 11
323.5402615085
 21
56.6302807188
  0
LINE
  5
4D0
100
AcDbEntity
  8
606077388-000-00-ED1_FORMAT
100
AcDbLine
 62
90
  6
CONTINUOUS
 10
321.6777125644
 20
56.6302807188
 11
319.2477502549
 21
56.6302807188
  0
LINE
  5
4D1
100
AcDbEntity
  8
606077388-000-00-ED1_FORMAT
100
AcDbLine
 62
90
  6
CONTINUOUS
 10
317.8003319519
 20
56.6302807188
 11
314.7750937263
 21
56.6302807188
  0
LINE
  5
4D2
100
AcDbEntity
  8
606077388-000-00-ED1_FORMAT
100
AcDbLine
 62
90
  6
CONTINUOUS
 10
314.0986105299
 20
56.6302807188
 11
312.2078938594
 21
56.6302807188
  0
LINE
  5
4D3
100
AcDbEntity
  8
606077388-000-00-ED1_FORMAT
100
AcDbLine
 62
90
  6
CONTINUOUS
 10
310.6432575315
 20
56.6302807188
 11
308.997719099
 21
56.6302807188
  0
LINE
  5
4D4
100
AcDbEntity
  8
606077388-000-00-ED1_FORMAT
100
AcDbLine
 62
90
  6
CONTINUOUS
 10
306.8564530965
 20
56.6302807188
 11
306.2538224437
 21
56.6302807188
  0
LINE
  5
4D5
100
AcDbEntity
  8
606077388-000-00-ED1_FORMAT
100
AcDbLine
 62
90
  6
CONTINUOUS
 10
318.3558434611
 20
56.6447384223
 11
318.5402917147
 21
56.6447384223
  0
LINE
  5
4D6
100
AcDbEntity
  8
606077388-000-00-ED1_FORMAT
100
AcDbLine
 62
90
  6
CONTINUOUS
 10
318.916970205
 20
56.6466038094
 11
319.1211633329
 21
56.6466038094
  0
LINE
  5
4D7
100
AcDbEntity
  8
606077388-000-00-ED1_FORMAT
100
AcDbLine
 62
90
  6
CONTINUOUS
 10
318.5402917147
 20
56.6466114388
 11
318.72535032
 21
56.6466114388
  0
LINE
  5
4D8
100
AcDbEntity
  8
606077388-000-00-ED1_FORMAT
100
AcDbLine
 62
90
  6
CONTINUOUS
 10
318.72535032
 20
56.6471416817
 11
318.916970205
 21
56.6471416817
  0
LINE
  5
4D9
100
AcDbEntity
  8
606077388-000-00-ED1_FORMAT
100
AcDbLine
 62
90
  6
CONTINUOUS
 10
306.2538224437
 20
56.9202778376
 11
306.8565751668
 21
56.9202778376
  0
LINE
  5
4DA
100
AcDbEntity
  8
606077388-000-00-ED1_FORMAT
100
AcDbLine
 62
90
  6
CONTINUOUS
 10
308.8998797374
 20
56.9202778376
 11
309.1677935725
 21
56.9202778376
  0
LINE
  5
4DB
100
AcDbEntity
  8
606077388-000-00-ED1_FORMAT
100
AcDbLine
 62
90
  6
CONTINUOUS
 10
309.3290484653
 20
56.9202778376
 11
310.8407367919
 21
56.9202778376
  0
LINE
  5
4DC
100
AcDbEntity
  8
606077388-000-00-ED1_FORMAT
100
AcDbLine
 62
90
  6
CONTINUOUS
 10
312.1970601185
 20
56.9202778376
 11
321.8962794726
 21
56.9202778376
  0
LINE
  5
4DD
100
AcDbEntity
  8
606077388-000-00-ED1_FORMAT
100
AcDbLine
 62
90
  6
CONTINUOUS
 10
323.4864284974
 20
56.9202778376
 11
325.4072355017
 21
56.9202778376
  0
LINE
  5
4DE
100
AcDbEntity
  8
606077388-000-00-ED1_FORMAT
100
AcDbLine
 62
90
  6
CONTINUOUS
 10
326.932168458
 20
56.9202778376
 11
327.5174346078
 21
56.9202778376
  0
LINE
  5
4DF
100
AcDbEntity
  8
606077388-000-00-ED1_FORMAT
100
AcDbLine
 62
90
  6
CONTINUOUS
 10
327.5174346078
 20
57.2102787712
 11
326.932168458
 21
57.2102787712
  0
LINE
  5
4E0
100
AcDbEntity
  8
606077388-000-00-ED1_FORMAT
100
AcDbLine
 62
90
  6
CONTINUOUS
 10
325.4072355017
 20
57.2102787712
 11
325.1310514025
 21
57.2102787712
  0
LINE
  5
4E1
100
AcDbEntity
  8
606077388-000-00-ED1_FORMAT
100
AcDbLine
 62
90
  6
CONTINUOUS
 10
324.643502544
 20
57.2102787712
 11
323.4325954862
 21
57.2102787712
  0
LINE
  5
4E2
100
AcDbEntity
  8
606077388-000-00-ED1_FORMAT
100
AcDbLine
 62
90
  6
CONTINUOUS
 10
323.2237942037
 20
57.2102787712
 11
309.9671405461
 21
57.2102787712
  0
LINE
  5
4E3
100
AcDbEntity
  8
606077388-000-00-ED1_FORMAT
100
AcDbLine
 62
90
  6
CONTINUOUS
 10
309.0664141716
 20
57.2102787712
 11
308.8020098583
 21
57.2102787712
  0
LINE
  5
4E4
100
AcDbEntity
  8
606077388-000-00-ED1_FORMAT
100
AcDbLine
 62
90
  6
CONTINUOUS
 10
306.8566667195
 20
57.2102787712
 11
306.2538224437
 21
57.2102787712
  0
LINE
  5
4E5
100
AcDbEntity
  8
606077388-000-00-ED1_FORMAT
100
AcDbLine
 62
90
  6
CONTINUOUS
 10
306.2538224437
 20
57.5002797048
 11
306.8567582723
 21
57.5002797048
  0
LINE
  5
4E6
100
AcDbEntity
  8
606077388-000-00-ED1_FORMAT
100
AcDbLine
 62
90
  6
CONTINUOUS
 10
308.7041704967
 20
57.5002797048
 11
308.9650347708
 21
57.5002797048
  0
LINE
  5
4E7
100
AcDbEntity
  8
606077388-000-00-ED1_FORMAT
100
AcDbLine
 62
90
  6
CONTINUOUS
 10
310.6052021092
 20
57.5002797048
 11
324.0003750626
 21
57.5002797048
  0
LINE
  5
4E8
100
AcDbEntity
  8
606077388-000-00-ED1_FORMAT
100
AcDbLine
 62
90
  6
CONTINUOUS
 10
325.1310514025
 20
57.5002797048
 11
325.4072355017
 21
57.5002797048
  0
LINE
  5
4E9
100
AcDbEntity
  8
606077388-000-00-ED1_FORMAT
100
AcDbLine
 62
90
  6
CONTINUOUS
 10
326.932168458
 20
57.5002797048
 11
327.5174346078
 21
57.5002797048
  0
LINE
  5
4EA
100
AcDbEntity
  8
606077388-000-00-ED1_FORMAT
100
AcDbLine
 62
90
  6
CONTINUOUS
 10
327.5174346078
 20
57.7902806384
 11
326.932168458
 21
57.7902806384
  0
LINE
  5
4EB
100
AcDbEntity
  8
606077388-000-00-ED1_FORMAT
100
AcDbLine
 62
90
  6
CONTINUOUS
 10
325.4072355017
 20
57.7902806384
 11
325.1310514025
 21
57.7902806384
  0
LINE
  5
4EC
100
AcDbEntity
  8
606077388-000-00-ED1_FORMAT
100
AcDbLine
 62
90
  6
CONTINUOUS
 10
323.3572780987
 20
57.7902806384
 11
311.24329419
 21
57.7902806384
  0
LINE
  5
4ED
100
AcDbEntity
  8
606077388-000-00-ED1_FORMAT
100
AcDbLine
 62
90
  6
CONTINUOUS
 10
308.8636553699
 20
57.7902806384
 11
308.6063311351
 21
57.7902806384
  0
LINE
  5
4EE
100
AcDbEntity
  8
606077388-000-00-ED1_FORMAT
100
AcDbLine
 62
90
  6
CONTINUOUS
 10
306.856849825
 20
57.7902806384
 11
306.2538224437
 21
57.7902806384
  0
LINE
  5
4EF
100
AcDbEntity
  8
606077388-000-00-ED1_FORMAT
100
AcDbLine
 62
90
  6
CONTINUOUS
 10
306.2538224437
 20
58.0802777573
 11
306.8569413778
 21
58.0802777573
  0
LINE
  5
4F0
100
AcDbEntity
  8
606077388-000-00-ED1_FORMAT
100
AcDbLine
 62
90
  6
CONTINUOUS
 10
308.5084917736
 20
58.0802777573
 11
308.7622759691
 21
58.0802777573
  0
LINE
  5
4F1
100
AcDbEntity
  8
606077388-000-00-ED1_FORMAT
100
AcDbLine
 62
90
  6
CONTINUOUS
 10
311.8813862707
 20
58.0802777573
 11
322.7141811348
 21
58.0802777573
  0
LINE
  5
4F2
100
AcDbEntity
  8
606077388-000-00-ED1_FORMAT
100
AcDbLine
 62
90
  6
CONTINUOUS
 10
325.1310514025
 20
58.0802777573
 11
325.4072355017
 21
58.0802777573
  0
LINE
  5
4F3
100
AcDbEntity
  8
606077388-000-00-ED1_FORMAT
100
AcDbLine
 62
90
  6
CONTINUOUS
 10
326.932168458
 20
58.0802777573
 11
327.5174346078
 21
58.0802777573
  0
LINE
  5
4F4
100
AcDbEntity
  8
606077388-000-00-ED1_FORMAT
100
AcDbLine
 62
90
  6
CONTINUOUS
 10
327.4869170277
 20
58.3702786909
 11
326.932168458
 21
58.3702786909
  0
LINE
  5
4F5
100
AcDbEntity
  8
606077388-000-00-ED1_FORMAT
100
AcDbLine
 62
90
  6
CONTINUOUS
 10
325.9910368076
 20
58.3702786909
 11
325.3282254871
 21
58.3702786909
  0
LINE
  5
4F6
100
AcDbEntity
  8
606077388-000-00-ED1_FORMAT
100
AcDbLine
 62
90
  6
CONTINUOUS
 10
322.0710536534
 20
58.3702786909
 11
312.5194478339
 21
58.3702786909
  0
LINE
  5
4F7
100
AcDbEntity
  8
606077388-000-00-ED1_FORMAT
100
AcDbLine
 62
90
  6
CONTINUOUS
 10
308.6608965682
 20
58.3702786909
 11
308.2872088008
 21
58.3702786909
  0
LINE
  5
4F8
100
AcDbEntity
  8
606077388-000-00-ED1_FORMAT
100
AcDbLine
 62
90
  6
CONTINUOUS
 10
306.8570329305
 20
58.3702786909
 11
306.2538224437
 21
58.3702786909
  0
LINE
  5
4F9
100
AcDbEntity
  8
606077388-000-00-ED1_FORMAT
100
AcDbLine
 62
90
  6
CONTINUOUS
 10
306.2538224437
 20
58.6602796245
 11
306.8571550008
 21
58.6602796245
  0
LINE
  5
4FA
100
AcDbEntity
  8
606077388-000-00-ED1_FORMAT
100
AcDbLine
 62
90
  6
CONTINUOUS
 10
307.674629417
 20
58.6602796245
 11
308.2281267659
 21
58.6602796245
  0
LINE
  5
4FB
100
AcDbEntity
  8
606077388-000-00-ED1_FORMAT
100
AcDbLine
 62
90
  6
CONTINUOUS
 10
313.1575399147
 20
58.6602796245
 11
321.4279566895
 21
58.6602796245
  0
LINE
  5
4FC
100
AcDbEntity
  8
606077388-000-00-ED1_FORMAT
100
AcDbLine
 62
90
  6
CONTINUOUS
 10
326.0322355407
 20
58.6602796245
 11
326.7106108271
 21
58.6602796245
  0
LINE
  5
4FD
100
AcDbEntity
  8
606077388-000-00-ED1_FORMAT
100
AcDbLine
 62
90
  6
CONTINUOUS
 10
326.932168458
 20
58.6602796245
 11
327.2830290756
 21
58.6602796245
  0
LINE
  5
4FE
100
AcDbEntity
  8
606077388-000-00-ED1_FORMAT
100
AcDbLine
 62
90
  6
CONTINUOUS
 10
327.079171641
 20
58.9502805581
 11
326.7362761119
 21
58.9502805581
  0
LINE
  5
4FF
100
AcDbEntity
  8
606077388-000-00-ED1_FORMAT
100
AcDbLine
 62
90
  6
CONTINUOUS
 10
320.7848597256
 20
58.9502805581
 11
313.7956319954
 21
58.9502805581
  0
LINE
  5
500
100
AcDbEntity
  8
606077388-000-00-ED1_FORMAT
100
AcDbLine
 62
90
  6
CONTINUOUS
 10
307.6149065129
 20
58.9502805581
 11
307.0620195155
 21
58.9502805581
  0
LINE
  5
501
100
AcDbEntity
  8
606077388-000-00-ED1_FORMAT
100
AcDbLine
 62
90
  6
CONTINUOUS
 10
306.8572465536
 20
58.9502805581
 11
306.2538224437
 21
58.9502805581
  0
LINE
  5
502
100
AcDbEntity
  8
606077388-000-00-ED1_FORMAT
100
AcDbLine
 62
7
  6
CONTINUOUS
 10
410.0
 20
58.9546825665
 11
365.999998592
 21
58.9546825665
  0
LINE
  5
503
100
AcDbEntity
  8
606077388-000-00-ED1_FORMAT
100
AcDbLine
 62
90
  6
CONTINUOUS
 10
306.6714555264
 20
59.240277677
 11
307.0016862598
 21
59.240277677
  0
LINE
  5
504
100
AcDbEntity
  8
606077388-000-00-ED1_FORMAT
100
AcDbLine
 62
90
  6
CONTINUOUS
 10
314.4336935586
 20
59.240277677
 11
320.1417322441
 21
59.240277677
  0
LINE
  5
505
100
AcDbEntity
  8
606077388-000-00-ED1_FORMAT
100
AcDbLine
 62
90
  6
CONTINUOUS
 10
319.4986352803
 20
59.5302786105
 11
315.0717856394
 21
59.5302786105
  0
LINE
  5
506
100
AcDbEntity
  8
606077388-000-00-ED1_FORMAT
100
AcDbLine
 62
90
  6
CONTINUOUS
 10
315.7098777201
 20
59.8202795441
 11
318.8555383164
 21
59.8202795441
  0
LINE
  5
507
100
AcDbEntity
  8
606077388-000-00-ED1_FORMAT
100
AcDbLine
 62
90
  6
CONTINUOUS
 10
318.2124108349
 20
60.1102804777
 11
316.3479392833
 21
60.1102804777
  0
LINE
  5
508
100
AcDbEntity
  8
606077388-000-00-ED1_FORMAT
100
AcDbLine
 62
90
  6
CONTINUOUS
 10
317.5471381942
 20
60.4102804964
 11
317.0080338075
 21
60.4102804964
  0
LINE
  5
509
100
AcDbEntity
  8
606077388-000-00-ED1_FORMAT
100
AcDbLine
 62
90
  6
CONTINUOUS
 10
315.5730674088
 20
56.5955211951
 11
315.773903603
 21
56.5907451938
  0
LINE
  5
50A
100
AcDbEntity
  8
606077388-000-00-ED1_FORMAT
100
AcDbLine
 62
90
  6
CONTINUOUS
 10
315.773903603
 20
56.5907451938
 11
315.9725120138
 21
56.5857631989
  0
LINE
  5
50B
100
AcDbEntity
  8
606077388-000-00-ED1_FORMAT
100
AcDbLine
 62
90
  6
CONTINUOUS
 10
315.3701865368
 20
56.6009647684
 11
315.5730674088
 21
56.5955211951
  0
LINE
  5
50C
100
AcDbEntity
  8
606077388-000-00-ED1_FORMAT
100
AcDbLine
 62
90
  6
CONTINUOUS
 10
315.1653830573
 20
56.6079761825
 11
315.3701865368
 21
56.6009647684
  0
LINE
  5
50D
100
AcDbEntity
  8
606077388-000-00-ED1_FORMAT
100
AcDbLine
 62
90
  6
CONTINUOUS
 10
317.7706383465
 20
51.8433922981
 11
317.504647119
 21
51.8526314954
  0
LINE
  5
50E
100
AcDbEntity
  8
606077388-000-00-ED1_FORMAT
100
AcDbLine
 62
90
  6
CONTINUOUS
 10
314.9588095581
 20
56.617440447
 11
315.1653830573
 21
56.6079761825
  0
LINE
  5
50F
100
AcDbEntity
  8
606077388-000-00-ED1_FORMAT
100
AcDbLine
 62
90
  6
CONTINUOUS
 10
318.9437646402
 20
55.5377780567
 11
318.7525720014
 21
55.5470821039
  0
LINE
  5
510
100
AcDbEntity
  8
606077388-000-00-ED1_FORMAT
100
AcDbLine
 62
90
  6
CONTINUOUS
 10
318.0062645819
 20
51.8308648315
 11
317.7706383465
 21
51.8433922981
  0
LINE
  5
511
100
AcDbEntity
  8
606077388-000-00-ED1_FORMAT
100
AcDbLine
 62
90
  6
CONTINUOUS
 10
318.2189110795
 20
51.8161324697
 11
318.0062645819
 21
51.8308648315
  0
LINE
  5
512
100
AcDbEntity
  8
606077388-000-00-ED1_FORMAT
100
AcDbLine
 62
90
  6
CONTINUOUS
 10
318.7938317696
 20
51.769318502
 11
318.605233125
 21
51.7842911897
  0
LINE
  5
513
100
AcDbEntity
  8
606077388-000-00-ED1_FORMAT
100
AcDbLine
 62
90
  6
CONTINUOUS
 10
318.416085164
 20
51.8002480693
 11
318.2189110795
 21
51.8161324697
  0
LINE
  5
514
100
AcDbEntity
  8
606077388-000-00-ED1_FORMAT
100
AcDbLine
 62
90
  6
CONTINUOUS
 10
318.605233125
 20
51.7842911897
 11
318.416085164
 21
51.8002480693
  0
LINE
  5
515
100
AcDbEntity
  8
606077388-000-00-ED1_FORMAT
100
AcDbLine
 62
7
  6
CONTINUOUS
 10
135.000019298
 20
287.0000045341
 11
135.000019298
 21
259.0000098321
  0
LINE
  5
516
100
AcDbEntity
  8
606077388-000-00-ED1_FORMAT
100
AcDbLine
 62
7
  6
CONTINUOUS
 10
146.999991584
 20
65.00000176
 11
410.0
 21
65.00000176
  0
LINE
  5
517
100
AcDbEntity
  8
606077388-000-00-ED1_FORMAT
100
AcDbLine
 62
7
  6
CONTINUOUS
 10
146.999993584
 20
72.500002
 11
410.0
 21
72.500002
  0
LINE
  5
518
100
AcDbEntity
  8
606077388-000-00-ED1_FORMAT
100
AcDbLine
 62
90
  6
CONTINUOUS
 10
314.750557592
 20
56.6302463865
 11
314.9588095581
 21
56.617440447
  0
LINE
  5
519
100
AcDbEntity
  8
606077388-000-00-ED1_FORMAT
100
AcDbLine
 62
90
  6
CONTINUOUS
 10
314.5408102645
 20
56.6472866402
 11
314.750557592
 21
56.6302463865
  0
LINE
  5
51A
100
AcDbEntity
  8
606077388-000-00-ED1_FORMAT
100
AcDbLine
 62
90
  6
CONTINUOUS
 10
322.2427760762
 20
53.4197740796
 11
322.8411647853
 21
53.3604707922
  0
LINE
  5
51B
100
AcDbEntity
  8
606077388-000-00-ED1_FORMAT
100
AcDbLine
 62
90
  6
CONTINUOUS
 10
314.3296591283
 20
56.669446218
 11
314.5408102645
 21
56.6472866402
  0
LINE
  5
51C
100
AcDbEntity
  8
606077388-000-00-ED1_FORMAT
100
AcDbLine
 62
90
  6
CONTINUOUS
 10
322.0031825554
 20
51.4534806222
 11
320.5375452571
 21
51.6192978933
  0
LINE
  5
51D
100
AcDbEntity
  8
606077388-000-00-ED1_FORMAT
100
AcDbLine
 62
90
  6
CONTINUOUS
 10
319.1197290067
 20
55.5162898657
 11
318.9437646402
 21
55.5377780567
  0
LINE
  5
51E
100
AcDbEntity
  8
606077388-000-00-ED1_FORMAT
100
AcDbLine
 62
90
  6
CONTINUOUS
 10
314.1172567713
 20
56.6976177591
 11
314.3296591283
 21
56.669446218
  0
LINE
  5
51F
100
AcDbEntity
  8
606077388-000-00-ED1_FORMAT
100
AcDbLine
 62
90
  6
CONTINUOUS
 10
319.1211633329
 20
56.6452572212
 11
319.3581628594
 21
56.6093113266
  0
LINE
  5
520
100
AcDbEntity
  8
606077388-000-00-ED1_FORMAT
100
AcDbLine
 62
90
  6
CONTINUOUS
 10
322.9365017053
 20
51.8976983318
 11
322.1121303161
 21
52.0335969303
  0
LINE
  5
521
100
AcDbEntity
  8
606077388-000-00-ED1_FORMAT
100
AcDbLine
 62
90
  6
CONTINUOUS
 10
324.5936673358
 20
50.9565552373
 11
322.9856044916
 21
51.2672776077
  0
LINE
  5
522
100
AcDbEntity
  8
606077388-000-00-ED1_FORMAT
100
AcDbLine
 62
7
  6
CONTINUOUS
 10
146.999991584
 20
10.0
 11
146.999993584
 21
72.500002
  0
LINE
  5
523
100
AcDbEntity
  8
606077388-000-00-ED1_FORMAT
100
AcDbLine
 62
90
  6
CONTINUOUS
 10
311.0026020363
 20
57.1580441183
 11
312.2078938594
 21
56.9181225336
  0
LINE
  5
524
100
AcDbEntity
  8
606077388-000-00-ED1_FORMAT
100
AcDbLine
 62
90
  6
CONTINUOUS
 10
319.3581628594
 20
56.6093113266
 11
319.5746545721
 21
56.5594341567
  0
LINE
  5
525
100
AcDbEntity
  8
606077388-000-00-ED1_FORMAT
100
AcDbLine
 62
90
  6
CONTINUOUS
 10
319.2772302372
 20
55.4772960278
 11
319.1197290067
 21
55.5162898657
  0
LINE
  5
526
100
AcDbEntity
  8
606077388-000-00-ED1_FORMAT
100
AcDbLine
 62
7
  6
CONTINUOUS
 10
154.499993824
 20
65.00000176
 11
154.499993824
 21
72.500002
  0
LINE
  5
527
100
AcDbEntity
  8
606077388-000-00-ED1_FORMAT
100
AcDbLine
 62
3
  6
CONTINUOUS
 10
160.0
 20
10.0
 11
160.0
 21
5.0
  0
LINE
  5
528
100
AcDbEntity
  8
606077388-000-00-ED1_FORMAT
100
AcDbLine
 62
3
  6
CONTINUOUS
 10
160.0
 20
287.0
 11
160.0
 21
292.0
  0
LINE
  5
529
100
AcDbEntity
  8
606077388-000-00-ED1_FORMAT
100
AcDbLine
 62
7
  6
CONTINUOUS
 10
161.999994064
 20
65.00000176
 11
161.999994064
 21
72.500002
  0
LINE
  5
52A
100
AcDbEntity
  8
606077388-000-00-ED1_FORMAT
100
AcDbLine
 62
3
  6
CONTINUOUS
 10
22.9999999122
 20
93.4999984459
 11
28.9999998068
 21
93.4999984459
  0
LINE
  5
52B
100
AcDbEntity
  8
606077388-000-00-ED1_FORMAT
100
AcDbLine
 62
3
  6
CONTINUOUS
 10
23.0
 20
98.5
 11
18.0
 21
98.5
  0
LINE
  5
52C
100
AcDbEntity
  8
606077388-000-00-ED1_FORMAT
100
AcDbLine
 62
3
  6
CONTINUOUS
 10
410.0
 20
98.5
 11
415.0
 21
98.5
  0
LINE
  5
52D
100
AcDbEntity
  8
606077388-000-00-ED1_FORMAT
100
AcDbLine
 62
90
  6
CONTINUOUS
 10
319.5746545721
 20
56.5594341567
 11
319.771370893
 21
56.4966518652
  0
LINE
  5
52E
100
AcDbEntity
  8
606077388-000-00-ED1_FORMAT
100
AcDbLine
 62
90
  6
CONTINUOUS
 10
327.4483428066
 20
51.7095612656
 11
328.8858123785
 21
51.1495865603
  0
LINE
  5
52F
100
AcDbEntity
  8
606077388-000-00-ED1_FORMAT
100
AcDbLine
 62
90
  6
CONTINUOUS
 10
326.932168458
 20
51.5395669008
 11
328.2963042852
 21
50.9884537378
  0
LINE
  5
530
100
AcDbEntity
  8
606077388-000-00-ED1_FORMAT
100
AcDbLine
 62
90
  6
CONTINUOUS
 10
319.771370893
 20
56.4966518652
 11
319.9490137263
 21
56.4220058645
  0
LINE
  5
531
100
AcDbEntity
  8
606077388-000-00-ED1_FORMAT
100
AcDbLine
 62
90
  6
CONTINUOUS
 10
317.2765282083
 20
47.4442869521
 11
308.6544268413
 21
51.5949067174
  0
LINE
  5
532
100
AcDbEntity
  8
606077388-000-00-ED1_FORMAT
100
AcDbLine
 62
3
  6
CONTINUOUS
 10
306.2529679515
 20
52.1786164706
 11
302.0615436566
 21
54.2349992063
  0
LINE
  5
533
100
AcDbEntity
  8
606077388-000-00-ED1_FORMAT
100
AcDbLine
 62
3
  6
CONTINUOUS
 10
317.2765282083
 20
46.7702794944
 11
308.6552813335
 21
51.0000084565
  0
LINE
  5
534
100
AcDbEntity
  8
606077388-000-00-ED1_FORMAT
100
AcDbLine
 62
90
  6
CONTINUOUS
 10
306.8480912796
 20
49.2196929465
 11
306.2529679515
 21
49.5195586878
  0
LINE
  5
535
100
AcDbEntity
  8
606077388-000-00-ED1_FORMAT
100
AcDbLine
 62
7
  6
CONTINUOUS
 10
171.3988033648
 20
65.00000176
 11
171.3988033648
 21
72.500002
  0
LINE
  5
536
100
AcDbEntity
  8
606077388-000-00-ED1_FORMAT
100
AcDbLine
 62
7
  6
CONTINUOUS
 10
176.3988035248
 20
65.00000176
 11
176.3988035248
 21
72.500002
  0
LINE
  5
537
100
AcDbEntity
  8
606077388-000-00-ED1_FORMAT
100
AcDbLine
 62
90
  6
CONTINUOUS
 10
327.5174346078
 20
55.960812751
 11
331.7164705138
 21
54.2350054536
  0
LINE
  5
538
100
AcDbEntity
  8
606077388-000-00-ED1_FORMAT
100
AcDbLine
 62
3
  6
CONTINUOUS
 10
317.2765282083
 20
61.1759505575
 11
325.1310514025
 21
57.6838620222
  0
LINE
  5
539
100
AcDbEntity
  8
606077388-000-00-ED1_FORMAT
100
AcDbLine
 62
3
  6
CONTINUOUS
 10
327.5174346078
 20
56.6228802056
 11
332.8883150692
 21
54.2350054536
  0
LINE
  5
53A
100
AcDbEntity
  8
606077388-000-00-ED1_FORMAT
100
AcDbLine
 62
90
  6
CONTINUOUS
 10
317.2765282083
 20
60.5323080919
 11
325.1310514025
 21
56.99042631
  0
LINE
  5
53B
100
AcDbEntity
  8
606077388-000-00-ED1_FORMAT
100
AcDbLine
 62
90
  6
CONTINUOUS
 10
319.4130945035
 20
55.4154712254
 11
319.2772302372
 21
55.4772960278
  0
LINE
  5
53C
100
AcDbEntity
  8
606077388-000-00-ED1_FORMAT
100
AcDbLine
 62
90
  6
CONTINUOUS
 10
306.8379899606
 20
59.3176893334
 11
308.625160482
 21
58.4725202134
  0
LINE
  5
53D
100
AcDbEntity
  8
606077388-000-00-ED1_FORMAT
100
AcDbLine
 62
90
  6
CONTINUOUS
 10
306.8572770711
 20
59.0472120216
 11
308.4341204311
 21
58.3007329407
  0
LINE
  5
53E
100
AcDbEntity
  8
606077388-000-00-ED1_FORMAT
100
AcDbLine
 62
90
  6
CONTINUOUS
 10
328.2963042852
 20
49.2870452456
 11
325.4072355017
 21
50.7446373469
  0
LINE
  5
53F
100
AcDbEntity
  8
606077388-000-00-ED1_FORMAT
100
AcDbLine
 62
90
  6
CONTINUOUS
 10
328.3335052152
 20
48.9736602163
 11
325.1310514025
 21
50.6036919035
  0
LINE
  5
540
100
AcDbEntity
  8
606077388-000-00-ED1_FORMAT
100
AcDbLine
 62
90
  6
CONTINUOUS
 10
306.2529679515
 20
52.7537889307
 11
303.350532468
 21
54.2350054536
  0
LINE
  5
541
100
AcDbEntity
  8
606077388-000-00-ED1_FORMAT
100
AcDbLine
 62
90
  6
CONTINUOUS
 10
319.9490137263
 20
56.4220058645
 11
320.108315494
 21
56.3365261228
  0
LINE
  5
542
100
AcDbEntity
  8
606077388-000-00-ED1_FORMAT
100
AcDbLine
 62
90
  6
CONTINUOUS
 10
320.108315494
 20
56.3365261228
 11
320.2500391357
 21
56.2412464233
  0
LINE
  5
543
100
AcDbEntity
  8
606077388-000-00-ED1_FORMAT
100
AcDbLine
 62
7
  6
CONTINUOUS
 10
207.999993536
 20
65.00000176
 11
207.999993536
 21
72.500002
  0
LINE
  5
544
100
AcDbEntity
  8
606077388-000-00-ED1_FORMAT
100
AcDbLine
 62
7
  6
CONTINUOUS
 10
210.0
 20
292.0
 11
210.0
 21
277.0
  0
LINE
  5
545
100
AcDbEntity
  8
606077388-000-00-ED1_FORMAT
100
AcDbLine
 62
3
  6
CONTINUOUS
 10
210.0
 20
10.0
 11
210.0
 21
5.0
  0
LINE
  5
546
100
AcDbEntity
  8
606077388-000-00-ED1_FORMAT
100
AcDbLine
 62
7
  6
CONTINUOUS
 10
415.0
 20
148.5
 11
400.0
 21
148.5
  0
LINE
  5
547
100
AcDbEntity
  8
606077388-000-00-ED1_FORMAT
100
AcDbLine
 62
7
  6
CONTINUOUS
 10
18.0
 20
148.5
 11
33.0
 21
148.5
  0
LINE
  5
548
100
AcDbEntity
  8
606077388-000-00-ED1_FORMAT
100
AcDbLine
 62
3
  6
CONTINUOUS
 10
23.0
 20
148.515014696
 11
29.000000192
 21
148.515014696
  0
LINE
  5
549
100
AcDbEntity
  8
606077388-000-00-ED1_FORMAT
100
AcDbLine
 62
90
  6
CONTINUOUS
 10
319.524086942
 20
55.3254977701
 11
319.4130945035
 21
55.4154712254
  0
LINE
  5
54A
100
AcDbEntity
  8
606077388-000-00-ED1_FORMAT
100
AcDbLine
 62
90
  6
CONTINUOUS
 10
320.2500391357
 20
56.2412464233
 11
320.3748255204
 21
56.1372005489
  0
LINE
  5
54B
100
AcDbEntity
  8
606077388-000-00-ED1_FORMAT
100
AcDbLine
 62
7
  6
CONTINUOUS
 10
223.999992048
 20
10.0
 11
223.999992048
 21
65.00000176
  0
LINE
  5
54C
100
AcDbEntity
  8
606077388-000-00-ED1_FORMAT
100
AcDbLine
 62
90
  6
CONTINUOUS
 10
320.3748255204
 20
56.1372005489
 11
320.4834681053
 21
56.025418468
  0
LINE
  5
54D
100
AcDbEntity
  8
606077388-000-00-ED1_FORMAT
100
AcDbLine
 62
90
  6
CONTINUOUS
 10
320.4834681053
 20
56.025418468
 11
320.5766382771
 21
55.9069454076
  0
LINE
  5
54E
100
AcDbEntity
  8
606077388-000-00-ED1_FORMAT
100
AcDbLine
 62
90
  6
CONTINUOUS
 10
327.0021757866
 20
59.0598043381
 11
327.5174346078
 21
58.326871248
  0
LINE
  5
54F
100
AcDbEntity
  8
606077388-000-00-ED1_FORMAT
100
AcDbLine
 62
90
  6
CONTINUOUS
 10
319.6070032069
 20
55.2020465295
 11
319.524086942
 21
55.3254977701
  0
LINE
  5
550
100
AcDbEntity
  8
606077388-000-00-ED1_FORMAT
100
AcDbLine
 62
90
  6
CONTINUOUS
 10
320.5766382771
 20
55.9069454076
 11
320.6550989753
 21
55.7828037068
  0
LINE
  5
551
100
AcDbEntity
  8
606077388-000-00-ED1_FORMAT
100
AcDbLine
 62
3
  6
CONTINUOUS
 10
260.0
 20
10.0
 11
260.0
 21
5.0
  0
LINE
  5
552
100
AcDbEntity
  8
606077388-000-00-ED1_FORMAT
100
AcDbLine
 62
3
  6
CONTINUOUS
 10
260.0
 20
287.0
 11
260.0
 21
292.0
  0
LINE
  5
553
100
AcDbEntity
  8
606077388-000-00-ED1_FORMAT
100
AcDbLine
 62
7
  6
CONTINUOUS
 10
260.999993232
 20
43.500001072
 11
260.999993232
 21
35.0000008
  0
LINE
  5
554
100
AcDbEntity
  8
606077388-000-00-ED1_FORMAT
100
AcDbLine
 62
7
  6
CONTINUOUS
 10
264.9013593819
 20
287.0
 11
264.9013593819
 21
225.000007
  0
LINE
  5
555
100
AcDbEntity
  8
606077388-000-00-ED1_FORMAT
100
AcDbLine
 62
3
  6
CONTINUOUS
 10
23.0
 20
198.5
 11
18.0
 21
198.5
  0
LINE
  5
556
100
AcDbEntity
  8
606077388-000-00-ED1_FORMAT
100
AcDbLine
 62
3
  6
CONTINUOUS
 10
410.0
 20
198.5
 11
415.0
 21
198.5
  0
LINE
  5
557
100
AcDbEntity
  8
606077388-000-00-ED1_FORMAT
100
AcDbLine
 62
90
  6
CONTINUOUS
 10
320.6550989753
 20
55.7828037068
 11
320.7195215868
 21
55.6540347778
  0
LINE
  5
558
100
AcDbEntity
  8
606077388-000-00-ED1_FORMAT
100
AcDbLine
 62
90
  6
CONTINUOUS
 10
309.6609271481
 20
51.1619538096
 11
308.4533770241
 21
54.0527163187
  0
LINE
  5
559
100
AcDbEntity
  8
606077388-000-00-ED1_FORMAT
100
AcDbLine
 62
7
  6
CONTINUOUS
 10
274.9014193732
 20
225.000007
 11
274.9014193732
 21
287.0000007463
  0
LINE
  5
55A
100
AcDbEntity
  8
606077388-000-00-ED1_FORMAT
100
AcDbLine
 62
3
  6
CONTINUOUS
 10
28.9999998068
 20
209.9999964
 11
22.9999999122
 21
209.9999964
  0
LINE
  5
55B
100
AcDbEntity
  8
606077388-000-00-ED1_FORMAT
100
AcDbLine
 62
90
  6
CONTINUOUS
 10
320.7195215868
 20
55.6540347778
 11
320.7706995685
 21
55.5216724039
  0
LINE
  5
55C
100
AcDbEntity
  8
606077388-000-00-ED1_FORMAT
100
AcDbLine
 62
90
  6
CONTINUOUS
 10
308.625160482
 20
58.4725202134
 11
309.189918818
 21
56.8570377824
  0
LINE
  5
55D
100
AcDbEntity
  8
606077388-000-00-ED1_FORMAT
100
AcDbLine
 62
90
  6
CONTINUOUS
 10
308.4341204311
 20
58.3007329407
 11
309.5429461837
 21
55.0142718596
  0
LINE
  5
55E
100
AcDbEntity
  8
606077388-000-00-ED1_FORMAT
100
AcDbLine
 62
7
  6
CONTINUOUS
 10
294.99999432
 20
65.00000176
 11
294.99999432
 21
35.0000008
  0
LINE
  5
55F
100
AcDbEntity
  8
606077388-000-00-ED1_FORMAT
100
AcDbLine
 62
7
  6
CONTINUOUS
 10
264.9013593819
 20
225.000007
 11
410.0000007463
 21
225.000007
  0
LINE
  5
560
100
AcDbEntity
  8
606077388-000-00-ED1_FORMAT
100
AcDbLine
 62
7
  6
CONTINUOUS
 10
274.9014193732
 20
229.5500015411
 11
376.900004085
 21
229.5500015411
  0
LINE
  5
561
100
AcDbEntity
  8
606077388-000-00-ED1_FORMAT
100
AcDbLine
 62
7
  6
CONTINUOUS
 10
264.9013593819
 20
234.0999960821
 11
410.0000007463
 21
234.0999960821
  0
LINE
  5
562
100
AcDbEntity
  8
606077388-000-00-ED1_FORMAT
100
AcDbLine
 62
90
  6
CONTINUOUS
 10
319.6586389523
 20
55.03980363
 11
319.6070032069
 21
55.2020465295
  0
LINE
  5
563
100
AcDbEntity
  8
606077388-000-00-ED1_FORMAT
100
AcDbLine
 62
90
  6
CONTINUOUS
 10
320.7706995685
 20
55.5216724039
 11
320.8093043072
 21
55.3867427385
  0
LINE
  5
564
100
AcDbEntity
  8
606077388-000-00-ED1_FORMAT
100
AcDbLine
 62
90
  6
CONTINUOUS
 10
315.9725120138
 20
56.5857631989
 11
317.1683433871
 21
51.8564423783
  0
LINE
  5
565
100
AcDbEntity
  8
606077388-000-00-ED1_FORMAT
100
AcDbLine
 62
90
  6
CONTINUOUS
 10
315.6792380698
 20
51.8104561999
 11
315.4687888379
 21
52.775513633
  0
LINE
  5
566
100
AcDbEntity
  8
606077388-000-00-ED1_FORMAT
100
AcDbLine
 62
90
  6
CONTINUOUS
 10
315.336312023
 20
53.8016825201
 11
314.9602133668
 21
55.541772045
  0
LINE
  5
567
100
AcDbEntity
  8
606077388-000-00-ED1_FORMAT
100
AcDbLine
 62
90
  6
CONTINUOUS
 10
319.6758203499
 20
54.8334437538
 11
319.6586389523
 21
55.03980363
  0
LINE
  5
568
100
AcDbEntity
  8
606077388-000-00-ED1_FORMAT
100
AcDbLine
 62
7
  6
CONTINUOUS
 10
299.9999903875
 20
10.0
 11
299.999990634
 21
24.250000456
  0
LINE
  5
569
100
AcDbEntity
  8
606077388-000-00-ED1_FORMAT
100
AcDbLine
 62
90
  6
CONTINUOUS
 10
306.2529679515
 20
49.5195586878
 11
306.2529679515
 21
52.7537889307
  0
LINE
  5
56A
100
AcDbEntity
  8
606077388-000-00-ED1_FORMAT
100
AcDbLine
 62
90
  6
CONTINUOUS
 10
306.2538224437
 20
55.54782597
 11
306.2538224437
 21
59.0461400916
  0
LINE
  5
56B
100
AcDbEntity
  8
606077388-000-00-ED1_FORMAT
100
AcDbLine
 62
90
  6
CONTINUOUS
 10
308.4533770241
 20
54.0527163187
 11
308.4533770241
 21
50.4031799586
  0
LINE
  5
56C
100
AcDbEntity
  8
606077388-000-00-ED1_FORMAT
100
AcDbLine
 62
90
  6
CONTINUOUS
 10
308.6544268413
 20
51.5949067174
 11
308.6544268413
 21
50.2336204693
  0
LINE
  5
56D
100
AcDbEntity
  8
606077388-000-00-ED1_FORMAT
100
AcDbLine
 62
3
  6
CONTINUOUS
 10
310.0
 20
10.0
 11
310.0
 21
5.0
  0
LINE
  5
56E
100
AcDbEntity
  8
606077388-000-00-ED1_FORMAT
100
AcDbLine
 62
3
  6
CONTINUOUS
 10
310.0
 20
287.0
 11
310.0
 21
292.0
  0
LINE
  5
56F
100
AcDbEntity
  8
606077388-000-00-ED1_FORMAT
100
AcDbLine
 62
90
  6
CONTINUOUS
 10
310.7759784871
 20
51.0971573578
 11
310.7759784871
 21
53.7835398188
  0
LINE
  5
570
100
AcDbEntity
  8
606077388-000-00-ED1_FORMAT
100
AcDbLine
 62
90
  6
CONTINUOUS
 10
312.2078938594
 20
56.9181225336
 11
312.2078938594
 21
51.4102448407
  0
LINE
  5
571
100
AcDbEntity
  8
606077388-000-00-ED1_FORMAT
100
AcDbLine
 62
7
  6
CONTINUOUS
 10
314.0000008808
 20
65.00000176
 11
314.0000008808
 21
72.500002
  0
LINE
  5
572
100
AcDbEntity
  8
606077388-000-00-ED1_FORMAT
100
AcDbLine
 62
90
  6
CONTINUOUS
 10
306.8541032428
 20
49.5294349396
 11
306.8572770711
 21
59.0472120216
  0
LINE
  5
573
100
AcDbEntity
  8
606077388-000-00-ED1_FORMAT
100
AcDbLine
 62
7
  6
CONTINUOUS
 10
274.9014193732
 20
238.6499906232
 11
376.900004085
 21
238.6499906232
  0
LINE
  5
574
100
AcDbEntity
  8
606077388-000-00-ED1_FORMAT
100
AcDbLine
 62
7
  6
CONTINUOUS
 10
264.9013593819
 20
243.1999851642
 11
410.0000007463
 21
243.1999851642
  0
LINE
  5
575
100
AcDbEntity
  8
606077388-000-00-ED1_FORMAT
100
AcDbLine
 62
7
  6
CONTINUOUS
 10
274.9014193732
 20
247.7499797053
 11
376.900004085
 21
247.7499797053
  0
LINE
  5
576
100
AcDbEntity
  8
606077388-000-00-ED1_FORMAT
100
AcDbLine
 62
3
  6
CONTINUOUS
 10
23.0
 20
248.5
 11
18.0
 21
248.5
  0
LINE
  5
577
100
AcDbEntity
  8
606077388-000-00-ED1_FORMAT
100
AcDbLine
 62
3
  6
CONTINUOUS
 10
410.0
 20
248.5
 11
415.0
 21
248.5
  0
LINE
  5
578
100
AcDbEntity
  8
606077388-000-00-ED1_FORMAT
100
AcDbLine
 62
7
  6
CONTINUOUS
 10
264.9013593819
 20
252.2999732463
 11
410.0000007463
 21
252.2999732463
  0
LINE
  5
579
100
AcDbEntity
  8
606077388-000-00-ED1_FORMAT
100
AcDbLine
 62
90
  6
CONTINUOUS
 10
320.8093043072
 20
55.3867427385
 11
320.8360377073
 21
55.2502871941
  0
LINE
  5
57A
100
AcDbEntity
  8
606077388-000-00-ED1_FORMAT
100
AcDbLine
 62
90
  6
CONTINUOUS
 10
323.4244472923
 20
57.2541096455
 11
324.5936673358
 21
50.9565552373
  0
LINE
  5
57B
100
AcDbEntity
  8
606077388-000-00-ED1_FORMAT
100
AcDbLine
 62
90
  6
CONTINUOUS
 10
322.8411647853
 20
53.3604707922
 11
322.5284816604
 21
55.3982936425
  0
LINE
  5
57C
100
AcDbEntity
  8
606077388-000-00-ED1_FORMAT
100
AcDbLine
 62
90
  6
CONTINUOUS
 10
320.8360377073
 20
55.2502871941
 11
320.8516932259
 21
55.113335739
  0
LINE
  5
57D
100
AcDbEntity
  8
606077388-000-00-ED1_FORMAT
100
AcDbLine
 62
90
  6
CONTINUOUS
 10
322.9856044916
 20
51.2672776077
 11
322.9365017053
 21
51.8976983318
  0
LINE
  5
57E
100
AcDbEntity
  8
606077388-000-00-ED1_FORMAT
100
AcDbLine
 62
90
  6
CONTINUOUS
 10
320.8516932259
 20
55.113335739
 11
320.8569422496
 21
54.976925971
  0
LINE
  5
57F
100
AcDbEntity
  8
606077388-000-00-ED1_FORMAT
100
AcDbLine
 62
90
  6
CONTINUOUS
 10
318.7525720014
 20
55.5470821039
 11
318.7601098437
 21
53.9302530848
  0
LINE
  5
580
100
AcDbEntity
  8
606077388-000-00-ED1_FORMAT
100
AcDbLine
 62
90
  6
CONTINUOUS
 10
317.504647119
 20
51.8526314954
 11
317.504647119
 21
56.61847423
  0
LINE
  5
581
100
AcDbEntity
  8
606077388-000-00-ED1_FORMAT
100
AcDbLine
 62
90
  6
CONTINUOUS
 10
318.7919396796
 20
52.828049647
 11
318.7919396796
 21
51.769318502
  0
LINE
  5
582
100
AcDbEntity
  8
606077388-000-00-ED1_FORMAT
100
AcDbLine
 62
90
  6
CONTINUOUS
 10
325.1310514025
 20
50.6036919035
 11
325.1310514025
 21
51.1375969661
  0
LINE
  5
583
100
AcDbEntity
  8
606077388-000-00-ED1_FORMAT
100
AcDbLine
 62
90
  6
CONTINUOUS
 10
325.1310514025
 20
56.99042631
 11
325.1310514025
 21
58.2890561516
  0
LINE
  5
584
100
AcDbEntity
  8
606077388-000-00-ED1_FORMAT
100
AcDbLine
 62
90
  6
CONTINUOUS
 10
325.4072355017
 20
50.7446373469
 11
325.4072355017
 21
58.1349919636
  0
LINE
  5
585
100
AcDbEntity
  8
606077388-000-00-ED1_FORMAT
100
AcDbLine
 62
90
  6
CONTINUOUS
 10
326.932168458
 20
58.7495740636
 11
326.932168458
 21
51.5395669008
  0
LINE
  5
586
100
AcDbEntity
  8
606077388-000-00-ED1_FORMAT
100
AcDbLine
 62
90
  6
CONTINUOUS
 10
327.4483428066
 20
52.1575097493
 11
327.4483428066
 21
51.7095612656
  0
LINE
  5
587
100
AcDbEntity
  8
606077388-000-00-ED1_FORMAT
100
AcDbLine
 62
90
  6
CONTINUOUS
 10
327.5174346078
 20
58.326871248
 11
327.5174346078
 21
55.960812751
  0
LINE
  5
588
100
AcDbEntity
  8
606077388-000-00-ED1_FORMAT
100
AcDbLine
 62
90
  6
CONTINUOUS
 10
328.2963042852
 20
50.9884537378
 11
328.2963042852
 21
49.2870452456
  0
LINE
  5
589
100
AcDbEntity
  8
606077388-000-00-ED1_FORMAT
100
AcDbLine
 62
90
  6
CONTINUOUS
 10
328.8858123785
 20
51.1495865603
 11
328.8858123785
 21
49.3918693183
  0
LINE
  5
58A
100
AcDbEntity
  8
606077388-000-00-ED1_FORMAT
100
AcDbLine
 62
90
  6
CONTINUOUS
 10
320.8569422496
 20
54.976925971
 11
320.8524256478
 21
54.7780543461
  0
LINE
  5
58B
100
AcDbEntity
  8
606077388-000-00-ED1_FORMAT
100
AcDbLine
 62
90
  6
CONTINUOUS
 10
319.6602563841
 20
54.6050921466
 11
319.6758203499
 21
54.8334437538
  0
LINE
  5
58C
100
AcDbEntity
  8
606077388-000-00-ED1_FORMAT
100
AcDbLine
 62
90
  6
CONTINUOUS
 10
320.8524256478
 20
54.7780543461
 11
320.8380823852
 21
54.5885821358
  0
LINE
  5
58D
100
AcDbEntity
  8
606077388-000-00-ED1_FORMAT
100
AcDbLine
 62
7
  6
CONTINUOUS
 10
274.9014193732
 20
256.8499677874
 11
376.900004085
 21
256.8499677874
  0
LINE
  5
58E
100
AcDbEntity
  8
606077388-000-00-ED1_FORMAT
100
AcDbLine
 62
7
  6
CONTINUOUS
 10
135.0000610636
 20
259.0000097341
 11
23.0001
 21
259.0000097341
  0
LINE
  5
58F
100
AcDbEntity
  8
606077388-000-00-ED1_FORMAT
100
AcDbLine
 62
7
  6
CONTINUOUS
 10
264.9013593819
 20
261.3999623285
 11
410.0000007463
 21
261.3999623285
  0
LINE
  5
590
100
AcDbEntity
  8
606077388-000-00-ED1_FORMAT
100
AcDbLine
 62
7
  6
CONTINUOUS
 10
135.0000610636
 20
265.0000076482
 11
23.0001
 21
265.0000076482
  0
LINE
  5
591
100
AcDbEntity
  8
606077388-000-00-ED1_FORMAT
100
AcDbLine
 62
7
  6
CONTINUOUS
 10
274.9014193732
 20
265.9499568695
 11
376.900004085
 21
265.9499568695
  0
LINE
  5
592
100
AcDbEntity
  8
606077388-000-00-ED1_FORMAT
100
AcDbLine
 62
90
  6
CONTINUOUS
 10
320.8380823852
 20
54.5885821358
 11
320.8140040145
 21
54.4085627459
  0
LINE
  5
593
100
AcDbEntity
  8
606077388-000-00-ED1_FORMAT
100
AcDbLine
 62
90
  6
CONTINUOUS
 10
322.5284816604
 20
55.3982936425
 11
322.2427760762
 21
53.4197740796
  0
LINE
  5
594
100
AcDbEntity
  8
606077388-000-00-ED1_FORMAT
100
AcDbLine
 62
90
  6
CONTINUOUS
 10
322.1121303161
 20
52.0335969303
 11
322.0031825554
 21
51.4534806222
  0
LINE
  5
595
100
AcDbEntity
  8
606077388-000-00-ED1_FORMAT
100
AcDbLine
 62
90
  6
CONTINUOUS
 10
320.8140040145
 20
54.4085627459
 11
320.780251571
 21
54.2380190647
  0
LINE
  5
596
100
AcDbEntity
  8
606077388-000-00-ED1_FORMAT
100
AcDbLine
 62
90
  6
CONTINUOUS
 10
314.4483114794
 20
52.701374987
 11
314.221260684
 21
51.6919106602
  0
LINE
  5
597
100
AcDbEntity
  8
606077388-000-00-ED1_FORMAT
100
AcDbLine
 62
90
  6
CONTINUOUS
 10
314.9602133668
 20
55.541772045
 11
314.5568930292
 21
53.7608995891
  0
LINE
  5
598
100
AcDbEntity
  8
606077388-000-00-ED1_FORMAT
100
AcDbLine
 62
90
  6
CONTINUOUS
 10
320.5375452571
 20
51.6192978933
 11
321.735726484
 21
56.8852055088
  0
LINE
  5
599
100
AcDbEntity
  8
606077388-000-00-ED1_FORMAT
100
AcDbLine
 62
90
  6
CONTINUOUS
 10
319.6160669282
 20
54.4151469138
 11
319.6602563841
 21
54.6050921466
  0
LINE
  5
59A
100
AcDbEntity
  8
606077388-000-00-ED1_FORMAT
100
AcDbLine
 62
90
  6
CONTINUOUS
 10
320.780251571
 20
54.2380190647
 11
320.7368860898
 21
54.077000683
  0
LINE
  5
59B
100
AcDbEntity
  8
606077388-000-00-ED1_FORMAT
100
AcDbLine
 62
90
  6
CONTINUOUS
 10
312.6779866622
 20
51.4975518225
 11
314.1172567713
 21
56.6976177591
  0
LINE
  5
59C
100
AcDbEntity
  8
606077388-000-00-ED1_FORMAT
100
AcDbLine
 62
90
  6
CONTINUOUS
 10
310.7759784871
 20
53.7835398188
 11
309.6609271481
 21
51.1619538096
  0
LINE
  5
59D
100
AcDbEntity
  8
606077388-000-00-ED1_FORMAT
100
AcDbLine
 62
90
  6
CONTINUOUS
 10
308.4533770241
 20
50.4031799586
 11
306.8541032428
 21
49.5294349396
  0
LINE
  5
59E
100
AcDbEntity
  8
606077388-000-00-ED1_FORMAT
100
AcDbLine
 62
90
  6
CONTINUOUS
 10
319.9253015666
 20
53.0628747959
 11
319.7895898882
 21
52.9992570857
  0
LINE
  5
59F
100
AcDbEntity
  8
606077388-000-00-ED1_FORMAT
100
AcDbLine
 62
90
  6
CONTINUOUS
 10
306.2538224437
 20
59.0461400916
 11
306.8379899606
 21
59.3176893334
  0
LINE
  5
5A0
100
AcDbEntity
  8
606077388-000-00-ED1_FORMAT
100
AcDbLine
 62
3
  6
CONTINUOUS
 10
302.0615436566
 20
54.2349992063
 11
306.2538224437
 21
56.1474824568
  0
LINE
  5
5A1
100
AcDbEntity
  8
606077388-000-00-ED1_FORMAT
100
AcDbLine
 62
3
  6
CONTINUOUS
 10
309.0000094785
 20
57.4002704925
 11
317.2765282083
 21
61.1759505575
  0
LINE
  5
5A2
100
AcDbEntity
  8
606077388-000-00-ED1_FORMAT
100
AcDbLine
 62
90
  6
CONTINUOUS
 10
309.189918818
 20
56.8570377824
 11
317.2765282083
 21
60.5323080919
  0
LINE
  5
5A3
100
AcDbEntity
  8
606077388-000-00-ED1_FORMAT
100
AcDbLine
 62
90
  6
CONTINUOUS
 10
303.350532468
 20
54.2350054536
 11
306.2538224437
 21
55.54782597
  0
LINE
  5
5A4
100
AcDbEntity
  8
606077388-000-00-ED1_FORMAT
100
AcDbLine
 62
90
  6
CONTINUOUS
 10
325.1310514025
 20
58.2890561516
 11
327.0021757866
 21
59.0598043381
  0
LINE
  5
5A5
100
AcDbEntity
  8
606077388-000-00-ED1_FORMAT
100
AcDbLine
 62
90
  6
CONTINUOUS
 10
319.1567773488
 20
53.9852228758
 11
319.3136377102
 21
54.0486460365
  0
LINE
  5
5A6
100
AcDbEntity
  8
606077388-000-00-ED1_FORMAT
100
AcDbLine
 62
90
  6
CONTINUOUS
 10
325.4072355017
 20
58.1349919636
 11
326.932168458
 21
58.7495740636
  0
LINE
  5
5A7
100
AcDbEntity
  8
606077388-000-00-ED1_FORMAT
100
AcDbLine
 62
90
  6
CONTINUOUS
 10
319.7895898882
 20
52.9992570857
 11
319.6450586292
 21
52.9455957359
  0
LINE
  5
5A8
100
AcDbEntity
  8
606077388-000-00-ED1_FORMAT
100
AcDbLine
 62
90
  6
CONTINUOUS
 10
319.6450586292
 20
52.9455957359
 11
319.4917077896
 21
52.901936523
  0
LINE
  5
5A9
100
AcDbEntity
  8
606077388-000-00-ED1_FORMAT
100
AcDbLine
 62
7
  6
CONTINUOUS
 10
264.9013593819
 20
270.4999514106
 11
410.0000007463
 21
270.4999514106
  0
LINE
  5
5AA
100
AcDbEntity
  8
606077388-000-00-ED1_FORMAT
100
AcDbLine
 62
7
  6
CONTINUOUS
 10
274.9014193732
 20
275.0499459516
 11
376.900004085
 21
275.0499459516
  0
LINE
  5
5AB
100
AcDbEntity
  8
606077388-000-00-ED1_FORMAT
100
AcDbLine
 62
7
  6
CONTINUOUS
 10
264.9013593819
 20
279.5999404927
 11
410.0000007463
 21
279.5999404927
  0
LINE
  5
5AC
100
AcDbEntity
  8
606077388-000-00-ED1_FORMAT
100
AcDbLine
 62
7
  6
CONTINUOUS
 10
135.0000610636
 20
281.0000010853
 11
23.0001
 21
281.0000010853
  0
LINE
  5
5AD
100
AcDbEntity
  8
606077388-000-00-ED1_FORMAT
100
AcDbLine
 62
7
  6
CONTINUOUS
 10
344.9999968815
 20
13.500000112
 11
344.9999968815
 21
24.250000456
  0
LINE
  5
5AE
100
AcDbEntity
  8
606077388-000-00-ED1_FORMAT
100
AcDbLine
 62
90
  6
CONTINUOUS
 10
320.7368860898
 20
54.077000683
 11
320.683968606
 21
53.9255419334
  0
LINE
  5
5AF
100
AcDbEntity
  8
606077388-000-00-ED1_FORMAT
100
AcDbLine
 62
90
  6
CONTINUOUS
 10
320.683968606
 20
53.9255419334
 11
320.6215601549
 21
53.783688592
  0
LINE
  5
5B0
100
AcDbEntity
  8
606077388-000-00-ED1_FORMAT
100
AcDbLine
 62
90
  6
CONTINUOUS
 10
319.5434350877
 20
54.2608958056
 11
319.6160669282
 21
54.4151469138
  0
LINE
  5
5B1
100
AcDbEntity
  8
606077388-000-00-ED1_FORMAT
100
AcDbLine
 62
90
  6
CONTINUOUS
 10
320.6215601549
 20
53.783688592
 11
320.5497522891
 21
53.6514749913
  0
LINE
  5
5B2
100
AcDbEntity
  8
606077388-000-00-ED1_FORMAT
100
AcDbLine
 62
90
  6
CONTINUOUS
 10
320.5497522891
 20
53.6514749913
 11
320.4686060438
 21
53.5289430928
  0
LINE
  5
5B3
100
AcDbEntity
  8
606077388-000-00-ED1_FORMAT
100
AcDbLine
 62
90
  6
CONTINUOUS
 10
309.5429461837
 20
55.0142718596
 11
311.0026020363
 21
57.1580441183
  0
LINE
  5
5B4
100
AcDbEntity
  8
606077388-000-00-ED1_FORMAT
100
AcDbLine
 62
90
  6
CONTINUOUS
 10
320.4686060438
 20
53.5289430928
 11
320.3782129718
 21
53.4161310435
  0
LINE
  5
5B5
100
AcDbEntity
  8
606077388-000-00-ED1_FORMAT
100
AcDbLine
 62
90
  6
CONTINUOUS
 10
319.4425744858
 20
54.1396303867
 11
319.5434350877
 21
54.2608958056
  0
LINE
  5
5B6
100
AcDbEntity
  8
606077388-000-00-ED1_FORMAT
100
AcDbLine
 62
90
  6
CONTINUOUS
 10
320.3782129718
 20
53.4161310435
 11
320.2786035906
 21
53.3130769905
  0
LINE
  5
5B7
100
AcDbEntity
  8
606077388-000-00-ED1_FORMAT
100
AcDbLine
 62
90
  6
CONTINUOUS
 10
320.2786035906
 20
53.3130769905
 11
320.1698694529
 21
53.2198228953
  0
LINE
  5
5B8
100
AcDbEntity
  8
606077388-000-00-ED1_FORMAT
100
AcDbLine
 62
90
  6
CONTINUOUS
 10
320.1698694529
 20
53.2198228953
 11
320.052071594
 21
53.1364107197
  0
LINE
  5
5B9
100
AcDbEntity
  8
606077388-000-00-ED1_FORMAT
100
AcDbLine
 62
90
  6
CONTINUOUS
 10
319.3136377102
 20
54.0486460365
 11
319.4425744858
 21
54.1396303867
  0
LINE
  5
5BA
100
AcDbEntity
  8
606077388-000-00-ED1_FORMAT
100
AcDbLine
 62
90
  6
CONTINUOUS
 10
320.052071594
 20
53.1364107197
 11
319.9253015666
 21
53.0628747959
  0
LINE
  5
5BB
100
AcDbEntity
  8
606077388-000-00-ED1_FORMAT
100
AcDbLine
 62
90
  6
CONTINUOUS
 10
308.6563799664
 20
50.2336204693
 11
306.8480912796
 21
49.2196929465
  0
LINE
  5
5BC
100
AcDbEntity
  8
606077388-000-00-ED1_FORMAT
100
AcDbLine
 62
90
  6
CONTINUOUS
 10
331.7164705138
 20
54.2350054536
 11
327.4483428066
 21
52.1575097493
  0
LINE
  5
5BD
100
AcDbEntity
  8
606077388-000-00-ED1_FORMAT
100
AcDbLine
 62
3
  6
CONTINUOUS
 10
325.2098477941
 20
50.5635765446
 11
317.2765282083
 21
46.7702794944
  0
LINE
  5
5BE
100
AcDbEntity
  8
606077388-000-00-ED1_FORMAT
100
AcDbLine
 62
3
  6
CONTINUOUS
 10
332.8883150692
 20
54.2350054536
 11
327.5355620503
 21
51.6755990137
  0
LINE
  5
5BF
100
AcDbEntity
  8
606077388-000-00-ED1_FORMAT
100
AcDbLine
 62
90
  6
CONTINUOUS
 10
325.1310514025
 20
51.1375969661
 11
317.2765282083
 21
47.4442869521
  0
LINE
  5
5C0
100
AcDbEntity
  8
606077388-000-00-ED1_FORMAT
100
AcDbLine
 62
7
  6
CONTINUOUS
 10
410.0
 20
287.0
 11
264.9013593819
 21
287.0
  0
LINE
  5
5C1
100
AcDbEntity
  8
606077388-000-00-ED1_FORMAT
100
AcDbLine
 62
3
  6
CONTINUOUS
 10
23.0
 20
287.0
 11
23.0001
 21
287.0
  0
LINE
  5
5C2
100
AcDbEntity
  8
606077388-000-00-ED1_FORMAT
100
AcDbLine
 62
7
  6
CONTINUOUS
 10
23.0001
 20
287.0
 11
135.0000610636
 21
287.0
  0
LINE
  5
5C3
100
AcDbEntity
  8
606077388-000-00-ED1_FORMAT
100
AcDbLine
 62
3
  6
CONTINUOUS
 10
135.0000610636
 20
287.0
 11
264.9013593819
 21
287.0
  0
LINE
  5
5C4
100
AcDbEntity
  8
606077388-000-00-ED1_FORMAT
100
AcDbLine
 62
7
  6
CONTINUOUS
 10
415.0
 20
292.0
 11
18.0
 21
292.0
  0
LINE
  5
5C5
100
AcDbEntity
  8
606077388-000-00-ED1_FORMAT
100
AcDbLine
 62
6
  6
HIDDEN
 10
420.0
 20
297.0
 11
0.0
 21
297.0
  0
LINE
  5
5C6
100
AcDbEntity
  8
606077388-000-00-ED1_FORMAT
100
AcDbLine
 62
3
  6
CONTINUOUS
 10
360.0
 20
10.0
 11
360.0
 21
5.0
  0
LINE
  5
5C7
100
AcDbEntity
  8
606077388-000-00-ED1_FORMAT
100
AcDbLine
 62
3
  6
CONTINUOUS
 10
360.0
 20
287.0
 11
360.0
 21
292.0
  0
LINE
  5
5C8
100
AcDbEntity
  8
606077388-000-00-ED1_FORMAT
100
AcDbLine
 62
7
  6
CONTINUOUS
 10
365.999998592
 20
35.0000008
 11
366.0000025448
 21
72.500002
  0
LINE
  5
5C9
100
AcDbEntity
  8
606077388-000-00-ED1_FORMAT
100
AcDbLine
 62
90
  6
CONTINUOUS
 10
328.8858123785
 20
49.3918693183
 11
328.3335052152
 21
48.9736602163
  0
LINE
  5
5CA
100
AcDbEntity
  8
606077388-000-00-ED1_FORMAT
100
AcDbLine
 62
7
  6
CONTINUOUS
 10
376.8994429408
 20
40.9546819905
 11
376.8994429408
 21
65.00000176
  0
LINE
  5
5CB
100
AcDbEntity
  8
606077388-000-00-ED1_FORMAT
100
AcDbLine
 62
7
  6
CONTINUOUS
 10
376.900004085
 20
225.000007
 11
376.900004085
 21
287.0000007463
  0
LINE
  5
5CC
100
AcDbEntity
  8
606077388-000-00-ED1_FORMAT
100
AcDbLine
 62
7
  6
CONTINUOUS
 10
377.7325379674
 20
13.500000112
 11
377.7325379674
 21
10.0
  0
LINE
  5
5CD
100
AcDbEntity
  8
606077388-000-00-ED1_FORMAT
100
AcDbLine
 62
7
  6
CONTINUOUS
 10
391.8994434208
 20
65.00000176
 11
391.8994434208
 21
35.0000008
  0
LINE
  5
5CE
100
AcDbEntity
  8
606077388-000-00-ED1_FORMAT
100
AcDbLine
 62
7
  6
CONTINUOUS
 10
391.900002572
 20
225.000007
 11
391.900002572
 21
287.0000007463
  0
LINE
  5
5CF
100
AcDbEntity
  8
606077388-000-00-ED1_FORMAT
100
AcDbLine
 62
7
  6
CONTINUOUS
 10
399.9999602137
 20
13.500000112
 11
399.9999602137
 21
35.0000008
  0
LINE
  5
5D0
100
AcDbEntity
  8
606077388-000-00-ED1_FORMAT
100
AcDbLine
 62
7
  6
CONTINUOUS
 10
410.0
 20
10.0
 11
410.0
 21
78.4999970131
  0
LINE
  5
5D1
100
AcDbEntity
  8
606077388-000-00-ED1_FORMAT
100
AcDbLine
 62
3
  6
CONTINUOUS
 10
410.0
 20
78.4999970131
 11
410.0000007463
 21
225.000007
  0
LINE
  5
5D2
100
AcDbEntity
  8
606077388-000-00-ED1_FORMAT
100
AcDbLine
 62
7
  6
CONTINUOUS
 10
410.0000007463
 20
225.000007
 11
410.0000007463
 21
287.0000007463
  0
LINE
  5
5D3
100
AcDbEntity
  8
606077388-000-00-ED1_FORMAT
100
AcDbLine
 62
7
  6
CONTINUOUS
 10
415.0
 20
5.0
 11
415.0
 21
292.0
  0
LINE
  5
5D4
100
AcDbEntity
  8
606077388-000-00-ED1_FORMAT
100
AcDbLine
 62
6
  6
HIDDEN
 10
420.0
 20
0.0
 11
420.0
 21
297.0
  0
LINE
  5
5D5
100
AcDbEntity
  8
30338519_CL
100
AcDbLine
 62
7
  6
CONTINUOUS
 10
137.7556019686
 20
127.796237255
 11
137.7556019686
 21
142.1072872909
  0
LINE
  5
5D6
100
AcDbEntity
  8
30338519_CL
100
AcDbLine
 62
7
  6
CONTINUOUS
 10
137.7556019686
 20
156.6472872909
 11
137.7556019686
 21
170.9583373268
  0
LINE
  5
5D7
100
AcDbEntity
  8
30338519_CL
100
AcDbLine
 62
7
  6
CONTINUOUS
 10
138.7556019686
 20
143.1072872909
 11
138.7556019686
 21
140.2845080203
  0
LINE
  5
5D8
100
AcDbEntity
  8
30338519_HL
100
AcDbLine
 62
6
  6
HIDDEN
 10
138.7556019686
 20
132.3772872909
 11
138.7556019686
 21
140.2845080203
  0
LINE
  5
5D9
100
AcDbEntity
  8
30338519_CL
100
AcDbLine
 62
7
  6
CONTINUOUS
 10
138.7556019686
 20
155.6472872909
 11
138.7556019686
 21
158.4700665615
  0
LINE
  5
5DA
100
AcDbEntity
  8
30338519_HL
100
AcDbLine
 62
6
  6
HIDDEN
 10
138.7556019686
 20
158.4700665615
 11
138.7556019686
 21
166.3772872909
  0
LINE
  5
5DB
100
AcDbEntity
  8
30338519_CL
100
AcDbLine
 62
9
  6
CONTINUOUS
 10
138.8955570382
 20
172.156834138
 11
138.8955570382
 21
158.5071176605
  0
LINE
  5
5DC
100
AcDbEntity
  8
30338519_CL
100
AcDbLine
 62
9
  6
CONTINUOUS
 10
138.8955570382
 20
140.2474569214
 11
138.8955570382
 21
126.5977404439
  0
LINE
  5
5DD
100
AcDbEntity
  8
30338519_CL
100
AcDbLine
 62
9
  6
CONTINUOUS
 10
142.2556019686
 20
143.1072872909
 11
142.2556019686
 21
139.7479911287
  0
LINE
  5
5DE
100
AcDbEntity
  8
30338519_CL
100
AcDbLine
 62
9
  6
CONTINUOUS
 10
142.2556019686
 20
155.6472872909
 11
142.2556019686
 21
159.0065834532
  0
LINE
  5
5DF
100
AcDbEntity
  8
30338519_CL
100
AcDbLine
 62
7
  6
CONTINUOUS
 10
143.7556019686
 20
156.5248221169
 11
143.7556019686
 21
142.2297524649
  0
LINE
  5
5E0
100
AcDbEntity
  8
30338519_HL
100
AcDbLine
 62
6
  6
HIDDEN
 10
150.6595765648
 20
166.3772872909
 11
150.6595765648
 21
132.3772872909
  0
LINE
  5
5E1
100
AcDbEntity
  8
30338519_CL
100
AcDbLine
 62
9
  6
CONTINUOUS
 10
152.2184222916
 20
129.6772872909
 11
152.2184222916
 21
169.0772872909
  0
LINE
  5
5E2
100
AcDbEntity
  8
30338519_CL
100
AcDbLine
 62
9
  6
CONTINUOUS
 10
152.7380375339
 20
129.3772872909
 11
152.7380375339
 21
169.3772872909
  0
LINE
  5
5E3
100
AcDbEntity
  8
30338519_HL
100
AcDbLine
 62
6
  6
HIDDEN
 10
150.6595765648
 20
166.3772872909
 11
152.2184222916
 21
169.0772872909
  0
LINE
  5
5E4
100
AcDbEntity
  8
30338519_HL
100
AcDbLine
 62
6
  6
HIDDEN
 10
150.6595765648
 20
132.3772872909
 11
152.2184222916
 21
129.6772872909
  0
LINE
  5
5E5
100
AcDbEntity
  8
30338519_AXIS
100
AcDbLine
 62
3
  6
CENTER
 10
160.6556019686
 20
149.3772872909
 11
160.6556019686
 21
140.6272872909
  0
LINE
  5
5E6
100
AcDbEntity
  8
30338519_AXIS
100
AcDbLine
 62
3
  6
CENTER
 10
160.6556019686
 20
149.3772872909
 11
160.6556019686
 21
158.1272872909
  0
LINE
  5
5E7
100
AcDbEntity
  8
30338519_CL
100
AcDbLine
 62
9
  6
CONTINUOUS
 10
163.4106039702
 20
146.8331835251
 11
163.4106039702
 21
129.3772872909
  0
LINE
  5
5E8
100
AcDbEntity
  8
30338519_CL
100
AcDbLine
 62
9
  6
CONTINUOUS
 10
163.4106039702
 20
151.9213910567
 11
163.4106039702
 21
169.3772872909
  0
LINE
  5
5E9
100
AcDbEntity
  8
30338519_CL
100
AcDbLine
 62
7
  6
CONTINUOUS
 10
169.6556019686
 20
180.6772872909
 11
169.8556019686
 21
180.8772872909
  0
LINE
  5
5EA
100
AcDbEntity
  8
30338519_CL
100
AcDbLine
 62
7
  6
CONTINUOUS
 10
169.6556019686
 20
118.0772872909
 11
169.8556019686
 21
117.8772872909
  0
LINE
  5
5EB
100
AcDbEntity
  8
30338519_CL
100
AcDbLine
 62
7
  6
CONTINUOUS
 10
167.6556019686
 20
125.1568564292
 11
167.6556019686
 21
173.5977181527
  0
LINE
  5
5EC
100
AcDbEntity
  8
30338519_CL
100
AcDbLine
 62
9
  6
CONTINUOUS
 10
168.3257122016
 20
173.4181626569
 11
168.3257122016
 21
125.336411925
  0
LINE
  5
5ED
100
AcDbEntity
  8
30338519_CL
100
AcDbLine
 62
9
  6
CONTINUOUS
 10
168.4810036287
 20
173.3977181527
 11
168.4810036287
 21
125.3568564292
  0
LINE
  5
5EE
100
AcDbEntity
  8
30338519_CL
100
AcDbLine
 62
9
  6
CONTINUOUS
 10
169.1556019686
 20
173.3977181527
 11
169.1556019686
 21
125.3568564292
  0
LINE
  5
5EF
100
AcDbEntity
  8
30338519_CL
100
AcDbLine
 62
7
  6
CONTINUOUS
 10
169.6556019686
 20
118.0772901025
 11
169.6556019686
 21
180.6772844793
  0
LINE
  5
5F0
100
AcDbEntity
  8
30338519_CL
100
AcDbLine
 62
9
  6
CONTINUOUS
 10
169.7497628098
 20
124.6733525686
 11
169.7497628098
 21
174.0812220133
  0
LINE
  5
5F1
100
AcDbEntity
  8
30338519_HL
100
AcDbLine
 62
6
  6
HIDDEN
 10
169.7556019686
 20
173.992595335
 11
169.7556019686
 21
124.7619792468
  0
LINE
  5
5F2
100
AcDbEntity
  8
30338519_CL
100
AcDbLine
 62
7
  6
CONTINUOUS
 10
169.8556019686
 20
117.8772872909
 11
169.8556019686
 21
180.8772872909
  0
LINE
  5
5F3
100
AcDbEntity
  8
30338519_CL
100
AcDbLine
 62
7
  6
CONTINUOUS
 10
137.7556019686
 20
142.1072872909
 11
138.7556019686
 21
143.1072872909
  0
LINE
  5
5F4
100
AcDbEntity
  8
30338519_HL
100
AcDbLine
 62
6
  6
HIDDEN
 10
182.2556019686
 20
180.8772872909
 11
181.6556019686
 21
180.2772872909
  0
LINE
  5
5F5
100
AcDbEntity
  8
30338519_HL
100
AcDbLine
 62
6
  6
HIDDEN
 10
177.2556019686
 20
175.8772872909
 11
176.6556019686
 21
175.2772872909
  0
LINE
  5
5F6
100
AcDbEntity
  8
30338519_CL
100
AcDbLine
 62
7
  6
CONTINUOUS
 10
138.7556019686
 20
155.6472872909
 11
137.7556019686
 21
156.6472872909
  0
LINE
  5
5F7
100
AcDbEntity
  8
30338519_HL
100
AcDbLine
 62
6
  6
HIDDEN
 10
171.6556019686
 20
180.2772872909
 11
171.6556019686
 21
176.1772872909
  0
LINE
  5
5F8
100
AcDbEntity
  8
30338519_HL
100
AcDbLine
 62
6
  6
HIDDEN
 10
174.6056019686
 20
150.3772872909
 11
174.6056019686
 21
148.3772872909
  0
LINE
  5
5F9
100
AcDbEntity
  8
30338519_HL
100
AcDbLine
 62
6
  6
HIDDEN
 10
169.6556019686
 20
124.0033633698
 11
169.7497628098
 21
124.6733525686
  0
LINE
  5
5FA
100
AcDbEntity
  8
30338519_HL
100
AcDbLine
 62
6
  6
HIDDEN
 10
181.6556019686
 20
176.1772872909
 11
181.3556019686
 21
175.8772872909
  0
LINE
  5
5FB
100
AcDbEntity
  8
30338519_CL
100
AcDbLine
 62
9
  6
CONTINUOUS
 10
138.0023909075
 20
159.4928292641
 11
138.2266380603
 21
159.5946354106
  0
LINE
  5
5FC
100
AcDbEntity
  8
30338519_CL
100
AcDbLine
 62
9
  6
CONTINUOUS
 10
138.2266380606
 20
139.1599392406
 11
138.0023909075
 21
139.2617453177
  0
LINE
  5
5FD
100
AcDbEntity
  8
30338519_HL
100
AcDbLine
 62
6
  6
HIDDEN
 10
169.6556019686
 20
174.7512112121
 11
169.7497628098
 21
174.0812220133
  0
LINE
  5
5FE
100
AcDbEntity
  8
30338519_AXIS
100
AcDbLine
 62
3
  6
CENTER
 10
176.6556019686
 20
128.8472872909
 11
176.6556019686
 21
114.6359273205
  0
LINE
  5
5FF
100
AcDbEntity
  8
30338519_AXIS
100
AcDbLine
 62
3
  6
CENTER
 10
176.6556019686
 20
172.2772872909
 11
176.6556019686
 21
185.2772872909
  0
LINE
  5
600
100
AcDbEntity
  8
30338519_HL
100
AcDbLine
 62
6
  6
HIDDEN
 10
177.326445771
 20
166.3772872909
 11
177.326445771
 21
132.3772872909
  0
LINE
  5
601
100
AcDbEntity
  8
30338519_HL
100
AcDbLine
 62
6
  6
HIDDEN
 10
179.6556019686
 20
165.1232062272
 11
179.6556019686
 21
133.6313683547
  0
LINE
  5
602
100
AcDbEntity
  8
30338519_HL
100
AcDbLine
 62
6
  6
HIDDEN
 10
179.6556019686
 20
133.6313683547
 11
179.6556019686
 21
133.6272898874
  0
LINE
  5
603
100
AcDbEntity
  8
30338519_HL
100
AcDbLine
 62
6
  6
HIDDEN
 10
179.6556019686
 20
165.1232062272
 11
179.6556019686
 21
165.1272846945
  0
LINE
  5
604
100
AcDbEntity
  8
30338519_CL
100
AcDbLine
 62
7
  6
CONTINUOUS
 10
191.0331010434
 20
180.8772872909
 11
189.5306019686
 21
178.2748825551
  0
LINE
  5
605
100
AcDbEntity
  8
30338519_CL
100
AcDbLine
 62
7
  6
CONTINUOUS
 10
191.0331010434
 20
117.8772872909
 11
189.5306019686
 21
120.4796920267
  0
LINE
  5
606
100
AcDbEntity
  8
30338519_HL
100
AcDbLine
 62
6
  6
HIDDEN
 10
181.6556019686
 20
180.2772872909
 11
181.6556019686
 21
176.1772872909
  0
LINE
  5
607
100
AcDbEntity
  8
30338519_CL
100
AcDbLine
 62
7
  6
CONTINUOUS
 10
184.2781028938
 20
180.8772872909
 11
184.2781028938
 21
157.3772872909
  0
LINE
  5
608
100
AcDbEntity
  8
30338519_CL
100
AcDbLine
 62
7
  6
CONTINUOUS
 10
184.2781028938
 20
141.3772872909
 11
184.2781028938
 21
129.3772872909
  0
LINE
  5
609
100
AcDbEntity
  8
30338519_CL
100
AcDbLine
 62
7
  6
CONTINUOUS
 10
184.2781028938
 20
125.0411002437
 11
184.2781028938
 21
117.8772872909
  0
LINE
  5
60A
100
AcDbEntity
  8
30338519_HL
100
AcDbLine
 62
6
  6
HIDDEN
 10
184.2781028938
 20
125.0411002437
 11
184.2781028938
 21
129.3772872909
  0
LINE
  5
60B
100
AcDbEntity
  8
30338519_CL
100
AcDbLine
 62
7
  6
CONTINUOUS
 10
185.7806019686
 20
178.2748823514
 11
185.7806019686
 21
157.3772872909
  0
LINE
  5
60C
100
AcDbEntity
  8
30338519_CL
100
AcDbLine
 62
7
  6
CONTINUOUS
 10
185.7806019686
 20
120.4796944107
 11
185.7806019686
 21
141.3772872909
  0
LINE
  5
60D
100
AcDbEntity
  8
30338519_CL
100
AcDbLine
 62
9
  6
CONTINUOUS
 10
186.5306019686
 20
176.8772872909
 11
186.5306019686
 21
156.7257565193
  0
LINE
  5
60E
100
AcDbEntity
  8
30338519_CL
100
AcDbLine
 62
9
  6
CONTINUOUS
 10
186.5306019686
 20
142.0288180626
 11
186.5306019686
 21
121.8772872909
  0
LINE
  5
60F
100
AcDbEntity
  8
30338519_CL
100
AcDbLine
 62
7
  6
CONTINUOUS
 10
169.8556019686
 20
117.8772872909
 11
172.4569621488
 21
117.8772872909
  0
LINE
  5
610
100
AcDbEntity
  8
30338519_CL
100
AcDbLine
 62
7
  6
CONTINUOUS
 10
180.8542416336
 20
117.8772872909
 11
184.2781028938
 21
117.8772872909
  0
LINE
  5
611
100
AcDbEntity
  8
30338519_CL
100
AcDbLine
 62
7
  6
CONTINUOUS
 10
191.0331010434
 20
117.8772872909
 11
195.6056019686
 21
117.8772872909
  0
LINE
  5
612
100
AcDbEntity
  8
30338519_CL
100
AcDbLine
 62
7
  6
CONTINUOUS
 10
188.7806019686
 20
121.8772872909
 11
186.5306019686
 21
121.8772872909
  0
LINE
  5
613
100
AcDbEntity
  8
30338519_AXIS
100
AcDbLine
 62
3
  6
CENTER
 10
187.6556019686
 20
149.3772872909
 11
187.6556019686
 21
142.4272872909
  0
LINE
  5
614
100
AcDbEntity
  8
30338519_AXIS
100
AcDbLine
 62
3
  6
CENTER
 10
187.6556019686
 20
149.3772872909
 11
187.6556019686
 21
156.3272872909
  0
LINE
  5
615
100
AcDbEntity
  8
30338519_HL
100
AcDbLine
 62
6
  6
HIDDEN
 10
187.9556019686
 20
139.8772900388
 11
187.9556019686
 21
158.877284543
  0
LINE
  5
616
100
AcDbEntity
  8
30338519_CL
100
AcDbLine
 62
9
  6
CONTINUOUS
 10
188.7806019686
 20
176.8772872909
 11
188.7806019686
 21
156.7257565193
  0
LINE
  5
617
100
AcDbEntity
  8
30338519_CL
100
AcDbLine
 62
9
  6
CONTINUOUS
 10
188.7806019686
 20
142.0288180626
 11
188.7806019686
 21
121.8772872909
  0
LINE
  5
618
100
AcDbEntity
  8
30338519_CL
100
AcDbLine
 62
7
  6
CONTINUOUS
 10
189.5306019686
 20
120.4796944107
 11
189.5306019686
 21
141.3772872909
  0
LINE
  5
619
100
AcDbEntity
  8
30338519_CL
100
AcDbLine
 62
7
  6
CONTINUOUS
 10
189.5306019686
 20
157.3772872909
 11
189.5306019686
 21
178.2748823514
  0
LINE
  5
61A
100
AcDbEntity
  8
30338519_CL
100
AcDbLine
 62
7
  6
CONTINUOUS
 10
191.0331010434
 20
180.8772872909
 11
191.0331010434
 21
157.3772872909
  0
LINE
  5
61B
100
AcDbEntity
  8
30338519_CL
100
AcDbLine
 62
7
  6
CONTINUOUS
 10
191.0331010434
 20
141.3772872909
 11
191.0331010434
 21
129.3772872909
  0
LINE
  5
61C
100
AcDbEntity
  8
30338519_CL
100
AcDbLine
 62
7
  6
CONTINUOUS
 10
191.0331010434
 20
125.0411002437
 11
191.0331010434
 21
117.8772872909
  0
LINE
  5
61D
100
AcDbEntity
  8
30338519_HL
100
AcDbLine
 62
6
  6
HIDDEN
 10
191.0331010434
 20
125.0411002437
 11
191.0331010434
 21
129.3772872909
  0
LINE
  5
61E
100
AcDbEntity
  8
30338519_HL
100
AcDbLine
 62
6
  6
HIDDEN
 10
191.6556019686
 20
139.8772900388
 11
191.6556019686
 21
158.877284543
  0
LINE
  5
61F
100
AcDbEntity
  8
30338519_HL
100
AcDbLine
 62
6
  6
HIDDEN
 10
138.7556019686
 20
132.3772872909
 11
137.7556019686
 21
131.7999370217
  0
LINE
  5
620
100
AcDbEntity
  8
30338519_CL
100
AcDbLine
 62
7
  6
CONTINUOUS
 10
175.4938880649
 20
125.0411002437
 11
184.2781028938
 21
125.0411002437
  0
LINE
  5
621
100
AcDbEntity
  8
30338519_CL
100
AcDbLine
 62
7
  6
CONTINUOUS
 10
191.0331010434
 20
125.0411002437
 11
195.6056019686
 21
125.0411002437
  0
LINE
  5
622
100
AcDbEntity
  8
30338519_CL
100
AcDbLine
 62
7
  6
CONTINUOUS
 10
168.4810036287
 20
125.3568564292
 11
169.1556019686
 21
125.3568564292
  0
LINE
  5
623
100
AcDbEntity
  8
30338519_CL
100
AcDbLine
 62
7
  6
CONTINUOUS
 10
138.8955570382
 20
126.5977404439
 11
167.6556019686
 21
125.1568564292
  0
LINE
  5
624
100
AcDbEntity
  8
30338519_HL
100
AcDbLine
 62
6
  6
HIDDEN
 10
138.7556019686
 20
166.3772872909
 11
137.7556019686
 21
166.9546375601
  0
LINE
  5
625
100
AcDbEntity
  8
30338519_CL
100
AcDbLine
 62
7
  6
CONTINUOUS
 10
195.6056019686
 20
117.8772874648
 11
195.6056019686
 21
180.8772869056
  0
LINE
  5
626
100
AcDbEntity
  8
30338519_CL
100
AcDbLine
 62
7
  6
CONTINUOUS
 10
238.8307830239
 20
133.3772872909
 11
288.7340610643
 21
137.3047604489
  0
LINE
  5
627
100
AcDbEntity
  8
30338519_HL
100
AcDbLine
 62
6
  6
HIDDEN
 10
152.7380375339
 20
129.3772872909
 11
163.4106039702
 21
129.3772872909
  0
LINE
  5
628
100
AcDbEntity
  8
30338519_CL
100
AcDbLine
 62
7
  6
CONTINUOUS
 10
182.6056019686
 20
129.3772872909
 11
185.7806019686
 21
129.3772872909
  0
LINE
  5
629
100
AcDbEntity
  8
30338519_CL
100
AcDbLine
 62
7
  6
CONTINUOUS
 10
189.5306019686
 20
129.3772872909
 11
195.6056019686
 21
129.3772872909
  0
LINE
  5
62A
100
AcDbEntity
  8
30338519_HL
100
AcDbLine
 62
6
  6
HIDDEN
 10
138.7556019686
 20
132.3772872909
 11
150.6595765648
 21
132.3772872909
  0
LINE
  5
62B
100
AcDbEntity
  8
30338519_HL
100
AcDbLine
 62
6
  6
HIDDEN
 10
169.6556019686
 20
132.3772872909
 11
177.326445771
 21
132.3772872909
  0
LINE
  5
62C
100
AcDbEntity
  8
30338519_CL
100
AcDbLine
 62
7
  6
CONTINUOUS
 10
200.6056019686
 20
133.3772872909
 11
227.6556019686
 21
133.3772872909
  0
LINE
  5
62D
100
AcDbEntity
  8
30338519_CL
100
AcDbLine
 62
7
  6
CONTINUOUS
 10
235.6556019686
 20
133.3772872909
 11
238.8307830239
 21
133.3772872909
  0
LINE
  5
62E
100
AcDbEntity
  8
30338519_CL
100
AcDbLine
 62
7
  6
CONTINUOUS
 10
227.6556019686
 20
133.5272872909
 11
229.1556019686
 21
133.5272872909
  0
LINE
  5
62F
100
AcDbEntity
  8
30338519_CL
100
AcDbLine
 62
7
  6
CONTINUOUS
 10
234.1556019686
 20
133.5272872909
 11
235.6556019686
 21
133.5272872909
  0
LINE
  5
630
100
AcDbEntity
  8
30338519_CL
100
AcDbLine
 62
9
  6
CONTINUOUS
 10
200.6056019686
 20
165.3772872909
 11
200.6056019686
 21
133.3772872909
  0
LINE
  5
631
100
AcDbEntity
  8
30338519_CL
100
AcDbLine
 62
7
  6
CONTINUOUS
 10
167.6556019686
 20
125.1568564292
 11
168.3257122016
 21
125.336411925
  0
LINE
  5
632
100
AcDbEntity
  8
30338519_HL
100
AcDbLine
 62
6
  6
HIDDEN
 10
171.6556019686
 20
176.1772872909
 11
171.9556019686
 21
175.8772872909
  0
LINE
  5
633
100
AcDbEntity
  8
30338519_CL
100
AcDbLine
 62
7
  6
CONTINUOUS
 10
185.7806019686
 20
120.4796920267
 11
184.2781028938
 21
117.8772872909
  0
LINE
  5
634
100
AcDbEntity
  8
30338519_HL
100
AcDbLine
 62
6
  6
HIDDEN
 10
191.6556019686
 20
139.8772872909
 11
187.9556019686
 21
139.8772872909
  0
LINE
  5
635
100
AcDbEntity
  8
30338519_HL
100
AcDbLine
 62
6
  6
HIDDEN
 10
234.6556019686
 20
140.0272872909
 11
228.6556019686
 21
140.0272872909
  0
LINE
  5
636
100
AcDbEntity
  8
30338519_HL
100
AcDbLine
 62
6
  6
HIDDEN
 10
187.9556019686
 20
140.3772872909
 11
179.6556019686
 21
140.3772872909
  0
LINE
  5
637
100
AcDbEntity
  8
30338519_HL
100
AcDbLine
 62
6
  6
HIDDEN
 10
189.4828287943
 20
140.3772872909
 11
195.6056019686
 21
140.3772872909
  0
LINE
  5
638
100
AcDbEntity
  8
30338519_HL
100
AcDbLine
 62
6
  6
HIDDEN
 10
187.9556019686
 20
140.8772872909
 11
179.6556019686
 21
140.8772872909
  0
LINE
  5
639
100
AcDbEntity
  8
30338519_CL
100
AcDbLine
 62
7
  6
CONTINUOUS
 10
182.6056019686
 20
141.3772872909
 11
186.0417353914
 21
141.3772872909
  0
LINE
  5
63A
100
AcDbEntity
  8
30338519_CL
100
AcDbLine
 62
7
  6
CONTINUOUS
 10
189.2694685458
 20
141.3772872909
 11
195.6056019686
 21
141.3772872909
  0
LINE
  5
63B
100
AcDbEntity
  8
30338519_HL
100
AcDbLine
 62
6
  6
HIDDEN
 10
234.1556019686
 20
141.9772872909
 11
229.1556019686
 21
141.9772872909
  0
LINE
  5
63C
100
AcDbEntity
  8
30338519_CL
100
AcDbLine
 62
7
  6
CONTINUOUS
 10
188.7806019686
 20
142.0288180626
 11
186.5306019686
 21
142.0288180626
  0
LINE
  5
63D
100
AcDbEntity
  8
30338519_CL
100
AcDbLine
 62
7
  6
CONTINUOUS
 10
138.7556019686
 20
143.1072872909
 11
142.2556019686
 21
143.1072872909
  0
LINE
  5
63E
100
AcDbEntity
  8
30338519_HL
100
AcDbLine
 62
6
  6
HIDDEN
 10
241.1556019686
 20
143.2272872909
 11
253.6556019686
 21
143.2272872909
  0
LINE
  5
63F
100
AcDbEntity
  8
30338519_HL
100
AcDbLine
 62
6
  6
HIDDEN
 10
253.6556019686
 20
143.3772872909
 11
286.6556019686
 21
143.3772872909
  0
LINE
  5
640
100
AcDbEntity
  8
30338519_HL
100
AcDbLine
 62
6
  6
HIDDEN
 10
241.1556019686
 20
144.3772872909
 11
224.6556019686
 21
144.3772872909
  0
LINE
  5
641
100
AcDbEntity
  8
30252542_HL
100
AcDbLine
 62
6
  6
HIDDEN
 10
229.7706019686
 20
144.3772872909
 11
235.9556019686
 21
144.3772872909
  0
LINE
  5
642
100
AcDbEntity
  8
30252542_HL
100
AcDbLine
 62
6
  6
HIDDEN
 10
241.1556019686
 20
144.4772872909
 11
242.6556019686
 21
144.4772872909
  0
LINE
  5
643
100
AcDbEntity
  8
30338519_HL
100
AcDbLine
 62
6
  6
HIDDEN
 10
171.0556019686
 20
180.8772872909
 11
171.6556019686
 21
180.2772872909
  0
LINE
  5
644
100
AcDbEntity
  8
30338519_HL
100
AcDbLine
 62
6
  6
HIDDEN
 10
176.0556019686
 20
175.8772872909
 11
176.6556019686
 21
175.2772872909
  0
LINE
  5
645
100
AcDbEntity
  8
30338519_CL
100
AcDbLine
 62
7
  6
CONTINUOUS
 10
185.7806019686
 20
178.2748825551
 11
184.2781028938
 21
180.8772872909
  0
LINE
  5
646
100
AcDbEntity
  8
30338519_HL
100
AcDbLine
 62
6
  6
HIDDEN
 10
286.6556019686
 20
155.3772872909
 11
288.7427577113
 21
155.5598897574
  0
LINE
  5
647
100
AcDbEntity
  8
30338519_HL
100
AcDbLine
 62
6
  6
HIDDEN
 10
222.6556019686
 20
144.8772872909
 11
240.5556019686
 21
144.8772872909
  0
LINE
  5
648
100
AcDbEntity
  8
30252542_HL
100
AcDbLine
 62
6
  6
HIDDEN
 10
229.1556019686
 20
144.9922872909
 11
237.0208132153
 21
144.9922872909
  0
LINE
  5
649
100
AcDbEntity
  8
30338519_HL
100
AcDbLine
 62
6
  6
HIDDEN
 10
191.6556019686
 20
145.3772872909
 11
222.366926834
 21
145.3772872909
  0
LINE
  5
64A
100
AcDbEntity
  8
30252542_HL
100
AcDbLine
 62
6
  6
HIDDEN
 10
238.1618197513
 20
145.5272872909
 11
240.3556019686
 21
145.5272872909
  0
LINE
  5
64B
100
AcDbEntity
  8
30252542_HL
100
AcDbLine
 62
6
  6
HIDDEN
 10
229.7556019686
 20
146.8772872909
 11
242.0556019686
 21
146.8772872909
  0
LINE
  5
64C
100
AcDbEntity
  8
30338519_AXIS
100
AcDbLine
 62
3
  6
CENTER
 10
231.6556019686
 20
149.3772872909
 11
225.6556019686
 21
149.3772872909
  0
LINE
  5
64D
100
AcDbEntity
  8
30338519_AXIS
100
AcDbLine
 62
3
  6
CENTER
 10
187.6556019686
 20
149.3772872909
 11
180.7056019686
 21
149.3772872909
  0
LINE
  5
64E
100
AcDbEntity
  8
30338519_AXIS
100
AcDbLine
 62
3
  6
CENTER
 10
160.6556019686
 20
149.3772872909
 11
151.9056019686
 21
149.3772872909
  0
LINE
  5
64F
100
AcDbEntity
  8
30338519_AXIS
100
AcDbLine
 62
3
  6
CENTER
 10
294.6556019686
 20
149.3772872909
 11
132.7556019686
 21
149.3772872909
  0
LINE
  5
650
100
AcDbEntity
  8
30338519_AXIS
100
AcDbLine
 62
3
  6
CENTER
 10
160.6556019686
 20
149.3772872909
 11
169.4056019686
 21
149.3772872909
  0
LINE
  5
651
100
AcDbEntity
  8
30338519_AXIS
100
AcDbLine
 62
3
  6
CENTER
 10
187.6556019686
 20
149.3772872909
 11
194.6056019686
 21
149.3772872909
  0
LINE
  5
652
100
AcDbEntity
  8
30252542_HL
100
AcDbLine
 62
6
  6
HIDDEN
 10
229.1556019686
 20
149.3772872909
 11
234.1556019686
 21
149.3772872909
  0
LINE
  5
653
100
AcDbEntity
  8
30338519_AXIS
100
AcDbLine
 62
3
  6
CENTER
 10
231.6556019686
 20
149.3772872909
 11
237.6556019686
 21
149.3772872909
  0
LINE
  5
654
100
AcDbEntity
  8
30252542_HL
100
AcDbLine
 62
6
  6
HIDDEN
 10
237.6556019686
 20
149.3772872909
 11
242.6556019686
 21
149.3772872909
  0
LINE
  5
655
100
AcDbEntity
  8
30338519_HL
100
AcDbLine
 62
6
  6
HIDDEN
 10
286.6556019686
 20
143.3772872909
 11
288.7427577113
 21
143.1946848244
  0
LINE
  5
656
100
AcDbEntity
  8
30338519_HL
100
AcDbLine
 62
6
  6
HIDDEN
 10
222.366926834
 20
153.3772872909
 11
222.6556019686
 21
153.8772872909
  0
LINE
  5
657
100
AcDbEntity
  8
30338519_HL
100
AcDbLine
 62
6
  6
HIDDEN
 10
234.1556019686
 20
156.7272872909
 11
231.6556019686
 21
155.2251357434
  0
LINE
  5
658
100
AcDbEntity
  8
30252542_HL
100
AcDbLine
 62
6
  6
HIDDEN
 10
229.7556019686
 20
151.8772872909
 11
242.0556019686
 21
151.8772872909
  0
LINE
  5
659
100
AcDbEntity
  8
30252542_HL
100
AcDbLine
 62
6
  6
HIDDEN
 10
238.1618197513
 20
153.2272872909
 11
240.3556019686
 21
153.2272872909
  0
LINE
  5
65A
100
AcDbEntity
  8
30338519_HL
100
AcDbLine
 62
6
  6
HIDDEN
 10
191.6556019686
 20
153.3772872909
 11
222.366926834
 21
153.3772872909
  0
LINE
  5
65B
100
AcDbEntity
  8
30252542_HL
100
AcDbLine
 62
6
  6
HIDDEN
 10
229.1556019686
 20
153.7622872909
 11
237.0208132153
 21
153.7622872909
  0
LINE
  5
65C
100
AcDbEntity
  8
30338519_HL
100
AcDbLine
 62
6
  6
HIDDEN
 10
222.6556019686
 20
153.8772872909
 11
240.5556019686
 21
153.8772872909
  0
LINE
  5
65D
100
AcDbEntity
  8
30252542_HL
100
AcDbLine
 62
6
  6
HIDDEN
 10
241.1556019686
 20
154.2772872909
 11
242.6556019686
 21
154.2772872909
  0
LINE
  5
65E
100
AcDbEntity
  8
30338519_HL
100
AcDbLine
 62
6
  6
HIDDEN
 10
241.1556019686
 20
154.3772872909
 11
224.6556019686
 21
154.3772872909
  0
LINE
  5
65F
100
AcDbEntity
  8
30252542_HL
100
AcDbLine
 62
6
  6
HIDDEN
 10
229.7706019686
 20
154.3772872909
 11
235.9556019686
 21
154.3772872909
  0
LINE
  5
660
100
AcDbEntity
  8
30338519_HL
100
AcDbLine
 62
6
  6
HIDDEN
 10
253.6556019686
 20
155.3772872909
 11
286.6556019686
 21
155.3772872909
  0
LINE
  5
661
100
AcDbEntity
  8
30338519_HL
100
AcDbLine
 62
6
  6
HIDDEN
 10
241.1556019686
 20
155.5272872909
 11
253.6556019686
 21
155.5272872909
  0
LINE
  5
662
100
AcDbEntity
  8
30338519_HL
100
AcDbLine
 62
6
  6
HIDDEN
 10
234.1556019686
 20
141.9772872909
 11
231.6556019686
 21
143.4794388385
  0
LINE
  5
663
100
AcDbEntity
  8
30338519_HL
100
AcDbLine
 62
6
  6
HIDDEN
 10
222.366926834
 20
145.3772872909
 11
222.6556019686
 21
144.8772872909
  0
LINE
  5
664
100
AcDbEntity
  8
30338519_HL
100
AcDbLine
 62
6
  6
HIDDEN
 10
222.366926834
 20
153.3772872909
 11
222.366926834
 21
145.3772872909
  0
LINE
  5
665
100
AcDbEntity
  8
30338519_HL
100
AcDbLine
 62
6
  6
HIDDEN
 10
222.6556019686
 20
144.8772872909
 11
222.6556019686
 21
153.8772872909
  0
LINE
  5
666
100
AcDbEntity
  8
30338519_HL
100
AcDbLine
 62
6
  6
HIDDEN
 10
224.6556019686
 20
154.3772872909
 11
224.6556019686
 21
144.3772872909
  0
LINE
  5
667
100
AcDbEntity
  8
30252542_HL
100
AcDbLine
 62
6
  6
HIDDEN
 10
229.1556019686
 20
153.7622872909
 11
229.7706019686
 21
154.3772872909
  0
LINE
  5
668
100
AcDbEntity
  8
30338519_CL
100
AcDbLine
 62
7
  6
CONTINUOUS
 10
142.2556019686
 20
155.6472872909
 11
138.7556019686
 21
155.6472872909
  0
LINE
  5
669
100
AcDbEntity
  8
30338519_CL
100
AcDbLine
 62
7
  6
CONTINUOUS
 10
188.7806019686
 20
156.7257565193
 11
186.5306019686
 21
156.7257565193
  0
LINE
  5
66A
100
AcDbEntity
  8
30338519_HL
100
AcDbLine
 62
6
  6
HIDDEN
 10
234.1556019686
 20
156.7272872909
 11
229.1556019686
 21
156.7272872909
  0
LINE
  5
66B
100
AcDbEntity
  8
30338519_CL
100
AcDbLine
 62
7
  6
CONTINUOUS
 10
182.6056019686
 20
157.3772872909
 11
186.0417353914
 21
157.3772872909
  0
LINE
  5
66C
100
AcDbEntity
  8
30338519_CL
100
AcDbLine
 62
7
  6
CONTINUOUS
 10
189.2694685458
 20
157.3772872909
 11
195.6056019686
 21
157.3772872909
  0
LINE
  5
66D
100
AcDbEntity
  8
30338519_HL
100
AcDbLine
 62
6
  6
HIDDEN
 10
187.9556019686
 20
157.8772872909
 11
179.6556019686
 21
157.8772872909
  0
LINE
  5
66E
100
AcDbEntity
  8
30338519_HL
100
AcDbLine
 62
6
  6
HIDDEN
 10
195.6056019686
 20
158.3772872909
 11
189.4828287943
 21
158.3772872909
  0
LINE
  5
66F
100
AcDbEntity
  8
30338519_HL
100
AcDbLine
 62
6
  6
HIDDEN
 10
187.9556019686
 20
158.3772872909
 11
179.6556019686
 21
158.3772872909
  0
LINE
  5
670
100
AcDbEntity
  8
30338519_HL
100
AcDbLine
 62
6
  6
HIDDEN
 10
234.6556019686
 20
158.7272872909
 11
228.6556019686
 21
158.7272872909
  0
LINE
  5
671
100
AcDbEntity
  8
30338519_HL
100
AcDbLine
 62
6
  6
HIDDEN
 10
191.6556019686
 20
158.8772872909
 11
187.9556019686
 21
158.8772872909
  0
LINE
  5
672
100
AcDbEntity
  8
30338519_CL
100
AcDbLine
 62
7
  6
CONTINUOUS
 10
167.6556019686
 20
173.5977181527
 11
168.3257122016
 21
173.4181626569
  0
LINE
  5
673
100
AcDbEntity
  8
30252542_HL
100
AcDbLine
 62
6
  6
HIDDEN
 10
229.1556019686
 20
144.9922872909
 11
229.7706019686
 21
144.3772872909
  0
LINE
  5
674
100
AcDbEntity
  8
30338519_CL
100
AcDbLine
 62
7
  6
CONTINUOUS
 10
227.6556019686
 20
165.3772872909
 11
227.6556019686
 21
133.3772872909
  0
LINE
  5
675
100
AcDbEntity
  8
30338519_HL
100
AcDbLine
 62
6
  6
HIDDEN
 10
228.6556019686
 20
140.0272872909
 11
228.6556019686
 21
133.5276278732
  0
LINE
  5
676
100
AcDbEntity
  8
30338519_HL
100
AcDbLine
 62
6
  6
HIDDEN
 10
228.6556019686
 20
158.7272872909
 11
228.6556019686
 21
165.2269467086
  0
LINE
  5
677
100
AcDbEntity
  8
30338519_HL
100
AcDbLine
 62
6
  6
HIDDEN
 10
229.1556019686
 20
165.2272872909
 11
229.1556019686
 21
156.7272872909
  0
LINE
  5
678
100
AcDbEntity
  8
30252542_HL
100
AcDbLine
 62
6
  6
HIDDEN
 10
229.1556019686
 20
153.7622872909
 11
229.1556019686
 21
144.9922872909
  0
LINE
  5
679
100
AcDbEntity
  8
30338519_HL
100
AcDbLine
 62
6
  6
HIDDEN
 10
229.1556019686
 20
133.5272872909
 11
229.1556019686
 21
141.9772872909
  0
LINE
  5
67A
100
AcDbEntity
  8
30252542_HL
100
AcDbLine
 62
6
  6
HIDDEN
 10
229.7556019686
 20
151.8772872909
 11
229.7556019686
 21
146.8772872909
  0
LINE
  5
67B
100
AcDbEntity
  8
30252542_HL
100
AcDbLine
 62
6
  6
HIDDEN
 10
229.7706019686
 20
154.3772872909
 11
229.7706019686
 21
144.3772872909
  0
LINE
  5
67C
100
AcDbEntity
  8
30252542_HL
100
AcDbLine
 62
6
  6
HIDDEN
 10
229.7556019686
 20
146.8772872909
 11
229.1556019686
 21
146.2772872909
  0
LINE
  5
67D
100
AcDbEntity
  8
30338519_HL
100
AcDbLine
 62
6
  6
HIDDEN
 10
229.1556019686
 20
141.9772872909
 11
231.6556019686
 21
143.4794388385
  0
LINE
  5
67E
100
AcDbEntity
  8
30252542_HL
100
AcDbLine
 62
6
  6
HIDDEN
 10
235.9556019686
 20
144.3772872909
 11
237.7618197513
 21
145.420107614
  0
LINE
  5
67F
100
AcDbEntity
  8
30338519_CL
100
AcDbLine
 62
7
  6
CONTINUOUS
 10
227.6556019686
 20
165.2272872909
 11
229.1556019686
 21
165.2272872909
  0
LINE
  5
680
100
AcDbEntity
  8
30338519_CL
100
AcDbLine
 62
7
  6
CONTINUOUS
 10
234.1556019686
 20
165.2272872909
 11
235.6556019686
 21
165.2272872909
  0
LINE
  5
681
100
AcDbEntity
  8
30338519_CL
100
AcDbLine
 62
7
  6
CONTINUOUS
 10
200.6056019686
 20
165.3772872909
 11
227.6556019686
 21
165.3772872909
  0
LINE
  5
682
100
AcDbEntity
  8
30338519_CL
100
AcDbLine
 62
7
  6
CONTINUOUS
 10
235.6556019686
 20
165.3772872909
 11
238.8307830239
 21
165.3772872909
  0
LINE
  5
683
100
AcDbEntity
  8
30338519_HL
100
AcDbLine
 62
6
  6
HIDDEN
 10
138.7556019686
 20
166.3772872909
 11
150.6595765648
 21
166.3772872909
  0
LINE
  5
684
100
AcDbEntity
  8
30338519_HL
100
AcDbLine
 62
6
  6
HIDDEN
 10
169.6556019686
 20
166.3772872909
 11
177.326445771
 21
166.3772872909
  0
LINE
  5
685
100
AcDbEntity
  8
30252542_HL
100
AcDbLine
 62
6
  6
HIDDEN
 10
235.9556019686
 20
154.3772872909
 11
237.7618197513
 21
153.3344669679
  0
LINE
  5
686
100
AcDbEntity
  8
30338519_HL
100
AcDbLine
 62
6
  6
HIDDEN
 10
229.1556019686
 20
156.7272872909
 11
231.6556019686
 21
155.2251357434
  0
LINE
  5
687
100
AcDbEntity
  8
30252542_HL
100
AcDbLine
 62
6
  6
HIDDEN
 10
229.7556019686
 20
151.8772872909
 11
229.1556019686
 21
152.4772872909
  0
LINE
  5
688
100
AcDbEntity
  8
30338519_AXIS
100
AcDbLine
 62
3
  6
CENTER
 10
231.6556019686
 20
149.3772872909
 11
231.6556019686
 21
143.3772872909
  0
LINE
  5
689
100
AcDbEntity
  8
30338519_AXIS
100
AcDbLine
 62
3
  6
CENTER
 10
231.6556019686
 20
143.3772872909
 11
231.6556019686
 21
130.4604388385
  0
LINE
  5
68A
100
AcDbEntity
  8
30338519_AXIS
100
AcDbLine
 62
3
  6
CENTER
 10
231.6556019686
 20
149.3772872909
 11
231.6556019686
 21
155.3772872909
  0
LINE
  5
68B
100
AcDbEntity
  8
30338519_CL
100
AcDbLine
 62
30
  6
CONTINUOUS
 10
231.6556019686
 20
164.4196433231
 11
231.6556019686
 21
165.0297580513
  0
LINE
  5
68C
100
AcDbEntity
  8
30338519_AXIS
100
AcDbLine
 62
3
  6
CENTER
 10
231.6556019686
 20
155.3772872909
 11
231.6556019686
 21
168.2441357434
  0
LINE
  5
68D
100
AcDbEntity
  8
30338519_HL
100
AcDbLine
 62
6
  6
HIDDEN
 10
234.1556019686
 20
165.2272872909
 11
234.1556019686
 21
156.7272872909
  0
LINE
  5
68E
100
AcDbEntity
  8
30338519_HL
100
AcDbLine
 62
6
  6
HIDDEN
 10
234.1556019686
 20
133.5272872909
 11
234.1556019686
 21
141.9772872909
  0
LINE
  5
68F
100
AcDbEntity
  8
30252542_HL
100
AcDbLine
 62
6
  6
HIDDEN
 10
234.1556019686
 20
146.8772872909
 11
234.1556019686
 21
151.8772872909
  0
LINE
  5
690
100
AcDbEntity
  8
30338519_HL
100
AcDbLine
 62
6
  6
HIDDEN
 10
234.6556019686
 20
140.0272872909
 11
234.6556019686
 21
133.5276278732
  0
LINE
  5
691
100
AcDbEntity
  8
30338519_HL
100
AcDbLine
 62
6
  6
HIDDEN
 10
234.6556019686
 20
158.7272872909
 11
234.6556019686
 21
165.2269467086
  0
LINE
  5
692
100
AcDbEntity
  8
30338519_CL
100
AcDbLine
 62
7
  6
CONTINUOUS
 10
235.6556019686
 20
165.3772872909
 11
235.6556019686
 21
133.3772872909
  0
LINE
  5
693
100
AcDbEntity
  8
30252542_HL
100
AcDbLine
 62
6
  6
HIDDEN
 10
235.9556019686
 20
154.3772872909
 11
235.9556019686
 21
144.3772872909
  0
LINE
  5
694
100
AcDbEntity
  8
30338519_HL
100
AcDbLine
 62
6
  6
HIDDEN
 10
240.5556019686
 20
153.8772872909
 11
241.1556019686
 21
154.9165177755
  0
LINE
  5
695
100
AcDbEntity
  8
30252542_HL
100
AcDbLine
 62
6
  6
HIDDEN
 10
242.0556019686
 20
151.8772872909
 11
242.6556019686
 21
152.4772872909
  0
LINE
  5
696
100
AcDbEntity
  8
30338519_HL
100
AcDbLine
 62
6
  6
HIDDEN
 10
152.7380375339
 20
169.3772872909
 11
163.4106039702
 21
169.3772872909
  0
LINE
  5
697
100
AcDbEntity
  8
30338519_CL
100
AcDbLine
 62
7
  6
CONTINUOUS
 10
238.8307830239
 20
165.3772872909
 11
288.7340610643
 21
161.449814133
  0
LINE
  5
698
100
AcDbEntity
  8
30252542_HL
100
AcDbLine
 62
6
  6
HIDDEN
 10
242.0556019686
 20
146.8772872909
 11
242.6556019686
 21
146.2772872909
  0
LINE
  5
699
100
AcDbEntity
  8
30338519_HL
100
AcDbLine
 62
6
  6
HIDDEN
 10
240.5556019686
 20
144.8772872909
 11
241.1556019686
 21
143.8380568064
  0
LINE
  5
69A
100
AcDbEntity
  8
30252542_HL
100
AcDbLine
 62
6
  6
HIDDEN
 10
237.0208132153
 20
153.7622872909
 11
237.0208132153
 21
144.9922872909
  0
LINE
  5
69B
100
AcDbEntity
  8
30252542_HL
100
AcDbLine
 62
6
  6
HIDDEN
 10
237.6556019686
 20
151.8772872909
 11
237.6556019686
 21
146.8772872909
  0
LINE
  5
69C
100
AcDbEntity
  8
30252542_CL
100
AcDbLine
 62
9
  6
CONTINUOUS
 10
237.7618197513
 20
145.420107614
 11
237.7618197513
 21
153.3344669679
  0
LINE
  5
69D
100
AcDbEntity
  8
30252542_CL
100
AcDbLine
 62
9
  6
CONTINUOUS
 10
238.1618197513
 20
145.5272872909
 11
238.1618197513
 21
153.2272872909
  0
LINE
  5
69E
100
AcDbEntity
  8
30338519_CL
100
AcDbLine
 62
7
  6
CONTINUOUS
 10
238.8307830239
 20
165.3772872909
 11
238.8307830239
 21
133.3772872909
  0
LINE
  5
69F
100
AcDbEntity
  8
30252542_CL
100
AcDbLine
 62
9
  6
CONTINUOUS
 10
240.3556019686
 20
145.5272872909
 11
240.3556019686
 21
153.2272872909
  0
LINE
  5
6A0
100
AcDbEntity
  8
30338519_HL
100
AcDbLine
 62
6
  6
HIDDEN
 10
240.5556019686
 20
144.8772872909
 11
240.5556019686
 21
153.8772872909
  0
LINE
  5
6A1
100
AcDbEntity
  8
30338519_HL
100
AcDbLine
 62
6
  6
HIDDEN
 10
241.1556019686
 20
155.5272872909
 11
241.1556019686
 21
143.2272872909
  0
LINE
  5
6A2
100
AcDbEntity
  8
30252542_HL
100
AcDbLine
 62
6
  6
HIDDEN
 10
241.1556019686
 20
144.4773083172
 11
241.1556019686
 21
154.2772662647
  0
LINE
  5
6A3
100
AcDbEntity
  8
30338519_CL
100
AcDbLine
 62
7
  6
CONTINUOUS
 10
138.8955570382
 20
172.156834138
 11
167.6556019686
 21
173.5977181527
  0
LINE
  5
6A4
100
AcDbEntity
  8
30338519_CL
100
AcDbLine
 62
7
  6
CONTINUOUS
 10
168.4810036287
 20
173.3977181527
 11
169.1556019686
 21
173.3977181527
  0
LINE
  5
6A5
100
AcDbEntity
  8
30338519_HL
100
AcDbLine
 62
6
  6
HIDDEN
 10
171.9556019686
 20
175.8772872909
 11
181.3556019686
 21
175.8772872909
  0
LINE
  5
6A6
100
AcDbEntity
  8
30338519_HL
100
AcDbLine
 62
6
  6
HIDDEN
 10
171.6556019686
 20
176.1772872909
 11
181.6556019686
 21
176.1772872909
  0
LINE
  5
6A7
100
AcDbEntity
  8
30338519_CL
100
AcDbLine
 62
7
  6
CONTINUOUS
 10
188.7806019686
 20
176.8772872909
 11
186.5306019686
 21
176.8772872909
  0
LINE
  5
6A8
100
AcDbEntity
  8
30252542_HL
100
AcDbLine
 62
6
  6
HIDDEN
 10
242.0556019686
 20
151.8772872909
 11
242.0556019686
 21
146.8772872909
  0
LINE
  5
6A9
100
AcDbEntity
  8
30252542_HL
100
AcDbLine
 62
6
  6
HIDDEN
 10
242.6556019686
 20
144.4773083172
 11
242.6556019686
 21
154.2772662647
  0
LINE
  5
6AA
100
AcDbEntity
  8
30338519_HL
100
AcDbLine
 62
6
  6
HIDDEN
 10
171.6556019686
 20
180.2772872909
 11
181.6556019686
 21
180.2772872909
  0
LINE
  5
6AB
100
AcDbEntity
  8
30338519_CL
100
AcDbLine
 62
7
  6
CONTINUOUS
 10
169.8556019686
 20
180.8772872909
 11
171.0556019686
 21
180.8772872909
  0
LINE
  5
6AC
100
AcDbEntity
  8
30338519_CL
100
AcDbLine
 62
7
  6
CONTINUOUS
 10
182.2556019686
 20
180.8772872909
 11
184.2781028938
 21
180.8772872909
  0
LINE
  5
6AD
100
AcDbEntity
  8
30338519_CL
100
AcDbLine
 62
7
  6
CONTINUOUS
 10
191.0331010434
 20
180.8772872909
 11
195.6056019686
 21
180.8772872909
  0
LINE
  5
6AE
100
AcDbEntity
  8
30338519_HL
100
AcDbLine
 62
6
  6
HIDDEN
 10
253.6556019686
 20
155.5272872909
 11
253.6556019686
 21
143.2272872909
  0
LINE
  5
6AF
100
AcDbEntity
  8
30338519_HL
100
AcDbLine
 62
6
  6
HIDDEN
 10
286.6556019686
 20
155.3772872909
 11
286.6556019686
 21
143.3772872909
  0
LINE
  5
6B0
100
AcDbEntity
  8
30338519_CL
100
AcDbLine
 62
9
  6
CONTINUOUS
 10
288.7340610643
 20
161.449814133
 11
288.7340610643
 21
137.3047604489
  0
LINE
  5
6B1
100
AcDbEntity
  8
30338519_CL
100
AcDbLine
 62
9
  6
CONTINUOUS
 10
288.7427577113
 20
155.5598897574
 11
288.7427577113
 21
143.1946848244
  0
LINE
  5
6B2
100
AcDbEntity
  8
30338519_CL
100
AcDbLine
 62
7
  6
CONTINUOUS
 10
289.6556019686
 20
160.4528967993
 11
289.6556019686
 21
138.3016777826
  0
ARC
  5
6B3
100
AcDbEntity
  8
30338519_CL
100
AcDbCircle
 62
7
  6
CONTINUOUS
 10
138.9556019686
 20
127.796237255
 40
1.2
100
AcDbArc
 50
180.0
 51
267.131868059
  0
ARC
  5
6B4
100
AcDbEntity
  8
30338519_HL
100
AcDbCircle
 62
6
  6
HIDDEN
 10
152.7380375339
 20
129.9772872909
 40
0.6
100
AcDbArc
 50
210.0
 51
270.0
  0
CIRCLE
  5
6B5
100
AcDbEntity
  8
30338519_CL
100
AcDbCircle
 62
7
  6
CONTINUOUS
 10
160.6556019686
 20
149.3772872909
 40
3.75
  0
ARC
  5
6B6
100
AcDbEntity
  8
30338519_HL
100
AcDbCircle
 62
6
  6
HIDDEN
 10
142.2556019686
 20
144.6072872909
 40
1.5
100
AcDbArc
 50
358.2576964496
 51
360.0
  0
ARC
  5
6B7
100
AcDbEntity
  8
30338519_CL
100
AcDbCircle
 62
7
  6
CONTINUOUS
 10
142.2556019686
 20
144.6072872909
 40
1.5
100
AcDbArc
 50
270.0
 51
358.2576964496
  0
ARC
  5
6B8
100
AcDbEntity
  8
30338519_CL
100
AcDbCircle
 62
7
  6
CONTINUOUS
 10
182.6056019686
 20
121.3772872909
 40
8.0
100
AcDbArc
 50
90.0
 51
152.7433806908
  0
ARC
  5
6B9
100
AcDbEntity
  8
30338519_HL
100
AcDbCircle
 62
6
  6
HIDDEN
 10
178.1556019686
 20
133.6272872909
 40
1.5
100
AcDbArc
 50
236.4426902381
 51
360.0
  0
ARC
  5
6BA
100
AcDbEntity
  8
30338519_CL
100
AcDbCircle
 62
7
  6
CONTINUOUS
 10
186.5306019686
 20
121.1272872909
 40
0.75
100
AcDbArc
 50
90.0
 51
180.0
  0
ARC
  5
6BB
100
AcDbEntity
  8
30338519_HL
100
AcDbCircle
 62
6
  6
HIDDEN
 10
169.1556019686
 20
124.7568564292
 40
0.6
100
AcDbArc
 50
352.0
 51
33.5458509117
  0
ARC
  5
6BC
100
AcDbEntity
  8
30338519_CL
100
AcDbCircle
 62
7
  6
CONTINUOUS
 10
168.4810036287
 20
124.7568564292
 40
0.6
100
AcDbArc
 50
90.0
 51
105.0
  0
ARC
  5
6BD
100
AcDbEntity
  8
30338519_CL
100
AcDbCircle
 62
7
  6
CONTINUOUS
 10
169.1556019686
 20
124.7568564292
 40
0.6
100
AcDbArc
 50
33.5458509117
 51
90.0
  0
ARC
  5
6BE
100
AcDbEntity
  8
30338519_HL
100
AcDbCircle
 62
6
  6
HIDDEN
 10
182.6056019686
 20
150.3772872909
 40
8.0
100
AcDbArc
 50
90.0
 51
180.0
  0
ARC
  5
6BF
100
AcDbEntity
  8
30338519_HL
100
AcDbCircle
 62
6
  6
HIDDEN
 10
182.6056019686
 20
148.3772872909
 40
8.0
100
AcDbArc
 50
180.0
 51
270.0
  0
ARC
  5
6C0
100
AcDbEntity
  8
30338519_HL
100
AcDbCircle
 62
6
  6
HIDDEN
 10
163.4106039702
 20
137.3772872909
 40
8.0
100
AcDbArc
 50
270.0
 51
321.3178125465
  0
ARC
  5
6C1
100
AcDbEntity
  8
30338519_CL
100
AcDbCircle
 62
7
  6
CONTINUOUS
 10
182.6056019686
 20
149.3772872909
 40
8.0
100
AcDbArc
 50
90.0
 51
270.0
  0
ARC
  5
6C2
100
AcDbEntity
  8
30338519_CL
100
AcDbCircle
 62
7
  6
CONTINUOUS
 10
44.3128934583
 20
187.5726023916
 40
153.2985603755
100
AcDbArc
 50
335.9265985332
 51
337.3426013525
  0
ARC
  5
6C3
100
AcDbEntity
  8
30338519_HL
100
AcDbCircle
 62
6
  6
HIDDEN
 10
163.4106039702
 20
161.3772872909
 40
8.0
100
AcDbArc
 50
38.6821874535
 51
90.0
  0
ARC
  5
6C4
100
AcDbEntity
  8
30338519_HL
100
AcDbCircle
 62
6
  6
HIDDEN
 10
178.1556019686
 20
165.1272872909
 40
1.5
100
AcDbArc
 50
0.0
 51
123.5573097619
  0
ARC
  5
6C5
100
AcDbEntity
  8
30338519_HL
100
AcDbCircle
 62
6
  6
HIDDEN
 10
142.2556019686
 20
154.1472872909
 40
1.5
100
AcDbArc
 50
0.0
 51
1.7423035504
  0
ARC
  5
6C6
100
AcDbEntity
  8
30338519_CL
100
AcDbCircle
 62
7
  6
CONTINUOUS
 10
142.2556019686
 20
154.1472872909
 40
1.5
100
AcDbArc
 50
1.7423035504
 51
90.0
  0
ARC
  5
6C7
100
AcDbEntity
  8
30338519_CL
100
AcDbCircle
 62
7
  6
CONTINUOUS
 10
138.9556019686
 20
170.9583373268
 40
1.2
100
AcDbArc
 50
92.868131941
 51
180.0
  0
ARC
  5
6C8
100
AcDbEntity
  8
30338519_CL
100
AcDbCircle
 62
7
  6
CONTINUOUS
 10
186.5306019686
 20
177.6272872909
 40
0.75
100
AcDbArc
 50
180.0
 51
270.0
  0
ARC
  5
6C9
100
AcDbEntity
  8
30338519_HL
100
AcDbCircle
 62
6
  6
HIDDEN
 10
152.7380375339
 20
168.7772872909
 40
0.6
100
AcDbArc
 50
90.0
 51
150.0
  0
ARC
  5
6CA
100
AcDbEntity
  8
30338519_HL
100
AcDbCircle
 62
6
  6
HIDDEN
 10
169.1556019686
 20
173.9977181527
 40
0.6
100
AcDbArc
 50
326.4541490883
 51
8.0
  0
ARC
  5
6CB
100
AcDbEntity
  8
30338519_CL
100
AcDbCircle
 62
7
  6
CONTINUOUS
 10
168.4810036287
 20
173.9977181527
 40
0.6
100
AcDbArc
 50
255.0
 51
270.0
  0
ARC
  5
6CC
100
AcDbEntity
  8
30338519_CL
100
AcDbCircle
 62
7
  6
CONTINUOUS
 10
169.1556019686
 20
173.9977181527
 40
0.6
100
AcDbArc
 50
270.0
 51
326.4541490883
  0
ARC
  5
6CD
100
AcDbEntity
  8
30338519_HL
100
AcDbCircle
 62
6
  6
HIDDEN
 10
231.6556019686
 20
149.3772872909
 40
3.0
100
AcDbArc
 50
194.9099463935
 51
195.0
  0
ARC
  5
6CE
100
AcDbEntity
  8
30338519_HL
100
AcDbCircle
 62
6
  6
HIDDEN
 10
231.7322534864
 20
117.2086017294
 40
16.5208544422
100
AcDbArc
 50
96.4098586673
 51
98.9726846983
  0
ARC
  5
6CF
100
AcDbEntity
  8
30338519_HL
100
AcDbCircle
 62
6
  6
HIDDEN
 10
231.6593675818
 20
117.9127817336
 40
15.8129406937
100
AcDbArc
 50
90.6563518111
 51
96.4322666364
  0
ARC
  5
6D0
100
AcDbEntity
  8
30338519_HL
100
AcDbCircle
 62
6
  6
HIDDEN
 10
231.6556518936
 20
118.0642765171
 40
15.6614134114
100
AcDbArc
 50
90.000182646
 51
90.6491080474
  0
ARC
  5
6D1
100
AcDbEntity
  8
30338519_HL
100
AcDbCircle
 62
6
  6
HIDDEN
 10
231.6555705065
 20
118.0695395096
 40
15.6561504187
100
AcDbArc
 50
89.5668240656
 51
89.9998848601
  0
ARC
  5
6D2
100
AcDbEntity
  8
30338519_CL
100
AcDbCircle
 62
7
  6
CONTINUOUS
 10
200.6056019686
 20
128.3772872909
 40
5.0
100
AcDbArc
 50
90.0
 51
180.0
  0
CIRCLE
  5
6D3
100
AcDbEntity
  8
30338519_CL
100
AcDbCircle
 62
7
  6
CONTINUOUS
 10
187.6556019686
 20
149.3772872909
 40
3.95
  0
CIRCLE
  5
6D4
100
AcDbEntity
  8
30338519_CL
100
AcDbCircle
 62
7
  6
CONTINUOUS
 10
187.6556019686
 20
149.3772872909
 40
3.75
  0
ARC
  5
6D5
100
AcDbEntity
  8
30338519_HL
100
AcDbCircle
 62
6
  6
HIDDEN
 10
231.6556019686
 20
149.3772872909
 40
3.0
100
AcDbArc
 50
255.0
 51
255.0959569349
  0
ARC
  5
6D6
100
AcDbEntity
  8
30338519_CL
100
AcDbCircle
 62
3
  6
CONTINUOUS
 10
231.6555991831
 20
149.3772471609
 40
2.99995987
100
AcDbArc
 50
255.0959569349
 51
194.9099463935
  0
CIRCLE
  5
6D7
100
AcDbEntity
  8
30338519_CL
100
AcDbCircle
 62
7
  6
CONTINUOUS
 10
231.6556019686
 20
149.3772872909
 40
2.5
  0
ARC
  5
6D8
100
AcDbEntity
  8
30338519_HL
100
AcDbCircle
 62
6
  6
HIDDEN
 10
288.6556019686
 20
142.1984901263
 40
1.0
100
AcDbArc
 50
0.0
 51
85.0
  0
ARC
  5
6D9
100
AcDbEntity
  8
30338519_CL
100
AcDbCircle
 62
7
  6
CONTINUOUS
 10
288.6556019686
 20
138.3016777826
 40
1.0
100
AcDbArc
 50
274.5
 51
360.0
  0
ARC
  5
6DA
100
AcDbEntity
  8
30252542_HL
100
AcDbCircle
 62
6
  6
HIDDEN
 10
238.1618197513
 20
144.7272872909
 40
0.8
100
AcDbArc
 50
90.0
 51
120.0
  0
ARC
  5
6DB
100
AcDbEntity
  8
30252542_HL
100
AcDbCircle
 62
6
  6
HIDDEN
 10
240.3556019686
 20
144.7272872909
 40
0.8
100
AcDbArc
 50
0.0
 51
90.0
  0
ARC
  5
6DC
100
AcDbEntity
  8
30338519_CL
100
AcDbCircle
 62
7
  6
CONTINUOUS
 10
188.7806019686
 20
121.1272872909
 40
0.75
100
AcDbArc
 50
0.0
 51
90.0
  0
CIRCLE
  5
6DD
100
AcDbEntity
  8
30338519_CL
100
AcDbCircle
 62
7
  6
CONTINUOUS
 10
187.6556019686
 20
149.3772872909
 40
0.1
  0
ARC
  5
6DE
100
AcDbEntity
  8
30338519_CL
100
AcDbCircle
 62
7
  6
CONTINUOUS
 10
330.9983104791
 20
187.5726023917
 40
153.2985603758
100
AcDbArc
 50
202.6573986475
 51
204.0734014668
  0
ARC
  5
6DF
100
AcDbEntity
  8
30338519_HL
100
AcDbCircle
 62
6
  6
HIDDEN
 10
231.5789504533
 20
181.5459728351
 40
16.5208544246
100
AcDbArc
 50
276.4098584801
 51
278.9726846992
  0
ARC
  5
6E0
100
AcDbEntity
  8
30338519_HL
100
AcDbCircle
 62
6
  6
HIDDEN
 10
231.6518363559
 20
180.8417928366
 40
15.812940682
100
AcDbArc
 50
270.656351752
 51
276.4322664457
  0
ARC
  5
6E1
100
AcDbEntity
  8
30338519_HL
100
AcDbCircle
 62
6
  6
HIDDEN
 10
231.6555520438
 20
180.6902980234
 40
15.66141337
100
AcDbArc
 50
270.0001826451
 51
270.6491079897
  0
ARC
  5
6E2
100
AcDbEntity
  8
30338519_HL
100
AcDbCircle
 62
6
  6
HIDDEN
 10
231.6556334307
 20
180.6850350732
 40
15.6561504197
100
AcDbArc
 50
269.5668239343
 51
269.9998848603
  0
ARC
  5
6E3
100
AcDbEntity
  8
30338519_CL
100
AcDbCircle
 62
7
  6
CONTINUOUS
 10
200.6056019686
 20
170.3772872909
 40
5.0
100
AcDbArc
 50
180.0
 51
270.0
  0
ARC
  5
6E4
100
AcDbEntity
  8
30338519_HL
100
AcDbCircle
 62
6
  6
HIDDEN
 10
288.6556019686
 20
156.5560844555
 40
1.0
100
AcDbArc
 50
275.0
 51
360.0
  0
ARC
  5
6E5
100
AcDbEntity
  8
30338519_CL
100
AcDbCircle
 62
7
  6
CONTINUOUS
 10
288.6556019686
 20
160.4528967993
 40
1.0
100
AcDbArc
 50
0.0
 51
85.5
  0
ARC
  5
6E6
100
AcDbEntity
  8
30252542_HL
100
AcDbCircle
 62
6
  6
HIDDEN
 10
238.1618197513
 20
154.0272872909
 40
0.8
100
AcDbArc
 50
240.0
 51
270.0
  0
ARC
  5
6E7
100
AcDbEntity
  8
30252542_HL
100
AcDbCircle
 62
6
  6
HIDDEN
 10
240.3556019686
 20
154.0272872909
 40
0.8
100
AcDbArc
 50
270.0
 51
360.0
  0
ARC
  5
6E8
100
AcDbEntity
  8
30338519_CL
100
AcDbCircle
 62
7
  6
CONTINUOUS
 10
188.7806019686
 20
177.6272872909
 40
0.75
100
AcDbArc
 50
270.0
 51
360.0
  0
SPLINE
  5
6E9
100
AcDbEntity
  8
30338519_HL
100
AcDbSpline
 62
6
  6
HIDDEN
 70
0
 71
3
 72
12
 73
8
 74
0
 42
0.0000001
 43
0.0000001
 44
0.0000000001
 40
0.0
 40
0.0
 40
0.0
 40
0.0
 40
0.0819441258
 40
0.3114471751
 40
0.5409602461
 40
0.7704781778
 40
1.0
 40
1.0
 40
1.0
 40
1.0
 10
186.0417353092
 20
157.3772872633
 30
0.0
 10
186.0328196159
 20
157.4038030428
 30
0.0
 10
186.0002434779
 20
157.5050222551
 30
0.0
 10
185.9513323281
 20
157.6832102489
 30
0.0
 10
185.900447737
 20
157.9127581569
 30
0.0
 10
185.8593070842
 20
158.144243614
 30
0.0
 10
185.8377580698
 20
158.2994990125
 30
0.0
 10
185.8283751429
 20
158.3772872909
 30
0.0
  0
SPLINE
  5
6EA
100
AcDbEntity
  8
30338519_HL
100
AcDbSpline
 62
6
  6
HIDDEN
 70
0
 71
3
 72
12
 73
8
 74
0
 42
0.0000001
 43
0.0000001
 44
0.0000000001
 40
0.0
 40
0.0
 40
0.0
 40
0.0
 40
0.2295218208
 40
0.4590397526
 40
0.688552823
 40
0.9180558722
 40
1.0
 40
1.0
 40
1.0
 40
1.0
 10
185.8283751429
 20
140.3772872909
 30
0.0
 10
185.8377580697
 20
140.4550755689
 30
0.0
 10
185.8593070837
 20
140.6103309669
 30
0.0
 10
185.9004477369
 20
140.8418164234
 30
0.0
 10
185.9513323277
 20
141.0713643312
 30
0.0
 10
186.0002434774
 20
141.2495523255
 30
0.0
 10
186.0328196157
 20
141.3507715384
 30
0.0
 10
186.0417353092
 20
141.3772873186
 30
0.0
  0
SPLINE
  5
6EB
100
AcDbEntity
  8
30338519_HL
100
AcDbSpline
 62
6
  6
HIDDEN
 70
0
 71
3
 72
12
 73
8
 74
0
 42
0.0000001
 43
0.0000001
 44
0.0000000001
 40
0.0
 40
0.0
 40
0.0
 40
0.0
 40
0.0819441218
 40
0.3114471739
 40
0.5409602453
 40
0.7704781779
 40
1.0
 40
1.0
 40
1.0
 40
1.0
 10
189.2694686281
 20
141.3772873186
 30
0.0
 10
189.2783843211
 20
141.3507715405
 30
0.0
 10
189.3109604594
 20
141.2495523286
 30
0.0
 10
189.3598716088
 20
141.071364335
 30
0.0
 10
189.4107561995
 20
140.8418164255
 30
0.0
 10
189.4518968534
 20
140.6103309681
 30
0.0
 10
189.4734458675
 20
140.4550755694
 30
0.0
 10
189.4828287943
 20
140.3772872909
 30
0.0
  0
SPLINE
  5
6EC
100
AcDbEntity
  8
30338519_HL
100
AcDbSpline
 62
6
  6
HIDDEN
 70
0
 71
3
 72
12
 73
8
 74
0
 42
0.0000001
 43
0.0000001
 44
0.0000000001
 40
0.0
 40
0.0
 40
0.0
 40
0.0
 40
0.2295218236
 40
0.4590397561
 40
0.688552828
 40
0.9180558802
 40
1.0
 40
1.0
 40
1.0
 40
1.0
 10
189.4828287943
 20
158.3772872909
 30
0.0
 10
189.4734458674
 20
158.299499012
 30
0.0
 10
189.4518968529
 20
158.1442436128
 30
0.0
 10
189.4107561994
 20
157.9127581547
 30
0.0
 10
189.3598716083
 20
157.6832102451
 30
0.0
 10
189.3109604589
 20
157.505022252
 30
0.0
 10
189.2783843208
 20
157.4038030407
 30
0.0
 10
189.2694686282
 20
157.3772872632
 30
0.0
  0
SPLINE
  5
6ED
100
AcDbEntity
  8
30338519_HL
100
AcDbSpline
 62
6
  6
HIDDEN
 70
0
 71
3
 72
30
 73
26
 74
0
 42
0.0000001
 43
0.0000001
 44
0.0000000001
 40
0.0
 40
0.0
 40
0.0
 40
0.0
 40
0.04444578
 40
0.08889156
 40
0.13333734
 40
0.17778312
 40
0.2222289
 40
0.26667468
 40
0.31112046
 40
0.3555662401
 40
0.4000120201
 40
0.4444578001
 40
0.4889035801
 40
0.5333493601
 40
0.5777951401
 40
0.6222409201
 40
0.6666867001
 40
0.7111324801
 40
0.7555782601
 40
0.8000240401
 40
0.8444698201
 40
0.8889156001
 40
0.9333613801
 40
0.9778071601
 40
1.0
 40
1.0
 40
1.0
 40
1.0
 10
231.6556019686
 20
133.813788327
 30
0.0
 10
231.7248503191
 20
133.813784467
 30
0.0
 10
231.8633998326
 20
133.8128642746
 30
0.0
 10
232.0703790442
 20
133.8087166373
 30
0.0
 10
232.2755320668
 20
133.8018914454
 30
0.0
 10
232.4781051193
 20
133.7924998116
 30
0.0
 10
232.6769829377
 20
133.7807216652
 30
0.0
 10
232.8714550867
 20
133.7667583805
 30
0.0
 10
233.060259218
 20
133.7508945374
 30
0.0
 10
233.2427153898
 20
133.733410299
 30
0.0
 10
233.4175004037
 20
133.714682456
 30
0.0
 10
233.5839834405
 20
133.6950501609
 30
0.0
 10
233.7408725228
 20
133.6749531398
 30
0.0
 10
233.8876401517
 20
133.6547561949
 30
0.0
 10
234.0231260382
 20
133.6349179409
 30
0.0
 10
234.1469577574
 20
133.6157878295
 30
0.0
 10
234.2581779042
 20
133.5977960352
 30
0.0
 10
234.3565865033
 20
133.5812401481
 30
0.0
 10
234.4414578728
 20
133.5664829699
 30
0.0
 10
234.5127349277
 20
133.5537482831
 30
0.0
 10
234.5699185353
 20
133.5433066797
 30
0.0
 10
234.6130311588
 20
133.5353025009
 30
0.0
 10
234.6417825044
 20
133.5299015223
 30
0.0
 10
234.6537987062
 20
133.5276285035
 30
0.0
 10
234.6556033009
 20
133.5272871413
 30
0.0
 10
234.6556049443
 20
133.5272868304
 30
0.0
  0
SPLINE
  5
6EE
100
AcDbEntity
  8
30338519_HL
100
AcDbSpline
 62
6
  6
HIDDEN
 70
0
 71
3
 72
30
 73
26
 74
0
 42
0.0000001
 43
0.0000001
 44
0.0000000001
 40
0.0
 40
0.0
 40
0.0
 40
0.0
 40
0.0222516028
 40
0.0666947118
 40
0.1111378208
 40
0.1555809297
 40
0.2000240387
 40
0.2444671476
 40
0.2889102566
 40
0.3333533656
 40
0.3777964745
 40
0.4222395835
 40
0.4666826925
 40
0.5111258014
 40
0.5555689104
 40
0.6000120193
 40
0.6444551283
 40
0.6888982373
 40
0.7333413462
 40
0.7777844552
 40
0.8222275642
 40
0.8666706731
 40
0.9111137821
 40
0.955556891
 40
1.0
 40
1.0
 40
1.0
 40
1.0
 10
228.6555989929
 20
133.5272868304
 30
0.0
 10
228.655597345
 20
133.5272865187
 30
0.0
 10
228.6573985671
 20
133.527627243
 30
0.0
 10
228.6694211594
 20
133.5299014705
 30
0.0
 10
228.6981720604
 20
133.535302367
 30
0.0
 10
228.741284874
 20
133.5433065818
 30
0.0
 10
228.7984675964
 20
133.5537480285
 30
0.0
 10
228.8697454021
 20
133.5664828518
 30
0.0
 10
228.9546152884
 20
133.5812397822
 30
0.0
 10
229.0530253076
 20
133.5977959137
 30
0.0
 10
229.1642433512
 20
133.6157873836
 30
0.0
 10
229.2880771433
 20
133.6349178252
 30
0.0
 10
229.4235603949
 20
133.6547557148
 30
0.0
 10
229.5703306424
 20
133.6749530354
 30
0.0
 10
229.7272167242
 20
133.695049698
 30
0.0
 10
229.8937027654
 20
133.7146823685
 30
0.0
 10
230.068484633
 20
133.7334099025
 30
0.0
 10
230.2509439956
 20
133.7508944725
 30
0.0
 10
230.4397451345
 20
133.7667580911
 30
0.0
 10
230.6342204088
 20
133.7807216286
 30
0.0
 10
230.8330957311
 20
133.7924996476
 30
0.0
 10
231.0356714425
 20
133.801891433
 30
0.0
 10
231.2408230657
 20
133.8087165872
 30
0.0
 10
231.4478040455
 20
133.81286428
 30
0.0
 10
231.5863536086
 20
133.8137844698
 30
0.0
 10
231.6556019686
 20
133.813788327
 30
0.0
  0
SPLINE
  5
6EF
100
AcDbEntity
  8
30338519_HL
100
AcDbSpline
 62
6
  6
HIDDEN
 70
0
 71
3
 72
30
 73
26
 74
0
 42
0.0000001
 43
0.0000001
 44
0.0000000001
 40
0.0
 40
0.0
 40
0.0
 40
0.0
 40
0.0222516028
 40
0.0666947118
 40
0.1111378208
 40
0.1555809297
 40
0.2000240387
 40
0.2444671476
 40
0.2889102566
 40
0.3333533656
 40
0.3777964745
 40
0.4222395835
 40
0.4666826925
 40
0.5111258014
 40
0.5555689104
 40
0.6000120193
 40
0.6444551283
 40
0.6888982373
 40
0.7333413462
 40
0.7777844552
 40
0.8222275642
 40
0.8666706731
 40
0.9111137821
 40
0.955556891
 40
1.0
 40
1.0
 40
1.0
 40
1.0
 10
234.6556049443
 20
165.2272877515
 30
0.0
 10
234.6556065922
 20
165.2272880632
 30
0.0
 10
234.6538053701
 20
165.2269473389
 30
0.0
 10
234.6417827778
 20
165.2246731113
 30
0.0
 10
234.6130318768
 20
165.2192722148
 30
0.0
 10
234.5699190632
 20
165.2112680001
 30
0.0
 10
234.5127363408
 20
165.2008265533
 30
0.0
 10
234.4414585351
 20
165.18809173
 30
0.0
 10
234.3565886488
 20
165.1733347997
 30
0.0
 10
234.2581786296
 20
165.1567786682
 30
0.0
 10
234.146960586
 20
165.1387871982
 30
0.0
 10
234.0231267939
 20
165.1196567567
 30
0.0
 10
233.8876435423
 20
165.0998188671
 30
0.0
 10
233.7408732948
 20
165.0796215464
 30
0.0
 10
233.583987213
 20
165.0595248838
 30
0.0
 10
233.4175011719
 20
165.0398922134
 30
0.0
 10
233.2427193042
 20
165.0211646794
 30
0.0
 10
233.0602599416
 20
165.0036801093
 30
0.0
 10
232.8714588027
 20
164.9878164908
 30
0.0
 10
232.6769835284
 20
164.9738529532
 30
0.0
 10
232.4781082061
 20
164.9620749342
 30
0.0
 10
232.2755324948
 20
164.9526831488
 30
0.0
 10
232.0703808715
 20
164.9458579947
 30
0.0
 10
231.8633998917
 20
164.9417103019
 30
0.0
 10
231.7248503286
 20
164.9407901121
 30
0.0
 10
231.6556019686
 20
164.9407862549
 30
0.0
  0
SPLINE
  5
6F0
100
AcDbEntity
  8
30338519_HL
100
AcDbSpline
 62
6
  6
HIDDEN
 70
0
 71
3
 72
30
 73
26
 74
0
 42
0.0000001
 43
0.0000001
 44
0.0000000001
 40
0.0
 40
0.0
 40
0.0
 40
0.0
 40
0.04444578
 40
0.08889156
 40
0.13333734
 40
0.17778312
 40
0.2222289
 40
0.26667468
 40
0.31112046
 40
0.3555662401
 40
0.4000120201
 40
0.4444578001
 40
0.4889035801
 40
0.5333493601
 40
0.5777951401
 40
0.6222409201
 40
0.6666867001
 40
0.7111324801
 40
0.7555782601
 40
0.8000240401
 40
0.8444698201
 40
0.8889156001
 40
0.9333613801
 40
0.9778071601
 40
1.0
 40
1.0
 40
1.0
 40
1.0
 10
231.6556019686
 20
164.9407862549
 30
0.0
 10
231.5863536181
 20
164.9407901148
 30
0.0
 10
231.4478041046
 20
164.9417103072
 30
0.0
 10
231.240824893
 20
164.9458579445
 30
0.0
 10
231.0356718705
 20
164.9526831365
 30
0.0
 10
230.8330988179
 20
164.9620747703
 30
0.0
 10
230.6342209995
 20
164.9738529166
 30
0.0
 10
230.4397488506
 20
164.9878162014
 30
0.0
 10
230.2509447192
 20
165.0036800445
 30
0.0
 10
230.0684885474
 20
165.0211642828
 30
0.0
 10
229.8937035335
 20
165.0398921259
 30
0.0
 10
229.7272204967
 20
165.059524421
 30
0.0
 10
229.5703314144
 20
165.0796214421
 30
0.0
 10
229.4235637855
 20
165.099818387
 30
0.0
 10
229.288077899
 20
165.119656641
 30
0.0
 10
229.1642461798
 20
165.1387867523
 30
0.0
 10
229.053026033
 20
165.1567785466
 30
0.0
 10
228.9546174339
 20
165.1733344338
 30
0.0
 10
228.8697460644
 20
165.1880916119
 30
0.0
 10
228.7984690095
 20
165.2008262987
 30
0.0
 10
228.741285402
 20
165.2112679021
 30
0.0
 10
228.6981727784
 20
165.219272081
 30
0.0
 10
228.6694214328
 20
165.2246730595
 30
0.0
 10
228.657405231
 20
165.2269460783
 30
0.0
 10
228.6556006363
 20
165.2272874406
 30
0.0
 10
228.6555989929
 20
165.2272877515
 30
0.0
  0
LINE
  5
6F1
100
AcDbEntity
  8
30338519_HL
100
AcDbLine
 62
6
  6
HIDDEN
 10
229.1556019686
 20
165.2272872909
 11
229.156402744
 21
165.227160941
  0
SPLINE
  5
6F2
100
AcDbEntity
  8
30338519_HL
100
AcDbSpline
 62
6
  6
HIDDEN
 70
0
 71
3
 72
10
 73
6
 74
0
 42
0.0000001
 43
0.0000001
 44
0.0000000001
 40
0.0
 40
0.0
 40
0.0
 40
0.0
 40
0.3005594758
 40
0.6207688177
 40
1.0
 40
1.0
 40
1.0
 40
1.0
 10
229.156402744
 20
165.227160941
 30
0.0
 10
229.3930269747
 20
165.1898416555
 30
0.0
 10
229.8834672535
 20
165.1232065124
 30
0.0
 10
230.6775554963
 20
165.0520151531
 30
0.0
 10
231.2350259915
 20
165.0316165991
 30
0.0
 10
231.5372686036
 20
165.0293320953
 30
0.0
  0
LINE
  5
6F3
100
AcDbEntity
  8
30338519_HL
100
AcDbLine
 62
6
  6
HIDDEN
 10
234.1556019686
 20
133.5272872909
 11
234.1547259295
 21
133.5274255107
  0
SPLINE
  5
6F4
100
AcDbEntity
  8
30338519_HL
100
AcDbSpline
 62
6
  6
HIDDEN
 70
0
 71
3
 72
10
 73
6
 74
0
 42
0.0000001
 43
0.0000001
 44
0.0000000001
 40
0.0
 40
0.0
 40
0.0
 40
0.0
 40
0.3009637224
 40
0.6210340376
 40
1.0
 40
1.0
 40
1.0
 40
1.0
 10
234.1547259295
 20
133.5274255107
 30
0.0
 10
233.917790629
 20
133.5647915994
 30
0.0
 10
233.4271539403
 20
133.6314388162
 30
0.0
 10
232.6330873806
 20
133.7025852203
 30
0.0
 10
232.075956931
 20
133.722959654
 30
0.0
 10
231.7739352977
 20
133.7252424869
 30
0.0
  0
LINE
  5
6F5
100
AcDbEntity
  8
30338519_HL
100
AcDbLine
 62
6
  6
HIDDEN
 10
171.0556019686
 20
180.8772872909
 11
171.0568465173
 21
180.8770993747
  0
LINE
  5
6F6
100
AcDbEntity
  8
30338519_HL
100
AcDbLine
 62
6
  6
HIDDEN
 10
182.2543469592
 20
180.8770977957
 11
182.2556019686
 21
180.8772872909
  0
SPLINE
  5
6F7
100
AcDbEntity
  8
30338519_CL
100
AcDbSpline
 62
3
  6
CONTINUOUS
 70
0
 71
3
 72
30
 73
26
 74
0
 42
0.0000001
 43
0.0000001
 44
0.0000000001
 40
0.0
 40
0.0
 40
0.0
 40
0.0
 40
0.0222516028
 40
0.0666947118
 40
0.1111378208
 40
0.1555809297
 40
0.2000240387
 40
0.2444671476
 40
0.2889102566
 40
0.3333533656
 40
0.3777964745
 40
0.4222395835
 40
0.4666826925
 40
0.5111258014
 40
0.5555689104
 40
0.6000120193
 40
0.6444551283
 40
0.6888982373
 40
0.7333413462
 40
0.7777844552
 40
0.8222275642
 40
0.8666706731
 40
0.9111137821
 40
0.955556891
 40
1.0
 40
1.0
 40
1.0
 40
1.0
 10
234.6556049443
 20
133.5272868304
 30
0.0
 10
234.6556065922
 20
133.5272865187
 30
0.0
 10
234.6538053701
 20
133.527627243
 30
0.0
 10
234.6417827778
 20
133.5299014705
 30
0.0
 10
234.6130318768
 20
133.535302367
 30
0.0
 10
234.5699190632
 20
133.5433065818
 30
0.0
 10
234.5127363408
 20
133.5537480285
 30
0.0
 10
234.4414585351
 20
133.5664828518
 30
0.0
 10
234.3565886488
 20
133.5812397822
 30
0.0
 10
234.2581786296
 20
133.5977959137
 30
0.0
 10
234.146960586
 20
133.6157873836
 30
0.0
 10
234.0231267939
 20
133.6349178252
 30
0.0
 10
233.8876435423
 20
133.6547557148
 30
0.0
 10
233.7408732948
 20
133.6749530354
 30
0.0
 10
233.583987213
 20
133.695049698
 30
0.0
 10
233.4175011719
 20
133.7146823685
 30
0.0
 10
233.2427193042
 20
133.7334099025
 30
0.0
 10
233.0602599416
 20
133.7508944725
 30
0.0
 10
232.8714588027
 20
133.7667580911
 30
0.0
 10
232.6769835284
 20
133.7807216286
 30
0.0
 10
232.4781082061
 20
133.7924996476
 30
0.0
 10
232.2755324948
 20
133.801891433
 30
0.0
 10
232.0703808715
 20
133.8087165872
 30
0.0
 10
231.8633998917
 20
133.81286428
 30
0.0
 10
231.7248503286
 20
133.8137844698
 30
0.0
 10
231.6556019686
 20
133.813788327
 30
0.0
  0
SPLINE
  5
6F8
100
AcDbEntity
  8
30338519_CL
100
AcDbSpline
 62
3
  6
CONTINUOUS
 70
0
 71
3
 72
30
 73
26
 74
0
 42
0.0000001
 43
0.0000001
 44
0.0000000001
 40
0.0
 40
0.0
 40
0.0
 40
0.0
 40
0.04444578
 40
0.08889156
 40
0.13333734
 40
0.17778312
 40
0.2222289
 40
0.26667468
 40
0.31112046
 40
0.3555662401
 40
0.4000120201
 40
0.4444578001
 40
0.4889035801
 40
0.5333493601
 40
0.5777951401
 40
0.6222409201
 40
0.6666867001
 40
0.7111324801
 40
0.7555782601
 40
0.8000240401
 40
0.8444698201
 40
0.8889156001
 40
0.9333613801
 40
0.9778071601
 40
1.0
 40
1.0
 40
1.0
 40
1.0
 10
231.6556019686
 20
133.813788327
 30
0.0
 10
231.5863536181
 20
133.813784467
 30
0.0
 10
231.4478041046
 20
133.8128642746
 30
0.0
 10
231.240824893
 20
133.8087166373
 30
0.0
 10
231.0356718705
 20
133.8018914454
 30
0.0
 10
230.8330988179
 20
133.7924998116
 30
0.0
 10
230.6342209995
 20
133.7807216652
 30
0.0
 10
230.4397488506
 20
133.7667583805
 30
0.0
 10
230.2509447192
 20
133.7508945374
 30
0.0
 10
230.0684885474
 20
133.733410299
 30
0.0
 10
229.8937035335
 20
133.714682456
 30
0.0
 10
229.7272204967
 20
133.6950501609
 30
0.0
 10
229.5703314144
 20
133.6749531398
 30
0.0
 10
229.4235637855
 20
133.6547561949
 30
0.0
 10
229.288077899
 20
133.6349179409
 30
0.0
 10
229.1642461798
 20
133.6157878295
 30
0.0
 10
229.053026033
 20
133.5977960352
 30
0.0
 10
228.9546174339
 20
133.5812401481
 30
0.0
 10
228.8697460644
 20
133.5664829699
 30
0.0
 10
228.7984690095
 20
133.5537482831
 30
0.0
 10
228.741285402
 20
133.5433066797
 30
0.0
 10
228.6981727784
 20
133.5353025009
 30
0.0
 10
228.6694214328
 20
133.5299015223
 30
0.0
 10
228.657405231
 20
133.5276285035
 30
0.0
 10
228.6556006363
 20
133.5272871413
 30
0.0
 10
228.6555989929
 20
133.5272868304
 30
0.0
  0
SPLINE
  5
6F9
100
AcDbEntity
  8
30338519_CL
100
AcDbSpline
 62
3
  6
CONTINUOUS
 70
0
 71
3
 72
30
 73
26
 74
0
 42
0.0000001
 43
0.0000001
 44
0.0000000001
 40
0.0
 40
0.0
 40
0.0
 40
0.0
 40
0.04444578
 40
0.08889156
 40
0.13333734
 40
0.17778312
 40
0.2222289
 40
0.26667468
 40
0.31112046
 40
0.3555662401
 40
0.4000120201
 40
0.4444578001
 40
0.4889035801
 40
0.5333493601
 40
0.5777951401
 40
0.6222409201
 40
0.6666867001
 40
0.7111324801
 40
0.7555782601
 40
0.8000240401
 40
0.8444698201
 40
0.8889156001
 40
0.9333613801
 40
0.9778071601
 40
1.0
 40
1.0
 40
1.0
 40
1.0
 10
231.6556019686
 20
164.9407862549
 30
0.0
 10
231.7248503191
 20
164.9407901148
 30
0.0
 10
231.8633998326
 20
164.9417103072
 30
0.0
 10
232.0703790442
 20
164.9458579445
 30
0.0
 10
232.2755320668
 20
164.9526831365
 30
0.0
 10
232.4781051193
 20
164.9620747703
 30
0.0
 10
232.6769829377
 20
164.9738529166
 30
0.0
 10
232.8714550867
 20
164.9878162014
 30
0.0
 10
233.060259218
 20
165.0036800445
 30
0.0
 10
233.2427153898
 20
165.0211642828
 30
0.0
 10
233.4175004037
 20
165.0398921259
 30
0.0
 10
233.5839834405
 20
165.059524421
 30
0.0
 10
233.7408725228
 20
165.0796214421
 30
0.0
 10
233.8876401517
 20
165.099818387
 30
0.0
 10
234.0231260382
 20
165.119656641
 30
0.0
 10
234.1469577574
 20
165.1387867523
 30
0.0
 10
234.2581779042
 20
165.1567785466
 30
0.0
 10
234.3565865033
 20
165.1733344338
 30
0.0
 10
234.4414578728
 20
165.1880916119
 30
0.0
 10
234.5127349277
 20
165.2008262987
 30
0.0
 10
234.5699185353
 20
165.2112679021
 30
0.0
 10
234.6130311588
 20
165.219272081
 30
0.0
 10
234.6417825044
 20
165.2246730595
 30
0.0
 10
234.6537987062
 20
165.2269460783
 30
0.0
 10
234.6556033009
 20
165.2272874406
 30
0.0
 10
234.6556049443
 20
165.2272877515
 30
0.0
  0
SPLINE
  5
6FA
100
AcDbEntity
  8
30338519_CL
100
AcDbSpline
 62
3
  6
CONTINUOUS
 70
0
 71
3
 72
30
 73
26
 74
0
 42
0.0000001
 43
0.0000001
 44
0.0000000001
 40
0.0
 40
0.0
 40
0.0
 40
0.0
 40
0.0222516028
 40
0.0666947118
 40
0.1111378208
 40
0.1555809297
 40
0.2000240387
 40
0.2444671476
 40
0.2889102566
 40
0.3333533656
 40
0.3777964745
 40
0.4222395835
 40
0.4666826925
 40
0.5111258014
 40
0.5555689104
 40
0.6000120193
 40
0.6444551283
 40
0.6888982373
 40
0.7333413462
 40
0.7777844552
 40
0.8222275642
 40
0.8666706731
 40
0.9111137821
 40
0.955556891
 40
1.0
 40
1.0
 40
1.0
 40
1.0
 10
228.6555989929
 20
165.2272877515
 30
0.0
 10
228.655597345
 20
165.2272880632
 30
0.0
 10
228.6573985671
 20
165.2269473389
 30
0.0
 10
228.6694211594
 20
165.2246731113
 30
0.0
 10
228.6981720604
 20
165.2192722148
 30
0.0
 10
228.741284874
 20
165.2112680001
 30
0.0
 10
228.7984675964
 20
165.2008265533
 30
0.0
 10
228.8697454021
 20
165.18809173
 30
0.0
 10
228.9546152884
 20
165.1733347997
 30
0.0
 10
229.0530253076
 20
165.1567786682
 30
0.0
 10
229.1642433512
 20
165.1387871982
 30
0.0
 10
229.2880771433
 20
165.1196567567
 30
0.0
 10
229.4235603949
 20
165.0998188671
 30
0.0
 10
229.5703306424
 20
165.0796215464
 30
0.0
 10
229.7272167242
 20
165.0595248838
 30
0.0
 10
229.8937027654
 20
165.0398922134
 30
0.0
 10
230.068484633
 20
165.0211646794
 30
0.0
 10
230.2509439956
 20
165.0036801093
 30
0.0
 10
230.4397451345
 20
164.9878164908
 30
0.0
 10
230.6342204088
 20
164.9738529532
 30
0.0
 10
230.8330957311
 20
164.9620749342
 30
0.0
 10
231.0356714425
 20
164.9526831488
 30
0.0
 10
231.2408230657
 20
164.9458579947
 30
0.0
 10
231.4478040455
 20
164.9417103019
 30
0.0
 10
231.5863536086
 20
164.9407901121
 30
0.0
 10
231.6556019686
 20
164.9407862549
 30
0.0
  0
SPLINE
  5
6FB
100
AcDbEntity
  8
30338519_CL
100
AcDbSpline
 62
7
  6
CONTINUOUS
 70
0
 71
3
 72
11
 73
7
 74
0
 42
0.0000001
 43
0.0000001
 44
0.0000000001
 40
0.0
 40
0.0
 40
0.0
 40
0.0
 40
0.3723208743
 40
0.695176926
 40
0.9190024421
 40
1.0
 40
1.0
 40
1.0
 40
1.0
 10
176.6556019686
 20
118.1259273294
 30
0.0
 10
177.1778653286
 20
118.1259273294
 30
0.0
 10
178.1531523503
 20
118.1041843315
 30
0.0
 10
179.4399489328
 20
118.022317797
 30
0.0
 10
180.3165185366
 20
117.9385726458
 30
0.0
 10
180.7414033581
 20
117.8905590806
 30
0.0
 10
180.8542419982
 20
117.8772872909
 30
0.0
  0
SPLINE
  5
6FC
100
AcDbEntity
  8
30338519_CL
100
AcDbSpline
 62
7
  6
CONTINUOUS
 70
0
 71
3
 72
11
 73
7
 74
0
 42
0.0000001
 43
0.0000001
 44
0.0000000001
 40
0.0
 40
0.0
 40
0.0
 40
0.0
 40
0.0768335808
 40
0.2943735241
 40
0.6183297265
 40
1.0
 40
1.0
 40
1.0
 40
1.0
 10
234.1556019686
 20
165.2272872909
 30
0.0
 10
234.0920993627
 20
165.2172707264
 30
0.0
 10
233.8485766716
 20
165.1802866582
 30
0.0
 10
233.335379002
 20
165.1139366847
 30
0.0
 10
232.5655362657
 20
165.0470027777
 30
0.0
 10
231.9749543402
 20
165.0288846535
 30
0.0
 10
231.6556019686
 20
165.0288846535
 30
0.0
  0
SPLINE
  5
6FD
100
AcDbEntity
  8
30338519_CL
100
AcDbSpline
 62
7
  6
CONTINUOUS
 70
0
 71
3
 72
31
 73
27
 74
0
 42
0.0000001
 43
0.0000001
 44
0.0000000001
 40
0.0
 40
0.0
 40
0.0
 40
0.0
 40
0.0003235857
 40
0.0007278917
 40
0.0012937167
 40
0.002909446
 40
0.0051691799
 40
0.0080702321
 40
0.0116097496
 40
0.015783938
 40
0.0205882665
 40
0.0320673459
 40
0.0459998145
 40
0.0623298863
 40
0.0809940199
 40
0.1019215699
 40
0.1250358016
 40
0.1774933824
 40
0.2376672897
 40
0.3048147722
 40
0.3781685908
 40
0.4569504167
 40
0.5403788715
 40
0.6276737206
 40
0.8107530161
 40
1.0
 40
1.0
 40
1.0
 40
1.0
 10
172.456961939
 20
117.8772872909
 30
0.0
 10
172.4573948826
 20
117.8774236935
 30
0.0
 10
172.4584371514
 20
117.8774115332
 30
0.0
 10
172.4602249786
 20
117.8776913945
 30
0.0
 10
172.4638359293
 20
117.8780758816
 30
0.0
 10
172.4700174721
 20
117.8788309433
 30
0.0
 10
172.4794618882
 20
117.879923301
 30
0.0
 10
172.491582954
 20
117.8813451519
 30
0.0
 10
172.5063736226
 20
117.8830662169
 30
0.0
 10
172.523816573
 20
117.8850912719
 30
0.0
 10
172.5523247057
 20
117.888384672
 30
0.0
 10
172.5944355016
 20
117.8932114656
 30
0.0
 10
172.652618914
 20
117.899795491
 30
0.0
 10
172.7208306064
 20
117.9073964253
 30
0.0
 10
172.7988116274
 20
117.9159297798
 30
0.0
 10
172.8862742038
 20
117.9253021531
 30
0.0
 10
173.0209077491
 20
117.9393885105
 30
0.0
 10
173.2103814233
 20
117.9583886117
 30
0.0
 10
173.4614741125
 20
117.981932644
 30
0.0
 10
173.7419379148
 20
118.0061565349
 30
0.0
 10
174.0486142278
 20
118.0301296926
 30
0.0
 10
174.3782762803
 20
118.0529585102
 30
0.0
 10
174.727663497
 20
118.0738144522
 30
0.0
 10
175.2233723549
 20
118.0983992236
 30
0.0
 10
175.8678143334
 20
118.120015958
 30
0.0
 10
176.3901282229
 20
118.1259273294
 30
0.0
 10
176.6556019686
 20
118.1259273294
 30
0.0
  0
SPLINE
  5
6FE
100
AcDbEntity
  8
30338519_CL
100
AcDbSpline
 62
7
  6
CONTINUOUS
 70
0
 71
3
 72
11
 73
7
 74
0
 42
0.0000001
 43
0.0000001
 44
0.0000000001
 40
0.0
 40
0.0
 40
0.0
 40
0.0
 40
0.3816702742
 40
0.7056264765
 40
0.9231664188
 40
1.0
 40
1.0
 40
1.0
 40
1.0
 10
231.6556019686
 20
133.7256899284
 30
0.0
 10
231.9749543408
 20
133.7256899284
 30
0.0
 10
232.5655362668
 20
133.7075718041
 30
0.0
 10
233.3353790027
 20
133.6406378971
 30
0.0
 10
233.8485766717
 20
133.5742879236
 30
0.0
 10
234.0920993624
 20
133.5373038555
 30
0.0
 10
234.1556019686
 20
133.5272872909
 30
0.0
  0
SPLINE
  5
6FF
100
AcDbEntity
  8
30338519_CL
100
AcDbSpline
 62
7
  6
CONTINUOUS
 70
0
 71
3
 72
11
 73
7
 74
0
 42
0.0000001
 43
0.0000001
 44
0.0000000001
 40
0.0
 40
0.0
 40
0.0
 40
0.0
 40
0.0768335809
 40
0.2943735243
 40
0.6183297266
 40
1.0
 40
1.0
 40
1.0
 40
1.0
 10
229.1556019686
 20
133.5272872909
 30
0.0
 10
229.2191045746
 20
133.5373038555
 30
0.0
 10
229.4626272658
 20
133.5742879237
 30
0.0
 10
229.9758249356
 20
133.6406378972
 30
0.0
 10
230.7456676717
 20
133.7075718042
 30
0.0
 10
231.3362495971
 20
133.7256899284
 30
0.0
 10
231.6556019686
 20
133.7256899284
 30
0.0
  0
SPLINE
  5
700
100
AcDbEntity
  8
30338519_CL
100
AcDbSpline
 62
7
  6
CONTINUOUS
 70
0
 71
3
 72
11
 73
7
 74
0
 42
0.0000001
 43
0.0000001
 44
0.0000000001
 40
0.0
 40
0.0
 40
0.0
 40
0.0
 40
0.3816702743
 40
0.7056264766
 40
0.9231664189
 40
1.0
 40
1.0
 40
1.0
 40
1.0
 10
231.6556019686
 20
165.0288846535
 30
0.0
 10
231.3362495963
 20
165.0288846535
 30
0.0
 10
230.7456676702
 20
165.0470027777
 30
0.0
 10
229.9758249342
 20
165.1139366848
 30
0.0
 10
229.4626272652
 20
165.1802866583
 30
0.0
 10
229.2191045747
 20
165.2172707264
 30
0.0
 10
229.1556019686
 20
165.2272872909
 30
0.0
  0
SPLINE
  5
701
100
AcDbEntity
  8
30338519_CL
100
AcDbSpline
 62
7
  6
CONTINUOUS
 70
0
 71
3
 72
15
 73
11
 74
0
 42
0.0000001
 43
0.0000001
 44
0.0000000001
 40
0.0
 40
0.0
 40
0.0
 40
0.0
 40
0.041365825
 40
0.1543852447
 40
0.3154477639
 40
0.5000000006
 40
0.6845522376
 40
0.8456147564
 40
0.9586341756
 40
1.0
 40
1.0
 40
1.0
 40
1.0
 10
182.2556019686
 20
180.8772872909
 30
0.0
 10
182.1023263437
 20
180.8541502431
 30
0.0
 10
181.5297620296
 20
180.7711112183
 30
0.0
 10
180.3562491954
 20
180.6271142496
 30
0.0
 10
178.6426171516
 20
180.4869042045
 30
0.0
 10
176.655601961
 20
180.4298617373
 30
0.0
 10
174.6685867717
 20
180.4869042053
 30
0.0
 10
172.9549547301
 20
180.6271142508
 30
0.0
 10
171.7814419012
 20
180.7711112192
 30
0.0
 10
171.2088775913
 20
180.8541502435
 30
0.0
 10
171.0556019686
 20
180.8772872909
 30
0.0
  0
SPLINE
  5
702
100
AcDbEntity
  8
30338519_CL
100
AcDbSpline
 62
7
  6
CONTINUOUS
 70
0
 71
3
 72
17
 73
13
 74
0
 42
0.0000001
 43
0.0000001
 44
0.0000000001
 40
0.0
 40
0.0
 40
0.0
 40
0.0
 40
0.1250509093
 40
0.2500997825
 40
0.3751448249
 40
0.5001812055
 40
0.6251946291
 40
0.7501381638
 40
0.8126521836
 40
0.8751440342
 40
0.9375937337
 40
1.0
 40
1.0
 40
1.0
 40
1.0
 10
189.2694685458
 20
141.3772872909
 30
0.0
 10
189.2580968965
 20
141.4111066646
 30
0.0
 10
189.2342357657
 20
141.4783770614
 30
0.0
 10
189.1945117763
 20
141.5778060634
 30
0.0
 10
189.1500262525
 20
141.6752114298
 30
0.0
 10
189.0995504384
 20
141.7696982957
 30
0.0
 10
189.0412230673
 20
141.8595618398
 30
0.0
 10
188.9834235547
 20
141.9280547563
 30
0.0
 10
188.9293686212
 20
141.9748302896
 30
0.0
 10
188.884175557
 20
142.0038886007
 30
0.0
 10
188.8341873201
 20
142.0239287321
 30
0.0
 10
188.7984079756
 20
142.0288180626
 30
0.0
 10
188.7806019686
 20
142.0288180626
 30
0.0
  0
SPLINE
  5
703
100
AcDbEntity
  8
30338519_CL
100
AcDbSpline
 62
7
  6
CONTINUOUS
 70
0
 71
3
 72
17
 73
13
 74
0
 42
0.0000001
 43
0.0000001
 44
0.0000000001
 40
0.0
 40
0.0
 40
0.0
 40
0.0
 40
0.0624063166
 40
0.1248560489
 40
0.1873479255
 40
0.2498619781
 40
0.3748055357
 40
0.4998189312
 40
0.6248552878
 40
0.7499002895
 40
0.8749491252
 40
1.0
 40
1.0
 40
1.0
 40
1.0
 10
188.7806019686
 20
156.7257565193
 30
0.0
 10
188.79840799
 20
156.7257565193
 30
0.0
 10
188.8341873576
 20
156.7306458626
 30
0.0
 10
188.8841756208
 20
156.7506860109
 30
0.0
 10
188.9293687027
 20
156.7797443441
 30
0.0
 10
188.9834236382
 20
156.8265199115
 30
0.0
 10
189.0412231348
 20
156.8950128493
 30
0.0
 10
189.099550516
 20
156.9848763775
 30
0.0
 10
189.1500262763
 20
157.0793632425
 30
0.0
 10
189.194511805
 20
157.1767685737
 30
0.0
 10
189.2342357766
 20
157.2761975489
 30
0.0
 10
189.2580968997
 20
157.3434679265
 30
0.0
 10
189.2694685458
 20
157.3772872909
 30
0.0
  0
SPLINE
  5
704
100
AcDbEntity
  8
30338519_CL
100
AcDbSpline
 62
7
  6
CONTINUOUS
 70
0
 71
3
 72
16
 73
12
 74
0
 42
0.0000001
 43
0.0000001
 44
0.0000000001
 40
0.0
 40
0.0
 40
0.0
 40
0.0
 40
0.2626124719
 40
0.3899788842
 40
0.5145498291
 40
0.636341096
 40
0.7557749642
 40
0.8150803778
 40
0.8747733232
 40
0.9359251566
 40
1.0
 40
1.0
 40
1.0
 40
1.0
 10
138.7556019686
 20
140.2845080203
 30
0.0
 10
138.7021809981
 20
140.1888436848
 30
0.0
 10
138.6224760377
 20
140.0469917496
 30
0.0
 10
138.517680641
 20
139.8596225785
 30
0.0
 10
138.4422950448
 20
139.723121188
 30
0.0
 10
138.3702526519
 20
139.5885763664
 30
0.0
 10
138.3141891937
 20
139.4763492067
 30
0.0
 10
138.2747090191
 20
139.3849988183
 30
0.0
 10
138.2492666581
 20
139.3141881442
 30
0.0
 10
138.2308455229
 20
139.2390492009
 30
0.0
 10
138.2265556603
 20
139.1866729756
 30
0.0
 10
138.2266380606
 20
139.1599392406
 30
0.0
  0
SPLINE
  5
705
100
AcDbEntity
  8
30338519_CL
100
AcDbSpline
 62
7
  6
CONTINUOUS
 70
0
 71
3
 72
9
 73
5
 74
0
 42
0.0000001
 43
0.0000001
 44
0.0000000001
 40
0.0
 40
0.0
 40
0.0
 40
0.0
 40
0.2502442154
 40
1.0
 40
1.0
 40
1.0
 40
1.0
 10
138.8955570382
 20
140.2474569214
 30
0.0
 10
138.8835507068
 20
140.2489341049
 30
0.0
 10
138.8357893772
 20
140.2565719329
 30
0.0
 10
138.7891981441
 20
140.2709110212
 30
0.0
 10
138.7556019686
 20
140.2845080203
 30
0.0
  0
SPLINE
  5
706
100
AcDbEntity
  8
30338519_CL
100
AcDbSpline
 62
7
  6
CONTINUOUS
 70
0
 71
3
 72
21
 73
17
 74
0
 42
0.0000001
 43
0.0000001
 44
0.0000000001
 40
0.0
 40
0.0
 40
0.0
 40
0.0
 40
0.0627077769
 40
0.1253563398
 40
0.1879365642
 40
0.2504438882
 40
0.3751261638
 40
0.4996348478
 40
0.5619590218
 40
0.6243185952
 40
0.6867386609
 40
0.7492377812
 40
0.8118243901
 40
0.8744941376
 40
0.9372289048
 40
1.0
 40
1.0
 40
1.0
 40
1.0
 10
160.6556019686
 20
153.6272872909
 30
0.0
 10
160.8062117783
 20
153.6337805086
 30
0.0
 10
161.1080490669
 20
153.6332240622
 30
0.0
 10
161.5585244724
 20
153.591882477
 30
0.0
 10
162.0030827272
 20
153.5104054092
 30
0.0
 10
162.5822013949
 20
153.3492600423
 30
0.0
 10
163.2742607948
 20
153.0504636119
 30
0.0
 10
163.8983956947
 20
152.6277092452
 30
0.0
 10
164.3403401649
 20
152.2220285068
 30
0.0
 10
164.6398728486
 20
151.885376139
 30
0.0
 10
164.9030158246
 20
151.5190384157
 30
0.0
 10
165.1256819792
 20
151.1260793567
 30
0.0
 10
165.3039005883
 20
150.7103645593
 30
0.0
 10
165.4341209959
 20
150.2765524109
 30
0.0
 10
165.5134964325
 20
149.8302051537
 30
0.0
 10
165.5312771756
 20
149.5281892237
 30
0.0
 10
165.5312771756
 20
149.3772872909
 30
0.0
  0
SPLINE
  5
707
100
AcDbEntity
  8
30338519_CL
100
AcDbSpline
 62
7
  6
CONTINUOUS
 70
0
 71
3
 72
21
 73
17
 74
0
 42
0.0000001
 43
0.0000001
 44
0.0000000001
 40
0.0
 40
0.0
 40
0.0
 40
0.0
 40
0.0625460668
 40
0.125082566
 40
0.1876038345
 40
0.2501064639
 40
0.3125914489
 40
0.3750639347
 40
0.4375316437
 40
0.5000035122
 40
0.5624878625
 40
0.6249904382
 40
0.687513588
 40
0.7500554211
 40
0.8750491672
 40
1.0
 40
1.0
 40
1.0
 40
1.0
 10
156.2451629455
 20
149.3772872909
 30
0.0
 10
156.2451629455
 20
149.5181667216
 30
0.0
 10
156.2604530438
 20
149.8001415952
 30
0.0
 10
156.3288421172
 20
150.2179194887
 30
0.0
 10
156.4414750992
 20
150.6259304716
 30
0.0
 10
156.5964396753
 20
151.0196486124
 30
0.0
 10
156.791270613
 20
151.3950857738
 30
0.0
 10
157.0230896737
 20
151.7487481405
 30
0.0
 10
157.2887584834
 20
152.0776625321
 30
0.0
 10
157.5849867181
 20
152.3793391655
 30
0.0
 10
157.9084220439
 20
152.6517223752
 30
0.0
 10
158.2556918066
 20
152.8931279954
 30
0.0
 10
158.6234819457
 20
153.1022081249
 30
0.0
 10
159.136450662
 20
153.3363110404
 30
0.0
 10
159.8129195486
 20
153.543546846
 30
0.0
 10
160.3744225698
 20
153.6151648465
 30
0.0
 10
160.6556019686
 20
153.6272872909
 30
0.0
  0
SPLINE
  5
708
100
AcDbEntity
  8
30338519_CL
100
AcDbSpline
 62
7
  6
CONTINUOUS
 70
0
 71
3
 72
22
 73
18
 74
0
 42
0.0000001
 43
0.0000001
 44
0.0000000001
 40
0.0
 40
0.0
 40
0.0
 40
0.0
 40
0.033005072
 40
0.0657529327
 40
0.0980576226
 40
0.1299491723
 40
0.161532279
 40
0.1929009501
 40
0.2552184981
 40
0.3172415163
 40
0.3791144923
 40
0.4409175763
 40
0.5027024068
 40
0.6263192874
 40
0.7502556021
 40
0.8747388659
 40
1.0
 40
1.0
 40
1.0
 40
1.0
 10
142.2556019686
 20
159.0065834532
 30
0.0
 10
142.2893689812
 20
159.0129333865
 30
0.0
 10
142.3584157667
 20
159.0179657472
 30
0.0
 10
142.4598654557
 20
159.0004135265
 30
0.0
 10
142.5542096867
 20
158.9631159387
 30
0.0
 10
142.6406503318
 20
158.9129120451
 30
0.0
 10
142.7203525001
 20
158.8544073353
 30
0.0
 10
142.819121712
 20
158.7691091983
 30
0.0
 10
142.9319979237
 20
158.6523511207
 30
0.0
 10
143.0551063625
 20
158.5024294018
 30
0.0
 10
143.1679686766
 20
158.3453336017
 30
0.0
 10
143.271614548
 20
158.1823276111
 30
0.0
 10
143.3979338128
 20
157.9580072397
 30
0.0
 10
143.5336309011
 20
157.6652414291
 30
0.0
 10
143.6573023812
 20
157.2973362143
 30
0.0
 10
143.7366086326
 20
156.9155210338
 30
0.0
 10
143.7556019686
 20
156.6552212435
 30
0.0
 10
143.7556019686
 20
156.5248221169
 30
0.0
  0
SPLINE
  5
709
100
AcDbEntity
  8
30338519_CL
100
AcDbSpline
 62
7
  6
CONTINUOUS
 70
0
 71
3
 72
11
 73
7
 74
0
 42
0.0000001
 43
0.0000001
 44
0.0000000001
 40
0.0
 40
0.0
 40
0.0
 40
0.0
 40
0.2500281574
 40
0.5000499697
 40
0.7500513787
 40
1.0
 40
1.0
 40
1.0
 40
1.0
 10
138.8955570382
 20
158.5071176605
 30
0.0
 10
139.1765914558
 20
158.5416943675
 30
0.0
 10
139.7383588526
 20
158.6132730027
 30
0.0
 10
140.5797858712
 20
158.7297116608
 30
0.0
 10
141.4194114687
 20
158.8579455671
 30
0.0
 10
141.9774146432
 20
158.9542699426
 30
0.0
 10
142.2556019686
 20
159.0065834532
 30
0.0
  0
SPLINE
  5
70A
100
AcDbEntity
  8
30338519_CL
100
AcDbSpline
 62
7
  6
CONTINUOUS
 70
0
 71
3
 72
16
 73
12
 74
0
 42
0.0000001
 43
0.0000001
 44
0.0000000001
 40
0.0
 40
0.0
 40
0.0
 40
0.0
 40
0.0589538769
 40
0.1208822345
 40
0.184010769
 40
0.2475668013
 40
0.374920502
 40
0.5019456004
 40
0.6282295968
 40
0.7534791672
 40
1.0
 40
1.0
 40
1.0
 40
1.0
 10
138.0023909075
 20
139.2617453177
 30
0.0
 10
138.0024627455
 20
139.2918438849
 30
0.0
 10
137.9976368625
 20
139.3535840319
 30
0.0
 10
137.9810245709
 20
139.4461032174
 30
0.0
 10
137.9595700983
 20
139.5399947567
 30
0.0
 10
137.9282640802
 20
139.6658576654
 30
0.0
 10
137.8883277474
 20
139.8231916407
 30
0.0
 10
137.8445109026
 20
140.0125552958
 30
0.0
 10
137.8072948306
 20
140.202273751
 30
0.0
 10
137.769241504
 20
140.4537157477
 30
0.0
 10
137.7556019686
 20
140.6436685957
 30
0.0
 10
137.7556019686
 20
140.7695287658
 30
0.0
  0
SPLINE
  5
70B
100
AcDbEntity
  8
30338519_CL
100
AcDbSpline
 62
7
  6
CONTINUOUS
 70
0
 71
3
 72
9
 73
5
 74
0
 42
0.0000001
 43
0.0000001
 44
0.0000000001
 40
0.0
 40
0.0
 40
0.0
 40
0.0
 40
0.7497560392
 40
1.0
 40
1.0
 40
1.0
 40
1.0
 10
138.7556019686
 20
158.4700665615
 30
0.0
 10
138.7891981557
 20
158.4836635654
 30
0.0
 10
138.8357893867
 20
158.4980026658
 30
0.0
 10
138.883550719
 20
158.5056404785
 30
0.0
 10
138.8955570382
 20
158.5071176605
 30
0.0
  0
SPLINE
  5
70C
100
AcDbEntity
  8
30338519_CL
100
AcDbSpline
 62
7
  6
CONTINUOUS
 70
0
 71
3
 72
16
 73
12
 74
0
 42
0.0000001
 43
0.0000001
 44
0.0000000001
 40
0.0
 40
0.0
 40
0.0
 40
0.0
 40
0.0640762649
 40
0.1252314861
 40
0.1849256615
 40
0.2442309358
 40
0.3636640305
 40
0.485454454
 40
0.6100242674
 40
0.7373897431
 40
1.0
 40
1.0
 40
1.0
 40
1.0
 10
138.2266380606
 20
159.5946353413
 30
0.0
 10
138.2265556585
 20
159.567901019
 30
0.0
 10
138.2308471743
 20
159.5155229921
 30
0.0
 10
138.2492671251
 20
159.4403811505
 30
0.0
 10
138.2747135644
 20
159.3695698913
 30
0.0
 10
138.3141934288
 20
159.2782193539
 30
0.0
 10
138.3702562057
 20
159.1659926598
 30
0.0
 10
138.4422967313
 20
159.0314481877
 30
0.0
 10
138.5176829313
 20
158.8949485463
 30
0.0
 10
138.6224770781
 20
158.7075807836
 30
0.0
 10
138.7021814602
 20
158.5657300694
 30
0.0
 10
138.7556019686
 20
158.4700665615
 30
0.0
  0
SPLINE
  5
70D
100
AcDbEntity
  8
30338519_CL
100
AcDbSpline
 62
7
  6
CONTINUOUS
 70
0
 71
3
 72
40
 73
36
 74
0
 42
0.0000001
 43
0.0000001
 44
0.0000000001
 40
0.0
 40
0.0
 40
0.0
 40
0.0
 40
0.0637055856
 40
0.1279278657
 40
0.1926978598
 40
0.258087182
 40
0.3242323816
 40
0.3913979963
 40
0.4255266446
 40
0.4601770978
 40
0.4777582219
 40
0.4955149296
 40
0.5132089531
 40
0.5216098181
 40
0.5289440528
 40
0.5350034549
 40
0.5406151325
 40
0.5463385167
 40
0.552286329
 40
0.5584431629
 40
0.5647749272
 40
0.5778439668
 40
0.5913245201
 40
0.605109709
 40
0.6191319401
 40
0.6333461123
 40
0.6622303867
 40
0.6915969636
 40
0.7213461217
 40
0.7514136669
 40
0.7817556101
 40
0.8123406281
 40
0.8741523541
 40
0.9367279803
 40
1.0
 40
1.0
 40
1.0
 40
1.0
 10
138.0023909075
 20
159.4928292641
 30
0.0
 10
138.0023135027
 20
159.5252601818
 30
0.0
 10
138.0027386576
 20
159.590387857
 30
0.0
 10
138.0051317363
 20
159.6884618855
 30
0.0
 10
138.0094372955
 20
159.787329712
 30
0.0
 10
138.0159652735
 20
159.8870608985
 30
0.0
 10
138.0253203088
 20
159.9877927983
 30
0.0
 10
138.0363471824
 20
160.0723570157
 30
0.0
 10
138.0485380694
 20
160.1404948785
 30
0.0
 10
138.0583258747
 20
160.1833861904
 30
0.0
 10
138.0684499644
 20
160.2175748814
 30
0.0
 10
138.0778428925
 20
160.2428813587
 30
0.0
 10
138.0879858971
 20
160.2629745045
 30
0.0
 10
138.0988002192
 20
160.2762066938
 30
0.0
 10
138.1081439234
 20
160.2827655156
 30
0.0
 10
138.1182392488
 20
160.2838120545
 30
0.0
 10
138.1265952996
 20
160.2801901683
 30
0.0
 10
138.1333499459
 20
160.2744640756
 30
0.0
 10
138.1391761332
 20
160.2674656288
 30
0.0
 10
138.1443385395
 20
160.2596125516
 30
0.0
 10
138.1506157049
 20
160.2482054121
 30
0.0
 10
138.1574050119
 20
160.2328760931
 30
0.0
 10
138.1644035828
 20
160.2135630034
 30
0.0
 10
138.1705925562
 20
160.1934691194
 30
0.0
 10
138.1761414853
 20
160.1728055104
 30
0.0
 10
138.182870957
 20
160.1445129309
 30
0.0
 10
138.1901419914
 20
160.108335002
 30
0.0
 10
138.1974846263
 20
160.0641362395
 30
0.0
 10
138.203731796
 20
160.019162432
 30
0.0
 10
138.2090469094
 20
159.9735705205
 30
0.0
 10
138.2135429668
 20
159.9274635882
 30
0.0
 10
138.2185698096
 20
159.8651804645
 30
0.0
 10
138.2231403278
 20
159.78640872
 30
0.0
 10
138.2262053011
 20
159.6909162324
 30
0.0
 10
138.2267373407
 20
159.6268454802
 30
0.0
 10
138.2266380606
 20
159.5946353413
 30
0.0
  0
SPLINE
  5
70E
100
AcDbEntity
  8
30338519_CL
100
AcDbSpline
 62
7
  6
CONTINUOUS
 70
0
 71
3
 72
16
 73
12
 74
0
 42
0.0000001
 43
0.0000001
 44
0.0000000001
 40
0.0
 40
0.0
 40
0.0
 40
0.0
 40
0.2465192083
 40
0.3717687171
 40
0.4980529312
 40
0.6250781892
 40
0.7524320654
 40
0.8159881962
 40
0.8791169268
 40
0.9410456946
 40
1.0
 40
1.0
 40
1.0
 40
1.0
 10
137.7556019686
 20
157.985045816
 30
0.0
 10
137.7556019686
 20
158.1109051561
 30
0.0
 10
137.7692414389
 20
158.3008571293
 30
0.0
 10
137.8072943316
 20
158.5522984349
 30
0.0
 10
137.8445104887
 20
158.7420170371
 30
0.0
 10
137.8883271658
 20
158.931381019
 30
0.0
 10
137.928263667
 20
159.0887151809
 30
0.0
 10
137.9595696492
 20
159.214578345
 30
0.0
 10
137.9810242361
 20
159.3084702257
 30
0.0
 10
137.9976367562
 20
159.4009899044
 30
0.0
 10
138.002462746
 20
159.4627304783
 30
0.0
 10
138.0023909075
 20
159.4928292641
 30
0.0
  0
SPLINE
  5
70F
100
AcDbEntity
  8
30338519_CL
100
AcDbSpline
 62
7
  6
CONTINUOUS
 70
0
 71
3
 72
40
 73
36
 74
0
 42
0.0000001
 43
0.0000001
 44
0.0000000001
 40
0.0
 40
0.0
 40
0.0
 40
0.0
 40
0.0632719483
 40
0.1258474972
 40
0.1876591509
 40
0.2182441314
 40
0.2485860332
 40
0.2786535445
 40
0.3084026755
 40
0.3377692217
 40
0.3666534715
 40
0.3808676404
 40
0.3948898608
 40
0.4086750174
 40
0.4221556411
 40
0.4352245996
 40
0.4415563434
 40
0.4477131829
 40
0.4536609596
 40
0.4593845576
 40
0.4649966383
 40
0.4710557281
 40
0.4783916602
 40
0.4867926204
 40
0.5044864104
 40
0.5222430783
 40
0.5398242853
 40
0.5744747496
 40
0.6086030829
 40
0.6757682656
 40
0.7419132839
 40
0.8073024833
 40
0.8720723654
 40
0.9362945334
 40
1.0
 40
1.0
 40
1.0
 40
1.0
 10
138.2266380606
 20
139.1599392406
 30
0.0
 10
138.2267373406
 20
139.1277291367
 30
0.0
 10
138.2262053042
 20
139.0636584574
 30
0.0
 10
138.2231403346
 20
138.9681660782
 30
0.0
 10
138.2185698356
 20
138.8893944248
 30
0.0
 10
138.2135430087
 20
138.8271113742
 30
0.0
 10
138.2090469461
 20
138.7810044981
 30
0.0
 10
138.2037318506
 20
138.7354126353
 30
0.0
 10
138.1974847208
 20
138.6904388674
 30
0.0
 10
138.1901421018
 20
138.646240143
 30
0.0
 10
138.1828710888
 20
138.6100622382
 30
0.0
 10
138.176141657
 20
138.5817696699
 30
0.0
 10
138.1705927888
 20
138.5611060639
 30
0.0
 10
138.1644036442
 20
138.5410122243
 30
0.0
 10
138.1574054567
 20
138.5216990129
 30
0.0
 10
138.1506158683
 20
138.5063698263
 30
0.0
 10
138.1443387073
 20
138.4949627492
 30
0.0
 10
138.1391764056
 20
138.4871096284
 30
0.0
 10
138.1333500247
 20
138.4801112089
 30
0.0
 10
138.1265953968
 20
138.474384758
 30
0.0
 10
138.1182395299
 20
138.4707619078
 30
0.0
 10
138.1081430353
 20
138.4718086575
 30
0.0
 10
138.0987998156
 20
138.4783696071
 30
0.0
 10
138.0879840773
 20
138.4916013653
 30
0.0
 10
138.077842408
 20
138.5116954345
 30
0.0
 10
138.0684493625
 20
138.5370015952
 30
0.0
 10
138.0583251267
 20
138.5711903349
 30
0.0
 10
138.0485378121
 20
138.6140816235
 30
0.0
 10
138.0363468928
 20
138.6822191033
 30
0.0
 10
138.0253202407
 20
138.7667828791
 30
0.0
 10
138.0159652088
 20
138.8675144046
 30
0.0
 10
138.00943727
 20
138.9672453865
 30
0.0
 10
138.0051317201
 20
139.0661130406
 30
0.0
 10
138.0027386592
 20
139.1641868991
 30
0.0
 10
138.0023135029
 20
139.2293144593
 30
0.0
 10
138.0023909075
 20
139.2617453177
 30
0.0
  0
SPLINE
  5
710
100
AcDbEntity
  8
30338519_CL
100
AcDbSpline
 62
7
  6
CONTINUOUS
 70
0
 71
3
 72
11
 73
7
 74
0
 42
0.0000001
 43
0.0000001
 44
0.0000000001
 40
0.0
 40
0.0
 40
0.0
 40
0.0
 40
0.2500281574
 40
0.5000499697
 40
0.7500513787
 40
1.0
 40
1.0
 40
1.0
 40
1.0
 10
138.8955570382
 20
140.2474569214
 30
0.0
 10
139.1765914558
 20
140.2128802144
 30
0.0
 10
139.7383588526
 20
140.1413015791
 30
0.0
 10
140.5797858712
 20
140.0248629211
 30
0.0
 10
141.4194114687
 20
139.8966290147
 30
0.0
 10
141.9774146432
 20
139.8003046393
 30
0.0
 10
142.2556019686
 20
139.7479911287
 30
0.0
  0
SPLINE
  5
711
100
AcDbEntity
  8
30338519_CL
100
AcDbSpline
 62
7
  6
CONTINUOUS
 70
0
 71
3
 72
22
 73
18
 74
0
 42
0.0000001
 43
0.0000001
 44
0.0000000001
 40
0.0
 40
0.0
 40
0.0
 40
0.0
 40
0.1252608019
 40
0.2497438156
 40
0.3736799211
 40
0.4972967244
 40
0.5590815351
 40
0.6208846178
 40
0.6827576082
 40
0.7447806311
 40
0.8070981545
 40
0.838466804
 40
0.8700499327
 40
0.9019415099
 40
0.9342457638
 40
0.9669933662
 40
1.0
 40
1.0
 40
1.0
 40
1.0
 10
143.7556019686
 20
142.2297524649
 30
0.0
 10
143.7556019686
 20
142.0993536856
 30
0.0
 10
143.7366087117
 20
141.8390545057
 30
0.0
 10
143.657302795
 20
141.4572401136
 30
0.0
 10
143.533631846
 20
141.0893353107
 30
0.0
 10
143.3979349338
 20
140.7965697724
 30
0.0
 10
143.2716158753
 20
140.5722494055
 30
0.0
 10
143.1679701513
 20
140.4092433416
 30
0.0
 10
143.0551082689
 20
140.2521471992
 30
0.0
 10
142.9319995568
 20
140.1022257095
 30
0.0
 10
142.8191236259
 20
139.9854674508
 30
0.0
 10
142.720354578
 20
139.9001691471
 30
0.0
 10
142.6406524978
 20
139.8416643143
 30
0.0
 10
142.5542126294
 20
139.791459839
 30
0.0
 10
142.4598691259
 20
139.7541624247
 30
0.0
 10
142.3584188491
 20
139.7366084741
 30
0.0
 10
142.2893705787
 20
139.7416408949
 30
0.0
 10
142.2556019686
 20
139.7479911287
 30
0.0
  0
SPLINE
  5
712
100
AcDbEntity
  8
30338519_CL
100
AcDbSpline
 62
7
  6
CONTINUOUS
 70
0
 71
3
 72
21
 73
17
 74
0
 42
0.0000001
 43
0.0000001
 44
0.0000000001
 40
0.0
 40
0.0
 40
0.0
 40
0.0
 40
0.1249508325
 40
0.249944579
 40
0.3124864115
 40
0.3750095608
 40
0.4375121371
 40
0.4999964866
 40
0.5624683546
 40
0.6249360634
 40
0.6874085493
 40
0.7498935345
 40
0.8123961638
 40
0.8749174323
 40
0.9374539316
 40
1.0
 40
1.0
 40
1.0
 40
1.0
 10
160.6556019686
 20
145.1272872909
 30
0.0
 10
160.3744225705
 20
145.1394097353
 30
0.0
 10
159.812919549
 20
145.2110277355
 30
0.0
 10
159.1364506635
 20
145.418263541
 30
0.0
 10
158.6234819484
 20
145.6523664556
 30
0.0
 10
158.2556918099
 20
145.8614465843
 30
0.0
 10
157.9084220483
 20
146.1028522034
 30
0.0
 10
157.5849867233
 20
146.3752354115
 30
0.0
 10
157.2887584906
 20
146.6769120418
 30
0.0
 10
157.0230896811
 20
147.0058264317
 30
0.0
 10
156.7912706187
 20
147.3594887977
 30
0.0
 10
156.5964396802
 20
147.7349259591
 30
0.0
 10
156.4414751028
 20
148.1286440994
 30
0.0
 10
156.3288421196
 20
148.536655082
 30
0.0
 10
156.2604530447
 20
148.9544329791
 30
0.0
 10
156.2451629455
 20
149.2364078567
 30
0.0
 10
156.2451629455
 20
149.3772872909
 30
0.0
  0
SPLINE
  5
713
100
AcDbEntity
  8
30338519_CL
100
AcDbSpline
 62
7
  6
CONTINUOUS
 70
0
 71
3
 72
21
 73
17
 74
0
 42
0.0000001
 43
0.0000001
 44
0.0000000001
 40
0.0
 40
0.0
 40
0.0
 40
0.0
 40
0.0627710938
 40
0.1255058605
 40
0.188175608
 40
0.2507622175
 40
0.3132613376
 40
0.3756814035
 40
0.4380409772
 40
0.5003651512
 40
0.6248738353
 40
0.7495561122
 40
0.8120634359
 40
0.8746436607
 40
0.9372922237
 40
1.0
 40
1.0
 40
1.0
 40
1.0
 10
165.5312771756
 20
149.3772872909
 30
0.0
 10
165.5312771756
 20
149.2263853615
 30
0.0
 10
165.5134964335
 20
148.9243694359
 30
0.0
 10
165.4341209983
 20
148.4780221832
 30
0.0
 10
165.3039005925
 20
148.0442100341
 30
0.0
 10
165.1256819845
 20
147.6284952352
 30
0.0
 10
164.9030158297
 20
147.2355361748
 30
0.0
 10
164.6398728547
 20
146.86919845
 30
0.0
 10
164.3403401707
 20
146.5325460808
 30
0.0
 10
163.8983957004
 20
146.1268653411
 30
0.0
 10
163.2742607984
 20
145.7041109715
 30
0.0
 10
162.582201396
 20
145.4053145398
 30
0.0
 10
162.003082725
 20
145.2441691721
 30
0.0
 10
161.5585244695
 20
145.1626921044
 30
0.0
 10
161.1080490643
 20
145.1213505195
 30
0.0
 10
160.8062117769
 20
145.1207940733
 30
0.0
 10
160.6556019686
 20
145.1272872909
 30
0.0
  0
SPLINE
  5
714
100
AcDbEntity
  8
30338519_CL
100
AcDbSpline
 62
7
  6
CONTINUOUS
 70
0
 71
3
 72
17
 73
13
 74
0
 42
0.0000001
 43
0.0000001
 44
0.0000000001
 40
0.0
 40
0.0
 40
0.0
 40
0.0
 40
0.1250508644
 40
0.2500996897
 40
0.3751446807
 40
0.5001810315
 40
0.6251944193
 40
0.7501379882
 40
0.8126520564
 40
0.8751439365
 40
0.9375936643
 40
1.0
 40
1.0
 40
1.0
 40
1.0
 10
186.0417353914
 20
157.3772872909
 30
0.0
 10
186.0531070366
 20
157.3434679293
 30
0.0
 10
186.0769681573
 20
157.2761975572
 30
0.0
 10
186.1166921239
 20
157.1767685894
 30
0.0
 10
186.1611776545
 20
157.0793632678
 30
0.0
 10
186.2116533997
 20
156.9848764024
 30
0.0
 10
186.2699807849
 20
156.8950128773
 30
0.0
 10
186.3277802791
 20
156.8265199308
 30
0.0
 10
186.3818352186
 20
156.7797443543
 30
0.0
 10
186.4270283032
 20
156.7506860175
 30
0.0
 10
186.4770165697
 20
156.7306458639
 30
0.0
 10
186.5127959417
 20
156.7257565193
 30
0.0
 10
186.5306019686
 20
156.7257565193
 30
0.0
  0
SPLINE
  5
715
100
AcDbEntity
  8
30338519_CL
100
AcDbSpline
 62
7
  6
CONTINUOUS
 70
0
 71
3
 72
17
 73
13
 74
0
 42
0.0000001
 43
0.0000001
 44
0.0000000001
 40
0.0
 40
0.0
 40
0.0
 40
0.0
 40
0.0624062854
 40
0.1248559801
 40
0.187347834
 40
0.2498618695
 40
0.3748054156
 40
0.4998188314
 40
0.6248552065
 40
0.7499002383
 40
0.8749491011
 40
1.0
 40
1.0
 40
1.0
 40
1.0
 10
186.5306019686
 20
142.0288180626
 30
0.0
 10
186.5127959561
 20
142.0288180626
 30
0.0
 10
186.4770166073
 20
142.0239287308
 30
0.0
 10
186.4270283672
 20
142.0038885941
 30
0.0
 10
186.3818353004
 20
141.9748302796
 30
0.0
 10
186.3277803629
 20
141.9280547371
 30
0.0
 10
186.2699808528
 20
141.8595618118
 30
0.0
 10
186.2116534774
 20
141.7696982711
 30
0.0
 10
186.1611776784
 20
141.6752114047
 30
0.0
 10
186.1166921525
 20
141.5778060478
 30
0.0
 10
186.0769681682
 20
141.4783770532
 30
0.0
 10
186.0531070397
 20
141.4111066618
 30
0.0
 10
186.0417353914
 20
141.3772872909
 30
0.0
  0
ENDSEC
  0
SECTION
  2
OBJECTS
  0
DICTIONARY
  5
C
100
AcDbDictionary
280
0
281
1
  3
ACAD_GROUP
350
D
  3
ACAD_MLINESTYLE
350
17
  3
ACAD_LAYOUT
350
1A
  3
ACAD_PLOTSETTINGS
350
19
  3
ACAD_PLOTSTYLENAME
350
E
  0
DICTIONARY
  5
D
102
{ACAD_REACTORS
330
C
102
}
100
AcDbDictionary
280
0
281
1
  0
ACDBDICTIONARYWDFLT
  5
E
102
{ACAD_REACTORS
330
C
102
}
100
AcDbDictionary
281
1
  3
Normal
350
F
100
AcDbDictionaryWithDefault
340
F
  0
DICTIONARY
  5
17
102
{ACAD_REACTORS
330
C
102
}
100
AcDbDictionary
280
0
281
1
  3
Standard
350
18
  0
DICTIONARY
  5
19
102
{ACAD_REACTORS
330
C
102
}
100
AcDbDictionary
281
1
  0
DICTIONARY
  5
1A
102
{ACAD_REACTORS
330
C
102
}
100
AcDbDictionary
281
1
  3
Model
350
716
  3
Layout1
350
717
  0
ACDBPLACEHOLDER
  5
F
102
{ACAD_REACTORS
330
E
102
}
  0
MLINESTYLE
  5
18
102
{ACAD_REACTORS
330
17
102
}
100
AcDbMlineStyle
  2
STANDARD
 70
0
  3

 62
256
 51
90.0
 52
90.0
 71
2
 49
0.5
 62
256
  6
BYLAYER
 49
-0.5
 62
256
  6
BYLAYER
  0
LAYOUT
  5
716
102
{ACAD_REACTORS
330
1A
102
}
100
AcDbPlotSettings
  1

  2
none_device
  4
ISO_A3_(420.00_x_297.00_MM)
  6

 40
0.0
 41
0.0
 42
0.0
 43
0.0
 44
420.0
 45
297.0
 46
0.0
 47
0.0
 48
0.0
 49
0.0
140
0.0
141
0.0
142
1.0
143
1.0
 70
1024
 72
1
 73
0
 74
0
  7

 75
0
147
1.0
148
0.0
149
0.0
100
AcDbLayout
  1
Model
 70
0
 71
0
 10
0.0
 20
0.0
 11
420.0
 21
297.0
 12
0.0
 22
0.0
 32
0.0
 14
0.0
 24
0.0
 34
0.0
 15
0.0
 25
0.0
 35
0.0
146
0.0
 13
0.0
 23
0.0
 33
0.0
 16
1.0
 26
0.0
 36
0.0
 17
0.0
 27
1.0
 37
0.0
 76
0
330
217
345
0
346
0
  0
LAYOUT
  5
717
102
{ACAD_REACTORS
330
1A
102
}
100
AcDbPlotSettings
  1

  2
none_device
  4
ISO_A3_(420.00_x_297.00_MM)
  6

 40
0.0
 41
0.0
 42
0.0
 43
0.0
 44
420.0
 45
297.0
 46
0.0
 47
0.0
 48
0.0
 49
0.0
140
0.0
141
0.0
142
1.0
143
1.0
 70
0
 72
1
 73
0
 74
0
  7

 75
0
147
1.0
148
0.0
149
0.0
100
AcDbLayout
  1
Layout1
 70
0
 71
1
 10
0.0
 20
0.0
 11
420.0
 21
297.0
 12
0.0
 22
0.0
 32
0.0
 14
0.0
 24
0.0
 34
0.0
 15
0.0
 25
0.0
 35
0.0
146
0.0
 13
0.0
 23
0.0
 33
0.0
 16
1.0
 26
0.0
 36
0.0
 17
0.0
 27
1.0
 37
0.0
 76
0
330
218
345
0
346
0
  0
ENDSEC
  0
EOF
