999
DXF file: 606077392-000-00-ed1.dxf
999
Pro/ENGINEER 2011220 by Parametric Technology Corporation
  0
SECTION
  2
HEADER
  9
$ACADVER
  1
AC1015
  9
$DWGCODEPAGE
  3
ANSI_1252
  9
$EXTMAX
 10
420.0
 20
297.0
 30
0.0
  9
$EXTMIN
 10
0.0
 20
0.0
 30
0.0
  9
$LIMMIN
 10
0.0
 20
0.0
  9
$LIMMAX
 10
420.0
 20
297.0
  9
$VIEWCTR
 10
210.0
 20
148.5
  9
$VIEWSIZE
 40
297.0
  9
$CLAYER
  8
0
  9
$LTSCALE
 40
23.1
  9
$CELTYPE
  6
BYLAYER
  9
$DIMSCALE
 40
1.0
  9
$DIMASZ
 40
3.5
  9
$DIMEXO
 40
2.625
  9
$DIMDLI
 40
15.96
  9
$DIMEXE
 40
7.56
  9
$DIMCEN
 40
3.78
  9
$DIMLFAC
 40
1.0
  9
$DIMBLK
  1
_FILLED
  9
$DIMTXT
 40
3.5
  9
$DIMTOL
 70
1
  9
$DIMLIM
 70
0
  9
$DIMTFAC
 40
1.0
  9
$DIMTP
 40
0.005
  9
$DIMTM
 40
0.005
  9
$PDMODE
 70
3
  9
$PDSIZE
 40
0.3125
  9
$HANDSEED
  5
712
  9
$TILEMODE
 70
1
  9
$MEASUREMENT
 70
1
  9
$INSUNITS
 70
4
  0
ENDSEC
  0
SECTION
  2
CLASSES
  0
CLASS
  1
ACDBDICTIONARYWDFLT
  2
AcDbDictionaryWithDefault
  3
AutoCAD 2000
 90
0
280
0
281
0
  0
CLASS
  1
ACDBPLACEHOLDER
  2
AcDbPlaceHolder
  3
AutoCAD 2000
 90
0
280
0
281
0
  0
CLASS
  1
LAYOUT
  2
AcDbLayout
  3
AutoCAD 2000
 90
0
280
0
281
0
  0
ENDSEC
  0
SECTION
  2
TABLES
  0
TABLE
  2
VPORT
  5
8
100
AcDbSymbolTable
 70
2
  0
VPORT
  5
1F4
100
AcDbSymbolTableRecord
100
AcDbViewportTableRecord
  2
*ACTIVE
 70
0
 10
0.0
 20
0.0
 11
1.0
 21
1.0
 12
210.0
 22
148.5
 13
0.0
 23
0.0
 14
1.0
 24
1.0
 15
0.0
 25
0.0
 16
0.0
 26
0.0
 36
1.0
 17
0.0
 27
0.0
 37
0.0
 40
297.0
 41
1.4141414141
 42
50.0
 43
0.0
 44
0.0
 50
0.0
 51
0.0
 71
0
 72
100
 73
1
 74
1
 75
0
 76
0
 77
0
 78
0
  0
ENDTAB
  0
TABLE
  2
LTYPE
  5
5
100
AcDbSymbolTable
 70
6
  0
LTYPE
  5
14
100
AcDbSymbolTableRecord
100
AcDbLinetypeTableRecord
  2
BYBLOCK
 70
0
  3

 72
65
 73
0
 40
0.0
  0
LTYPE
  5
15
100
AcDbSymbolTableRecord
100
AcDbLinetypeTableRecord
  2
BYLAYER
 70
0
  3

 72
65
 73
0
 40
0.0
  0
LTYPE
  5
16
100
AcDbSymbolTableRecord
100
AcDbLinetypeTableRecord
  2
CONTINUOUS
 70
64
  3
Solid line
 72
65
 73
0
 40
0.0
  0
LTYPE
  5
1F5
100
AcDbSymbolTableRecord
100
AcDbLinetypeTableRecord
  2
CENTER
 70
64
  3
____ _ ____ _ ____ _ ____ _ ____ _ ____ _ ____
 72
65
 73
4
 40
0.6
 49
0.375
 74
0
 49
-0.075
 74
0
 49
0.075
 74
0
 49
-0.075
 74
0
  0
LTYPE
  5
1F6
100
AcDbSymbolTableRecord
100
AcDbLinetypeTableRecord
  2
HIDDEN
 70
64
  3
- - - - - - - - - - - - - - - - - - - -
 72
65
 73
2
 40
0.2
 49
0.1
 74
0
 49
-0.1
 74
0
  0
LTYPE
  5
1F7
100
AcDbSymbolTableRecord
100
AcDbLinetypeTableRecord
  2
PHANTOM
 70
64
  3
_____ _ _ _____ _ _ _____ _ _ _____
 72
65
 73
6
 40
0.8
 49
0.45
 74
0
 49
-0.05
 74
0
 49
0.1
 74
0
 49
-0.05
 74
0
 49
0.1
 74
0
 49
-0.05
 74
0
  0
LTYPE
  5
1F8
100
AcDbSymbolTableRecord
100
AcDbLinetypeTableRecord
  2
DOT
 70
64
  3
. . . . . . . . . . . . . . . . . . . .
 72
65
 73
2
 40
0.2
 49
0.1
 74
0
 49
-0.1
 74
0
  0
LTYPE
  5
1F9
100
AcDbSymbolTableRecord
100
AcDbLinetypeTableRecord
  2
DASHED
 70
64
  3
- - - - - - - - - - - - - - - - - - - -
 72
65
 73
2
 40
0.2
 49
0.1
 74
0
 49
-0.1
 74
0
  0
ENDTAB
  0
TABLE
  2
LAYER
  5
2
100
AcDbSymbolTable
 70
36
  0
LAYER
  5
10
100
AcDbSymbolTableRecord
100
AcDbLayerTableRecord
  2
0
 70
0
 62
7
  6
CONTINUOUS
370
-3
390
F
  0
LAYER
  5
1FA
100
AcDbSymbolTableRecord
100
AcDbLayerTableRecord
  2
DEFAULT_1
 70
0
 62
7
  6
CENTER
370
-3
390
F
  0
LAYER
  5
1FB
100
AcDbSymbolTableRecord
100
AcDbLayerTableRecord
  2
DEFAULT_2
 70
0
 62
6
  6
HIDDEN
370
-3
390
F
  0
LAYER
  5
1FC
100
AcDbSymbolTableRecord
100
AcDbLayerTableRecord
  2
DEFAULT_3
 70
0
 62
7
  6
PHANTOM
370
-3
390
F
  0
LAYER
  5
1FD
100
AcDbSymbolTableRecord
100
AcDbLayerTableRecord
  2
COLLECTION01
 70
0
 62
7
  6
CONTINUOUS
370
-3
390
F
  0
LAYER
  5
1FE
100
AcDbSymbolTableRecord
100
AcDbLayerTableRecord
  2
COLLECTION02
 70
0
 62
7
  6
CONTINUOUS
370
-3
390
F
  0
LAYER
  5
1FF
100
AcDbSymbolTableRecord
100
AcDbLayerTableRecord
  2
COLLECTION03
 70
0
 62
7
  6
CONTINUOUS
370
-3
390
F
  0
LAYER
  5
200
100
AcDbSymbolTableRecord
100
AcDbLayerTableRecord
  2
COLLECTION12
 70
0
 62
7
  6
CONTINUOUS
370
-3
390
F
  0
LAYER
  5
201
100
AcDbSymbolTableRecord
100
AcDbLayerTableRecord
  2
COLLECTION04
 70
0
 62
7
  6
CONTINUOUS
370
-3
390
F
  0
LAYER
  5
202
100
AcDbSymbolTableRecord
100
AcDbLayerTableRecord
  2
COLLECTION06
 70
0
 62
7
  6
CONTINUOUS
370
-3
390
F
  0
LAYER
  5
203
100
AcDbSymbolTableRecord
100
AcDbLayerTableRecord
  2
COLLECTION07
 70
0
 62
7
  6
CONTINUOUS
370
-3
390
F
  0
LAYER
  5
204
100
AcDbSymbolTableRecord
100
AcDbLayerTableRecord
  2
COLLECTION09
 70
0
 62
7
  6
CONTINUOUS
370
-3
390
F
  0
LAYER
  5
205
100
AcDbSymbolTableRecord
100
AcDbLayerTableRecord
  2
COLLECTION10
 70
0
 62
7
  6
CONTINUOUS
370
-3
390
F
  0
LAYER
  5
206
100
AcDbSymbolTableRecord
100
AcDbLayerTableRecord
  2
COLLECTION13
 70
0
 62
7
  6
CONTINUOUS
370
-3
390
F
  0
LAYER
  5
207
100
AcDbSymbolTableRecord
100
AcDbLayerTableRecord
  2
COLLECTION15
 70
0
 62
7
  6
CONTINUOUS
370
-3
390
F
  0
LAYER
  5
208
100
AcDbSymbolTableRecord
100
AcDbLayerTableRecord
  2
COLLECTION16
 70
0
 62
7
  6
CONTINUOUS
370
-3
390
F
  0
LAYER
  5
209
100
AcDbSymbolTableRecord
100
AcDbLayerTableRecord
  2
606077392-000-00-ED1_FORMAT
 70
0
 62
7
  6
CONTINUOUS
370
-3
390
F
  0
LAYER
  5
20A
100
AcDbSymbolTableRecord
100
AcDbLayerTableRecord
  2
30261745_DIM
 70
0
 62
7
  6
CONTINUOUS
370
-3
390
F
  0
LAYER
  5
20B
100
AcDbSymbolTableRecord
100
AcDbLayerTableRecord
  2
30338523_DIM
 70
0
 62
7
  6
CONTINUOUS
370
-3
390
F
  0
LAYER
  5
20C
100
AcDbSymbolTableRecord
100
AcDbLayerTableRecord
  2
606077392-000-00-ED1_CL
 70
0
 62
7
  6
CONTINUOUS
370
-3
390
F
  0
LAYER
  5
20D
100
AcDbSymbolTableRecord
100
AcDbLayerTableRecord
  2
606077392-000-00-ED1_TEXT
 70
0
 62
7
  6
CONTINUOUS
370
-3
390
F
  0
LAYER
  5
20E
100
AcDbSymbolTableRecord
100
AcDbLayerTableRecord
  2
30338523_CL
 70
0
 62
7
  6
CONTINUOUS
370
-3
390
F
  0
LAYER
  5
20F
100
AcDbSymbolTableRecord
100
AcDbLayerTableRecord
  2
30338523_HL
 70
0
 62
7
  6
CONTINUOUS
370
-3
390
F
  0
LAYER
  5
210
100
AcDbSymbolTableRecord
100
AcDbLayerTableRecord
  2
30338523_AXIS
 70
0
 62
7
  6
CONTINUOUS
370
-3
390
F
  0
LAYER
  5
211
100
AcDbSymbolTableRecord
100
AcDbLayerTableRecord
  2
30252542_HP_HL
 70
0
 62
7
  6
CONTINUOUS
370
-3
390
F
  0
LAYER
  5
212
100
AcDbSymbolTableRecord
100
AcDbLayerTableRecord
  2
30252542_HP_CL
 70
0
 62
7
  6
CONTINUOUS
370
-3
390
F
  0
ENDTAB
  0
TABLE
  2
STYLE
  5
3
100
AcDbSymbolTable
 70
1
  0
STYLE
  5
11
100
AcDbSymbolTableRecord
100
AcDbTextStyleTableRecord
  2
STANDARD
 70
0
 40
0.0
 41
0.7
 50
0.0
 71
0
 42
0.2
  3
TXT.SHX
  4

  0
STYLE
  5
213
100
AcDbSymbolTableRecord
100
AcDbTextStyleTableRecord
  2
TEXTSTYLE_1
 70
0
 40
0.0
 41
0.8
 50
0.0
 71
0
 42
0.2
  3
gdt
  4

  0
STYLE
  5
214
100
AcDbSymbolTableRecord
100
AcDbTextStyleTableRecord
  2
TEXTSTYLE_2
 70
0
 40
0.0
 41
0.675
 50
0.0
 71
0
 42
0.2
  3
TXT.SHX
  4

  0
STYLE
  5
215
100
AcDbSymbolTableRecord
100
AcDbTextStyleTableRecord
  2
TEXTSTYLE_3
 70
0
 40
0.0
 41
0.7
 50
0.0
 71
0
 42
0.2
  3
gdt
  4

  0
ENDTAB
  0
TABLE
  2
VIEW
  5
6
100
AcDbSymbolTable
 70
0
  0
ENDTAB
  0
TABLE
  2
UCS
  5
7
100
AcDbSymbolTable
 70
0
  0
ENDTAB
  0
TABLE
  2
APPID
  5
9
100
AcDbSymbolTable
 70
1
  0
APPID
  5
216
100
AcDbSymbolTableRecord
100
AcDbRegAppTableRecord
  2
ACAD
 70
0
  0
ENDTAB
  0
TABLE
  2
BLOCK_RECORD
  5
1
100
AcDbSymbolTable
 70
0
  0
BLOCK_RECORD
  5
217
100
AcDbSymbolTableRecord
100
AcDbBlockTableRecord
  2
*Model_Space
  0
BLOCK_RECORD
  5
218
100
AcDbSymbolTableRecord
100
AcDbBlockTableRecord
  2
*Paper_Space
  0
BLOCK_RECORD
  5
219
100
AcDbSymbolTableRecord
100
AcDbBlockTableRecord
  2
_FILLED
  0
BLOCK_RECORD
  5
21A
100
AcDbSymbolTableRecord
100
AcDbBlockTableRecord
  2
_DOT
  0
BLOCK_RECORD
  5
21B
100
AcDbSymbolTableRecord
100
AcDbBlockTableRecord
  2
*D0
  0
BLOCK_RECORD
  5
21C
100
AcDbSymbolTableRecord
100
AcDbBlockTableRecord
  2
*D1
  0
BLOCK_RECORD
  5
21D
100
AcDbSymbolTableRecord
100
AcDbBlockTableRecord
  2
*D2
  0
BLOCK_RECORD
  5
21E
100
AcDbSymbolTableRecord
100
AcDbBlockTableRecord
  2
*D3
  0
BLOCK_RECORD
  5
21F
100
AcDbSymbolTableRecord
100
AcDbBlockTableRecord
  2
*D4
  0
BLOCK_RECORD
  5
220
100
AcDbSymbolTableRecord
100
AcDbBlockTableRecord
  2
*D5
  0
BLOCK_RECORD
  5
221
100
AcDbSymbolTableRecord
100
AcDbBlockTableRecord
  2
*D6
  0
BLOCK_RECORD
  5
222
100
AcDbSymbolTableRecord
100
AcDbBlockTableRecord
  2
*D7
  0
BLOCK_RECORD
  5
223
100
AcDbSymbolTableRecord
100
AcDbBlockTableRecord
  2
*D8
  0
BLOCK_RECORD
  5
224
100
AcDbSymbolTableRecord
100
AcDbBlockTableRecord
  2
*D9
  0
BLOCK_RECORD
  5
225
100
AcDbSymbolTableRecord
100
AcDbBlockTableRecord
  2
*D10
  0
BLOCK_RECORD
  5
226
100
AcDbSymbolTableRecord
100
AcDbBlockTableRecord
  2
BOMBALLOON_BL4
  0
BLOCK_RECORD
  5
227
100
AcDbSymbolTableRecord
100
AcDbBlockTableRecord
  2
GEOM_TOLERANCE_SYMBOLS_BL3
  0
BLOCK_RECORD
  5
228
100
AcDbSymbolTableRecord
100
AcDbBlockTableRecord
  2
GEOM_TOLERANCE_SYMBOLS_BL2
  0
BLOCK_RECORD
  5
229
100
AcDbSymbolTableRecord
100
AcDbBlockTableRecord
  2
GEOM_TOLERANCE_SYMBOLS_BL1
  0
BLOCK_RECORD
  5
22A
100
AcDbSymbolTableRecord
100
AcDbBlockTableRecord
  2
BARCODEBOX_BL0
  0
ENDTAB
  0
TABLE
  2
DIMSTYLE
  5
A
100
AcDbSymbolTable
 70
1
100
AcDbDimStyleTable
 71
0
  0
DIMSTYLE
105
22B
100
AcDbSymbolTableRecord
100
AcDbDimStyleTableRecord
  2
STANDARD
 70
0
  3

  4

 40
1.0
 41
3.5
 42
0.0625
 43
0.38
 44
0.18
 45
0.0
 46
0.0
 47
0.005
 48
0.005
140
3.5
141
0.09
142
0.0
143
25.4
144
1.0
145
0.0
146
1.0
147
0.09
 71
1.0
 72
0.0
 73
0
 74
0
 75
0
 76
0
 77
1
 78
8
170
0
171
2
172
0
173
0
174
0
175
0
176
0
177
0
178
2
270
2
271
3
272
3
273
2
274
2
275
0
280
0
281
0
282
0
283
1
284
8
285
0
286
0
287
3
288
0
340
11
341
219
342
219
343
219
344
219
  0
DIMSTYLE
105
22C
100
AcDbSymbolTableRecord
100
AcDbDimStyleTableRecord
  2
DIMSTYLE_1
 70
0
  3

  4

 40
1.0
 41
3.5
 42
0.0625
 43
0.38
 44
0.18
 45
0.0
 46
0.0
 47
0.1
 48
0.1
140
3.5
141
0.09
142
0.0
143
25.4
144
1.0
145
0.0
146
1.0
147
0.09
 71
0.0
 72
0.0
 73
0
 74
0
 75
0
 76
0
 77
1
 78
8
170
0
171
2
172
0
173
0
174
0
175
0
176
0
177
0
178
2
270
2
271
3
272
3
273
2
274
2
275
0
280
0
281
0
282
0
283
1
284
8
285
0
286
0
287
3
288
0
340
11
341
219
342
219
343
219
344
219
  0
DIMSTYLE
105
22D
100
AcDbSymbolTableRecord
100
AcDbDimStyleTableRecord
  2
DIMSTYLE_2
 70
0
  3

  4

 40
1.0
 41
3.5
 42
0.0625
 43
0.38
 44
0.18
 45
0.0
 46
0.0
 47
0.25
 48
0.25
140
3.5
141
0.09
142
0.0
143
25.4
144
1.0
145
0.0
146
1.0
147
0.09
 71
1.0
 72
0.0
 73
0
 74
0
 75
0
 76
0
 77
1
 78
8
170
0
171
2
172
0
173
0
174
0
175
0
176
0
177
0
178
2
270
2
271
3
272
3
273
2
274
2
275
0
280
0
281
0
282
0
283
1
284
8
285
0
286
0
287
3
288
0
340
11
341
219
342
219
343
219
344
219
  0
DIMSTYLE
105
22E
100
AcDbSymbolTableRecord
100
AcDbDimStyleTableRecord
  2
DIMSTYLE_3
 70
0
  3

  4

 40
1.0
 41
3.5
 42
0.0625
 43
0.38
 44
0.18
 45
0.0
 46
0.0
 47
0.05
 48
0.05
140
3.5
141
0.09
142
0.0
143
25.4
144
1.0
145
0.0
146
1.0
147
0.09
 71
0.0
 72
0.0
 73
0
 74
0
 75
0
 76
0
 77
1
 78
8
170
0
171
2
172
0
173
0
174
0
175
0
176
0
177
0
178
2
270
2
271
3
272
3
273
2
274
2
275
0
280
0
281
0
282
0
283
1
284
8
285
0
286
0
287
3
288
0
340
11
341
219
342
219
343
219
344
219
  0
DIMSTYLE
105
22F
100
AcDbSymbolTableRecord
100
AcDbDimStyleTableRecord
  2
DIMSTYLE_4
 70
0
  3

  4

 40
1.0
 41
3.5
 42
0.0625
 43
0.38
 44
0.18
 45
0.0
 46
0.0
 47
0.05
 48
0.05
140
3.5
141
0.09
142
0.0
143
25.4
144
1.0
145
0.0
146
1.0
147
0.09
 71
0.0
 72
0.0
 73
0
 74
0
 75
0
 76
0
 77
1
 78
8
170
0
171
2
172
0
173
0
174
0
175
0
176
0
177
0
178
2
270
2
271
3
272
3
273
2
274
2
275
0
280
0
281
0
282
0
283
1
284
8
285
0
286
0
287
3
288
0
340
11
341
219
342
219
343
219
344
219
  0
DIMSTYLE
105
230
100
AcDbSymbolTableRecord
100
AcDbDimStyleTableRecord
  2
DIMSTYLE_5
 70
0
  3

  4

 40
1.0
 41
3.5
 42
0.0625
 43
0.38
 44
0.18
 45
0.0
 46
0.0
 47
0.15
 48
0.15
140
3.5
141
0.09
142
0.0
143
25.4
144
1.0
145
0.0
146
1.0
147
0.09
 71
0.0
 72
0.0
 73
0
 74
0
 75
0
 76
0
 77
1
 78
8
170
0
171
2
172
0
173
0
174
0
175
0
176
0
177
0
178
2
270
2
271
3
272
3
273
2
274
2
275
0
280
0
281
0
282
0
283
1
284
8
285
0
286
0
287
3
288
0
340
11
341
219
342
219
343
219
344
219
  0
ENDTAB
  0
ENDSEC
  0
SECTION
  2
BLOCKS
  0
BLOCK
  5
20
100
AcDbEntity
  8
0
100
AcDbBlockBegin
  2
*Model_Space
 70
0
 10
0.0
 20
0.0
 30
0.0
  3
*Model_Space
  1

  0
ENDBLK
  5
21
100
AcDbEntity
  8
0
100
AcDbBlockEnd
  0
BLOCK
  5
1C
100
AcDbEntity
  8
0
100
AcDbBlockBegin
  2
*Paper_Space
 70
0
 10
0.0
 20
0.0
 30
0.0
  3
*Paper_Space
  1

  0
ENDBLK
  5
1D
100
AcDbEntity
  8
0
100
AcDbBlockEnd
  0
BLOCK
  5
231
100
AcDbEntity
  8
606077392-000-00-ED1_CL
100
AcDbBlockBegin
 62
3
  6
CONTINUOUS
  2
BOMBALLOON_BL4
 70
64
 10
193.4623274079
 20
116.2947457232
  3
BOMBALLOON_BL4
  1

  0
CIRCLE
  5
232
100
AcDbEntity
  8
606077392-000-00-ED1_CL
100
AcDbCircle
 62
3
  6
CONTINUOUS
 10
193.4623274079
 20
116.2947457232
 40
6.125
  0
LINE
  5
233
100
AcDbEntity
  8
606077392-000-00-ED1_CL
100
AcDbLine
 62
3
  6
CONTINUOUS
 10
187.3373274079
 20
116.2947457232
 11
199.5873274079
 21
116.2947457232
  0
TEXT
  5
234
100
AcDbEntity
  8
606077392-000-00-ED1_CL
100
AcDbText
 62
2
  6
CONTINUOUS
 10
192.3575096996
 20
117.2335478066
  7
STANDARD
 40
3.5
  1
1
 41
0.5714285714
 72
0
100
AcDbText
  0
TEXT
  5
235
100
AcDbEntity
  8
606077392-000-00-ED1_CL
100
AcDbText
 62
2
  6
CONTINUOUS
 10
192.4577701162
 20
112.1202665566
  7
STANDARD
 40
3.5
  1
1
 41
0.5714285714
 72
0
100
AcDbText
  0
ENDBLK
  5
236
100
AcDbEntity
  8
0
  6
BYBLOCK
 62
0
100
AcDbBlockEnd
  0
BLOCK
  5
237
100
AcDbEntity
  8
606077392-000-00-ED1_CL
100
AcDbBlockBegin
 62
3
  6
CONTINUOUS
  2
GEOM_TOLERANCE_SYMBOLS_BL3
 70
64
 10
143.5788208357
 20
187.0898882497
  3
GEOM_TOLERANCE_SYMBOLS_BL3
  1

  0
LINE
  5
238
100
AcDbEntity
  8
606077392-000-00-ED1_CL
100
AcDbLine
 62
3
  6
CONTINUOUS
 10
145.5300641789
 20
180.8729453993
 11
142.5338221511
 21
180.7228330732
  0
LINE
  5
239
100
AcDbEntity
  8
606077392-000-00-ED1_CL
100
AcDbLine
 62
3
  6
CONTINUOUS
 10
139.9080740894
 20
193.1069604253
 11
146.8993054878
 21
193.4572225194
  0
LINE
  5
23A
100
AcDbEntity
  8
606077392-000-00-ED1_CL
100
AcDbLine
 62
3
  6
CONTINUOUS
 10
146.8993054878
 20
193.4572225194
 11
147.2495675819
 21
186.4659911211
  0
LINE
  5
23B
100
AcDbEntity
  8
606077392-000-00-ED1_CL
100
AcDbLine
 62
3
  6
CONTINUOUS
 10
147.2495675819
 20
186.4659911211
 11
140.2583361836
 21
186.1157290269
  0
LINE
  5
23C
100
AcDbEntity
  8
606077392-000-00-ED1_CL
100
AcDbLine
 62
3
  6
CONTINUOUS
 10
140.2583361836
 20
186.1157290269
 11
139.9080740894
 21
193.1069604253
  0
LINE
  5
23D
100
AcDbEntity
  8
606077392-000-00-ED1_CL
100
AcDbLine
 62
3
  6
CONTINUOUS
 10
142.5282514488
 20
180.7225539799
 11
143.9040642088
 21
183.2946180461
  0
LINE
  5
23E
100
AcDbEntity
  8
606077392-000-00-ED1_CL
100
AcDbLine
 62
3
  6
CONTINUOUS
 10
143.9040642088
 20
183.2946180461
 11
145.5244934766
 21
180.872666306
  0
LINE
  5
23F
100
AcDbEntity
  8
606077392-000-00-ED1_CL
100
AcDbLine
 62
3
  6
CONTINUOUS
 10
143.9040642088
 20
183.2946180461
 11
143.7539518827
 21
186.290860074
  0
LINE
  5
240
100
AcDbEntity
  8
606077392-000-00-ED1_CL
100
AcDbLine
 62
3
  6
CONTINUOUS
 10
142.6309115342
 20
180.7276972708
 11
142.6223552908
 21
180.898479889
  0
LINE
  5
241
100
AcDbEntity
  8
606077392-000-00-ED1_CL
100
AcDbLine
 62
3
  6
CONTINUOUS
 10
142.7307862685
 20
180.732701015
 11
142.7139059278
 21
181.0696326145
  0
LINE
  5
242
100
AcDbEntity
  8
606077392-000-00-ED1_CL
100
AcDbLine
 62
3
  6
CONTINUOUS
 10
142.8306610027
 20
180.7377047592
 11
142.8054565648
 21
181.24078534
  0
LINE
  5
243
100
AcDbEntity
  8
606077392-000-00-ED1_CL
100
AcDbLine
 62
3
  6
CONTINUOUS
 10
142.930535737
 20
180.7427085034
 11
142.8970072018
 21
181.4119380655
  0
LINE
  5
244
100
AcDbEntity
  8
606077392-000-00-ED1_CL
100
AcDbLine
 62
3
  6
CONTINUOUS
 10
143.0304104712
 20
180.7477122476
 11
142.9885578388
 21
181.583090791
  0
LINE
  5
245
100
AcDbEntity
  8
606077392-000-00-ED1_CL
100
AcDbLine
 62
3
  6
CONTINUOUS
 10
143.1302852055
 20
180.7527159918
 11
143.0801084758
 21
181.7542435166
  0
LINE
  5
246
100
AcDbEntity
  8
606077392-000-00-ED1_CL
100
AcDbLine
 62
3
  6
CONTINUOUS
 10
143.2301599398
 20
180.757719736
 11
143.1716591128
 21
181.9253962421
  0
LINE
  5
247
100
AcDbEntity
  8
606077392-000-00-ED1_CL
100
AcDbLine
 62
3
  6
CONTINUOUS
 10
143.330034674
 20
180.7627234802
 11
143.2632097498
 21
182.0965489676
  0
LINE
  5
248
100
AcDbEntity
  8
606077392-000-00-ED1_CL
100
AcDbLine
 62
3
  6
CONTINUOUS
 10
143.4299094083
 20
180.7677272244
 11
143.3547603868
 21
182.2677016931
  0
LINE
  5
249
100
AcDbEntity
  8
606077392-000-00-ED1_CL
100
AcDbLine
 62
3
  6
CONTINUOUS
 10
143.5297841425
 20
180.7727309686
 11
143.4463110238
 21
182.4388544186
  0
LINE
  5
24A
100
AcDbEntity
  8
606077392-000-00-ED1_CL
100
AcDbLine
 62
3
  6
CONTINUOUS
 10
143.6296588768
 20
180.7777347128
 11
143.5378616608
 21
182.6100071441
  0
LINE
  5
24B
100
AcDbEntity
  8
606077392-000-00-ED1_CL
100
AcDbLine
 62
3
  6
CONTINUOUS
 10
143.7295336111
 20
180.782738457
 11
143.6294122978
 21
182.7811598696
  0
LINE
  5
24C
100
AcDbEntity
  8
606077392-000-00-ED1_CL
100
AcDbLine
 62
3
  6
CONTINUOUS
 10
143.8294083453
 20
180.7877422012
 11
143.7209629348
 21
182.9523125951
  0
LINE
  5
24D
100
AcDbEntity
  8
606077392-000-00-ED1_CL
100
AcDbLine
 62
3
  6
CONTINUOUS
 10
143.9292830796
 20
180.7927459454
 11
143.8125135718
 21
183.1234653206
  0
LINE
  5
24E
100
AcDbEntity
  8
606077392-000-00-ED1_CL
100
AcDbLine
 62
3
  6
CONTINUOUS
 10
144.0291578139
 20
180.7977496896
 11
143.9040642088
 21
183.2946180461
  0
LINE
  5
24F
100
AcDbEntity
  8
606077392-000-00-ED1_CL
100
AcDbLine
 62
3
  6
CONTINUOUS
 10
144.1290325481
 20
180.8027534338
 11
144.0122940508
 21
183.13285384
  0
LINE
  5
250
100
AcDbEntity
  8
606077392-000-00-ED1_CL
100
AcDbLine
 62
3
  6
CONTINUOUS
 10
144.2289072824
 20
180.807757178
 11
144.1205238928
 21
182.9710896338
  0
LINE
  5
251
100
AcDbEntity
  8
606077392-000-00-ED1_CL
100
AcDbLine
 62
3
  6
CONTINUOUS
 10
144.3287820166
 20
180.8127609222
 11
144.2287537348
 21
182.8093254276
  0
LINE
  5
252
100
AcDbEntity
  8
606077392-000-00-ED1_CL
100
AcDbLine
 62
3
  6
CONTINUOUS
 10
144.4286567509
 20
180.8177646664
 11
144.3369835768
 21
182.6475612215
  0
LINE
  5
253
100
AcDbEntity
  8
606077392-000-00-ED1_CL
100
AcDbLine
 62
3
  6
CONTINUOUS
 10
144.5285314852
 20
180.8227684106
 11
144.4452134188
 21
182.4857970153
  0
LINE
  5
254
100
AcDbEntity
  8
606077392-000-00-ED1_CL
100
AcDbLine
 62
3
  6
CONTINUOUS
 10
144.6284062194
 20
180.8277721548
 11
144.5534432608
 21
182.3240328091
  0
LINE
  5
255
100
AcDbEntity
  8
606077392-000-00-ED1_CL
100
AcDbLine
 62
3
  6
CONTINUOUS
 10
144.7282809537
 20
180.832775899
 11
144.6616731028
 21
182.162268603
  0
LINE
  5
256
100
AcDbEntity
  8
606077392-000-00-ED1_CL
100
AcDbLine
 62
3
  6
CONTINUOUS
 10
144.828155688
 20
180.8377796432
 11
144.7699029448
 21
182.0005043968
  0
LINE
  5
257
100
AcDbEntity
  8
606077392-000-00-ED1_CL
100
AcDbLine
 62
3
  6
CONTINUOUS
 10
144.9280304222
 20
180.8427833874
 11
144.8781327868
 21
181.8387401906
  0
LINE
  5
258
100
AcDbEntity
  8
606077392-000-00-ED1_CL
100
AcDbLine
 62
3
  6
CONTINUOUS
 10
145.0279051565
 20
180.8477871316
 11
144.9863626288
 21
181.6769759845
  0
LINE
  5
259
100
AcDbEntity
  8
606077392-000-00-ED1_CL
100
AcDbLine
 62
3
  6
CONTINUOUS
 10
145.1277798907
 20
180.8527908758
 11
145.0945924708
 21
181.5152117783
  0
LINE
  5
25A
100
AcDbEntity
  8
606077392-000-00-ED1_CL
100
AcDbLine
 62
3
  6
CONTINUOUS
 10
145.227654625
 20
180.85779462
 11
145.2028223128
 21
181.3534475721
  0
LINE
  5
25B
100
AcDbEntity
  8
606077392-000-00-ED1_CL
100
AcDbLine
 62
3
  6
CONTINUOUS
 10
145.3275293593
 20
180.8627983642
 11
145.3110521548
 21
181.1916833659
  0
LINE
  5
25C
100
AcDbEntity
  8
606077392-000-00-ED1_CL
100
AcDbLine
 62
3
  6
CONTINUOUS
 10
145.4274040935
 20
180.8678021084
 11
145.4192819968
 21
181.0299191598
  0
TEXT
  5
25D
100
AcDbEntity
  8
606077392-000-00-ED1_CL
100
AcDbText
 62
2
  6
CONTINUOUS
 10
142.5711026131
 20
187.9809519566
  7
STANDARD
 40
3.5
  1
A
 50
2.868131941
 41
0.8571428571
 72
0
100
AcDbText
  0
ENDBLK
  5
25E
100
AcDbEntity
  8
0
  6
BYBLOCK
 62
0
100
AcDbBlockEnd
  0
BLOCK
  5
25F
100
AcDbEntity
  8
606077392-000-00-ED1_CL
100
AcDbBlockBegin
 62
3
  6
CONTINUOUS
  2
GEOM_TOLERANCE_SYMBOLS_BL2
 70
64
 10
325.8474580802
 20
130.7950068105
  3
GEOM_TOLERANCE_SYMBOLS_BL2
  1

  0
LINE
  5
260
100
AcDbEntity
  8
606077392-000-00-ED1_CL
100
AcDbLine
 62
3
  6
CONTINUOUS
 10
310.3290406852
 20
134.2947459472
 11
310.3290406852
 21
127.2947457232
  0
LINE
  5
261
100
AcDbEntity
  8
606077392-000-00-ED1_CL
100
AcDbLine
 62
3
  6
CONTINUOUS
 10
310.3290406852
 20
127.2947457232
 11
332.3290413892
 21
127.2947457232
  0
LINE
  5
262
100
AcDbEntity
  8
606077392-000-00-ED1_CL
100
AcDbLine
 62
3
  6
CONTINUOUS
 10
339.3290416132
 20
127.2947457232
 11
339.3290416132
 21
134.2947459472
  0
LINE
  5
263
100
AcDbEntity
  8
606077392-000-00-ED1_CL
100
AcDbLine
 62
3
  6
CONTINUOUS
 10
332.3290413892
 20
134.2947459472
 11
310.3290406852
 21
134.2947459472
  0
LINE
  5
264
100
AcDbEntity
  8
606077392-000-00-ED1_CL
100
AcDbLine
 62
3
  6
CONTINUOUS
 10
317.3290409092
 20
134.2947459472
 11
317.3290409092
 21
127.2947457232
  0
LINE
  5
265
100
AcDbEntity
  8
606077392-000-00-ED1_CL
100
AcDbLine
 62
3
  6
CONTINUOUS
 10
332.3290413892
 20
134.2947459472
 11
332.3290413892
 21
127.2947457232
  0
LINE
  5
266
100
AcDbEntity
  8
606077392-000-00-ED1_CL
100
AcDbLine
 62
3
  6
CONTINUOUS
 10
332.3290413892
 20
134.2947459472
 11
339.3290416132
 21
134.2947459472
  0
LINE
  5
267
100
AcDbEntity
  8
606077392-000-00-ED1_CL
100
AcDbLine
 62
3
  6
CONTINUOUS
 10
332.3290413892
 20
127.2947457232
 11
339.3290416132
 21
127.2947457232
  0
LINE
  5
268
100
AcDbEntity
  8
606077392-000-00-ED1_CL
100
AcDbLine
 62
3
  6
CONTINUOUS
 10
305.3290406852
 20
130.7947457232
 11
310.3290406852
 21
130.7947457232
  0
LINE
  5
269
100
AcDbEntity
  8
606077392-000-00-ED1_CL
100
AcDbLine
 62
3
  6
CONTINUOUS
 10
339.3658752511
 20
134.2952678978
 11
346.3658754751
 21
134.2952678978
  0
LINE
  5
26A
100
AcDbEntity
  8
606077392-000-00-ED1_CL
100
AcDbLine
 62
3
  6
CONTINUOUS
 10
346.3658752511
 20
134.2952678978
 11
346.3658752511
 21
127.2952676738
  0
LINE
  5
26B
100
AcDbEntity
  8
606077392-000-00-ED1_CL
100
AcDbLine
 62
3
  6
CONTINUOUS
 10
339.3658752511
 20
127.2952678978
 11
346.3658754751
 21
127.2952678978
  0
TEXT
  5
26C
100
AcDbEntity
  8
606077392-000-00-ED1_CL
100
AcDbText
 62
2
  6
CONTINUOUS
 10
310.47904069
 20
129.5947457968
  7
TEXTSTYLE_3
 40
2.4000000768
  1
t
 41
1.0
 72
0
100
AcDbText
  0
TEXT
  5
26D
100
AcDbEntity
  8
606077392-000-00-ED1_CL
100
AcDbText
 62
2
  6
CONTINUOUS
 10
318.4540409452
 20
129.0447457792
  7
STANDARD
 40
3.500000112
  1
0.003
 41
0.7285714286
 72
0
100
AcDbText
  0
TEXT
  5
26E
100
AcDbEntity
  8
606077392-000-00-ED1_CL
100
AcDbText
 62
2
  6
CONTINUOUS
 10
334.3290414532
 20
129.0447457792
  7
STANDARD
 40
3.500000112
  1
A
 41
0.8571428571
 72
0
100
AcDbText
  0
TEXT
  5
26F
100
AcDbEntity
  8
606077392-000-00-ED1_CL
100
AcDbText
 62
2
  6
CONTINUOUS
 10
341.4908753631
 20
129.0452678182
  7
STANDARD
 40
3.5
  1
B
 41
0.7857142857
 72
0
100
AcDbText
  0
ENDBLK
  5
270
100
AcDbEntity
  8
0
  6
BYBLOCK
 62
0
100
AcDbBlockEnd
  0
BLOCK
  5
271
100
AcDbEntity
  8
606077392-000-00-ED1_CL
100
AcDbBlockBegin
 62
3
  6
CONTINUOUS
  2
GEOM_TOLERANCE_SYMBOLS_BL1
 70
64
 10
164.0789986432
 20
199.2354845906
  3
GEOM_TOLERANCE_SYMBOLS_BL1
  1

  0
LINE
  5
272
100
AcDbEntity
  8
606077392-000-00-ED1_CL
100
AcDbLine
 62
3
  6
CONTINUOUS
 10
170.3289986432
 20
197.7354845906
 11
167.8289986432
 21
199.2354845906
  0
LINE
  5
273
100
AcDbEntity
  8
606077392-000-00-ED1_CL
100
AcDbLine
 62
3
  6
CONTINUOUS
 10
167.8289986432
 20
199.2354845906
 11
170.3289986432
 21
200.7354845906
  0
LINE
  5
274
100
AcDbEntity
  8
606077392-000-00-ED1_CL
100
AcDbLine
 62
3
  6
CONTINUOUS
 10
170.3289986432
 20
200.7354845906
 11
170.3289986432
 21
197.7354845906
  0
LINE
  5
275
100
AcDbEntity
  8
606077392-000-00-ED1_CL
100
AcDbLine
 62
3
  6
CONTINUOUS
 10
167.8289986432
 20
199.2354845906
 11
164.8289986432
 21
199.2354845906
  0
LINE
  5
276
100
AcDbEntity
  8
606077392-000-00-ED1_CL
100
AcDbLine
 62
3
  6
CONTINUOUS
 10
164.8289986432
 20
195.7354845906
 11
164.8289986432
 21
202.7354845906
  0
LINE
  5
277
100
AcDbEntity
  8
606077392-000-00-ED1_CL
100
AcDbLine
 62
3
  6
CONTINUOUS
 10
164.8289986432
 20
202.7354845906
 11
157.8289986432
 21
202.7354845906
  0
LINE
  5
278
100
AcDbEntity
  8
606077392-000-00-ED1_CL
100
AcDbLine
 62
3
  6
CONTINUOUS
 10
157.8289986432
 20
202.7354845906
 11
157.8289986432
 21
195.7354845906
  0
LINE
  5
279
100
AcDbEntity
  8
606077392-000-00-ED1_CL
100
AcDbLine
 62
3
  6
CONTINUOUS
 10
157.8289986432
 20
195.7354845906
 11
164.8289986432
 21
195.7354845906
  0
LINE
  5
27A
100
AcDbEntity
  8
606077392-000-00-ED1_CL
100
AcDbLine
 62
3
  6
CONTINUOUS
 10
170.3289986432
 20
200.632695746
 11
170.1576839022
 21
200.632695746
  0
LINE
  5
27B
100
AcDbEntity
  8
606077392-000-00-ED1_CL
100
AcDbLine
 62
3
  6
CONTINUOUS
 10
170.3289986432
 20
200.532695746
 11
169.9910172355
 21
200.532695746
  0
LINE
  5
27C
100
AcDbEntity
  8
606077392-000-00-ED1_CL
100
AcDbLine
 62
3
  6
CONTINUOUS
 10
170.3289986432
 20
200.432695746
 11
169.8243505688
 21
200.432695746
  0
LINE
  5
27D
100
AcDbEntity
  8
606077392-000-00-ED1_CL
100
AcDbLine
 62
3
  6
CONTINUOUS
 10
170.3289986432
 20
200.332695746
 11
169.6576839022
 21
200.332695746
  0
LINE
  5
27E
100
AcDbEntity
  8
606077392-000-00-ED1_CL
100
AcDbLine
 62
3
  6
CONTINUOUS
 10
170.3289986432
 20
200.232695746
 11
169.4910172355
 21
200.232695746
  0
LINE
  5
27F
100
AcDbEntity
  8
606077392-000-00-ED1_CL
100
AcDbLine
 62
3
  6
CONTINUOUS
 10
170.3289986432
 20
200.132695746
 11
169.3243505688
 21
200.132695746
  0
LINE
  5
280
100
AcDbEntity
  8
606077392-000-00-ED1_CL
100
AcDbLine
 62
3
  6
CONTINUOUS
 10
170.3289986432
 20
200.032695746
 11
169.1576839022
 21
200.032695746
  0
LINE
  5
281
100
AcDbEntity
  8
606077392-000-00-ED1_CL
100
AcDbLine
 62
3
  6
CONTINUOUS
 10
170.3289986432
 20
199.932695746
 11
168.9910172355
 21
199.932695746
  0
LINE
  5
282
100
AcDbEntity
  8
606077392-000-00-ED1_CL
100
AcDbLine
 62
3
  6
CONTINUOUS
 10
170.3289986432
 20
199.832695746
 11
168.8243505688
 21
199.832695746
  0
LINE
  5
283
100
AcDbEntity
  8
606077392-000-00-ED1_CL
100
AcDbLine
 62
3
  6
CONTINUOUS
 10
170.3289986432
 20
199.732695746
 11
168.6576839022
 21
199.732695746
  0
LINE
  5
284
100
AcDbEntity
  8
606077392-000-00-ED1_CL
100
AcDbLine
 62
3
  6
CONTINUOUS
 10
170.3289986432
 20
199.632695746
 11
168.4910172355
 21
199.632695746
  0
LINE
  5
285
100
AcDbEntity
  8
606077392-000-00-ED1_CL
100
AcDbLine
 62
3
  6
CONTINUOUS
 10
170.3289986432
 20
199.532695746
 11
168.3243505688
 21
199.532695746
  0
LINE
  5
286
100
AcDbEntity
  8
606077392-000-00-ED1_CL
100
AcDbLine
 62
3
  6
CONTINUOUS
 10
170.3289986432
 20
199.432695746
 11
168.1576839022
 21
199.432695746
  0
LINE
  5
287
100
AcDbEntity
  8
606077392-000-00-ED1_CL
100
AcDbLine
 62
3
  6
CONTINUOUS
 10
170.3289986432
 20
199.332695746
 11
167.9910172355
 21
199.332695746
  0
LINE
  5
288
100
AcDbEntity
  8
606077392-000-00-ED1_CL
100
AcDbLine
 62
3
  6
CONTINUOUS
 10
170.3289986432
 20
199.232695746
 11
167.8336467176
 21
199.232695746
  0
LINE
  5
289
100
AcDbEntity
  8
606077392-000-00-ED1_CL
100
AcDbLine
 62
3
  6
CONTINUOUS
 10
170.3289986432
 20
199.132695746
 11
168.0003133842
 21
199.132695746
  0
LINE
  5
28A
100
AcDbEntity
  8
606077392-000-00-ED1_CL
100
AcDbLine
 62
3
  6
CONTINUOUS
 10
170.3289986432
 20
199.032695746
 11
168.1669800509
 21
199.032695746
  0
LINE
  5
28B
100
AcDbEntity
  8
606077392-000-00-ED1_CL
100
AcDbLine
 62
3
  6
CONTINUOUS
 10
170.3289986432
 20
198.932695746
 11
168.3336467176
 21
198.932695746
  0
LINE
  5
28C
100
AcDbEntity
  8
606077392-000-00-ED1_CL
100
AcDbLine
 62
3
  6
CONTINUOUS
 10
170.3289986432
 20
198.832695746
 11
168.5003133842
 21
198.832695746
  0
LINE
  5
28D
100
AcDbEntity
  8
606077392-000-00-ED1_CL
100
AcDbLine
 62
3
  6
CONTINUOUS
 10
170.3289986432
 20
198.732695746
 11
168.6669800509
 21
198.732695746
  0
LINE
  5
28E
100
AcDbEntity
  8
606077392-000-00-ED1_CL
100
AcDbLine
 62
3
  6
CONTINUOUS
 10
170.3289986432
 20
198.632695746
 11
168.8336467176
 21
198.632695746
  0
LINE
  5
28F
100
AcDbEntity
  8
606077392-000-00-ED1_CL
100
AcDbLine
 62
3
  6
CONTINUOUS
 10
170.3289986432
 20
198.532695746
 11
169.0003133842
 21
198.532695746
  0
LINE
  5
290
100
AcDbEntity
  8
606077392-000-00-ED1_CL
100
AcDbLine
 62
3
  6
CONTINUOUS
 10
170.3289986432
 20
198.432695746
 11
169.1669800509
 21
198.432695746
  0
LINE
  5
291
100
AcDbEntity
  8
606077392-000-00-ED1_CL
100
AcDbLine
 62
3
  6
CONTINUOUS
 10
170.3289986432
 20
198.332695746
 11
169.3336467176
 21
198.332695746
  0
LINE
  5
292
100
AcDbEntity
  8
606077392-000-00-ED1_CL
100
AcDbLine
 62
3
  6
CONTINUOUS
 10
170.3289986432
 20
198.232695746
 11
169.5003133842
 21
198.232695746
  0
LINE
  5
293
100
AcDbEntity
  8
606077392-000-00-ED1_CL
100
AcDbLine
 62
3
  6
CONTINUOUS
 10
170.3289986432
 20
198.132695746
 11
169.6669800509
 21
198.132695746
  0
LINE
  5
294
100
AcDbEntity
  8
606077392-000-00-ED1_CL
100
AcDbLine
 62
3
  6
CONTINUOUS
 10
170.3289986432
 20
198.032695746
 11
169.8336467176
 21
198.032695746
  0
LINE
  5
295
100
AcDbEntity
  8
606077392-000-00-ED1_CL
100
AcDbLine
 62
3
  6
CONTINUOUS
 10
170.3289986432
 20
197.932695746
 11
170.0003133842
 21
197.932695746
  0
LINE
  5
296
100
AcDbEntity
  8
606077392-000-00-ED1_CL
100
AcDbLine
 62
3
  6
CONTINUOUS
 10
170.3289986432
 20
197.832695746
 11
170.1669800509
 21
197.832695746
  0
TEXT
  5
297
100
AcDbEntity
  8
606077392-000-00-ED1_CL
100
AcDbText
 62
2
  6
CONTINUOUS
 10
160.3539986432
 20
197.4854845906
  7
STANDARD
 40
3.5
  1
B
 41
0.7857142857
 72
0
100
AcDbText
  0
ENDBLK
  5
298
100
AcDbEntity
  8
0
  6
BYBLOCK
 62
0
100
AcDbBlockEnd
  0
BLOCK
  5
299
100
AcDbEntity
  8
606077392-000-00-ED1_FORMAT
100
AcDbBlockBegin
 62
3
  6
CONTINUOUS
  2
BARCODEBOX_BL0
 70
64
 10
87.5
 20
46.5
  3
BARCODEBOX_BL0
  1

  0
LINE
  5
29A
100
AcDbEntity
  8
606077392-000-00-ED1_FORMAT
100
AcDbLine
 62
3
  6
CONTINUOUS
 10
48.0
 20
83.0
 11
53.0
 21
83.0
  0
LINE
  5
29B
100
AcDbEntity
  8
606077392-000-00-ED1_FORMAT
100
AcDbLine
 62
3
  6
CONTINUOUS
 10
53.0
 20
83.0
 11
53.0
 21
78.0
  0
LINE
  5
29C
100
AcDbEntity
  8
606077392-000-00-ED1_FORMAT
100
AcDbLine
 62
3
  6
CONTINUOUS
 10
135.0
 20
65.0
 11
140.0
 21
65.0
  0
LINE
  5
29D
100
AcDbEntity
  8
606077392-000-00-ED1_FORMAT
100
AcDbLine
 62
3
  6
CONTINUOUS
 10
140.0
 20
65.0
 11
140.0
 21
60.0
  0
LINE
  5
29E
100
AcDbEntity
  8
606077392-000-00-ED1_FORMAT
100
AcDbLine
 62
3
  6
CONTINUOUS
 10
91.5
 20
65.0
 11
101.5
 21
65.0
  0
LINE
  5
29F
100
AcDbEntity
  8
606077392-000-00-ED1_FORMAT
100
AcDbLine
 62
3
  6
CONTINUOUS
 10
140.0
 20
42.5
 11
140.0
 21
32.5
  0
LINE
  5
2A0
100
AcDbEntity
  8
606077392-000-00-ED1_FORMAT
100
AcDbLine
 62
3
  6
CONTINUOUS
 10
140.0
 20
10.0
 11
140.0
 21
15.0
  0
LINE
  5
2A1
100
AcDbEntity
  8
606077392-000-00-ED1_FORMAT
100
AcDbLine
 62
3
  6
CONTINUOUS
 10
40.0
 20
83.0
 11
35.0
 21
83.0
  0
LINE
  5
2A2
100
AcDbEntity
  8
606077392-000-00-ED1_FORMAT
100
AcDbLine
 62
3
  6
CONTINUOUS
 10
58.0
 20
65.0
 11
48.0
 21
65.0
  0
LINE
  5
2A3
100
AcDbEntity
  8
606077392-000-00-ED1_FORMAT
100
AcDbLine
 62
3
  6
CONTINUOUS
 10
53.0
 20
65.0
 11
53.0
 21
70.0
  0
LINE
  5
2A4
100
AcDbEntity
  8
606077392-000-00-ED1_FORMAT
100
AcDbLine
 62
3
  6
CONTINUOUS
 10
35.0
 20
65.0
 11
40.0
 21
65.0
  0
TEXT
  5
2A5
100
AcDbEntity
  8
606077392-000-00-ED1_FORMAT
100
AcDbText
 62
2
  6
CONTINUOUS
 10
139.0
 20
11.0
  7
STANDARD
 40
2.0
  1
BARCODE-ZONE
 50
90.0
 41
0.7876984127
 72
0
100
AcDbText
  0
ENDBLK
  5
2A6
100
AcDbEntity
  8
0
  6
BYBLOCK
 62
0
100
AcDbBlockEnd
  0
BLOCK
  5
2A7
100
AcDbEntity
  8
0
100
AcDbBlockBegin
  2
_FILLED
 70
64
 10
0.0
 20
0.0
  3
_FILLED
  1

  0
SOLID
  5
2A8
100
AcDbEntity
  8
0
  6
BYBLOCK
 62
0
100
AcDbTrace
 10
0.0
 20
0.0
 11
-1.0
 21
0.125
 12
-1.0
 22
-0.125
 13
-1.0
 23
-0.125
  0
ENDBLK
  5
2A9
100
AcDbEntity
  8
0
  6
BYBLOCK
 62
0
100
AcDbBlockEnd
  0
BLOCK
  5
2AA
100
AcDbEntity
  8
0
100
AcDbBlockBegin
  2
_DOT
 70
64
 10
0.0
 20
0.0
  3
_DOT
  1

  0
LWPOLYLINE
  5
2AB
100
AcDbEntity
  8
0
  6
BYBLOCK
 62
0
100
AcDbPolyline
 90
2
 70
1
 43
0.125
 10
-0.0625
 20
0.0
 42
1.0
 10
0.0625
 20
0.0
 42
1.0
  0
LINE
  5
2AC
100
AcDbEntity
  8
0
  6
BYBLOCK
 62
0
100
AcDbLine
 10
-0.125
 20
0.0
 11
-1.0
 21
0.0
  0
ENDBLK
  5
2AD
100
AcDbEntity
  8
0
  6
BYBLOCK
 62
0
100
AcDbBlockEnd
  0
BLOCK
  5
2AE
100
AcDbEntity
  8
30261745_DIM
100
AcDbBlockBegin
 62
3
  6
CONTINUOUS
  2
*D0
 70
65
 10
0.0
 20
0.0
  3
*D0
  1

  0
TEXT
  5
2AF
100
AcDbEntity
  8
30261745_DIM
100
AcDbText
 62
2
  6
CONTINUOUS
 10
238.1226774283
 20
121.6697457232
  7
STANDARD
 40
3.5
  1
10
 41
0.6785714286
 72
2
 11
242.8726774283
 21
121.6697457232
100
AcDbText
  0
TEXT
  5
2B0
100
AcDbEntity
  8
30261745_DIM
100
AcDbText
 62
2
  6
CONTINUOUS
 10
211.9560107616
 20
115.5447457232
  7
STANDARD
 40
3.5
  1
VERSTELLWEG
 41
0.803030303
 72
2
 11
242.8726774283
 21
115.5447457232
100
AcDbText
  0
LINE
  5
2B1
100
AcDbEntity
  8
30261745_DIM
100
AcDbLine
 62
3
  6
CONTINUOUS
 10
243.3289986432
 20
157.7947457232
 11
243.3289986432
 21
119.2947457232
  0
LINE
  5
2B2
100
AcDbEntity
  8
30261745_DIM
100
AcDbLine
 62
3
  6
CONTINUOUS
 10
253.3289986432
 20
157.7947457232
 11
253.3289986432
 21
119.2947457232
  0
LINE
  5
2B3
100
AcDbEntity
  8
30261745_DIM
100
AcDbLine
 62
3
  6
CONTINUOUS
 10
243.3289986432
 20
120.7947457232
 11
248.3289986432
 21
120.7947457232
  0
LINE
  5
2B4
100
AcDbEntity
  8
30261745_DIM
100
AcDbLine
 62
3
  6
CONTINUOUS
 10
248.3289986432
 20
120.7947457232
 11
211.9560107616
 21
120.7947457232
  0
LINE
  5
2B5
100
AcDbEntity
  8
30261745_DIM
100
AcDbLine
 62
3
  6
CONTINUOUS
 10
253.3289986432
 20
120.7947457232
 11
248.3289986432
 21
120.7947457232
  0
INSERT
  5
2B6
100
AcDbEntity
  8
30261745_DIM
100
AcDbBlockReference
 62
3
  6
CONTINUOUS
  2
_FILLED
 10
243.3289986432
 20
120.7947457232
 41
3.5
 42
3.5
 43
3.5
 50
180.0
  0
INSERT
  5
2B7
100
AcDbEntity
  8
30261745_DIM
100
AcDbBlockReference
 62
3
  6
CONTINUOUS
  2
_FILLED
 10
253.3289986432
 20
120.7947457232
 41
3.5
 42
3.5
 43
3.5
  0
ENDBLK
  5
2B8
100
AcDbEntity
  8
0
  6
BYBLOCK
 62
0
100
AcDbBlockEnd
  0
BLOCK
  5
2B9
100
AcDbEntity
  8
30338523_DIM
100
AcDbBlockBegin
 62
3
  6
CONTINUOUS
  2
*D1
 70
65
 10
0.0
 20
0.0
  3
*D1
  1

  0
TEXT
  5
2BA
100
AcDbEntity
  8
30338523_DIM
100
AcDbText
 62
2
  6
CONTINUOUS
 10
263.8440534811
 20
185.1068075626
  7
STANDARD
 40
3.5
  1
4.5
 50
79.1251494826
 41
0.6904761905
 72
1
 11
264.5279619404
 21
188.6667084347
100
AcDbText
  0
TEXT
  5
2BB
100
AcDbEntity
  8
30338523_DIM
100
AcDbText
 62
2
  6
CONTINUOUS
 10
265.2118703998
 20
192.2266093069
  7
TEXTSTYLE_3
 40
3.5
  1
~
 50
79.1251494826
 41
1.0
 72
1
 11
265.4319788694
 21
193.3723245301
100
AcDbText
  0
TEXT
  5
2BC
100
AcDbEntity
  8
30338523_DIM
100
AcDbText
 62
2
  6
CONTINUOUS
 10
265.1365154887
 20
194.6170885646
  7
TEXTSTYLE_3
 40
2.45
  1
`
 50
79.1251494826
 41
1.0
 72
1
 11
265.406148364
 21
196.0205897131
100
AcDbText
  0
TEXT
  5
2BD
100
AcDbEntity
  8
30338523_DIM
100
AcDbText
 62
2
  6
CONTINUOUS
 10
265.6757812394
 20
197.4240908615
  7
STANDARD
 40
2.45
  1
0.25
 50
79.1251494826
 41
0.7142857143
 72
1
 11
266.3361066484
 21
200.8612365311
100
AcDbText
  0
TEXT
  5
2BE
100
AcDbEntity
  8
30338523_DIM
100
AcDbText
 62
2
  6
CONTINUOUS
 10
266.9964320574
 20
204.2983822007
  7
TEXTSTYLE_3
 40
2.45
  1
~
 50
79.1251494826
 41
1.0
 72
1
 11
267.1505079862
 21
205.100382857
100
AcDbText
  0
LINE
  5
2BF
100
AcDbEntity
  8
30338523_DIM
100
AcDbLine
 62
3
  6
CONTINUOUS
 10
268.2504823753
 20
157.7947457232
 11
264.2473348975
 21
157.7947457232
  0
LINE
  5
2C0
100
AcDbEntity
  8
30338523_DIM
100
AcDbLine
 62
3
  6
CONTINUOUS
 10
268.0553538204
 20
173.047719588
 11
264.8565173102
 21
173.2994734812
  0
ARC
  5
2C1
100
AcDbEntity
  8
30338523_DIM
100
AcDbCircle
 62
3
  6
CONTINUOUS
 10
461.8627625815
 20
157.7947457232
 40
196.115427684
100
AcDbArc
 50
169.1251494826
 51
180.0
  0
SOLID
  5
2C2
100
AcDbEntity
  8
30338523_DIM
100
AcDbTrace
 62
3
  6
CONTINUOUS
 10
265.3410835082
 20
161.2985102785
 11
265.7473348975
 21
157.7947457232
 12
266.2160486722
 22
161.2907024803
 13
266.2160486722
 23
161.2907024803
  0
SOLID
  5
2C3
100
AcDbEntity
  8
30338523_DIM
100
AcDbTrace
 62
3
  6
CONTINUOUS
 10
266.5448725916
 20
169.6598300896
 11
266.3518933108
 21
173.1817848376
 12
265.6719920603
 22
169.7206953358
 13
265.6719920603
 23
169.7206953358
  0
ENDBLK
  5
2C4
100
AcDbEntity
  8
0
  6
BYBLOCK
 62
0
100
AcDbBlockEnd
  0
BLOCK
  5
2C5
100
AcDbEntity
  8
30338523_DIM
100
AcDbBlockBegin
 62
3
  6
CONTINUOUS
  2
*D2
 70
65
 10
0.0
 20
0.0
  3
*D2
  1

  0
TEXT
  5
2C6
100
AcDbEntity
  8
30338523_DIM
100
AcDbText
 62
2
  6
CONTINUOUS
 10
201.2720857445
 20
180.9916716734
  7
STANDARD
 40
3.5
  1
R
 50
43.3583348646
 41
0.7857142857
 72
1
 11
202.2718126658
 21
181.9356902552
100
AcDbText
  0
TEXT
  5
2C7
100
AcDbEntity
  8
30338523_DIM
100
AcDbText
 62
2
  6
CONTINUOUS
 10
203.2715395871
 20
182.879708837
  7
STANDARD
 40
3.5
  1
5
 50
43.3583348646
 41
0.7142857143
 72
1
 11
204.1803822428
 21
183.7379075477
100
AcDbText
  0
LINE
  5
2C8
100
AcDbEntity
  8
30338523_DIM
100
AcDbLine
 62
3
  6
CONTINUOUS
 10
197.6436280202
 20
176.3619508803
 11
205.6899639961
 21
183.9599163994
  0
INSERT
  5
2C9
100
AcDbEntity
  8
30338523_DIM
100
AcDbBlockReference
 62
3
  6
CONTINUOUS
  2
_FILLED
 10
197.6436280202
 20
176.3619508803
 41
3.5
 42
3.5
 43
3.5
 50
223.3583348646
  0
ENDBLK
  5
2CA
100
AcDbEntity
  8
0
  6
BYBLOCK
 62
0
100
AcDbBlockEnd
  0
BLOCK
  5
2CB
100
AcDbEntity
  8
30338523_DIM
100
AcDbBlockBegin
 62
3
  6
CONTINUOUS
  2
*D3
 70
65
 10
0.0
 20
0.0
  3
*D3
  1

  0
TEXT
  5
2CC
100
AcDbEntity
  8
30338523_DIM
100
AcDbText
 62
2
  6
CONTINUOUS
 10
209.8120594472
 20
185.6697457232
  7
STANDARD
 40
3.5
  1
M
 41
0.8571428571
 72
2
 11
212.8120594472
 21
185.6697457232
100
AcDbText
  0
TEXT
  5
2CD
100
AcDbEntity
  8
30338523_DIM
100
AcDbText
 62
2
  6
CONTINUOUS
 10
212.8120594472
 20
185.6697457232
  7
STANDARD
 40
3.5
  1
6
 41
0.7857142857
 72
2
 11
215.5620594472
 21
185.6697457232
100
AcDbText
  0
TEXT
  5
2CE
100
AcDbEntity
  8
30338523_DIM
100
AcDbText
 62
2
  6
CONTINUOUS
 10
215.5620594472
 20
185.6697457232
  7
STANDARD
 40
3.5
  1
(
 41
0.4285714286
 72
2
 11
217.0620594472
 21
185.6697457232
100
AcDbText
  0
TEXT
  5
2CF
100
AcDbEntity
  8
30338523_DIM
100
AcDbText
 62
2
  6
CONTINUOUS
 10
217.0620594472
 20
185.6697457232
  7
STANDARD
 40
3.5
  1
4
 41
0.7857142857
 72
2
 11
219.8120594472
 21
185.6697457232
100
AcDbText
  0
TEXT
  5
2D0
100
AcDbEntity
  8
30338523_DIM
100
AcDbText
 62
2
  6
CONTINUOUS
 10
219.8120594472
 20
185.6697457232
  7
STANDARD
 40
3.5
  1
x)
 41
0.5714285714
 72
2
 11
223.8120594472
 21
185.6697457232
100
AcDbText
  0
LINE
  5
2D1
100
AcDbEntity
  8
30338523_DIM
100
AcDbLine
 62
3
  6
CONTINUOUS
 10
229.3289986432
 20
174.6448411011
 11
229.3289986432
 21
186.2947457232
  0
LINE
  5
2D2
100
AcDbEntity
  8
30338523_DIM
100
AcDbLine
 62
3
  6
CONTINUOUS
 10
235.3289986432
 20
174.6448411011
 11
235.3289986432
 21
186.2947457232
  0
LINE
  5
2D3
100
AcDbEntity
  8
30338523_DIM
100
AcDbLine
 62
3
  6
CONTINUOUS
 10
229.3289986432
 20
184.7947457232
 11
209.8120594472
 21
184.7947457232
  0
LINE
  5
2D4
100
AcDbEntity
  8
30338523_DIM
100
AcDbLine
 62
3
  6
CONTINUOUS
 10
209.8120594472
 20
184.7947457232
 11
232.3289986432
 21
184.7947457232
  0
LINE
  5
2D5
100
AcDbEntity
  8
30338523_DIM
100
AcDbLine
 62
3
  6
CONTINUOUS
 10
235.3289986432
 20
184.7947457232
 11
241.3289986432
 21
184.7947457232
  0
LINE
  5
2D6
100
AcDbEntity
  8
30338523_DIM
100
AcDbLine
 62
3
  6
CONTINUOUS
 10
241.3289986432
 20
184.7947457232
 11
232.3289986432
 21
184.7947457232
  0
INSERT
  5
2D7
100
AcDbEntity
  8
30338523_DIM
100
AcDbBlockReference
 62
3
  6
CONTINUOUS
  2
_FILLED
 10
229.3289986432
 20
184.7947457232
 41
3.5
 42
3.5
 43
3.5
  0
INSERT
  5
2D8
100
AcDbEntity
  8
30338523_DIM
100
AcDbBlockReference
 62
3
  6
CONTINUOUS
  2
_FILLED
 10
235.3289986432
 20
184.7947457232
 41
3.5
 42
3.5
 43
3.5
 50
180.0
  0
ENDBLK
  5
2D9
100
AcDbEntity
  8
0
  6
BYBLOCK
 62
0
100
AcDbBlockEnd
  0
BLOCK
  5
2DA
100
AcDbEntity
  8
30338523_DIM
100
AcDbBlockBegin
 62
3
  6
CONTINUOUS
  2
*D4
 70
65
 10
0.0
 20
0.0
  3
*D4
  1

  0
TEXT
  5
2DB
100
AcDbEntity
  8
30338523_DIM
100
AcDbText
 62
2
  6
CONTINUOUS
 10
258.7039986432
 20
101.6697457232
  7
STANDARD
 40
3.5
  1
58
 41
0.75
 72
1
 11
261.3289986432
 21
101.6697457232
100
AcDbText
  0
LINE
  5
2DC
100
AcDbEntity
  8
30338523_DIM
100
AcDbLine
 62
3
  6
CONTINUOUS
 10
232.3289986432
 20
139.8332740008
 11
232.3289986432
 21
99.2947457232
  0
LINE
  5
2DD
100
AcDbEntity
  8
30338523_DIM
100
AcDbLine
 62
3
  6
CONTINUOUS
 10
290.3289986432
 20
145.2191362149
 11
290.3289986432
 21
99.2947457232
  0
LINE
  5
2DE
100
AcDbEntity
  8
30338523_DIM
100
AcDbLine
 62
3
  6
CONTINUOUS
 10
232.3289986432
 20
100.7947457232
 11
261.3289986432
 21
100.7947457232
  0
LINE
  5
2DF
100
AcDbEntity
  8
30338523_DIM
100
AcDbLine
 62
3
  6
CONTINUOUS
 10
290.3289986432
 20
100.7947457232
 11
261.3289986432
 21
100.7947457232
  0
INSERT
  5
2E0
100
AcDbEntity
  8
30338523_DIM
100
AcDbBlockReference
 62
3
  6
CONTINUOUS
  2
_FILLED
 10
232.3289986432
 20
100.7947457232
 41
3.5
 42
3.5
 43
3.5
 50
180.0
  0
INSERT
  5
2E1
100
AcDbEntity
  8
30338523_DIM
100
AcDbBlockReference
 62
3
  6
CONTINUOUS
  2
_FILLED
 10
290.3289986432
 20
100.7947457232
 41
3.5
 42
3.5
 43
3.5
  0
ENDBLK
  5
2E2
100
AcDbEntity
  8
0
  6
BYBLOCK
 62
0
100
AcDbBlockEnd
  0
BLOCK
  5
2E3
100
AcDbEntity
  8
30338523_DIM
100
AcDbBlockBegin
 62
3
  6
CONTINUOUS
  2
*D5
 70
65
 10
0.0
 20
0.0
  3
*D5
  1

  0
TEXT
  5
2E4
100
AcDbEntity
  8
30338523_DIM
100
AcDbText
 62
2
  6
CONTINUOUS
 10
264.0789986432
 20
111.6697457232
  7
STANDARD
 40
3.5
  1
47
 41
0.7857142857
 72
1
 11
266.8289986432
 21
111.6697457232
100
AcDbText
  0
LINE
  5
2E5
100
AcDbEntity
  8
30338523_DIM
100
AcDbLine
 62
3
  6
CONTINUOUS
 10
243.3289986432
 20
145.2191362149
 11
243.3289986432
 21
109.2947457232
  0
LINE
  5
2E6
100
AcDbEntity
  8
30338523_DIM
100
AcDbLine
 62
3
  6
CONTINUOUS
 10
290.3289986432
 20
145.2191362149
 11
290.3289986432
 21
109.2947457232
  0
LINE
  5
2E7
100
AcDbEntity
  8
30338523_DIM
100
AcDbLine
 62
3
  6
CONTINUOUS
 10
243.3289986432
 20
110.7947457232
 11
266.8289986432
 21
110.7947457232
  0
LINE
  5
2E8
100
AcDbEntity
  8
30338523_DIM
100
AcDbLine
 62
3
  6
CONTINUOUS
 10
290.3289986432
 20
110.7947457232
 11
266.8289986432
 21
110.7947457232
  0
INSERT
  5
2E9
100
AcDbEntity
  8
30338523_DIM
100
AcDbBlockReference
 62
3
  6
CONTINUOUS
  2
_FILLED
 10
243.3289986432
 20
110.7947457232
 41
3.5
 42
3.5
 43
3.5
 50
180.0
  0
INSERT
  5
2EA
100
AcDbEntity
  8
30338523_DIM
100
AcDbBlockReference
 62
3
  6
CONTINUOUS
  2
_FILLED
 10
290.3289986432
 20
110.7947457232
 41
3.5
 42
3.5
 43
3.5
  0
ENDBLK
  5
2EB
100
AcDbEntity
  8
0
  6
BYBLOCK
 62
0
100
AcDbBlockEnd
  0
BLOCK
  5
2EC
100
AcDbEntity
  8
30338523_DIM
100
AcDbBlockBegin
 62
3
  6
CONTINUOUS
  2
*D6
 70
65
 10
0.0
 20
0.0
  3
*D6
  1

  0
TEXT
  5
2ED
100
AcDbEntity
  8
30338523_DIM
100
AcDbText
 62
2
  6
CONTINUOUS
 10
226.5789986432
 20
215.6697457232
  7
STANDARD
 40
3.5
  1
120
 41
0.7142857143
 72
1
 11
230.3289986432
 21
215.6697457232
100
AcDbText
  0
LINE
  5
2EE
100
AcDbEntity
  8
30338523_DIM
100
AcDbLine
 62
3
  6
CONTINUOUS
 10
290.3289986432
 20
160.7339769551
 11
290.3289986432
 21
216.2947457232
  0
LINE
  5
2EF
100
AcDbEntity
  8
30338523_DIM
100
AcDbLine
 62
3
  6
CONTINUOUS
 10
170.3289986432
 20
157.7947457232
 11
170.3289986432
 21
216.2947457232
  0
LINE
  5
2F0
100
AcDbEntity
  8
30338523_DIM
100
AcDbLine
 62
3
  6
CONTINUOUS
 10
290.3289986432
 20
214.7947457232
 11
230.3289986432
 21
214.7947457232
  0
LINE
  5
2F1
100
AcDbEntity
  8
30338523_DIM
100
AcDbLine
 62
3
  6
CONTINUOUS
 10
170.3289986432
 20
214.7947457232
 11
230.3289986432
 21
214.7947457232
  0
INSERT
  5
2F2
100
AcDbEntity
  8
30338523_DIM
100
AcDbBlockReference
 62
3
  6
CONTINUOUS
  2
_FILLED
 10
290.3289986432
 20
214.7947457232
 41
3.5
 42
3.5
 43
3.5
  0
INSERT
  5
2F3
100
AcDbEntity
  8
30338523_DIM
100
AcDbBlockReference
 62
3
  6
CONTINUOUS
  2
_FILLED
 10
170.3289986432
 20
214.7947457232
 41
3.5
 42
3.5
 43
3.5
 50
180.0
  0
ENDBLK
  5
2F4
100
AcDbEntity
  8
0
  6
BYBLOCK
 62
0
100
AcDbBlockEnd
  0
BLOCK
  5
2F5
100
AcDbEntity
  8
30338523_DIM
100
AcDbBlockBegin
 62
3
  6
CONTINUOUS
  2
*D7
 70
65
 10
0.0
 20
0.0
  3
*D7
  1

  0
TEXT
  5
2F6
100
AcDbEntity
  8
30338523_DIM
100
AcDbText
 62
2
  6
CONTINUOUS
 10
127.5539986432
 20
166.5037251057
  7
STANDARD
 40
3.5
  1
M
 50
90.0
 41
0.8571428571
 72
0
100
AcDbText
  0
TEXT
  5
2F7
100
AcDbEntity
  8
30338523_DIM
100
AcDbText
 62
2
  6
CONTINUOUS
 10
127.5539986432
 20
169.5037251057
  7
STANDARD
 40
3.5
  1
10
 50
90.0
 41
0.6785714286
 72
0
100
AcDbText
  0
TEXT
  5
2F8
100
AcDbEntity
  8
30338523_DIM
100
AcDbText
 62
2
  6
CONTINUOUS
 10
127.5539986432
 20
174.2537251057
  7
STANDARD
 40
3.5
  1
x1
 50
90.0
 41
0.6428571429
 72
0
100
AcDbText
  0
LINE
  5
2F9
100
AcDbEntity
  8
30338523_DIM
100
AcDbLine
 62
3
  6
CONTINUOUS
 10
225.3289986432
 20
152.7947457232
 11
126.9289986432
 21
152.7947457232
  0
LINE
  5
2FA
100
AcDbEntity
  8
30338523_DIM
100
AcDbLine
 62
3
  6
CONTINUOUS
 10
225.3289986432
 20
162.7947457232
 11
126.9289986432
 21
162.7947457232
  0
LINE
  5
2FB
100
AcDbEntity
  8
30338523_DIM
100
AcDbLine
 62
3
  6
CONTINUOUS
 10
128.4289986432
 20
152.7947457232
 11
128.4289986432
 21
157.7947457232
  0
LINE
  5
2FC
100
AcDbEntity
  8
30338523_DIM
100
AcDbLine
 62
3
  6
CONTINUOUS
 10
128.4289986432
 20
162.7947457232
 11
128.4289986432
 21
157.7947457232
  0
LINE
  5
2FD
100
AcDbEntity
  8
30338523_DIM
100
AcDbLine
 62
3
  6
CONTINUOUS
 10
128.4289986432
 20
157.7947457232
 11
128.4289986432
 21
178.7537251057
  0
INSERT
  5
2FE
100
AcDbEntity
  8
30338523_DIM
100
AcDbBlockReference
 62
3
  6
CONTINUOUS
  2
_FILLED
 10
128.4289986432
 20
152.7947457232
 41
3.5
 42
3.5
 43
3.5
 50
270.0
  0
INSERT
  5
2FF
100
AcDbEntity
  8
30338523_DIM
100
AcDbBlockReference
 62
3
  6
CONTINUOUS
  2
_FILLED
 10
128.4289986432
 20
162.7947457232
 41
3.5
 42
3.5
 43
3.5
 50
90.0
  0
ENDBLK
  5
300
100
AcDbEntity
  8
0
  6
BYBLOCK
 62
0
100
AcDbBlockEnd
  0
BLOCK
  5
301
100
AcDbEntity
  8
30338523_DIM
100
AcDbBlockBegin
 62
3
  6
CONTINUOUS
  2
*D8
 70
65
 10
0.0
 20
0.0
  3
*D8
  1

  0
TEXT
  5
302
100
AcDbEntity
  8
30338523_DIM
100
AcDbText
 62
2
  6
CONTINUOUS
 10
304.4539986432
 20
153.0864123899
  7
TEXTSTYLE_3
 40
3.5
  1
n
 50
90.0
 41
1.0
 72
1
 11
304.4539986432
 21
155.4197457232
100
AcDbText
  0
TEXT
  5
303
100
AcDbEntity
  8
30338523_DIM
100
AcDbText
 62
2
  6
CONTINUOUS
 10
304.4539986432
 20
157.7530790566
  7
STANDARD
 40
3.5
  1
14
 50
90.0
 41
0.6785714286
 72
1
 11
304.4539986432
 21
160.1280790566
100
AcDbText
  0
LINE
  5
304
100
AcDbEntity
  8
30338523_DIM
100
AcDbLine
 62
3
  6
CONTINUOUS
 10
288.3289986432
 20
150.7947457232
 11
306.8289986432
 21
150.7947457232
  0
LINE
  5
305
100
AcDbEntity
  8
30338523_DIM
100
AcDbLine
 62
3
  6
CONTINUOUS
 10
288.3289986432
 20
164.7947457232
 11
306.8289986432
 21
164.7947457232
  0
LINE
  5
306
100
AcDbEntity
  8
30338523_DIM
100
AcDbLine
 62
3
  6
CONTINUOUS
 10
305.3289986432
 20
150.7947457232
 11
305.3289986432
 21
144.7947457232
  0
LINE
  5
307
100
AcDbEntity
  8
30338523_DIM
100
AcDbLine
 62
3
  6
CONTINUOUS
 10
305.3289986432
 20
144.7947457232
 11
305.3289986432
 21
157.7947457232
  0
LINE
  5
308
100
AcDbEntity
  8
30338523_DIM
100
AcDbLine
 62
3
  6
CONTINUOUS
 10
305.3289986432
 20
164.7947457232
 11
305.3289986432
 21
170.7947457232
  0
LINE
  5
309
100
AcDbEntity
  8
30338523_DIM
100
AcDbLine
 62
3
  6
CONTINUOUS
 10
305.3289986432
 20
170.7947457232
 11
305.3289986432
 21
157.7947457232
  0
INSERT
  5
30A
100
AcDbEntity
  8
30338523_DIM
100
AcDbBlockReference
 62
3
  6
CONTINUOUS
  2
_FILLED
 10
305.3289986432
 20
150.7947457232
 41
3.5
 42
3.5
 43
3.5
 50
90.0
  0
INSERT
  5
30B
100
AcDbEntity
  8
30338523_DIM
100
AcDbBlockReference
 62
3
  6
CONTINUOUS
  2
_FILLED
 10
305.3289986432
 20
164.7947457232
 41
3.5
 42
3.5
 43
3.5
 50
270.0
  0
ENDBLK
  5
30C
100
AcDbEntity
  8
0
  6
BYBLOCK
 62
0
100
AcDbBlockEnd
  0
BLOCK
  5
30D
100
AcDbEntity
  8
30338523_DIM
100
AcDbBlockBegin
 62
3
  6
CONTINUOUS
  2
*D9
 70
65
 10
0.0
 20
0.0
  3
*D9
  1

  0
TEXT
  5
30E
100
AcDbEntity
  8
30338523_DIM
100
AcDbText
 62
2
  6
CONTINUOUS
 10
324.4539986432
 20
152.8364123899
  7
TEXTSTYLE_3
 40
3.5
  1
n
 50
90.0
 41
1.0
 72
1
 11
324.4539986432
 21
155.1697457232
100
AcDbText
  0
TEXT
  5
30F
100
AcDbEntity
  8
30338523_DIM
100
AcDbText
 62
2
  6
CONTINUOUS
 10
324.4539986432
 20
157.5030790566
  7
STANDARD
 40
3.5
  1
34
 50
90.0
 41
0.75
 72
1
 11
324.4539986432
 21
160.1280790566
100
AcDbText
  0
LINE
  5
310
100
AcDbEntity
  8
30338523_DIM
100
AcDbLine
 62
3
  6
CONTINUOUS
 10
245.8572820666
 20
140.7947457232
 11
326.8289986432
 21
140.7947457232
  0
LINE
  5
311
100
AcDbEntity
  8
30338523_DIM
100
AcDbLine
 62
3
  6
CONTINUOUS
 10
245.8572820666
 20
174.7947457232
 11
326.8289986432
 21
174.7947457232
  0
LINE
  5
312
100
AcDbEntity
  8
30338523_DIM
100
AcDbLine
 62
3
  6
CONTINUOUS
 10
325.3289986432
 20
140.7947457232
 11
325.3289986432
 21
157.7947457232
  0
LINE
  5
313
100
AcDbEntity
  8
30338523_DIM
100
AcDbLine
 62
3
  6
CONTINUOUS
 10
325.3289986432
 20
174.7947457232
 11
325.3289986432
 21
157.7947457232
  0
INSERT
  5
314
100
AcDbEntity
  8
30338523_DIM
100
AcDbBlockReference
 62
3
  6
CONTINUOUS
  2
_FILLED
 10
325.3289986432
 20
140.7947457232
 41
3.5
 42
3.5
 43
3.5
 50
270.0
  0
INSERT
  5
315
100
AcDbEntity
  8
30338523_DIM
100
AcDbBlockReference
 62
3
  6
CONTINUOUS
  2
_FILLED
 10
325.3289986432
 20
174.7947457232
 41
3.5
 42
3.5
 43
3.5
 50
90.0
  0
ENDBLK
  5
316
100
AcDbEntity
  8
0
  6
BYBLOCK
 62
0
100
AcDbBlockEnd
  0
BLOCK
  5
317
100
AcDbEntity
  8
30338523_DIM
100
AcDbBlockBegin
 62
3
  6
CONTINUOUS
  2
*D10
 70
65
 10
0.0
 20
0.0
  3
*D10
  1

  0
TEXT
  5
318
100
AcDbEntity
  8
30338523_DIM
100
AcDbText
 62
2
  6
CONTINUOUS
 10
314.4539986432
 20
152.7114123899
  7
TEXTSTYLE_3
 40
3.5
  1
n
 50
90.0
 41
1.0
 72
1
 11
314.4539986432
 21
155.0447457232
100
AcDbText
  0
TEXT
  5
319
100
AcDbEntity
  8
30338523_DIM
100
AcDbText
 62
2
  6
CONTINUOUS
 10
314.4539986432
 20
157.3780790566
  7
STANDARD
 40
3.5
  1
27
 50
90.0
 41
0.7857142857
 72
1
 11
314.4539986432
 21
160.1280790566
100
AcDbText
  0
LINE
  5
31A
100
AcDbEntity
  8
30338523_DIM
100
AcDbLine
 62
3
  6
CONTINUOUS
 10
290.3289986432
 20
144.2947457232
 11
316.8289986432
 21
144.2947457232
  0
LINE
  5
31B
100
AcDbEntity
  8
30338523_DIM
100
AcDbLine
 62
3
  6
CONTINUOUS
 10
290.3289986432
 20
171.2947457232
 11
316.8289986432
 21
171.2947457232
  0
LINE
  5
31C
100
AcDbEntity
  8
30338523_DIM
100
AcDbLine
 62
3
  6
CONTINUOUS
 10
315.3289986432
 20
144.2947457232
 11
315.3289986432
 21
157.7947457232
  0
LINE
  5
31D
100
AcDbEntity
  8
30338523_DIM
100
AcDbLine
 62
3
  6
CONTINUOUS
 10
315.3289986432
 20
171.2947457232
 11
315.3289986432
 21
157.7947457232
  0
INSERT
  5
31E
100
AcDbEntity
  8
30338523_DIM
100
AcDbBlockReference
 62
3
  6
CONTINUOUS
  2
_FILLED
 10
315.3289986432
 20
144.2947457232
 41
3.5
 42
3.5
 43
3.5
 50
270.0
  0
INSERT
  5
31F
100
AcDbEntity
  8
30338523_DIM
100
AcDbBlockReference
 62
3
  6
CONTINUOUS
  2
_FILLED
 10
315.3289986432
 20
171.2947457232
 41
3.5
 42
3.5
 43
3.5
 50
90.0
  0
ENDBLK
  5
320
100
AcDbEntity
  8
0
  6
BYBLOCK
 62
0
100
AcDbBlockEnd
  0
ENDSEC
  0
SECTION
  2
ENTITIES
  0
TEXT
  5
321
100
AcDbEntity
  8
606077392-000-00-ED1_FORMAT
100
AcDbText
 62
90
  6
CONTINUOUS
 10
34.0
 20
287.75
  7
TEXTSTYLE_2
 40
3.5
  1
1
 41
0.5714285714
 72
1
 11
35.0
 21
287.75
100
AcDbText
  0
TEXT
  5
322
100
AcDbEntity
  8
606077392-000-00-ED1_FORMAT
100
AcDbText
 62
90
  6
CONTINUOUS
 10
83.625
 20
287.75
  7
TEXTSTYLE_2
 40
3.5
  1
2
 41
0.7857142857
 72
1
 11
85.0
 21
287.75
100
AcDbText
  0
TEXT
  5
323
100
AcDbEntity
  8
606077392-000-00-ED1_FORMAT
100
AcDbText
 62
90
  6
CONTINUOUS
 10
133.75
 20
287.75
  7
TEXTSTYLE_2
 40
3.5
  1
3
 41
0.7142857143
 72
1
 11
135.0
 21
287.75
100
AcDbText
  0
TEXT
  5
324
100
AcDbEntity
  8
606077392-000-00-ED1_FORMAT
100
AcDbText
 62
90
  6
CONTINUOUS
 10
183.625
 20
287.75
  7
TEXTSTYLE_2
 40
3.5
  1
4
 41
0.7857142857
 72
1
 11
185.0
 21
287.75
100
AcDbText
  0
TEXT
  5
325
100
AcDbEntity
  8
606077392-000-00-ED1_FORMAT
100
AcDbText
 62
90
  6
CONTINUOUS
 10
233.75
 20
287.75
  7
TEXTSTYLE_2
 40
3.5
  1
5
 41
0.7142857143
 72
1
 11
235.0
 21
287.75
100
AcDbText
  0
TEXT
  5
326
100
AcDbEntity
  8
606077392-000-00-ED1_FORMAT
100
AcDbText
 62
90
  6
CONTINUOUS
 10
283.625
 20
287.75
  7
TEXTSTYLE_2
 40
3.5
  1
6
 41
0.7857142857
 72
1
 11
285.0
 21
287.75
100
AcDbText
  0
TEXT
  5
327
100
AcDbEntity
  8
606077392-000-00-ED1_FORMAT
100
AcDbText
 62
90
  6
CONTINUOUS
 10
333.625
 20
287.75
  7
TEXTSTYLE_2
 40
3.5
  1
7
 41
0.7857142857
 72
1
 11
335.0
 21
287.75
100
AcDbText
  0
TEXT
  5
328
100
AcDbEntity
  8
606077392-000-00-ED1_FORMAT
100
AcDbText
 62
90
  6
CONTINUOUS
 10
383.625
 20
287.75
  7
TEXTSTYLE_2
 40
3.5
  1
8
 41
0.7857142857
 72
1
 11
385.0
 21
287.75
100
AcDbText
  0
TEXT
  5
329
100
AcDbEntity
  8
606077392-000-00-ED1_FORMAT
100
AcDbText
 62
90
  6
CONTINUOUS
 10
133.75
 20
5.75
  7
TEXTSTYLE_2
 40
3.5
  1
3
 41
0.7142857143
 72
1
 11
135.0
 21
5.75
100
AcDbText
  0
TEXT
  5
32A
100
AcDbEntity
  8
606077392-000-00-ED1_FORMAT
100
AcDbText
 62
90
  6
CONTINUOUS
 10
83.625
 20
5.75
  7
TEXTSTYLE_2
 40
3.5
  1
2
 41
0.7857142857
 72
1
 11
85.0
 21
5.75
100
AcDbText
  0
TEXT
  5
32B
100
AcDbEntity
  8
606077392-000-00-ED1_FORMAT
100
AcDbText
 62
90
  6
CONTINUOUS
 10
34.0
 20
5.75
  7
TEXTSTYLE_2
 40
3.5
  1
1
 41
0.5714285714
 72
1
 11
35.0
 21
5.75
100
AcDbText
  0
TEXT
  5
32C
100
AcDbEntity
  8
606077392-000-00-ED1_FORMAT
100
AcDbText
 62
90
  6
CONTINUOUS
 10
19.0
 20
262.75
  7
TEXTSTYLE_2
 40
3.5
  1
A
 41
0.8571428571
 72
1
 11
20.5
 21
262.75
100
AcDbText
  0
TEXT
  5
32D
100
AcDbEntity
  8
606077392-000-00-ED1_FORMAT
100
AcDbText
 62
90
  6
CONTINUOUS
 10
411.0
 20
262.75
  7
TEXTSTYLE_2
 40
3.5
  1
A
 41
0.8571428571
 72
1
 11
412.5
 21
262.75
100
AcDbText
  0
TEXT
  5
32E
100
AcDbEntity
  8
606077392-000-00-ED1_FORMAT
100
AcDbText
 62
90
  6
CONTINUOUS
 10
411.125
 20
221.75
  7
TEXTSTYLE_2
 40
3.5
  1
B
 41
0.7857142857
 72
1
 11
412.5
 21
221.75
100
AcDbText
  0
TEXT
  5
32F
100
AcDbEntity
  8
606077392-000-00-ED1_FORMAT
100
AcDbText
 62
90
  6
CONTINUOUS
 10
19.125
 20
221.75
  7
TEXTSTYLE_2
 40
3.5
  1
B
 41
0.7857142857
 72
1
 11
20.5
 21
221.75
100
AcDbText
  0
TEXT
  5
330
100
AcDbEntity
  8
606077392-000-00-ED1_FORMAT
100
AcDbText
 62
90
  6
CONTINUOUS
 10
19.0416666667
 20
171.75
  7
TEXTSTYLE_2
 40
3.5
  1
C
 41
0.8333333333
 72
1
 11
20.5
 21
171.75
100
AcDbText
  0
TEXT
  5
331
100
AcDbEntity
  8
606077392-000-00-ED1_FORMAT
100
AcDbText
 62
90
  6
CONTINUOUS
 10
411.0416666667
 20
171.75
  7
TEXTSTYLE_2
 40
3.5
  1
C
 41
0.8333333333
 72
1
 11
412.5
 21
171.75
100
AcDbText
  0
TEXT
  5
332
100
AcDbEntity
  8
606077392-000-00-ED1_FORMAT
100
AcDbText
 62
90
  6
CONTINUOUS
 10
410.9166666667
 20
121.75
  7
TEXTSTYLE_2
 40
3.5
  1
D
 41
0.9047619048
 72
1
 11
412.5
 21
121.75
100
AcDbText
  0
TEXT
  5
333
100
AcDbEntity
  8
606077392-000-00-ED1_FORMAT
100
AcDbText
 62
90
  6
CONTINUOUS
 10
18.9166666667
 20
121.75
  7
TEXTSTYLE_2
 40
3.5
  1
D
 41
0.9047619048
 72
1
 11
20.5
 21
121.75
100
AcDbText
  0
TEXT
  5
334
100
AcDbEntity
  8
606077392-000-00-ED1_FORMAT
100
AcDbText
 62
90
  6
CONTINUOUS
 10
19.25
 20
71.75
  7
TEXTSTYLE_2
 40
3.5
  1
E
 41
0.7142857143
 72
1
 11
20.5
 21
71.75
100
AcDbText
  0
TEXT
  5
335
100
AcDbEntity
  8
606077392-000-00-ED1_FORMAT
100
AcDbText
 62
90
  6
CONTINUOUS
 10
411.25
 20
71.75
  7
TEXTSTYLE_2
 40
3.5
  1
E
 41
0.7142857143
 72
1
 11
412.5
 21
71.75
100
AcDbText
  0
TEXT
  5
336
100
AcDbEntity
  8
606077392-000-00-ED1_FORMAT
100
AcDbText
 62
90
  6
CONTINUOUS
 10
411.25
 20
21.75
  7
TEXTSTYLE_2
 40
3.5
  1
F
 41
0.7142857143
 72
1
 11
412.5
 21
21.75
100
AcDbText
  0
TEXT
  5
337
100
AcDbEntity
  8
606077392-000-00-ED1_FORMAT
100
AcDbText
 62
90
  6
CONTINUOUS
 10
19.25
 20
21.75
  7
TEXTSTYLE_2
 40
3.5
  1
F
 41
0.7142857143
 72
1
 11
20.5
 21
21.75
100
AcDbText
  0
TEXT
  5
338
100
AcDbEntity
  8
606077392-000-00-ED1_FORMAT
100
AcDbText
 62
2
  6
CONTINUOUS
 10
266.0792011722
 20
283.4479128464
  7
STANDARD
 40
1.9999997015
  1
INDEX
 41
0.780952381
 72
0
100
AcDbText
  0
TEXT
  5
339
100
AcDbEntity
  8
606077392-000-00-ED1_FORMAT
100
AcDbText
 62
2
  6
CONTINUOUS
 10
267.8411056711
 20
280.4479132942
  7
STANDARD
 40
1.9999997015
  1
NR.
 41
0.7142857143
 72
0
100
AcDbText
  0
TEXT
  5
33A
100
AcDbEntity
  8
606077392-000-00-ED1_FORMAT
100
AcDbText
 62
2
  6
CONTINUOUS
 10
310.3389765087
 20
281.9588201847
  7
STANDARD
 40
1.9999997015
  1
ART DER AENDERUNG
 41
0.799719888
 72
0
100
AcDbText
  0
TEXT
  5
33B
100
AcDbEntity
  8
606077392-000-00-ED1_FORMAT
100
AcDbText
 62
2
  6
CONTINUOUS
 10
379.9980938591
 20
282.0962316584
  7
STANDARD
 40
1.9999997015
  1
DATUM
 41
0.8523809524
 72
0
100
AcDbText
  0
TEXT
  5
33C
100
AcDbEntity
  8
606077392-000-00-ED1_FORMAT
100
AcDbText
 62
2
  6
CONTINUOUS
 10
397.8615854447
 20
282.0962316584
  7
STANDARD
 40
1.9999997015
  1
NAME
 41
0.8035714286
 72
0
100
AcDbText
  0
TEXT
  5
33D
100
AcDbEntity
  8
606077392-000-00-ED1_FORMAT
100
AcDbText
 62
2
  6
CONTINUOUS
 10
27.6553587823
 20
149.7733961004
  7
STANDARD
 40
3.0
  1
VORGANGS-NR.:
 50
90.0
 41
0.7399267399
 72
0
100
AcDbText
  0
TEXT
  5
33E
100
AcDbEntity
  8
606077392-000-00-ED1_FORMAT
100
AcDbText
 62
2
  6
CONTINUOUS
 10
27.9024680453
 20
94.666552576
  7
STANDARD
 40
3.0
  1
PROJEKT-NR.:
 50
90.0
 41
0.7142857143
 72
0
100
AcDbText
  0
TEXT
  5
33F
100
AcDbEntity
  8
606077392-000-00-ED1_FORMAT
100
AcDbText
 62
2
  6
CONTINUOUS
 10
27.9024680453
 20
11.0873145846
  7
STANDARD
 40
3.0
  1
KUNDE:
 50
90.0
 41
0.7222222222
 72
0
100
AcDbText
  0
TEXT
  5
340
100
AcDbEntity
  8
606077392-000-00-ED1_FORMAT
100
AcDbText
 62
2
  6
CONTINUOUS
 10
225.0528335394
 20
61.7772757079
  7
STANDARD
 40
1.4000001944
  1
DIE ZEICHNUNGEN,  MODELLE  ETC. BLEIBEN  UNSER  AUSSCHLIESSLICHES
 41
0.7549450549
 72
0
100
AcDbText
  0
TEXT
  5
341
100
AcDbEntity
  8
606077392-000-00-ED1_FORMAT
100
AcDbText
 62
2
  6
CONTINUOUS
 10
225.0528335394
 20
58.9772753192
  7
STANDARD
 40
1.4000001944
  1
EIGENTUM. SIE WERDEN NUR ZU DEM VEREINBARTEN  ZWECK ANVERTRAUT
 41
0.7976190476
 72
0
100
AcDbText
  0
TEXT
  5
342
100
AcDbEntity
  8
606077392-000-00-ED1_FORMAT
100
AcDbText
 62
2
  6
CONTINUOUS
 10
225.0528335394
 20
56.1772749305
  7
STANDARD
 40
1.4000001944
  1
UND DUERFEN ZU KEINEM ANDEREN  ZWECK VERWENDET WERDEN. KOPIEN
 41
0.8040593286
 72
0
100
AcDbText
  0
TEXT
  5
343
100
AcDbEntity
  8
606077392-000-00-ED1_FORMAT
100
AcDbText
 62
2
  6
CONTINUOUS
 10
225.0528335394
 20
53.3772745417
  7
STANDARD
 40
1.4000001944
  1
ODER  SONSTIGE  VERVIELFAELTIGUNGEN  DUERFEN  NUR ZU DEM VEREIN-
 41
0.7689732143
 72
0
100
AcDbText
  0
TEXT
  5
344
100
AcDbEntity
  8
606077392-000-00-ED1_FORMAT
100
AcDbText
 62
2
  6
CONTINUOUS
 10
225.0528335394
 20
50.577274153
  7
STANDARD
 40
1.4000001944
  1
BARTEN ZWECK ANGEFERTIGT WERDEN. WEDER ORIGINALE NOCH VERVIEL-
 41
0.7949308756
 72
0
100
AcDbText
  0
TEXT
  5
345
100
AcDbEntity
  8
606077392-000-00-ED1_FORMAT
100
AcDbText
 62
2
  6
CONTINUOUS
 10
225.0528335394
 20
47.7772737643
  7
STANDARD
 40
1.4000001944
  1
FAELTIGUNGEN  DUERFEN  DRITTEN  AUSGEHAENDIGT ODER IN SONSTIGER
 41
0.776266062
 72
0
100
AcDbText
  0
TEXT
  5
346
100
AcDbEntity
  8
606077392-000-00-ED1_FORMAT
100
AcDbText
 62
2
  6
CONTINUOUS
 10
225.0528335394
 20
44.9772733756
  7
STANDARD
 40
1.4000001944
  1
WEISE ZUGAENGLICH GEMACHT WERDEN.
 41
0.803030303
 72
0
100
AcDbText
  0
TEXT
  5
347
100
AcDbEntity
  8
606077392-000-00-ED1_FORMAT
100
AcDbText
 62
2
  6
CONTINUOUS
 10
225.1601630615
 20
39.378272574
  7
STANDARD
 40
1.8000002499
  1
MASSE OHNE TOLERANZANGABE
 41
0.7857142857
 72
0
100
AcDbText
  0
TEXT
  5
348
100
AcDbEntity
  8
606077392-000-00-ED1_FORMAT
100
AcDbText
 62
2
  6
CONTINUOUS
 10
236.0244502841
 20
36.6782721992
  7
STANDARD
 40
1.8000002499
  1
ISO 2768-F
 41
0.7571428571
 72
0
100
AcDbText
  0
TEXT
  5
349
100
AcDbEntity
  8
606077392-000-00-ED1_FORMAT
100
AcDbText
 62
2
  6
CONTINUOUS
 10
262.1543713235
 20
39.5917730329
  7
STANDARD
 40
1.8000002499
  1
UNBEMASSTE EINZELHEITEN
 41
0.7608695652
 72
0
100
AcDbText
  0
TEXT
  5
34A
100
AcDbEntity
  8
606077392-000-00-ED1_FORMAT
100
AcDbText
 62
2
  6
CONTINUOUS
 10
267.382943478
 20
36.8917726581
  7
STANDARD
 40
1.8000002499
  1
NACH WERKSNORM
 41
0.8350340136
 72
0
100
AcDbText
  0
TEXT
  5
34B
100
AcDbEntity
  8
606077392-000-00-ED1_FORMAT
100
AcDbText
 62
2
  6
CONTINUOUS
 10
150.063304016
 20
38.7910868059
  7
STANDARD
 40
2.0
  1
ZUSAETZLICH ZU VA-NR. 07.05.01 BESCHRIFTET MIT:
 41
0.7507598784
 72
1
 11
185.3490183017
 21
38.7910868059
100
AcDbText
  0
TEXT
  5
34C
100
AcDbEntity
  8
606077392-000-00-ED1_FORMAT
100
AcDbText
 62
2
  6
CONTINUOUS
 10
224.7601228044
 20
20.7999897947
  7
STANDARD
 40
2.5
  1
TECHNISCHE SPEZIFIKATION:
 41
0.7466666667
 72
0
100
AcDbText
  0
TEXT
  5
34D
100
AcDbEntity
  8
606077392-000-00-ED1_FORMAT
100
AcDbText
 62
2
  6
CONTINUOUS
 10
224.8199471988
 20
31.7602174681
  7
STANDARD
 40
2.5
  1
BENENNUNG:
 41
0.7285714286
 72
0
100
AcDbText
  0
TEXT
  5
34E
100
AcDbEntity
  8
606077392-000-00-ED1_FORMAT
100
AcDbText
 62
2
  6
CONTINUOUS
 10
224.5262063004
 20
11.0903924223
  7
STANDARD
 40
1.6000002221
  1
ERSATZ F. ZCHNR.:
 41
0.7380952381
 72
0
100
AcDbText
  0
TEXT
  5
34F
100
AcDbEntity
  8
606077392-000-00-ED1_FORMAT
100
AcDbText
 62
2
  6
CONTINUOUS
 10
300.4889576042
 20
10.8414910836
  7
STANDARD
 40
1.6000002221
  1
ERSETZT D. ZCHNR.:
 41
0.7473544974
 72
0
100
AcDbText
  0
TEXT
  5
350
100
AcDbEntity
  8
606077392-000-00-ED1_FORMAT
100
AcDbText
 62
2
  6
CONTINUOUS
 10
379.498513208
 20
60.814916182
  7
STANDARD
 40
2.0000002777
  1
DATUM
 41
0.8523809524
 72
0
100
AcDbText
  0
TEXT
  5
351
100
AcDbEntity
  8
606077392-000-00-ED1_FORMAT
100
AcDbText
 62
2
  6
CONTINUOUS
 10
398.0389134502
 20
60.814916182
  7
STANDARD
 40
2.0000002777
  1
NAME
 41
0.8035714286
 72
0
100
AcDbText
  0
TEXT
  5
352
100
AcDbEntity
  8
606077392-000-00-ED1_FORMAT
100
AcDbText
 62
2
  6
CONTINUOUS
 10
366.6248819325
 20
54.9911796252
  7
STANDARD
 40
2.0000002777
  1
GEZ.
 41
0.7142857143
 72
0
100
AcDbText
  0
TEXT
  5
353
100
AcDbEntity
  8
606077392-000-00-ED1_FORMAT
100
AcDbText
 62
2
  6
CONTINUOUS
 10
366.6248819325
 20
48.9031554343
  7
STANDARD
 40
2.0
  1
GEPR.
 41
0.7285714286
 72
0
100
AcDbText
  0
TEXT
  5
354
100
AcDbEntity
  8
606077392-000-00-ED1_FORMAT
100
AcDbText
 62
2
  6
CONTINUOUS
 10
366.6248819325
 20
42.8151311047
  7
STANDARD
 40
2.0
  1
FREIG.
 41
0.7023809524
 72
0
100
AcDbText
  0
TEXT
  5
355
100
AcDbEntity
  8
606077392-000-00-ED1_FORMAT
100
AcDbText
 62
2
  6
CONTINUOUS
 10
300.5448732723
 20
20.8921153842
  7
STANDARD
 40
2.5
  1
MATERIALNUMMER:
 41
0.7571428571
 72
0
100
AcDbText
  0
TEXT
  5
356
100
AcDbEntity
  8
606077392-000-00-ED1_FORMAT
100
AcDbText
 62
2
  6
CONTINUOUS
 10
345.5006276188
 20
20.8921153842
  7
STANDARD
 40
2.5
  1
ZEICHNUNGSNUMMER:
 41
0.7549019608
 72
0
100
AcDbText
  0
TEXT
  5
357
100
AcDbEntity
  8
606077392-000-00-ED1_FORMAT
100
AcDbText
 62
2
  6
CONTINUOUS
 10
400.7764463981
 20
32.1524019301
  7
STANDARD
 40
2.0
  1
ORIGIN
 41
0.7380952381
 72
0
100
AcDbText
  0
TEXT
  5
358
100
AcDbEntity
  8
606077392-000-00-ED1_FORMAT
100
AcDbText
 62
2
  6
CONTINUOUS
 10
400.4059589228
 20
21.1649440759
  7
STANDARD
 40
2.5
  1
INDEX
 41
0.780952381
 72
0
100
AcDbText
  0
TEXT
  5
359
100
AcDbEntity
  8
606077392-000-00-ED1_FORMAT
100
AcDbText
 62
2
  6
CONTINUOUS
 10
366.825457919
 20
36.6922441013
  7
STANDARD
 40
2.0000002777
  1
MASSSTAB: 
 41
0.7714285714
 72
0
100
AcDbText
  0
TEXT
  5
35A
100
AcDbEntity
  8
606077392-000-00-ED1_FORMAT
100
AcDbText
 62
2
  6
CONTINUOUS
 10
382.2540314895
 20
36.6922441013
  7
STANDARD
 40
2.0000002777
  1
1:1
 41
0.5
 72
0
100
AcDbText
  0
TEXT
  5
35B
100
AcDbEntity
  8
606077392-000-00-ED1_FORMAT
100
AcDbText
 62
2
  6
CONTINUOUS
 10
148.8802806988
 20
67.4938922276
  7
STANDARD
 40
2.0000002777
  1
POS
 41
0.7857142857
 72
0
100
AcDbText
  0
TEXT
  5
35C
100
AcDbEntity
  8
606077392-000-00-ED1_FORMAT
100
AcDbText
 62
2
  6
CONTINUOUS
 10
156.2800350516
 20
67.4938922276
  7
STANDARD
 40
2.0000002777
  1
TYP
 41
0.8333333333
 72
0
100
AcDbText
  0
TEXT
  5
35D
100
AcDbEntity
  8
606077392-000-00-ED1_FORMAT
100
AcDbText
 62
2
  6
CONTINUOUS
 10
163.3396899162
 20
67.5421772957
  7
STANDARD
 40
2.0000002777
  1
MENGE
 41
0.7714285714
 72
0
100
AcDbText
  0
TEXT
  5
35E
100
AcDbEntity
  8
606077392-000-00-ED1_FORMAT
100
AcDbText
 62
2
  6
CONTINUOUS
 10
172.6578100909
 20
67.5585023576
  7
STANDARD
 40
2.0000002777
  1
ME
 41
0.7857142857
 72
0
100
AcDbText
  0
TEXT
  5
35F
100
AcDbEntity
  8
606077392-000-00-ED1_FORMAT
100
AcDbText
 62
2
  6
CONTINUOUS
 10
181.2151302056
 20
67.5585023576
  7
STANDARD
 40
2.0000002777
  1
MATERIALNUMMER
 41
0.7857142857
 72
0
100
AcDbText
  0
TEXT
  5
360
100
AcDbEntity
  8
606077392-000-00-ED1_FORMAT
100
AcDbText
 62
2
  6
CONTINUOUS
 10
257.4508902212
 20
67.6477439033
  7
STANDARD
 40
2.0000002777
  1
BENENNUNG
 41
0.7698412698
 72
0
100
AcDbText
  0
TEXT
  5
361
100
AcDbEntity
  8
606077392-000-00-ED1_FORMAT
100
AcDbText
 62
2
  6
CONTINUOUS
 10
321.8093099266
 20
67.455938924
  7
STANDARD
 40
2.0000002777
  1
TECHNISCHE SPEZIFIKATION
 41
0.7628968254
 72
0
100
AcDbText
  0
TEXT
  5
362
100
AcDbEntity
  8
606077392-000-00-ED1_FORMAT
100
AcDbText
 62
2
  6
CONTINUOUS
 10
378.8634420866
 20
67.8395488825
  7
STANDARD
 40
2.0000002777
  1
KUNDENNUMMER
 41
0.7956349206
 72
0
100
AcDbText
  0
TEXT
  5
363
100
AcDbEntity
  8
606077392-000-00-ED1_FORMAT
100
AcDbText
 62
2
  6
CONTINUOUS
 10
334.8050437149
 20
48.3350050929
  7
TEXTSTYLE_2
 40
1.8000001121
  1
Dr. Kress KG
 41
0.7361111111
 72
0
100
AcDbText
  0
TEXT
  5
364
100
AcDbEntity
  8
606077392-000-00-ED1_FORMAT
100
AcDbText
 62
7
  6
CONTINUOUS
 10
334.8050437149
 20
57.9850056872
  7
TEXTSTYLE_2
 40
2.5000001557
  1
MAPAL
 41
0.8
 72
0
100
AcDbText
  0
TEXT
  5
365
100
AcDbEntity
  8
606077392-000-00-ED1_FORMAT
100
AcDbText
 62
2
  6
CONTINUOUS
 10
334.8050437149
 20
53.3350053976
  7
TEXTSTYLE_2
 40
1.8000001121
  1
Präzisionswerkzeuge
 41
0.7034461153
 72
0
100
AcDbText
  0
TEXT
  5
366
100
AcDbEntity
  8
606077392-000-00-ED1_FORMAT
100
AcDbText
 62
2
  6
CONTINUOUS
 10
378.2047936993
 20
10.9096736719
  7
STANDARD
 40
1.6
  1
BLATT   V.   BLAETTERN
 41
0.7781385281
 72
0
100
AcDbText
  0
TEXT
  5
367
100
AcDbEntity
  8
606077392-000-00-ED1_FORMAT
100
AcDbText
 62
2
  6
CONTINUOUS
 10
385.137224502
 20
10.8641703019
  7
STANDARD
 40
1.6
  1
1
 41
0.5714285714
 72
0
100
AcDbText
  0
TEXT
  5
368
100
AcDbEntity
  8
606077392-000-00-ED1_FORMAT
100
AcDbText
 62
2
  6
CONTINUOUS
 10
391.2747609807
 20
10.9140689725
  7
STANDARD
 40
1.6
  1
1
 41
0.5714285714
 72
0
100
AcDbText
  0
TEXT
  5
369
100
AcDbEntity
  8
606077392-000-00-ED1_FORMAT
100
AcDbText
 62
2
  6
CONTINUOUS
 10
398.7751202552
 20
36.7556960436
  7
STANDARD
 40
2.0
  1
A3
 41
0.7857142857
 72
0
100
AcDbText
  0
TEXT
  5
36A
100
AcDbEntity
  8
606077392-000-00-ED1_FORMAT
100
AcDbText
 62
2
  6
CONTINUOUS
 10
23.9272382303
 20
282.7195210512
  7
STANDARD
 40
1.9999995576
  1
MASCH.-NR.:
 41
0.7186147186
 72
0
100
AcDbText
  0
TEXT
  5
36B
100
AcDbEntity
  8
606077392-000-00-ED1_FORMAT
100
AcDbText
 62
2
  6
CONTINUOUS
 10
61.221262923
 20
282.7441697896
  7
STANDARD
 40
1.9999995184
  1
STATION:
 41
0.7410714286
 72
0
100
AcDbText
  0
TEXT
  5
36C
100
AcDbEntity
  8
606077392-000-00-ED1_FORMAT
100
AcDbText
 62
2
  6
CONTINUOUS
 10
99.2119750426
 20
282.7441697896
  7
STANDARD
 40
1.9999995184
  1
SPINDEL:
 41
0.7023809524
 72
0
100
AcDbText
  0
TEXT
  5
36D
100
AcDbEntity
  8
606077392-000-00-ED1_FORMAT
100
AcDbText
 62
2
  6
CONTINUOUS
 10
23.5637846434
 20
277.4328879656
  7
STANDARD
 40
1.9999995576
  1
WERKST.-BEN.:
 41
0.7527472527
 72
0
100
AcDbText
  0
TEXT
  5
36E
100
AcDbEntity
  8
606077392-000-00-ED1_FORMAT
100
AcDbText
 62
2
  6
CONTINUOUS
 10
23.7506774
 20
266.657832536
  7
STANDARD
 40
1.9999995184
  1
WERKSTOFF:
 41
0.7857142857
 72
0
100
AcDbText
  0
TEXT
  5
36F
100
AcDbEntity
  8
606077392-000-00-ED1_FORMAT
100
AcDbText
 62
2
  6
CONTINUOUS
 10
99.2058269153
 20
260.6643446337
  7
STANDARD
 40
1.9999995184
  1
BOHRUNGS-NR.:
 41
0.7307692308
 72
0
100
AcDbText
  0
TEXT
  5
370
100
AcDbEntity
  8
606077392-000-00-ED1_FORMAT
100
AcDbText
 62
2
  6
CONTINUOUS
 10
23.8681648642
 20
272.062255871
  7
STANDARD
 40
1.9999995576
  1
WERKST.-NR.:
 41
0.755952381
 72
0
100
AcDbText
  0
TEXT
  5
371
100
AcDbEntity
  8
606077392-000-00-ED1_FORMAT
100
AcDbText
 62
2
  6
CONTINUOUS
 10
61.140009526
 20
260.6643443929
  7
STANDARD
 40
2.0
  1
OP-NR.:
 41
0.6836734694
 72
0
100
AcDbText
  0
TEXT
  5
372
100
AcDbEntity
  8
606077392-000-00-ED1_FORMAT
100
AcDbText
 62
2
  6
CONTINUOUS
 10
23.9309790234
 20
260.9091406462
  7
STANDARD
 40
2.0
  1
TOOL-NR.:
 41
0.6984126984
 72
0
100
AcDbText
  0
INSERT
  5
373
100
AcDbEntity
  8
606077392-000-00-ED1_FORMAT
100
AcDbBlockReference
 62
3
  6
CONTINUOUS
  2
BARCODEBOX_BL0
 10
87.5
 20
46.5
  0
DIMENSION
  5
374
100
AcDbEntity
  8
30261745_DIM
100
AcDbDimension
 62
3
  6
CONTINUOUS
  2
*D0
 10
253.3289986432
 20
120.7947457232
 11
209.5810107616
 21
120.3572457232
 70
160
 71
3
 42
10.0
  1
<>\PVERSTELLWEG
  3
DIMSTYLE_1
100
AcDbAlignedDimension
 13
243.3289986432
 23
157.7947457232
 14
253.3289986432
 24
157.7947457232
100
AcDbRotatedDimension
  0
DIMENSION
  5
375
100
AcDbEntity
  8
30338523_DIM
100
AcDbDimension
 62
3
  6
CONTINUOUS
  2
*D1
 10
264.8565173102
 20
173.2994734812
 11
266.3304772432
 21
196.9626689838
 70
162
 71
2
 42
0.0785398163
  3
DIMSTYLE_2
100
AcDb2LineAngularDimension
 13
264.2473348975
 23
157.7947457232
 14
268.2504823753
 24
157.7947457232
 15
268.0553538204
 25
173.047719588
 16
265.8985327849
 26
165.4942012816
  0
DIMENSION
  5
376
100
AcDbEntity
  8
30338523_DIM
100
AcDbDimension
 62
3
  6
CONTINUOUS
  2
*D2
 10
201.2789986432
 20
179.7947457232
 11
200.9139917028
 21
184.8331039095
 70
164
 71
2
 42
5.0
  1
<>
  3
DIMSTYLE_3
100
AcDbRadialDimension
 15
197.6436280202
 25
176.3619508803
  0
DIMENSION
  5
377
100
AcDbEntity
  8
30338523_DIM
100
AcDbDimension
 62
3
  6
CONTINUOUS
  2
*D3
 10
235.3289986432
 20
184.7947457232
 11
213.3120594472
 21
187.4197457232
 70
160
 71
3
 42
6.0
  1
M<>(4x)
  3
DIMSTYLE_4
100
AcDbAlignedDimension
 13
229.3289986432
 23
174.6448411011
 14
235.3289986432
 24
174.6448411011
100
AcDbRotatedDimension
  0
DIMENSION
  5
378
100
AcDbEntity
  8
30338523_DIM
100
AcDbDimension
 62
3
  6
CONTINUOUS
  2
*D4
 10
290.3289986432
 20
100.7947457232
 11
258.7039986432
 21
103.4197457232
 70
160
 71
2
 42
58.0
  3
DIMSTYLE_5
100
AcDbAlignedDimension
 13
232.3289986432
 23
139.8332740008
 14
290.3289986432
 24
145.2191362149
100
AcDbRotatedDimension
  0
DIMENSION
  5
379
100
AcDbEntity
  8
30338523_DIM
100
AcDbDimension
 62
3
  6
CONTINUOUS
  2
*D5
 10
290.3289986432
 20
110.7947457232
 11
264.0789986432
 21
113.4197457232
 70
160
 71
2
 42
47.0
  3
DIMSTYLE_5
100
AcDbAlignedDimension
 13
243.3289986432
 23
145.2191362149
 14
290.3289986432
 24
145.2191362149
100
AcDbRotatedDimension
  0
DIMENSION
  5
37A
100
AcDbEntity
  8
30338523_DIM
100
AcDbDimension
 62
3
  6
CONTINUOUS
  2
*D6
 10
170.3289986432
 20
214.7947457232
 11
226.5789986432
 21
217.4197457232
 70
160
 71
2
 42
120.0
  3
DIMSTYLE_5
100
AcDbAlignedDimension
 13
290.3289986432
 23
160.7339769551
 14
170.3289986432
 24
157.7947457232
 50
180.0
100
AcDbRotatedDimension
  0
INSERT
  5
37B
100
AcDbEntity
  8
606077392-000-00-ED1_CL
100
AcDbBlockReference
 62
3
  6
CONTINUOUS
  2
GEOM_TOLERANCE_SYMBOLS_BL1
 10
164.0789986432
 20
199.2354845906
  0
DIMENSION
  5
37C
100
AcDbEntity
  8
30338523_DIM
100
AcDbDimension
 62
3
  6
CONTINUOUS
  2
*D7
 10
128.4289986432
 20
162.7947457232
 11
125.8039986432
 21
172.6287251057
 70
160
 71
1
 42
10.0
  1
M<>x1
  3
DIMSTYLE_1
100
AcDbAlignedDimension
 13
225.3289986432
 23
152.7947457232
 14
225.3289986432
 24
162.7947457232
 50
90.0
100
AcDbRotatedDimension
  0
DIMENSION
  5
37D
100
AcDbEntity
  8
30338523_DIM
100
AcDbDimension
 62
3
  6
CONTINUOUS
  2
*D8
 10
305.3289986432
 20
164.7947457232
 11
303.7588386145
 21
155.6901285777
 70
160
 71
2
 42
14.0
  1
%%c<>
  3
DIMSTYLE_1
100
AcDbAlignedDimension
 13
288.3289986432
 23
150.7947457232
 14
288.3289986432
 24
164.7947457232
 50
90.0
100
AcDbRotatedDimension
  0
LEADER
  5
37E
100
AcDbEntity
  8
606077392-000-00-ED1_CL
100
AcDbLeader
 62
3
  6
CONTINUOUS
  3
STANDARD
 71
1
 72
0
 73
2
 75
0
 76
3
 10
305.3289986432
 20
150.7947457232
 30
0.0
 10
305.3289986432
 20
130.7947457232
 30
0.0
 10
305.3290406852
 20
130.7947457232
 30
0.0
340
37F
1001
ACAD
1000
DSTYLE
1002
{
1070
77
1070
0
1002
}
  0
INSERT
  5
37F
102
{ACAD_REACTORS
330
37E
102
}
100
AcDbEntity
  8
606077392-000-00-ED1_CL
100
AcDbBlockReference
 62
3
  6
CONTINUOUS
  2
GEOM_TOLERANCE_SYMBOLS_BL2
 10
325.8474580802
 20
130.7950068105
  0
TEXT
  5
380
100
AcDbEntity
  8
0
100
AcDbText
 62
2
  6
CONTINUOUS
 10
310.3289986432
 20
119.0447457232
  7
STANDARD
 40
3.5
  1
FUER SCHAEFTE MIT
 41
0.7759103641
 72
0
100
AcDbText
  0
TEXT
  5
381
100
AcDbEntity
  8
0
100
AcDbText
 62
2
  6
CONTINUOUS
 10
310.3289986432
 20
113.7947457232
  7
STANDARD
 40
3.5
  1
TOLERANZFELD h6
 41
0.7650793651
 72
0
100
AcDbText
  0
LEADER
  5
382
100
AcDbEntity
  8
0
100
AcDbLeader
 62
3
  6
CONTINUOUS
  3
STANDARD
 71
1
 72
0
 73
3
 75
0
 76
3
 10
305.3289986432
 20
150.7947457232
 30
0.0
 10
305.3289986432
 20
120.7947457232
 30
0.0
 10
310.3289986432
 20
120.7947457232
 30
0.0
1001
ACAD
1000
DSTYLE
1002
{
1070
77
1070
0
1002
}
  0
DIMENSION
  5
383
100
AcDbEntity
  8
30338523_DIM
100
AcDbDimension
 62
3
  6
CONTINUOUS
  2
*D9
 10
325.3289986432
 20
174.7947457232
 11
323.8148478165
 21
155.5783789947
 70
160
 71
2
 42
34.0
  1
%%c<>
  3
DIMSTYLE_5
100
AcDbAlignedDimension
 13
245.8572820666
 23
140.7947457232
 14
245.8572820666
 24
174.7947457232
 50
90.0
100
AcDbRotatedDimension
  0
DIMENSION
  5
384
100
AcDbEntity
  8
30338523_DIM
100
AcDbDimension
 62
3
  6
CONTINUOUS
  2
*D10
 10
315.3289986432
 20
171.2947457232
 11
313.8428524175
 21
155.5225042032
 70
160
 71
2
 42
27.0
  1
%%c<>
  3
DIMSTYLE_1
100
AcDbAlignedDimension
 13
290.3289986432
 23
144.2947457232
 14
290.3289986432
 24
171.2947457232
 50
90.0
100
AcDbRotatedDimension
  0
LINE
  5
385
100
AcDbEntity
  8
606077392-000-00-ED1_FORMAT
100
AcDbLine
 62
3
  6
CONTINUOUS
 10
264.9
 20
287.0000007463
 11
410.0
 21
287.0000007463
  0
LINE
  5
386
100
AcDbEntity
  8
606077392-000-00-ED1_FORMAT
100
AcDbLine
 62
3
  6
CONTINUOUS
 10
264.9
 20
287.0000007463
 11
264.9
 21
225.0000007463
  0
LINE
  5
387
100
AcDbEntity
  8
606077392-000-00-ED1_FORMAT
100
AcDbLine
 62
3
  6
CONTINUOUS
 10
264.9
 20
225.0000007463
 11
410.0
 21
225.0000007463
  0
LINE
  5
388
100
AcDbEntity
  8
606077392-000-00-ED1_FORMAT
100
AcDbLine
 62
3
  6
CONTINUOUS
 10
410.0
 20
287.0000007463
 11
410.0
 21
225.0000007463
  0
LINE
  5
389
100
AcDbEntity
  8
606077392-000-00-ED1_FORMAT
100
AcDbLine
 62
3
  6
CONTINUOUS
 10
23.0
 20
10.0
 11
23.0
 21
210.0
  0
LINE
  5
38A
100
AcDbEntity
  8
606077392-000-00-ED1_FORMAT
100
AcDbLine
 62
3
  6
CONTINUOUS
 10
23.0
 20
10.0
 11
29.0
 21
10.0
  0
LINE
  5
38B
100
AcDbEntity
  8
606077392-000-00-ED1_FORMAT
100
AcDbLine
 62
3
  6
CONTINUOUS
 10
29.0
 20
10.0
 11
29.0
 21
210.0
  0
LINE
  5
38C
100
AcDbEntity
  8
606077392-000-00-ED1_FORMAT
100
AcDbLine
 62
3
  6
CONTINUOUS
 10
23.0
 20
210.0
 11
29.0
 21
210.0
  0
LINE
  5
38D
100
AcDbEntity
  8
606077392-000-00-ED1_FORMAT
100
AcDbLine
 62
3
  6
CONTINUOUS
 10
146.999991584
 20
65.00000176
 11
410.000001584
 21
65.00000176
  0
LINE
  5
38E
100
AcDbEntity
  8
606077392-000-00-ED1_FORMAT
100
AcDbLine
 62
3
  6
CONTINUOUS
 10
146.999991584
 20
65.00000176
 11
146.999991584
 21
78.50000176
  0
LINE
  5
38F
100
AcDbEntity
  8
606077392-000-00-ED1_FORMAT
100
AcDbLine
 62
3
  6
CONTINUOUS
 10
146.999991584
 20
72.50000176
 11
410.000001584
 21
72.50000176
  0
LINE
  5
390
100
AcDbEntity
  8
606077392-000-00-ED1_FORMAT
100
AcDbLine
 62
3
  6
CONTINUOUS
 10
146.999991584
 20
78.50000176
 11
410.000001584
 21
78.50000176
  0
LINE
  5
391
100
AcDbEntity
  8
606077392-000-00-ED1_FORMAT
100
AcDbLine
 62
3
  6
CONTINUOUS
 10
154.499991584
 20
65.00000176
 11
154.499991584
 21
78.50000176
  0
LINE
  5
392
100
AcDbEntity
  8
606077392-000-00-ED1_FORMAT
100
AcDbLine
 62
3
  6
CONTINUOUS
 10
161.999991584
 20
65.00000176
 11
161.999991584
 21
78.50000176
  0
LINE
  5
393
100
AcDbEntity
  8
606077392-000-00-ED1_FORMAT
100
AcDbLine
 62
3
  6
CONTINUOUS
 10
171.398801584
 20
65.00000176
 11
171.398801584
 21
78.50000176
  0
LINE
  5
394
100
AcDbEntity
  8
606077392-000-00-ED1_FORMAT
100
AcDbLine
 62
3
  6
CONTINUOUS
 10
176.398801584
 20
65.00000176
 11
176.398801584
 21
78.50000176
  0
LINE
  5
395
100
AcDbEntity
  8
606077392-000-00-ED1_FORMAT
100
AcDbLine
 62
3
  6
CONTINUOUS
 10
208.000001584
 20
65.00000176
 11
208.000001584
 21
78.50000176
  0
LINE
  5
396
100
AcDbEntity
  8
606077392-000-00-ED1_FORMAT
100
AcDbLine
 62
3
  6
CONTINUOUS
 10
314.000001584
 20
65.00000176
 11
314.000001584
 21
78.50000176
  0
LINE
  5
397
100
AcDbEntity
  8
606077392-000-00-ED1_FORMAT
100
AcDbLine
 62
3
  6
CONTINUOUS
 10
366.000001584
 20
65.00000176
 11
366.000001584
 21
78.50000176
  0
LINE
  5
398
100
AcDbEntity
  8
606077392-000-00-ED1_FORMAT
100
AcDbLine
 62
3
  6
CONTINUOUS
 10
410.000001584
 20
65.00000176
 11
410.000001584
 21
78.50000176
  0
TEXT
  5
399
100
AcDbEntity
  8
606077392-000-00-ED1_FORMAT
100
AcDbText
 62
2
  6
CONTINUOUS
 10
148.224991584
 20
74.25000176
  7
STANDARD
 40
2.0
  1
1
 41
0.5714285714
 72
0
100
AcDbText
  0
TEXT
  5
39A
100
AcDbEntity
  8
606077392-000-00-ED1_FORMAT
100
AcDbText
 62
2
  6
CONTINUOUS
 10
163.224991584
 20
74.25000176
  7
STANDARD
 40
2.0
  1
1
 41
0.5714285714
 72
0
100
AcDbText
  0
TEXT
  5
39B
100
AcDbEntity
  8
606077392-000-00-ED1_FORMAT
100
AcDbText
 62
2
  6
CONTINUOUS
 10
177.623801584
 20
74.25000176
  7
STANDARD
 40
2.0
  1
30252542
 41
0.7589285714
 72
0
100
AcDbText
  0
TEXT
  5
39C
100
AcDbEntity
  8
606077392-000-00-ED1_FORMAT
100
AcDbText
 62
2
  6
CONTINUOUS
 10
209.225001584
 20
74.25000176
  7
STANDARD
 40
2.0
  1
ANSCHLAGSCHRAUBE
 41
0.7916666667
 72
0
100
AcDbText
  0
TEXT
  5
39D
100
AcDbEntity
  8
606077392-000-00-ED1_FORMAT
100
AcDbText
 62
2
  6
CONTINUOUS
 10
315.225001584
 20
74.25000176
  7
STANDARD
 40
2.0
  1
M10X1 SW5
 41
0.8095238095
 72
0
100
AcDbText
  0
TEXT
  5
39E
100
AcDbEntity
  8
606077392-000-00-ED1_FORMAT
100
AcDbText
 62
2
  6
CONTINUOUS
 10
406.5221444411
 20
76.72000176
  7
STANDARD
 40
0.03
  1
30252542_HP
 41
0.7662337662
 72
2
 11
406.775001584
 21
76.72000176
100
AcDbText
  0
TEXT
  5
39F
100
AcDbEntity
  8
606077392-000-00-ED1_FORMAT
100
AcDbText
 62
2
  6
CONTINUOUS
 10
407.7257158697
 20
76.72000176
  7
STANDARD
 40
0.03
  1
KA
 41
0.8214285714
 72
2
 11
407.775001584
 21
76.72000176
100
AcDbText
  0
TEXT
  5
3A0
100
AcDbEntity
  8
606077392-000-00-ED1_FORMAT
100
AcDbText
 62
2
  6
CONTINUOUS
 10
408.7278587269
 20
76.72000176
  7
STANDARD
 40
0.03
  1
HP
 41
0.7857142857
 72
2
 11
408.775001584
 21
76.72000176
100
AcDbText
  0
LINE
  5
3A1
100
AcDbEntity
  8
606077392-000-00-ED1_FORMAT
100
AcDbLine
 62
3
  6
CONTINUOUS
 10
23.0
 20
287.0
 11
135.0
 21
287.0
  0
LINE
  5
3A2
100
AcDbEntity
  8
606077392-000-00-ED1_FORMAT
100
AcDbLine
 62
3
  6
CONTINUOUS
 10
23.0
 20
287.0
 11
23.0
 21
259.00001
  0
LINE
  5
3A3
100
AcDbEntity
  8
606077392-000-00-ED1_FORMAT
100
AcDbLine
 62
3
  6
CONTINUOUS
 10
23.0
 20
259.00001
 11
135.0
 21
259.00001
  0
LINE
  5
3A4
100
AcDbEntity
  8
606077392-000-00-ED1_FORMAT
100
AcDbLine
 62
3
  6
CONTINUOUS
 10
135.0
 20
287.0
 11
135.0
 21
259.00001
  0
LINE
  5
3A5
100
AcDbEntity
  8
606077392-000-00-ED1_FORMAT
100
AcDbLine
 62
3
  6
CONTINUOUS
 10
146.999991584
 20
65.00000176
 11
409.999961584
 21
65.00000176
  0
LINE
  5
3A6
100
AcDbEntity
  8
606077392-000-00-ED1_FORMAT
100
AcDbLine
 62
3
  6
CONTINUOUS
 10
146.999991584
 20
65.00000176
 11
146.999991584
 21
10.00000176
  0
LINE
  5
3A7
100
AcDbEntity
  8
606077392-000-00-ED1_FORMAT
100
AcDbLine
 62
3
  6
CONTINUOUS
 10
146.999991584
 20
10.00000176
 11
409.999961584
 21
10.00000176
  0
LINE
  5
3A8
100
AcDbEntity
  8
606077392-000-00-ED1_FORMAT
100
AcDbLine
 62
3
  6
CONTINUOUS
 10
409.999961584
 20
65.00000176
 11
409.999961584
 21
10.00000176
  0
TEXT
  5
3A9
100
AcDbEntity
  8
606077392-000-00-ED1_FORMAT
100
AcDbText
 62
2
  6
CONTINUOUS
 10
184.5178487269
 20
60.75000176
  7
STANDARD
 40
2.5
  1
 
 41
0.7857142857
 72
1
 11
185.499991584
 21
60.75000176
100
AcDbText
  0
TEXT
  5
3AA
100
AcDbEntity
  8
606077392-000-00-ED1_FORMAT
100
AcDbText
 62
2
  6
CONTINUOUS
 10
154.130943965
 20
58.24975176
  7
STANDARD
 40
2.5
  1
AUSWUCHTGUETE DIN ISO 1940-G 
 41
0.7939244663
 72
1
 11
182.9107058697
 21
58.24975176
100
AcDbText
  0
TEXT
  5
3AB
100
AcDbEntity
  8
606077392-000-00-ED1_FORMAT
100
AcDbText
 62
2
  6
CONTINUOUS
 10
211.6904677745
 20
58.24975176
  7
STANDARD
 40
2.5
  1
2.5
 41
0.6904761905
 72
1
 11
214.2797534888
 21
58.24975176
100
AcDbText
  0
TEXT
  5
3AC
100
AcDbEntity
  8
606077392-000-00-ED1_FORMAT
100
AcDbText
 62
2
  6
CONTINUOUS
 10
184.5178487269
 20
56.57968176
  7
STANDARD
 40
2.5
  1
 
 41
0.7857142857
 72
1
 11
185.499991584
 21
56.57968176
100
AcDbText
  0
TEXT
  5
3AD
100
AcDbEntity
  8
606077392-000-00-ED1_FORMAT
100
AcDbText
 62
2
  6
CONTINUOUS
 10
167.7321344411
 20
52.82968176
  7
STANDARD
 40
2.5
  1
(KOMPLETT MONTIERT)
 41
0.7481203008
 72
1
 11
185.499991584
 21
52.82968176
100
AcDbText
  0
TEXT
  5
3AE
100
AcDbEntity
  8
606077392-000-00-ED1_FORMAT
100
AcDbText
 62
2
  6
CONTINUOUS
 10
378.122491584
 20
54.95468176
  7
STANDARD
 40
2.0
  1
26.06.14
 41
0.7053571429
 72
0
100
AcDbText
  0
TEXT
  5
3AF
100
AcDbEntity
  8
606077392-000-00-ED1_FORMAT
100
AcDbText
 62
2
  6
CONTINUOUS
 10
398.3772980126
 20
54.95468176
  7
STANDARD
 40
2.0
  1
MAM
 41
0.8571428571
 72
1
 11
400.948726584
 21
54.95468176
100
AcDbText
  0
TEXT
  5
3B0
100
AcDbEntity
  8
606077392-000-00-ED1_FORMAT
100
AcDbText
 62
2
  6
CONTINUOUS
 10
157.8511820602
 20
46.82968176
  7
STANDARD
 40
2.5
  1
FUER NENNDREHZAHL 
 41
0.7724867725
 72
1
 11
175.2321344411
 21
46.82968176
100
AcDbText
  0
TEXT
  5
3B1
100
AcDbEntity
  8
606077392-000-00-ED1_FORMAT
100
AcDbText
 62
2
  6
CONTINUOUS
 10
192.6130868221
 20
46.82968176
  7
STANDARD
 40
2.5
  1
25000
 41
0.7714285714
 72
1
 11
197.4345153935
 21
46.82968176
100
AcDbText
  0
TEXT
  5
3B2
100
AcDbEntity
  8
606077392-000-00-ED1_FORMAT
100
AcDbText
 62
2
  6
CONTINUOUS
 10
202.255943965
 20
46.82968176
  7
STANDARD
 40
2.5
  1
 MIN
 41
0.7678571429
 72
1
 11
206.0952296792
 21
46.82968176
100
AcDbText
  0
TEXT
  5
3B3
100
AcDbEntity
  8
606077392-000-00-ED1_FORMAT
100
AcDbText
 62
2
  6
CONTINUOUS
 10
209.9345153935
 20
48.70468176
  7
STANDARD
 40
2.5
  1
-1
 41
0.6428571429
 72
1
 11
211.5416582507
 21
48.70468176
100
AcDbText
  0
TEXT
  5
3B4
100
AcDbEntity
  8
606077392-000-00-ED1_FORMAT
100
AcDbText
 62
7
  6
CONTINUOUS
 10
225.224991584
 20
26.00000176
  7
STANDARD
 40
2.5
  1
THERMOCHUCK, HSK, STANDARDAUSFUEHRUNG
 41
0.7889317889
 72
0
100
AcDbText
  0
TEXT
  5
3B5
100
AcDbEntity
  8
606077392-000-00-ED1_FORMAT
100
AcDbText
 62
2
  6
CONTINUOUS
 10
402.5951996792
 20
26.00000176
  7
STANDARD
 40
2.0
  1
EHD
 41
0.8015873016
 72
1
 11
404.999961584
 21
26.00000176
100
AcDbText
  0
TEXT
  5
3B6
100
AcDbEntity
  8
606077392-000-00-ED1_FORMAT
100
AcDbText
 62
7
  6
CONTINUOUS
 10
225.224991584
 20
15.25000176
  7
STANDARD
 40
2.5
  1
MTC-HSK-A063-14-120-1-0-A
 41
0.7504761905
 72
0
100
AcDbText
  0
TEXT
  5
3B7
100
AcDbEntity
  8
606077392-000-00-ED1_FORMAT
100
AcDbText
 62
7
  6
CONTINUOUS
 10
301.224991584
 20
15.25000176
  7
STANDARD
 40
2.5
  1
30261745
 41
0.7410714286
 72
0
100
AcDbText
  0
TEXT
  5
3B8
100
AcDbEntity
  8
606077392-000-00-ED1_FORMAT
100
AcDbText
 62
7
  6
CONTINUOUS
 10
346.224991584
 20
15.25000176
  7
STANDARD
 40
2.5
  1
606077392-000-00-ED1
 41
0.7630952381
 72
0
100
AcDbText
  0
TEXT
  5
3B9
100
AcDbEntity
  8
606077392-000-00-ED1_FORMAT
100
AcDbText
 62
2
  6
CONTINUOUS
 10
403.0356758697
 20
15.25000176
  7
STANDARD
 40
2.5
  1
00
 41
0.7857142857
 72
1
 11
404.999961584
 21
15.25000176
100
AcDbText
  0
LINE
  5
3BA
100
AcDbEntity
  8
606077392-000-00-ED1_FORMAT
100
AcDbLine
 62
3
  6
CONTINUOUS
 10
29.0
 20
10.0
 11
29.0
 21
145.0
  0
LINE
  5
3BB
100
AcDbEntity
  8
606077392-000-00-ED1_FORMAT
100
AcDbLine
 62
3
  6
CONTINUOUS
 10
29.0
 20
10.0
 11
35.0
 21
10.0
  0
LINE
  5
3BC
100
AcDbEntity
  8
606077392-000-00-ED1_FORMAT
100
AcDbLine
 62
3
  6
CONTINUOUS
 10
35.0
 20
10.0
 11
35.0
 21
145.0
  0
LINE
  5
3BD
100
AcDbEntity
  8
606077392-000-00-ED1_FORMAT
100
AcDbLine
 62
3
  6
CONTINUOUS
 10
29.0
 20
80.0
 11
35.0
 21
80.0
  0
LINE
  5
3BE
100
AcDbEntity
  8
606077392-000-00-ED1_FORMAT
100
AcDbLine
 62
3
  6
CONTINUOUS
 10
29.0
 20
145.0
 11
35.0
 21
145.0
  0
TEXT
  5
3BF
100
AcDbEntity
  8
606077392-000-00-ED1_FORMAT
100
AcDbText
 62
2
  6
CONTINUOUS
 10
34.0
 20
11.225
  7
STANDARD
 40
3.0
  1
AEHNLICH:
 50
90.0
 41
0.7116402116
 72
0
100
AcDbText
  0
TEXT
  5
3C0
100
AcDbEntity
  8
606077392-000-00-ED1_FORMAT
100
AcDbText
 62
2
  6
CONTINUOUS
 10
34.0
 20
81.225
  7
STANDARD
 40
3.0
  1
SKIZZE:
 50
90.0
 41
0.693877551
 72
0
100
AcDbText
  0
LINE
  5
3C1
100
AcDbEntity
  8
606077392-000-00-ED1_FORMAT
100
AcDbLine
 62
3
  6
CONTINUOUS
 10
365.999998592
 20
35.0000008
 11
294.999998592
 21
35.0000008
  0
LINE
  5
3C2
100
AcDbEntity
  8
606077392-000-00-ED1_FORMAT
100
AcDbLine
 62
3
  6
CONTINUOUS
 10
365.999998592
 20
35.0000008
 11
365.999998592
 21
43.5000008
  0
LINE
  5
3C3
100
AcDbEntity
  8
606077392-000-00-ED1_FORMAT
100
AcDbLine
 62
3
  6
CONTINUOUS
 10
365.999998592
 20
43.5000008
 11
294.999998592
 21
43.5000008
  0
LINE
  5
3C4
100
AcDbEntity
  8
606077392-000-00-ED1_FORMAT
100
AcDbLine
 62
3
  6
CONTINUOUS
 10
294.999998592
 20
35.0000008
 11
294.999998592
 21
43.5000008
  0
TEXT
  5
3C5
100
AcDbEntity
  8
606077392-000-00-ED1_FORMAT
100
AcDbText
 62
2
  6
CONTINUOUS
 10
304.9642843063
 20
38.0000008
  7
STANDARD
 40
2.5
  1
PATENTRECHTLICH GESCHUETZT
 41
0.7857142857
 72
1
 11
330.499998592
 21
38.0000008
100
AcDbText
  0
TEXT
  5
3C6
100
AcDbEntity
  8
606077392-000-00-ED1_TEXT
100
AcDbText
 62
2
  6
CONTINUOUS
 10
79.4877159829
 20
232.2947457232
  7
STANDARD
 40
5.0
  1
TRENNSTELLE HSK-A63
 41
0.7731829574
 72
0
100
AcDbText
  0
TEXT
  5
3C7
100
AcDbEntity
  8
606077392-000-00-ED1_TEXT
100
AcDbText
 62
2
  6
CONTINUOUS
 10
79.4877159829
 20
224.7947457232
  7
STANDARD
 40
5.0
  1
(AEHNLICH DIN 69893-1)
 41
0.7251082251
 72
0
100
AcDbText
  0
TEXT
  5
3C8
100
AcDbEntity
  8
606077392-000-00-ED1_TEXT
100
AcDbText
 62
2
  6
CONTINUOUS
 10
79.4877159829
 20
217.2947457232
  7
STANDARD
 40
5.0
  1
NACH MN609 BLATT 2-4
 41
0.7952380952
 72
0
100
AcDbText
  0
INSERT
  5
3C9
100
AcDbEntity
  8
606077392-000-00-ED1_CL
100
AcDbBlockReference
 62
3
  6
CONTINUOUS
  2
GEOM_TOLERANCE_SYMBOLS_BL3
 10
143.5788208357
 20
187.0898882497
  0
LEADER
  5
3CA
100
AcDbEntity
  8
606077392-000-00-ED1_CL
100
AcDbLeader
 62
3
  6
CONTINUOUS
  3
STANDARD
 71
1
 72
0
 73
2
 75
0
 76
2
 10
236.6289986432
 20
157.5934160227
 30
0.0
 10
197.8880575302
 20
120.5289561436
 30
0.0
340
3CB
1001
ACAD
1000
DSTYLE
1002
{
1070
77
1070
0
1070
341
1005
21A
1002
}
  0
INSERT
  5
3CB
102
{ACAD_REACTORS
330
3CA
102
}
100
AcDbEntity
  8
606077392-000-00-ED1_CL
100
AcDbBlockReference
 62
3
  6
CONTINUOUS
  2
BOMBALLOON_BL4
 10
193.4623274079
 20
116.2947457232
  0
LINE
  5
3CC
100
AcDbEntity
  8
606077392-000-00-ED1_FORMAT
100
AcDbLine
 62
6
  6
HIDDEN
 10
0.0
 20
297.0
 11
0.0
 21
0.0
  0
LINE
  5
3CD
100
AcDbEntity
  8
606077392-000-00-ED1_FORMAT
100
AcDbLine
 62
7
  6
CONTINUOUS
 10
18.0
 20
292.0
 11
18.0
 21
5.0
  0
LINE
  5
3CE
100
AcDbEntity
  8
606077392-000-00-ED1_FORMAT
100
AcDbLine
 62
3
  6
CONTINUOUS
 10
23.0
 20
259.0000097341
 11
23.0
 21
10.0
  0
LINE
  5
3CF
100
AcDbEntity
  8
606077392-000-00-ED1_FORMAT
100
AcDbLine
 62
7
  6
CONTINUOUS
 10
23.0
 20
259.0000097341
 11
23.0
 21
287.0
  0
LINE
  5
3D0
100
AcDbEntity
  8
606077392-000-00-ED1_FORMAT
100
AcDbLine
 62
3
  6
CONTINUOUS
 10
28.9999998068
 20
9.9999999122
 11
28.9999998068
 21
209.9999964
  0
LINE
  5
3D1
100
AcDbEntity
  8
606077392-000-00-ED1_FORMAT
100
AcDbLine
 62
3
  6
CONTINUOUS
 10
60.0
 20
10.0
 11
60.0
 21
5.0
  0
LINE
  5
3D2
100
AcDbEntity
  8
606077392-000-00-ED1_FORMAT
100
AcDbLine
 62
3
  6
CONTINUOUS
 10
60.0
 20
287.0
 11
60.0
 21
292.0
  0
LINE
  5
3D3
100
AcDbEntity
  8
606077392-000-00-ED1_FORMAT
100
AcDbLine
 62
7
  6
CONTINUOUS
 10
60.4999978194
 20
259.0000097341
 11
60.4999978194
 21
265.0000076482
  0
LINE
  5
3D4
100
AcDbEntity
  8
606077392-000-00-ED1_FORMAT
100
AcDbLine
 62
7
  6
CONTINUOUS
 10
60.500027184
 20
281.0047710842
 11
60.500027184
 21
287.0
  0
LINE
  5
3D5
100
AcDbEntity
  8
606077392-000-00-ED1_FORMAT
100
AcDbLine
 62
6
  6
HIDDEN
 10
0.0
 20
0.0
 11
420.0
 21
0.0
  0
LINE
  5
3D6
100
AcDbEntity
  8
606077392-000-00-ED1_FORMAT
100
AcDbLine
 62
7
  6
CONTINUOUS
 10
18.0
 20
5.0
 11
415.0
 21
5.0
  0
LINE
  5
3D7
100
AcDbEntity
  8
606077392-000-00-ED1_FORMAT
100
AcDbLine
 62
3
  6
CONTINUOUS
 10
23.0
 20
10.0
 11
146.999991584
 21
10.0
  0
LINE
  5
3D8
100
AcDbEntity
  8
606077392-000-00-ED1_FORMAT
100
AcDbLine
 62
7
  6
CONTINUOUS
 10
146.999991584
 20
10.0
 11
410.0
 21
10.0
  0
LINE
  5
3D9
100
AcDbEntity
  8
606077392-000-00-ED1_FORMAT
100
AcDbLine
 62
7
  6
CONTINUOUS
 10
410.0
 20
13.500000112
 11
223.999992048
 21
13.500000112
  0
LINE
  5
3DA
100
AcDbEntity
  8
606077392-000-00-ED1_FORMAT
100
AcDbLine
 62
90
  6
CONTINUOUS
 10
312.2078938594
 20
51.4102448407
 11
310.7759784871
 21
51.0971573578
  0
LINE
  5
3DB
100
AcDbEntity
  8
606077392-000-00-ED1_FORMAT
100
AcDbLine
 62
90
  6
CONTINUOUS
 10
319.4917077896
 20
52.901936523
 11
319.3296594397
 21
52.8683099645
  0
LINE
  5
3DC
100
AcDbEntity
  8
606077392-000-00-ED1_FORMAT
100
AcDbLine
 62
7
  6
CONTINUOUS
 10
410.0
 20
24.250000456
 11
223.999992048
 21
24.250000456
  0
LINE
  5
3DD
100
AcDbEntity
  8
606077392-000-00-ED1_FORMAT
100
AcDbLine
 62
7
  6
CONTINUOUS
 10
98.4999894133
 20
259.0000097341
 11
98.4999894133
 21
265.0000076482
  0
LINE
  5
3DE
100
AcDbEntity
  8
606077392-000-00-ED1_FORMAT
100
AcDbLine
 62
7
  6
CONTINUOUS
 10
98.5000134045
 20
281.0047710842
 11
98.5000134045
 21
287.0
  0
LINE
  5
3DF
100
AcDbEntity
  8
606077392-000-00-ED1_FORMAT
100
AcDbLine
 62
90
  6
CONTINUOUS
 10
321.735726484
 20
56.8852055088
 11
323.4244472923
 21
57.2541096455
  0
LINE
  5
3E0
100
AcDbEntity
  8
606077392-000-00-ED1_FORMAT
100
AcDbLine
 62
90
  6
CONTINUOUS
 10
318.9722070248
 20
53.9466639135
 11
319.1567773488
 21
53.9852228758
  0
LINE
  5
3E1
100
AcDbEntity
  8
606077392-000-00-ED1_FORMAT
100
AcDbLine
 62
90
  6
CONTINUOUS
 10
312.8827596241
 20
51.5341805479
 11
312.6779866622
 21
51.4975518225
  0
LINE
  5
3E2
100
AcDbEntity
  8
606077392-000-00-ED1_FORMAT
100
AcDbLine
 62
90
  6
CONTINUOUS
 10
313.0814290701
 20
51.5666398089
 11
312.8827596241
 21
51.5341805479
  0
LINE
  5
3E3
100
AcDbEntity
  8
606077392-000-00-ED1_FORMAT
100
AcDbLine
 62
90
  6
CONTINUOUS
 10
313.2753377736
 20
51.5952614843
 11
313.0814290701
 21
51.5666398089
  0
LINE
  5
3E4
100
AcDbEntity
  8
606077392-000-00-ED1_FORMAT
100
AcDbLine
 62
90
  6
CONTINUOUS
 10
319.3296594397
 20
52.8683099645
 11
319.1589746146
 21
52.8447618368
  0
LINE
  5
3E5
100
AcDbEntity
  8
606077392-000-00-ED1_FORMAT
100
AcDbLine
 62
90
  6
CONTINUOUS
 10
313.4658590257
 20
51.6203545645
 11
313.2753377736
 21
51.5952614843
  0
LINE
  5
3E6
100
AcDbEntity
  8
606077392-000-00-ED1_FORMAT
100
AcDbLine
 62
90
  6
CONTINUOUS
 10
313.6543355999
 20
51.6422471134
 11
313.4658590257
 21
51.6203545645
  0
LINE
  5
3E7
100
AcDbEntity
  8
606077392-000-00-ED1_FORMAT
100
AcDbLine
 62
90
  6
CONTINUOUS
 10
313.842171305
 20
51.6612557511
 11
313.6543355999
 21
51.6422471134
  0
LINE
  5
3E8
100
AcDbEntity
  8
606077392-000-00-ED1_FORMAT
100
AcDbLine
 62
90
  6
CONTINUOUS
 10
314.0306783968
 20
51.6777047267
 11
313.842171305
 21
51.6612557511
  0
LINE
  5
3E9
100
AcDbEntity
  8
606077392-000-00-ED1_FORMAT
100
AcDbLine
 62
90
  6
CONTINUOUS
 10
315.8962180637
 20
51.8284043516
 11
315.6792380698
 21
51.8104561999
  0
LINE
  5
3EA
100
AcDbEntity
  8
606077392-000-00-ED1_FORMAT
100
AcDbLine
 62
90
  6
CONTINUOUS
 10
318.7601098437
 20
53.9302530848
 11
318.9722070248
 21
53.9466639135
  0
LINE
  5
3EB
100
AcDbEntity
  8
606077392-000-00-ED1_FORMAT
100
AcDbLine
 62
90
  6
CONTINUOUS
 10
319.1589746146
 20
52.8447618368
 11
318.9797143495
 21
52.8313264722
  0
LINE
  5
3EC
100
AcDbEntity
  8
606077392-000-00-ED1_FORMAT
100
AcDbLine
 62
90
  6
CONTINUOUS
 10
314.221260684
 20
51.6919106602
 11
314.0306783968
 21
51.6777047267
  0
LINE
  5
3ED
100
AcDbEntity
  8
606077392-000-00-ED1_FORMAT
100
AcDbLine
 62
90
  6
CONTINUOUS
 10
315.4687888379
 20
52.775513633
 11
314.4483114794
 21
52.701374987
  0
LINE
  5
3EE
100
AcDbEntity
  8
606077392-000-00-ED1_FORMAT
100
AcDbLine
 62
90
  6
CONTINUOUS
 10
316.110634581
 20
51.8401879522
 11
315.8962180637
 21
51.8284043516
  0
LINE
  5
3EF
100
AcDbEntity
  8
606077392-000-00-ED1_FORMAT
100
AcDbLine
 62
7
  6
CONTINUOUS
 10
223.999992048
 20
35.0000008
 11
410.0
 21
35.0000008
  0
LINE
  5
3F0
100
AcDbEntity
  8
606077392-000-00-ED1_FORMAT
100
AcDbLine
 62
7
  6
CONTINUOUS
 10
410.0
 20
40.9546819905
 11
365.999998592
 21
40.9546819905
  0
LINE
  5
3F1
100
AcDbEntity
  8
606077392-000-00-ED1_FORMAT
100
AcDbLine
 62
7
  6
CONTINUOUS
 10
365.999998592
 20
43.500001072
 11
146.999991584
 21
43.500001072
  0
LINE
  5
3F2
100
AcDbEntity
  8
606077392-000-00-ED1_FORMAT
100
AcDbLine
 62
7
  6
CONTINUOUS
 10
410.0
 20
46.9546821825
 11
365.999998592
 21
46.9546821825
  0
LINE
  5
3F3
100
AcDbEntity
  8
606077392-000-00-ED1_FORMAT
100
AcDbLine
 62
90
  6
CONTINUOUS
 10
316.8693931732
 20
47.6402784804
 11
317.6933373163
 21
47.6402784804
  0
LINE
  5
3F4
100
AcDbEntity
  8
606077392-000-00-ED1_FORMAT
100
AcDbLine
 62
3
  6
CONTINUOUS
 10
110.0
 20
10.0
 11
110.0
 21
5.0
  0
LINE
  5
3F5
100
AcDbEntity
  8
606077392-000-00-ED1_FORMAT
100
AcDbLine
 62
3
  6
CONTINUOUS
 10
110.0
 20
287.0
 11
110.0
 21
292.0
  0
LINE
  5
3F6
100
AcDbEntity
  8
606077392-000-00-ED1_FORMAT
100
AcDbLine
 62
90
  6
CONTINUOUS
 10
314.5568930292
 20
53.7608995891
 11
315.336312023
 21
53.8016825201
  0
LINE
  5
3F7
100
AcDbEntity
  8
606077392-000-00-ED1_FORMAT
100
AcDbLine
 62
90
  6
CONTINUOUS
 10
317.504647119
 20
56.61847423
 11
317.7463768704
 21
56.6283962582
  0
LINE
  5
3F8
100
AcDbEntity
  8
606077392-000-00-ED1_FORMAT
100
AcDbLine
 62
90
  6
CONTINUOUS
 10
317.7463768704
 20
56.6283962582
 11
317.9648522258
 21
56.6358997682
  0
LINE
  5
3F9
100
AcDbEntity
  8
606077392-000-00-ED1_FORMAT
100
AcDbLine
 62
90
  6
CONTINUOUS
 10
316.3231284907
 20
51.8472298838
 11
316.110634581
 21
51.8401879522
  0
LINE
  5
3FA
100
AcDbEntity
  8
606077392-000-00-ED1_FORMAT
100
AcDbLine
 62
90
  6
CONTINUOUS
 10
317.9648522258
 20
56.6358997682
 11
318.1659935957
 21
56.6412594182
  0
LINE
  5
3FB
100
AcDbEntity
  8
606077392-000-00-ED1_FORMAT
100
AcDbLine
 62
90
  6
CONTINUOUS
 10
318.1659935957
 20
56.6412594182
 11
318.3558434611
 21
56.6447384223
  0
LINE
  5
3FC
100
AcDbEntity
  8
606077392-000-00-ED1_FORMAT
100
AcDbLine
 62
90
  6
CONTINUOUS
 10
316.5344322148
 20
51.8509568432
 11
316.3231284907
 21
51.8472298838
  0
LINE
  5
3FD
100
AcDbEntity
  8
606077392-000-00-ED1_FORMAT
100
AcDbLine
 62
90
  6
CONTINUOUS
 10
318.9797143495
 20
52.8313264722
 11
318.7919396796
 21
52.828049647
  0
LINE
  5
3FE
100
AcDbEntity
  8
606077392-000-00-ED1_FORMAT
100
AcDbLine
 62
90
  6
CONTINUOUS
 10
318.310067091
 20
47.930279414
 11
316.2669761435
 21
47.930279414
  0
LINE
  5
3FF
100
AcDbEntity
  8
606077392-000-00-ED1_FORMAT
100
AcDbLine
 62
90
  6
CONTINUOUS
 10
315.6645591138
 20
48.2202803476
 11
318.9268273833
 21
48.2202803476
  0
LINE
  5
400
100
AcDbEntity
  8
606077392-000-00-ED1_FORMAT
100
AcDbLine
 62
3
  6
CONTINUOUS
 10
23.0
 20
48.5
 11
18.0
 21
48.5
  0
LINE
  5
401
100
AcDbEntity
  8
606077392-000-00-ED1_FORMAT
100
AcDbLine
 62
3
  6
CONTINUOUS
 10
410.0
 20
48.5
 11
415.0
 21
48.5
  0
LINE
  5
402
100
AcDbEntity
  8
606077392-000-00-ED1_FORMAT
100
AcDbLine
 62
90
  6
CONTINUOUS
 10
319.5435571581
 20
48.5102774665
 11
315.0621420841
 21
48.5102774665
  0
LINE
  5
403
100
AcDbEntity
  8
606077392-000-00-ED1_FORMAT
100
AcDbLine
 62
90
  6
CONTINUOUS
 10
314.4597250544
 20
48.8002784001
 11
320.1602869328
 21
48.8002784001
  0
LINE
  5
404
100
AcDbEntity
  8
606077392-000-00-ED1_FORMAT
100
AcDbLine
 62
90
  6
CONTINUOUS
 10
328.4875274416
 20
49.0902793337
 11
328.1043792244
 21
49.0902793337
  0
LINE
  5
405
100
AcDbEntity
  8
606077392-000-00-ED1_FORMAT
100
AcDbLine
 62
90
  6
CONTINUOUS
 10
320.7770472251
 20
49.0902793337
 11
313.8573080247
 21
49.0902793337
  0
LINE
  5
406
100
AcDbEntity
  8
606077392-000-00-ED1_FORMAT
100
AcDbLine
 62
90
  6
CONTINUOUS
 10
306.5293961914
 20
49.3802802673
 11
307.1344987681
 21
49.3802802673
  0
LINE
  5
407
100
AcDbEntity
  8
606077392-000-00-ED1_FORMAT
100
AcDbLine
 62
90
  6
CONTINUOUS
 10
313.254890995
 20
49.3802802673
 11
321.3937769999
 21
49.3802802673
  0
LINE
  5
408
100
AcDbEntity
  8
606077392-000-00-ED1_FORMAT
100
AcDbLine
 62
90
  6
CONTINUOUS
 10
327.5346465229
 20
49.3802802673
 11
328.1114898205
 21
49.3802802673
  0
LINE
  5
409
100
AcDbEntity
  8
606077392-000-00-ED1_FORMAT
100
AcDbLine
 62
90
  6
CONTINUOUS
 10
328.2963042852
 20
49.3802802673
 11
328.8704925534
 21
49.3802802673
  0
LINE
  5
40A
100
AcDbEntity
  8
606077392-000-00-ED1_FORMAT
100
AcDbLine
 62
90
  6
CONTINUOUS
 10
328.8858123785
 20
49.6702773862
 11
328.2963042852
 21
49.6702773862
  0
LINE
  5
40B
100
AcDbEntity
  8
606077392-000-00-ED1_FORMAT
100
AcDbLine
 62
90
  6
CONTINUOUS
 10
327.5366912008
 20
49.6702773862
 11
326.9648833038
 21
49.6702773862
  0
LINE
  5
40C
100
AcDbEntity
  8
606077392-000-00-ED1_FORMAT
100
AcDbLine
 62
90
  6
CONTINUOUS
 10
322.0105067746
 20
49.6702773862
 11
312.6524739653
 21
49.6702773862
  0
LINE
  5
40D
100
AcDbEntity
  8
606077392-000-00-ED1_FORMAT
100
AcDbLine
 62
90
  6
CONTINUOUS
 10
307.6516801968
 20
49.6702773862
 11
307.1118852413
 21
49.6702773862
  0
LINE
  5
40E
100
AcDbEntity
  8
606077392-000-00-ED1_FORMAT
100
AcDbLine
 62
90
  6
CONTINUOUS
 10
306.8541337604
 20
49.6702773862
 11
306.2529679515
 21
49.6702773862
  0
LINE
  5
40F
100
AcDbEntity
  8
606077392-000-00-ED1_FORMAT
100
AcDbLine
 62
90
  6
CONTINUOUS
 10
306.2529679515
 20
49.9602783197
 11
306.8542558307
 21
49.9602783197
  0
LINE
  5
410
100
AcDbEntity
  8
606077392-000-00-ED1_FORMAT
100
AcDbLine
 62
90
  6
CONTINUOUS
 10
307.6427080283
 20
49.9602783197
 11
308.1688921431
 21
49.9602783197
  0
LINE
  5
411
100
AcDbEntity
  8
606077392-000-00-ED1_FORMAT
100
AcDbLine
 62
90
  6
CONTINUOUS
 10
312.0500569355
 20
49.9602783197
 11
322.6272365493
 21
49.9602783197
  0
LINE
  5
412
100
AcDbEntity
  8
606077392-000-00-ED1_FORMAT
100
AcDbLine
 62
90
  6
CONTINUOUS
 10
326.3951200848
 20
49.9602783197
 11
326.961892581
 21
49.9602783197
  0
LINE
  5
413
100
AcDbEntity
  8
606077392-000-00-ED1_FORMAT
100
AcDbLine
 62
90
  6
CONTINUOUS
 10
328.2963042852
 20
49.9602783197
 11
328.8858123785
 21
49.9602783197
  0
LINE
  5
414
100
AcDbEntity
  8
606077392-000-00-ED1_FORMAT
100
AcDbLine
 62
90
  6
CONTINUOUS
 10
328.8858123785
 20
50.2502792533
 11
328.2963042852
 21
50.2502792533
  0
LINE
  5
415
100
AcDbEntity
  8
606077392-000-00-ED1_FORMAT
100
AcDbLine
 62
90
  6
CONTINUOUS
 10
326.3870939612
 20
50.2502792533
 11
325.8253873833
 21
50.2502792533
  0
LINE
  5
416
100
AcDbEntity
  8
606077392-000-00-ED1_FORMAT
100
AcDbLine
 62
90
  6
CONTINUOUS
 10
323.2439968416
 20
50.2502792533
 11
311.4476093883
 21
50.2502792533
  0
LINE
  5
417
100
AcDbEntity
  8
606077392-000-00-ED1_FORMAT
100
AcDbLine
 62
90
  6
CONTINUOUS
 10
308.6563494488
 20
50.2502792533
 11
308.1735308152
 21
50.2502792533
  0
LINE
  5
418
100
AcDbEntity
  8
606077392-000-00-ED1_FORMAT
100
AcDbLine
 62
90
  6
CONTINUOUS
 10
306.8543473835
 20
50.2502792533
 11
306.2529679515
 21
50.2502792533
  0
LINE
  5
419
100
AcDbEntity
  8
606077392-000-00-ED1_FORMAT
100
AcDbLine
 62
90
  6
CONTINUOUS
 10
306.2529679515
 20
50.5402801869
 11
306.8544389362
 21
50.5402801869
  0
LINE
  5
41A
100
AcDbEntity
  8
606077392-000-00-ED1_FORMAT
100
AcDbLine
 62
90
  6
CONTINUOUS
 10
308.4533770241
 20
50.5402801869
 11
308.6559222027
 21
50.5402801869
  0
LINE
  5
41B
100
AcDbEntity
  8
606077392-000-00-ED1_FORMAT
100
AcDbLine
 62
90
  6
CONTINUOUS
 10
310.8451923586
 20
50.5402801869
 11
323.8607266164
 21
50.5402801869
  0
LINE
  5
41C
100
AcDbEntity
  8
606077392-000-00-ED1_FORMAT
100
AcDbLine
 62
90
  6
CONTINUOUS
 10
325.2556241642
 20
50.5402801869
 11
325.8122953414
 21
50.5402801869
  0
LINE
  5
41D
100
AcDbEntity
  8
606077392-000-00-ED1_FORMAT
100
AcDbLine
 62
90
  6
CONTINUOUS
 10
328.2963042852
 20
50.5402801869
 11
328.8858123785
 21
50.5402801869
  0
LINE
  5
41E
100
AcDbEntity
  8
606077392-000-00-ED1_FORMAT
100
AcDbLine
 62
90
  6
CONTINUOUS
 10
328.8858123785
 20
50.8302773058
 11
328.2963042852
 21
50.8302773058
  0
LINE
  5
41F
100
AcDbEntity
  8
606077392-000-00-ED1_FORMAT
100
AcDbLine
 62
90
  6
CONTINUOUS
 10
325.4072355017
 20
50.8302773058
 11
325.1310514025
 21
50.8302773058
  0
LINE
  5
420
100
AcDbEntity
  8
606077392-000-00-ED1_FORMAT
100
AcDbLine
 62
90
  6
CONTINUOUS
 10
324.4774563911
 20
50.8302773058
 11
310.2427753289
 21
50.8302773058
  0
LINE
  5
421
100
AcDbEntity
  8
606077392-000-00-ED1_FORMAT
100
AcDbLine
 62
90
  6
CONTINUOUS
 10
308.6555254742
 20
50.8302773058
 11
308.4533770241
 21
50.8302773058
  0
LINE
  5
422
100
AcDbEntity
  8
606077392-000-00-ED1_FORMAT
100
AcDbLine
 62
90
  6
CONTINUOUS
 10
306.8545304889
 20
50.8302773058
 11
306.2529679515
 21
50.8302773058
  0
LINE
  5
423
100
AcDbEntity
  8
606077392-000-00-ED1_FORMAT
100
AcDbLine
 62
90
  6
CONTINUOUS
 10
306.2529679515
 20
51.1202782394
 11
306.8546220417
 21
51.1202782394
  0
LINE
  5
424
100
AcDbEntity
  8
606077392-000-00-ED1_FORMAT
100
AcDbLine
 62
90
  6
CONTINUOUS
 10
308.4533770241
 20
51.1202782394
 11
308.655098228
 21
51.1202782394
  0
LINE
  5
425
100
AcDbEntity
  8
606077392-000-00-ED1_FORMAT
100
AcDbLine
 62
90
  6
CONTINUOUS
 10
309.6403582992
 20
51.1202782394
 11
310.7759784871
 21
51.1202782394
  0
LINE
  5
426
100
AcDbEntity
  8
606077392-000-00-ED1_FORMAT
100
AcDbLine
 62
90
  6
CONTINUOUS
 10
310.8817219019
 20
51.1202782394
 11
323.7463467264
 21
51.1202782394
  0
LINE
  5
427
100
AcDbEntity
  8
606077392-000-00-ED1_FORMAT
100
AcDbLine
 62
90
  6
CONTINUOUS
 10
324.5632718261
 20
51.1202782394
 11
325.0942166834
 21
51.1202782394
  0
LINE
  5
428
100
AcDbEntity
  8
606077392-000-00-ED1_FORMAT
100
AcDbLine
 62
90
  6
CONTINUOUS
 10
325.1310514025
 20
51.1202782394
 11
325.4072355017
 21
51.1202782394
  0
LINE
  5
429
100
AcDbEntity
  8
606077392-000-00-ED1_FORMAT
100
AcDbLine
 62
90
  6
CONTINUOUS
 10
327.9700103195
 20
51.1202782394
 11
328.8858123785
 21
51.1202782394
  0
LINE
  5
42A
100
AcDbEntity
  8
606077392-000-00-ED1_FORMAT
100
AcDbLine
 62
90
  6
CONTINUOUS
 10
328.2166228837
 20
51.410279173
 11
327.2521758022
 21
51.410279173
  0
LINE
  5
42B
100
AcDbEntity
  8
606077392-000-00-ED1_FORMAT
100
AcDbLine
 62
90
  6
CONTINUOUS
 10
325.4072355017
 20
51.410279173
 11
324.5094082974
 21
51.410279173
  0
LINE
  5
42C
100
AcDbEntity
  8
606077392-000-00-ED1_FORMAT
100
AcDbLine
 62
90
  6
CONTINUOUS
 10
322.9744655749
 20
51.410279173
 11
312.2078938594
 21
51.410279173
  0
LINE
  5
42D
100
AcDbEntity
  8
606077392-000-00-ED1_FORMAT
100
AcDbLine
 62
90
  6
CONTINUOUS
 10
310.7759784871
 20
51.410279173
 11
309.7665484926
 21
51.410279173
  0
LINE
  5
42E
100
AcDbEntity
  8
606077392-000-00-ED1_FORMAT
100
AcDbLine
 62
90
  6
CONTINUOUS
 10
309.5571978936
 20
51.410279173
 11
309.0379412695
 21
51.410279173
  0
LINE
  5
42F
100
AcDbEntity
  8
606077392-000-00-ED1_FORMAT
100
AcDbLine
 62
90
  6
CONTINUOUS
 10
308.6546709819
 20
51.410279173
 11
308.4533770241
 21
51.410279173
  0
LINE
  5
430
100
AcDbEntity
  8
606077392-000-00-ED1_FORMAT
100
AcDbLine
 62
90
  6
CONTINUOUS
 10
306.8547135944
 20
51.410279173
 11
306.2529679515
 21
51.410279173
  0
LINE
  5
431
100
AcDbEntity
  8
606077392-000-00-ED1_FORMAT
100
AcDbLine
 62
90
  6
CONTINUOUS
 10
306.2529679515
 20
51.7002801066
 11
306.8548356647
 21
51.7002801066
  0
LINE
  5
432
100
AcDbEntity
  8
606077392-000-00-ED1_FORMAT
100
AcDbLine
 62
90
  6
CONTINUOUS
 10
308.4533770241
 20
51.7002801066
 11
309.4360431009
 21
51.7002801066
  0
LINE
  5
433
100
AcDbEntity
  8
606077392-000-00-ED1_FORMAT
100
AcDbLine
 62
90
  6
CONTINUOUS
 10
309.889900551
 20
51.7002801066
 11
310.7759784871
 21
51.7002801066
  0
LINE
  5
434
100
AcDbEntity
  8
606077392-000-00-ED1_FORMAT
100
AcDbLine
 62
90
  6
CONTINUOUS
 10
312.2078938594
 20
51.7002801066
 11
312.7341084918
 21
51.7002801066
  0
LINE
  5
435
100
AcDbEntity
  8
606077392-000-00-ED1_FORMAT
100
AcDbLine
 62
90
  6
CONTINUOUS
 10
314.2231222564
 20
51.7002801066
 11
320.5559473578
 21
51.7002801066
  0
LINE
  5
436
100
AcDbEntity
  8
606077392-000-00-ED1_FORMAT
100
AcDbLine
 62
90
  6
CONTINUOUS
 10
322.0495387594
 20
51.7002801066
 11
322.9518825656
 21
51.7002801066
  0
LINE
  5
437
100
AcDbEntity
  8
606077392-000-00-ED1_FORMAT
100
AcDbLine
 62
90
  6
CONTINUOUS
 10
324.4555752862
 20
51.7002801066
 11
325.4072355017
 21
51.7002801066
  0
LINE
  5
438
100
AcDbEntity
  8
606077392-000-00-ED1_FORMAT
100
AcDbLine
 62
90
  6
CONTINUOUS
 10
326.932168458
 20
51.7002801066
 11
327.4721770366
 21
51.7002801066
  0
LINE
  5
439
100
AcDbEntity
  8
606077392-000-00-ED1_FORMAT
100
AcDbLine
 62
90
  6
CONTINUOUS
 10
316.7452476576
 20
51.8527840833
 11
316.5344322148
 21
51.8527840833
  0
LINE
  5
43A
100
AcDbEntity
  8
606077392-000-00-ED1_FORMAT
100
AcDbLine
 62
90
  6
CONTINUOUS
 10
316.9563377587
 20
51.854138301
 11
316.7452476576
 21
51.854138301
  0
LINE
  5
43B
100
AcDbEntity
  8
606077392-000-00-ED1_FORMAT
100
AcDbLine
 62
90
  6
CONTINUOUS
 10
317.1683433871
 20
51.8564423783
 11
316.9563377587
 21
51.8564423783
  0
LINE
  5
43C
100
AcDbEntity
  8
606077392-000-00-ED1_FORMAT
100
AcDbLine
 62
90
  6
CONTINUOUS
 10
327.4483428066
 20
51.9902772255
 11
326.932168458
 21
51.9902772255
  0
LINE
  5
43D
100
AcDbEntity
  8
606077392-000-00-ED1_FORMAT
100
AcDbLine
 62
90
  6
CONTINUOUS
 10
325.4072355017
 20
51.9902772255
 11
324.4017422751
 21
51.9902772255
  0
LINE
  5
43E
100
AcDbEntity
  8
606077392-000-00-ED1_FORMAT
100
AcDbLine
 62
90
  6
CONTINUOUS
 10
322.3748866801
 20
51.9902772255
 11
322.1039821222
 21
51.9902772255
  0
LINE
  5
43F
100
AcDbEntity
  8
606077392-000-00-ED1_FORMAT
100
AcDbLine
 62
90
  6
CONTINUOUS
 10
320.6219568834
 20
51.9902772255
 11
318.793435041
 21
51.9902772255
  0
LINE
  5
440
100
AcDbEntity
  8
606077392-000-00-ED1_FORMAT
100
AcDbLine
 62
90
  6
CONTINUOUS
 10
317.504647119
 20
51.9902772255
 11
317.1344993909
 21
51.9902772255
  0
LINE
  5
441
100
AcDbEntity
  8
606077392-000-00-ED1_FORMAT
100
AcDbLine
 62
90
  6
CONTINUOUS
 10
315.6400229794
 20
51.9902772255
 11
314.2883688425
 21
51.9902772255
  0
LINE
  5
442
100
AcDbEntity
  8
606077392-000-00-ED1_FORMAT
100
AcDbLine
 62
90
  6
CONTINUOUS
 10
312.8143697273
 20
51.9902772255
 11
312.2078938594
 21
51.9902772255
  0
LINE
  5
443
100
AcDbEntity
  8
606077392-000-00-ED1_FORMAT
100
AcDbLine
 62
90
  6
CONTINUOUS
 10
310.7759784871
 20
51.9902772255
 11
310.0132526095
 21
51.9902772255
  0
LINE
  5
444
100
AcDbEntity
  8
606077392-000-00-ED1_FORMAT
100
AcDbLine
 62
90
  6
CONTINUOUS
 10
309.3149188258
 20
51.9902772255
 11
308.4533770241
 21
51.9902772255
  0
LINE
  5
445
100
AcDbEntity
  8
606077392-000-00-ED1_FORMAT
100
AcDbLine
 62
90
  6
CONTINUOUS
 10
306.8549272175
 20
51.9902772255
 11
306.2529679515
 21
51.9902772255
  0
LINE
  5
446
100
AcDbEntity
  8
606077392-000-00-ED1_FORMAT
100
AcDbLine
 62
90
  6
CONTINUOUS
 10
306.2529679515
 20
52.280278159
 11
306.8550187702
 21
52.280278159
  0
LINE
  5
447
100
AcDbEntity
  8
606077392-000-00-ED1_FORMAT
100
AcDbLine
 62
90
  6
CONTINUOUS
 10
308.4533770241
 20
52.280278159
 11
309.1937640331
 21
52.280278159
  0
LINE
  5
448
100
AcDbEntity
  8
606077392-000-00-ED1_FORMAT
100
AcDbLine
 62
90
  6
CONTINUOUS
 10
310.1365741504
 20
52.280278159
 11
310.7759784871
 21
52.280278159
  0
LINE
  5
449
100
AcDbEntity
  8
606077392-000-00-ED1_FORMAT
100
AcDbLine
 62
90
  6
CONTINUOUS
 10
312.2078938594
 20
52.280278159
 11
312.8946309628
 21
52.280278159
  0
LINE
  5
44A
100
AcDbEntity
  8
606077392-000-00-ED1_FORMAT
100
AcDbLine
 62
90
  6
CONTINUOUS
 10
314.353584911
 20
52.280278159
 11
315.576760036
 21
52.280278159
  0
LINE
  5
44B
100
AcDbEntity
  8
606077392-000-00-ED1_FORMAT
100
AcDbLine
 62
90
  6
CONTINUOUS
 10
317.0611656461
 20
52.280278159
 11
317.504647119
 21
52.280278159
  0
LINE
  5
44C
100
AcDbEntity
  8
606077392-000-00-ED1_FORMAT
100
AcDbLine
 62
90
  6
CONTINUOUS
 10
318.7929162422
 20
52.280278159
 11
320.6879358914
 21
52.280278159
  0
LINE
  5
44D
100
AcDbEntity
  8
606077392-000-00-ED1_FORMAT
100
AcDbLine
 62
90
  6
CONTINUOUS
 10
324.3479092639
 20
52.280278159
 11
325.4072355017
 21
52.280278159
  0
LINE
  5
44E
100
AcDbEntity
  8
606077392-000-00-ED1_FORMAT
100
AcDbLine
 62
90
  6
CONTINUOUS
 10
326.932168458
 20
52.280278159
 11
327.7005706055
 21
52.280278159
  0
LINE
  5
44F
100
AcDbEntity
  8
606077392-000-00-ED1_FORMAT
100
AcDbLine
 62
90
  6
CONTINUOUS
 10
328.2963653203
 20
52.5702790926
 11
326.932168458
 21
52.5702790926
  0
LINE
  5
450
100
AcDbEntity
  8
606077392-000-00-ED1_FORMAT
100
AcDbLine
 62
90
  6
CONTINUOUS
 10
325.4072355017
 20
52.5702790926
 11
324.2940457352
 21
52.5702790926
  0
LINE
  5
451
100
AcDbEntity
  8
606077392-000-00-ED1_FORMAT
100
AcDbLine
 62
90
  6
CONTINUOUS
 10
320.7539148995
 20
52.5702790926
 11
318.7923974433
 21
52.5702790926
  0
LINE
  5
452
100
AcDbEntity
  8
606077392-000-00-ED1_FORMAT
100
AcDbLine
 62
90
  6
CONTINUOUS
 10
317.504647119
 20
52.5702790926
 11
316.9878624188
 21
52.5702790926
  0
LINE
  5
453
100
AcDbEntity
  8
606077392-000-00-ED1_FORMAT
100
AcDbLine
 62
90
  6
CONTINUOUS
 10
315.5135276102
 20
52.5702790926
 11
314.4188314971
 21
52.5702790926
  0
LINE
  5
454
100
AcDbEntity
  8
606077392-000-00-ED1_FORMAT
100
AcDbLine
 62
90
  6
CONTINUOUS
 10
312.9748921982
 20
52.5702790926
 11
312.2078938594
 21
52.5702790926
  0
LINE
  5
455
100
AcDbEntity
  8
606077392-000-00-ED1_FORMAT
100
AcDbLine
 62
90
  6
CONTINUOUS
 10
310.7759784871
 20
52.5702790926
 11
310.2599262088
 21
52.5702790926
  0
LINE
  5
456
100
AcDbEntity
  8
606077392-000-00-ED1_FORMAT
100
AcDbLine
 62
90
  6
CONTINUOUS
 10
309.0726397579
 20
52.5702790926
 11
308.4533770241
 21
52.5702790926
  0
LINE
  5
457
100
AcDbEntity
  8
606077392-000-00-ED1_FORMAT
100
AcDbLine
 62
90
  6
CONTINUOUS
 10
306.855110323
 20
52.5702790926
 11
306.2529679515
 21
52.5702790926
  0
LINE
  5
458
100
AcDbEntity
  8
606077392-000-00-ED1_FORMAT
100
AcDbLine
 62
90
  6
CONTINUOUS
 10
306.0443192568
 20
52.8602800262
 11
306.8552018757
 21
52.8602800262
  0
LINE
  5
459
100
AcDbEntity
  8
606077392-000-00-ED1_FORMAT
100
AcDbLine
 62
90
  6
CONTINUOUS
 10
308.4533770241
 20
52.8602800262
 11
308.9514849652
 21
52.8602800262
  0
LINE
  5
45A
100
AcDbEntity
  8
606077392-000-00-ED1_FORMAT
100
AcDbLine
 62
90
  6
CONTINUOUS
 10
310.3832782673
 20
52.8602800262
 11
310.7759784871
 21
52.8602800262
  0
LINE
  5
45B
100
AcDbEntity
  8
606077392-000-00-ED1_FORMAT
100
AcDbLine
 62
90
  6
CONTINUOUS
 10
312.2078938594
 20
52.8602800262
 11
313.0551534337
 21
52.8602800262
  0
LINE
  5
45C
100
AcDbEntity
  8
606077392-000-00-ED1_FORMAT
100
AcDbLine
 62
90
  6
CONTINUOUS
 10
316.914528674
 20
52.8602800262
 11
317.504647119
 21
52.8602800262
  0
LINE
  5
45D
100
AcDbEntity
  8
606077392-000-00-ED1_FORMAT
100
AcDbLine
 62
90
  6
CONTINUOUS
 10
319.304635024
 20
52.8602800262
 11
320.8198939075
 21
52.8602800262
  0
LINE
  5
45E
100
AcDbEntity
  8
606077392-000-00-ED1_FORMAT
100
AcDbLine
 62
90
  6
CONTINUOUS
 10
324.240212724
 20
52.8602800262
 11
325.4072355017
 21
52.8602800262
  0
LINE
  5
45F
100
AcDbEntity
  8
606077392-000-00-ED1_FORMAT
100
AcDbLine
 62
90
  6
CONTINUOUS
 10
326.932168458
 20
52.8602800262
 11
328.8921600352
 21
52.8602800262
  0
LINE
  5
460
100
AcDbEntity
  8
606077392-000-00-ED1_FORMAT
100
AcDbLine
 62
7
  6
CONTINUOUS
 10
410.0
 20
52.9546823745
 11
365.999998592
 21
52.9546823745
  0
LINE
  5
461
100
AcDbEntity
  8
606077392-000-00-ED1_FORMAT
100
AcDbLine
 62
90
  6
CONTINUOUS
 10
329.48795475
 20
53.1502809598
 11
326.932168458
 21
53.1502809598
  0
LINE
  5
462
100
AcDbEntity
  8
606077392-000-00-ED1_FORMAT
100
AcDbLine
 62
90
  6
CONTINUOUS
 10
325.4072355017
 20
53.1502809598
 11
324.1863797128
 21
53.1502809598
  0
LINE
  5
463
100
AcDbEntity
  8
606077392-000-00-ED1_FORMAT
100
AcDbLine
 62
90
  6
CONTINUOUS
 10
320.8859034331
 20
53.1502809598
 11
320.0719995738
 21
53.1502809598
  0
LINE
  5
464
100
AcDbEntity
  8
606077392-000-00-ED1_FORMAT
100
AcDbLine
 62
90
  6
CONTINUOUS
 10
317.504647119
 20
53.1502809598
 11
316.8411949292
 21
53.1502809598
  0
LINE
  5
465
100
AcDbEntity
  8
606077392-000-00-ED1_FORMAT
100
AcDbLine
 62
90
  6
CONTINUOUS
 10
313.1354146692
 20
53.1502809598
 11
312.2078938594
 21
53.1502809598
  0
LINE
  5
466
100
AcDbEntity
  8
606077392-000-00-ED1_FORMAT
100
AcDbLine
 62
90
  6
CONTINUOUS
 10
310.7759784871
 20
53.1502809598
 11
310.5066303258
 21
53.1502809598
  0
LINE
  5
467
100
AcDbEntity
  8
606077392-000-00-ED1_FORMAT
100
AcDbLine
 62
90
  6
CONTINUOUS
 10
308.8303606901
 20
53.1502809598
 11
308.4533770241
 21
53.1502809598
  0
LINE
  5
468
100
AcDbEntity
  8
606077392-000-00-ED1_FORMAT
100
AcDbLine
 62
90
  6
CONTINUOUS
 10
306.8552934284
 20
53.1502809598
 11
305.4760513992
 21
53.1502809598
  0
LINE
  5
469
100
AcDbEntity
  8
606077392-000-00-ED1_FORMAT
100
AcDbLine
 62
90
  6
CONTINUOUS
 10
304.9078140591
 20
53.4402780787
 11
306.8554154988
 21
53.4402780787
  0
LINE
  5
46A
100
AcDbEntity
  8
606077392-000-00-ED1_FORMAT
100
AcDbLine
 62
90
  6
CONTINUOUS
 10
308.4533770241
 20
53.4402780787
 11
308.7092058974
 21
53.4402780787
  0
LINE
  5
46B
100
AcDbEntity
  8
606077392-000-00-ED1_FORMAT
100
AcDbLine
 62
90
  6
CONTINUOUS
 10
310.6299823842
 20
53.4402780787
 11
310.7759784871
 21
53.4402780787
  0
LINE
  5
46C
100
AcDbEntity
  8
606077392-000-00-ED1_FORMAT
100
AcDbLine
 62
90
  6
CONTINUOUS
 10
312.2078938594
 20
53.4402780787
 11
313.2157064222
 21
53.4402780787
  0
LINE
  5
46D
100
AcDbEntity
  8
606077392-000-00-ED1_FORMAT
100
AcDbLine
 62
90
  6
CONTINUOUS
 10
316.7678611844
 20
53.4402780787
 11
317.504647119
 21
53.4402780787
  0
LINE
  5
46E
100
AcDbEntity
  8
606077392-000-00-ED1_FORMAT
100
AcDbLine
 62
90
  6
CONTINUOUS
 10
320.3908472499
 20
53.4402780787
 11
320.9518824411
 21
53.4402780787
  0
LINE
  5
46F
100
AcDbEntity
  8
606077392-000-00-ED1_FORMAT
100
AcDbLine
 62
90
  6
CONTINUOUS
 10
322.2457362814
 20
53.4402780787
 11
322.8289272357
 21
53.4402780787
  0
LINE
  5
470
100
AcDbEntity
  8
606077392-000-00-ED1_FORMAT
100
AcDbLine
 62
90
  6
CONTINUOUS
 10
324.1325161841
 20
53.4402780787
 11
325.4072355017
 21
53.4402780787
  0
LINE
  5
471
100
AcDbEntity
  8
606077392-000-00-ED1_FORMAT
100
AcDbLine
 62
90
  6
CONTINUOUS
 10
326.932168458
 20
53.4402780787
 11
330.0837494649
 21
53.4402780787
  0
LINE
  5
472
100
AcDbEntity
  8
606077392-000-00-ED1_FORMAT
100
AcDbLine
 62
90
  6
CONTINUOUS
 10
330.6795441797
 20
53.7302790123
 11
326.932168458
 21
53.7302790123
  0
LINE
  5
473
100
AcDbEntity
  8
606077392-000-00-ED1_FORMAT
100
AcDbLine
 62
90
  6
CONTINUOUS
 10
325.4072355017
 20
53.7302790123
 11
324.0786831729
 21
53.7302790123
  0
LINE
  5
474
100
AcDbEntity
  8
606077392-000-00-ED1_FORMAT
100
AcDbLine
 62
90
  6
CONTINUOUS
 10
322.784432604
 20
53.7302790123
 11
322.2876064012
 21
53.7302790123
  0
LINE
  5
475
100
AcDbEntity
  8
606077392-000-00-ED1_FORMAT
100
AcDbLine
 62
90
  6
CONTINUOUS
 10
321.0178614491
 20
53.7302790123
 11
320.5930262176
 21
53.7302790123
  0
LINE
  5
476
100
AcDbEntity
  8
606077392-000-00-ED1_FORMAT
100
AcDbLine
 62
90
  6
CONTINUOUS
 10
317.504647119
 20
53.7302790123
 11
316.6945274396
 21
53.7302790123
  0
LINE
  5
477
100
AcDbEntity
  8
606077392-000-00-ED1_FORMAT
100
AcDbLine
 62
90
  6
CONTINUOUS
 10
313.2959676577
 20
53.7302790123
 11
312.2078938594
 21
53.7302790123
  0
LINE
  5
478
100
AcDbEntity
  8
606077392-000-00-ED1_FORMAT
100
AcDbLine
 62
90
  6
CONTINUOUS
 10
310.7759784871
 20
53.7302790123
 11
310.7533344427
 21
53.7302790123
  0
LINE
  5
479
100
AcDbEntity
  8
606077392-000-00-ED1_FORMAT
100
AcDbLine
 62
90
  6
CONTINUOUS
 10
308.5880816223
 20
53.7302790123
 11
308.4533770241
 21
53.7302790123
  0
LINE
  5
47A
100
AcDbEntity
  8
606077392-000-00-ED1_FORMAT
100
AcDbLine
 62
90
  6
CONTINUOUS
 10
306.8555070515
 20
53.7302790123
 11
304.3395462015
 21
53.7302790123
  0
LINE
  5
47B
100
AcDbEntity
  8
606077392-000-00-ED1_FORMAT
100
AcDbLine
 62
90
  6
CONTINUOUS
 10
303.7713088614
 20
54.0202799459
 11
306.8555986042
 21
54.0202799459
  0
LINE
  5
47C
100
AcDbEntity
  8
606077392-000-00-ED1_FORMAT
100
AcDbLine
 62
90
  6
CONTINUOUS
 10
308.4533770241
 20
54.0202799459
 11
308.4669268296
 21
54.0202799459
  0
LINE
  5
47D
100
AcDbEntity
  8
606077392-000-00-ED1_FORMAT
100
AcDbLine
 62
90
  6
CONTINUOUS
 10
312.2078938594
 20
54.0202799459
 11
313.3762288931
 21
54.0202799459
  0
LINE
  5
47E
100
AcDbEntity
  8
606077392-000-00-ED1_FORMAT
100
AcDbLine
 62
90
  6
CONTINUOUS
 10
314.6156393707
 20
54.0202799459
 11
315.2890708091
 21
54.0202799459
  0
LINE
  5
47F
100
AcDbEntity
  8
606077392-000-00-ED1_FORMAT
100
AcDbLine
 62
90
  6
CONTINUOUS
 10
316.6212242124
 20
54.0202799459
 11
317.504647119
 21
54.0202799459
  0
LINE
  5
480
100
AcDbEntity
  8
606077392-000-00-ED1_FORMAT
100
AcDbLine
 62
90
  6
CONTINUOUS
 10
318.7596825975
 20
54.0202799459
 11
319.2434777937
 21
54.0202799459
  0
LINE
  5
481
100
AcDbEntity
  8
606077392-000-00-ED1_FORMAT
100
AcDbLine
 62
90
  6
CONTINUOUS
 10
320.7216578174
 20
54.0202799459
 11
321.0838404571
 21
54.0202799459
  0
LINE
  5
482
100
AcDbEntity
  8
606077392-000-00-ED1_FORMAT
100
AcDbLine
 62
90
  6
CONTINUOUS
 10
322.329476521
 20
54.0202799459
 11
322.7399379724
 21
54.0202799459
  0
LINE
  5
483
100
AcDbEntity
  8
606077392-000-00-ED1_FORMAT
100
AcDbLine
 62
90
  6
CONTINUOUS
 10
324.0248501618
 20
54.0202799459
 11
325.4072355017
 21
54.0202799459
  0
LINE
  5
484
100
AcDbEntity
  8
606077392-000-00-ED1_FORMAT
100
AcDbLine
 62
90
  6
CONTINUOUS
 10
326.932168458
 20
54.0202799459
 11
331.2753083769
 21
54.0202799459
  0
LINE
  5
485
100
AcDbEntity
  8
606077392-000-00-ED1_FORMAT
100
AcDbLine
 62
3
  6
CONTINUOUS
 10
302.0615309229
 20
54.2350054536
 11
302.435676454
 21
54.2350054536
  0
LINE
  5
486
100
AcDbEntity
  8
606077392-000-00-ED1_FORMAT
100
AcDbLine
 62
90
  6
CONTINUOUS
 10
331.5333039985
 20
54.3102808795
 11
326.932168458
 21
54.3102808795
  0
LINE
  5
487
100
AcDbEntity
  8
606077392-000-00-ED1_FORMAT
100
AcDbLine
 62
90
  6
CONTINUOUS
 10
325.4072355017
 20
54.3102808795
 11
323.9710171506
 21
54.3102808795
  0
LINE
  5
488
100
AcDbEntity
  8
606077392-000-00-ED1_FORMAT
100
AcDbLine
 62
90
  6
CONTINUOUS
 10
322.6954433407
 20
54.3102808795
 11
322.3713771584
 21
54.3102808795
  0
LINE
  5
489
100
AcDbEntity
  8
606077392-000-00-ED1_FORMAT
100
AcDbLine
 62
90
  6
CONTINUOUS
 10
321.1498499827
 20
54.3102808795
 11
320.7964869236
 21
54.3102808795
  0
LINE
  5
48A
100
AcDbEntity
  8
606077392-000-00-ED1_FORMAT
100
AcDbLine
 62
90
  6
CONTINUOUS
 10
319.5666894837
 20
54.3102808795
 11
318.758339824
 21
54.3102808795
  0
LINE
  5
48B
100
AcDbEntity
  8
606077392-000-00-ED1_FORMAT
100
AcDbLine
 62
90
  6
CONTINUOUS
 10
317.504647119
 20
54.3102808795
 11
316.5478904676
 21
54.3102808795
  0
LINE
  5
48C
100
AcDbEntity
  8
606077392-000-00-ED1_FORMAT
100
AcDbLine
 62
90
  6
CONTINUOUS
 10
315.2263876998
 20
54.3102808795
 11
314.6813132029
 21
54.3102808795
  0
LINE
  5
48D
100
AcDbEntity
  8
606077392-000-00-ED1_FORMAT
100
AcDbLine
 62
90
  6
CONTINUOUS
 10
313.4564901286
 20
54.3102808795
 11
312.2078938594
 21
54.3102808795
  0
LINE
  5
48E
100
AcDbEntity
  8
606077392-000-00-ED1_FORMAT
100
AcDbLine
 62
90
  6
CONTINUOUS
 10
306.855690157
 20
54.3102808795
 11
303.517005867
 21
54.3102808795
  0
LINE
  5
48F
100
AcDbEntity
  8
606077392-000-00-ED1_FORMAT
100
AcDbLine
 62
90
  6
CONTINUOUS
 10
304.1583328113
 20
54.6002779983
 11
306.8557817097
 21
54.6002779983
  0
LINE
  5
490
100
AcDbEntity
  8
606077392-000-00-ED1_FORMAT
100
AcDbLine
 62
90
  6
CONTINUOUS
 10
312.2078938594
 20
54.6002779983
 11
313.5367513641
 21
54.6002779983
  0
LINE
  5
491
100
AcDbEntity
  8
606077392-000-00-ED1_FORMAT
100
AcDbLine
 62
90
  6
CONTINUOUS
 10
314.7469870351
 20
54.6002779983
 11
315.1637045904
 21
54.6002779983
  0
LINE
  5
492
100
AcDbEntity
  8
606077392-000-00-ED1_FORMAT
100
AcDbLine
 62
90
  6
CONTINUOUS
 10
316.4745567228
 20
54.6002779983
 11
317.504647119
 21
54.6002779983
  0
LINE
  5
493
100
AcDbEntity
  8
606077392-000-00-ED1_FORMAT
100
AcDbLine
 62
90
  6
CONTINUOUS
 10
318.7569970505
 20
54.6002779983
 11
319.6591272336
 21
54.6002779983
  0
LINE
  5
494
100
AcDbEntity
  8
606077392-000-00-ED1_FORMAT
100
AcDbLine
 62
90
  6
CONTINUOUS
 10
320.8410120729
 20
54.6002779983
 11
321.2158289907
 21
54.6002779983
  0
LINE
  5
495
100
AcDbEntity
  8
606077392-000-00-ED1_FORMAT
100
AcDbLine
 62
90
  6
CONTINUOUS
 10
322.4132472782
 20
54.6002779983
 11
322.650948709
 21
54.6002779983
  0
LINE
  5
496
100
AcDbEntity
  8
606077392-000-00-ED1_FORMAT
100
AcDbLine
 62
90
  6
CONTINUOUS
 10
323.9171536218
 20
54.6002779983
 11
325.4072355017
 21
54.6002779983
  0
LINE
  5
497
100
AcDbEntity
  8
606077392-000-00-ED1_FORMAT
100
AcDbLine
 62
90
  6
CONTINUOUS
 10
326.932168458
 20
54.6002779983
 11
330.8277070307
 21
54.6002779983
  0
LINE
  5
498
100
AcDbEntity
  8
606077392-000-00-ED1_FORMAT
100
AcDbLine
 62
90
  6
CONTINUOUS
 10
330.1221100629
 20
54.8902789319
 11
326.932168458
 21
54.8902789319
  0
LINE
  5
499
100
AcDbEntity
  8
606077392-000-00-ED1_FORMAT
100
AcDbLine
 62
90
  6
CONTINUOUS
 10
325.4072355017
 20
54.8902789319
 11
323.8633206107
 21
54.8902789319
  0
LINE
  5
49A
100
AcDbEntity
  8
606077392-000-00-ED1_FORMAT
100
AcDbLine
 62
90
  6
CONTINUOUS
 10
322.6064540773
 20
54.8902789319
 11
322.455117398
 21
54.8902789319
  0
LINE
  5
49B
100
AcDbEntity
  8
606077392-000-00-ED1_FORMAT
100
AcDbLine
 62
90
  6
CONTINUOUS
 10
321.2818079987
 20
54.8902789319
 11
320.8535242807
 21
54.8902789319
  0
LINE
  5
49C
100
AcDbEntity
  8
606077392-000-00-ED1_FORMAT
100
AcDbLine
 62
90
  6
CONTINUOUS
 10
319.671090125
 20
54.8902789319
 11
318.755654277
 21
54.8902789319
  0
LINE
  5
49D
100
AcDbEntity
  8
606077392-000-00-ED1_FORMAT
100
AcDbLine
 62
90
  6
CONTINUOUS
 10
317.504647119
 20
54.8902789319
 11
316.401222978
 21
54.8902789319
  0
LINE
  5
49E
100
AcDbEntity
  8
606077392-000-00-ED1_FORMAT
100
AcDbLine
 62
90
  6
CONTINUOUS
 10
315.101021481
 20
54.8902789319
 11
314.8126608674
 21
54.8902789319
  0
LINE
  5
49F
100
AcDbEntity
  8
606077392-000-00-ED1_FORMAT
100
AcDbLine
 62
90
  6
CONTINUOUS
 10
313.6170125995
 20
54.8902789319
 11
312.2078938594
 21
54.8902789319
  0
LINE
  5
4A0
100
AcDbEntity
  8
606077392-000-00-ED1_FORMAT
100
AcDbLine
 62
90
  6
CONTINUOUS
 10
306.8558732625
 20
54.8902789319
 11
304.7996902731
 21
54.8902789319
  0
LINE
  5
4A1
100
AcDbEntity
  8
606077392-000-00-ED1_FORMAT
100
AcDbLine
 62
90
  6
CONTINUOUS
 10
305.4410172173
 20
55.1802798655
 11
306.8559953328
 21
55.1802798655
  0
LINE
  5
4A2
100
AcDbEntity
  8
606077392-000-00-ED1_FORMAT
100
AcDbLine
 62
90
  6
CONTINUOUS
 10
309.4869159068
 20
55.1802798655
 11
309.6559527825
 21
55.1802798655
  0
LINE
  5
4A3
100
AcDbEntity
  8
606077392-000-00-ED1_FORMAT
100
AcDbLine
 62
90
  6
CONTINUOUS
 10
312.2078938594
 20
55.1802798655
 11
313.6973043526
 21
55.1802798655
  0
LINE
  5
4A4
100
AcDbEntity
  8
606077392-000-00-ED1_FORMAT
100
AcDbLine
 62
90
  6
CONTINUOUS
 10
314.8783346996
 20
55.1802798655
 11
315.0383383716
 21
55.1802798655
  0
LINE
  5
4A5
100
AcDbEntity
  8
606077392-000-00-ED1_FORMAT
100
AcDbLine
 62
90
  6
CONTINUOUS
 10
316.3278892332
 20
55.1802798655
 11
317.504647119
 21
55.1802798655
  0
LINE
  5
4A6
100
AcDbEntity
  8
606077392-000-00-ED1_FORMAT
100
AcDbLine
 62
90
  6
CONTINUOUS
 10
318.7542809859
 20
55.1802798655
 11
319.6139306976
 21
55.1802798655
  0
LINE
  5
4A7
100
AcDbEntity
  8
606077392-000-00-ED1_FORMAT
100
AcDbLine
 62
90
  6
CONTINUOUS
 10
320.8345118283
 20
55.1802798655
 11
321.3477870068
 21
55.1802798655
  0
LINE
  5
4A8
100
AcDbEntity
  8
606077392-000-00-ED1_FORMAT
100
AcDbLine
 62
90
  6
CONTINUOUS
 10
323.8094875995
 20
55.1802798655
 11
325.4072355017
 21
55.1802798655
  0
LINE
  5
4A9
100
AcDbEntity
  8
606077392-000-00-ED1_FORMAT
100
AcDbLine
 62
90
  6
CONTINUOUS
 10
326.932168458
 20
55.1802798655
 11
329.4165436128
 21
55.1802798655
  0
LINE
  5
4AA
100
AcDbEntity
  8
606077392-000-00-ED1_FORMAT
100
AcDbLine
 62
90
  6
CONTINUOUS
 10
328.710946645
 20
55.4702807991
 11
326.932168458
 21
55.4702807991
  0
LINE
  5
4AB
100
AcDbEntity
  8
606077392-000-00-ED1_FORMAT
100
AcDbLine
 62
90
  6
CONTINUOUS
 10
325.4072355017
 20
55.4702807991
 11
323.7556240708
 21
55.4702807991
  0
LINE
  5
4AC
100
AcDbEntity
  8
606077392-000-00-ED1_FORMAT
100
AcDbLine
 62
90
  6
CONTINUOUS
 10
321.4137660148
 20
55.4702807991
 11
320.7832728114
 21
55.4702807991
  0
LINE
  5
4AD
100
AcDbEntity
  8
606077392-000-00-ED1_FORMAT
100
AcDbLine
 62
90
  6
CONTINUOUS
 10
319.2926416151
 20
55.4702807991
 11
318.7529382123
 21
55.4702807991
  0
LINE
  5
4AE
100
AcDbEntity
  8
606077392-000-00-ED1_FORMAT
100
AcDbLine
 62
90
  6
CONTINUOUS
 10
317.504647119
 20
55.4702807991
 11
316.254586006
 21
55.4702807991
  0
LINE
  5
4AF
100
AcDbEntity
  8
606077392-000-00-ED1_FORMAT
100
AcDbLine
 62
90
  6
CONTINUOUS
 10
314.9756552623
 20
55.4702807991
 11
314.9440085318
 21
55.4702807991
  0
LINE
  5
4B0
100
AcDbEntity
  8
606077392-000-00-ED1_FORMAT
100
AcDbLine
 62
90
  6
CONTINUOUS
 10
313.777565588
 20
55.4702807991
 11
312.2078938594
 21
55.4702807991
  0
LINE
  5
4B1
100
AcDbEntity
  8
606077392-000-00-ED1_FORMAT
100
AcDbLine
 62
90
  6
CONTINUOUS
 10
309.8534320429
 20
55.4702807991
 11
309.3890765452
 21
55.4702807991
  0
LINE
  5
4B2
100
AcDbEntity
  8
606077392-000-00-ED1_FORMAT
100
AcDbLine
 62
90
  6
CONTINUOUS
 10
306.8560868855
 20
55.4702807991
 11
306.0823441616
 21
55.4702807991
  0
LINE
  5
4B3
100
AcDbEntity
  8
606077392-000-00-ED1_FORMAT
100
AcDbLine
 62
90
  6
CONTINUOUS
 10
306.2538224437
 20
55.760277918
 11
306.8561784383
 21
55.760277918
  0
LINE
  5
4B4
100
AcDbEntity
  8
606077392-000-00-ED1_FORMAT
100
AcDbLine
 62
90
  6
CONTINUOUS
 10
309.2912371837
 20
55.760277918
 11
310.0508807857
 21
55.760277918
  0
LINE
  5
4B5
100
AcDbEntity
  8
606077392-000-00-ED1_FORMAT
100
AcDbLine
 62
90
  6
CONTINUOUS
 10
312.2078938594
 20
55.760277918
 11
313.8578268235
 21
55.760277918
  0
LINE
  5
4B6
100
AcDbEntity
  8
606077392-000-00-ED1_FORMAT
100
AcDbLine
 62
90
  6
CONTINUOUS
 10
316.1812522612
 20
55.760277918
 11
317.504647119
 21
55.760277918
  0
LINE
  5
4B7
100
AcDbEntity
  8
606077392-000-00-ED1_FORMAT
100
AcDbLine
 62
90
  6
CONTINUOUS
 10
320.6674280777
 20
55.760277918
 11
321.4797755404
 21
55.760277918
  0
LINE
  5
4B8
100
AcDbEntity
  8
606077392-000-00-ED1_FORMAT
100
AcDbLine
 62
90
  6
CONTINUOUS
 10
323.7017910596
 20
55.760277918
 11
325.4072355017
 21
55.760277918
  0
LINE
  5
4B9
100
AcDbEntity
  8
606077392-000-00-ED1_FORMAT
100
AcDbLine
 62
90
  6
CONTINUOUS
 10
326.932168458
 20
55.760277918
 11
328.0053496772
 21
55.760277918
  0
LINE
  5
4BA
100
AcDbEntity
  8
606077392-000-00-ED1_FORMAT
100
AcDbLine
 62
90
  6
CONTINUOUS
 10
327.5174346078
 20
56.0502788516
 11
326.932168458
 21
56.0502788516
  0
LINE
  5
4BB
100
AcDbEntity
  8
606077392-000-00-ED1_FORMAT
100
AcDbLine
 62
90
  6
CONTINUOUS
 10
325.4072355017
 20
56.0502788516
 11
323.6479580484
 21
56.0502788516
  0
LINE
  5
4BC
100
AcDbEntity
  8
606077392-000-00-ED1_FORMAT
100
AcDbLine
 62
90
  6
CONTINUOUS
 10
321.5457545484
 20
56.0502788516
 11
320.4613123422
 21
56.0502788516
  0
LINE
  5
4BD
100
AcDbEntity
  8
606077392-000-00-ED1_FORMAT
100
AcDbLine
 62
90
  6
CONTINUOUS
 10
317.504647119
 20
56.0502788516
 11
316.1079185164
 21
56.0502788516
  0
LINE
  5
4BE
100
AcDbEntity
  8
606077392-000-00-ED1_FORMAT
100
AcDbLine
 62
90
  6
CONTINUOUS
 10
313.938088059
 20
56.0502788516
 11
312.2078938594
 21
56.0502788516
  0
LINE
  5
4BF
100
AcDbEntity
  8
606077392-000-00-ED1_FORMAT
100
AcDbLine
 62
90
  6
CONTINUOUS
 10
310.2483295284
 20
56.0502788516
 11
309.1933978221
 21
56.0502788516
  0
LINE
  5
4C0
100
AcDbEntity
  8
606077392-000-00-ED1_FORMAT
100
AcDbLine
 62
90
  6
CONTINUOUS
 10
306.856269991
 20
56.0502788516
 11
306.2538224437
 21
56.0502788516
  0
LINE
  5
4C1
100
AcDbEntity
  8
606077392-000-00-ED1_FORMAT
100
AcDbLine
 62
90
  6
CONTINUOUS
 10
306.2538224437
 20
56.3402797852
 11
306.8563615437
 21
56.3402797852
  0
LINE
  5
4C2
100
AcDbEntity
  8
606077392-000-00-ED1_FORMAT
100
AcDbLine
 62
90
  6
CONTINUOUS
 10
309.0955584605
 20
56.3402797852
 11
310.4458087888
 21
56.3402797852
  0
LINE
  5
4C3
100
AcDbEntity
  8
606077392-000-00-ED1_FORMAT
100
AcDbLine
 62
90
  6
CONTINUOUS
 10
312.2078938594
 20
56.3402797852
 11
314.0183492945
 21
56.3402797852
  0
LINE
  5
4C4
100
AcDbEntity
  8
606077392-000-00-ED1_FORMAT
100
AcDbLine
 62
90
  6
CONTINUOUS
 10
316.0345847716
 20
56.3402797852
 11
317.504647119
 21
56.3402797852
  0
LINE
  5
4C5
100
AcDbEntity
  8
606077392-000-00-ED1_FORMAT
100
AcDbLine
 62
90
  6
CONTINUOUS
 10
320.0910425437
 20
56.3402797852
 11
321.6117335564
 21
56.3402797852
  0
LINE
  5
4C6
100
AcDbEntity
  8
606077392-000-00-ED1_FORMAT
100
AcDbLine
 62
90
  6
CONTINUOUS
 10
323.5941250373
 20
56.3402797852
 11
325.4072355017
 21
56.3402797852
  0
LINE
  5
4C7
100
AcDbEntity
  8
606077392-000-00-ED1_FORMAT
100
AcDbLine
 62
90
  6
CONTINUOUS
 10
326.932168458
 20
56.3402797852
 11
327.5174346078
 21
56.3402797852
  0
LINE
  5
4C8
100
AcDbEntity
  8
606077392-000-00-ED1_FORMAT
100
AcDbLine
 62
90
  6
CONTINUOUS
 10
327.5174346078
 20
56.6302807188
 11
326.932168458
 21
56.6302807188
  0
LINE
  5
4C9
100
AcDbEntity
  8
606077392-000-00-ED1_FORMAT
100
AcDbLine
 62
90
  6
CONTINUOUS
 10
325.4072355017
 20
56.6302807188
 11
323.5402615085
 21
56.6302807188
  0
LINE
  5
4CA
100
AcDbEntity
  8
606077392-000-00-ED1_FORMAT
100
AcDbLine
 62
90
  6
CONTINUOUS
 10
321.6777125644
 20
56.6302807188
 11
319.2477502549
 21
56.6302807188
  0
LINE
  5
4CB
100
AcDbEntity
  8
606077392-000-00-ED1_FORMAT
100
AcDbLine
 62
90
  6
CONTINUOUS
 10
317.8003319519
 20
56.6302807188
 11
314.7750937263
 21
56.6302807188
  0
LINE
  5
4CC
100
AcDbEntity
  8
606077392-000-00-ED1_FORMAT
100
AcDbLine
 62
90
  6
CONTINUOUS
 10
314.0986105299
 20
56.6302807188
 11
312.2078938594
 21
56.6302807188
  0
LINE
  5
4CD
100
AcDbEntity
  8
606077392-000-00-ED1_FORMAT
100
AcDbLine
 62
90
  6
CONTINUOUS
 10
310.6432575315
 20
56.6302807188
 11
308.997719099
 21
56.6302807188
  0
LINE
  5
4CE
100
AcDbEntity
  8
606077392-000-00-ED1_FORMAT
100
AcDbLine
 62
90
  6
CONTINUOUS
 10
306.8564530965
 20
56.6302807188
 11
306.2538224437
 21
56.6302807188
  0
LINE
  5
4CF
100
AcDbEntity
  8
606077392-000-00-ED1_FORMAT
100
AcDbLine
 62
90
  6
CONTINUOUS
 10
318.3558434611
 20
56.6447384223
 11
318.5402917147
 21
56.6447384223
  0
LINE
  5
4D0
100
AcDbEntity
  8
606077392-000-00-ED1_FORMAT
100
AcDbLine
 62
90
  6
CONTINUOUS
 10
318.916970205
 20
56.6466038094
 11
319.1211633329
 21
56.6466038094
  0
LINE
  5
4D1
100
AcDbEntity
  8
606077392-000-00-ED1_FORMAT
100
AcDbLine
 62
90
  6
CONTINUOUS
 10
318.5402917147
 20
56.6466114388
 11
318.72535032
 21
56.6466114388
  0
LINE
  5
4D2
100
AcDbEntity
  8
606077392-000-00-ED1_FORMAT
100
AcDbLine
 62
90
  6
CONTINUOUS
 10
318.72535032
 20
56.6471416817
 11
318.916970205
 21
56.6471416817
  0
LINE
  5
4D3
100
AcDbEntity
  8
606077392-000-00-ED1_FORMAT
100
AcDbLine
 62
90
  6
CONTINUOUS
 10
306.2538224437
 20
56.9202778376
 11
306.8565751668
 21
56.9202778376
  0
LINE
  5
4D4
100
AcDbEntity
  8
606077392-000-00-ED1_FORMAT
100
AcDbLine
 62
90
  6
CONTINUOUS
 10
308.8998797374
 20
56.9202778376
 11
309.1677935725
 21
56.9202778376
  0
LINE
  5
4D5
100
AcDbEntity
  8
606077392-000-00-ED1_FORMAT
100
AcDbLine
 62
90
  6
CONTINUOUS
 10
309.3290484653
 20
56.9202778376
 11
310.8407367919
 21
56.9202778376
  0
LINE
  5
4D6
100
AcDbEntity
  8
606077392-000-00-ED1_FORMAT
100
AcDbLine
 62
90
  6
CONTINUOUS
 10
312.1970601185
 20
56.9202778376
 11
321.8962794726
 21
56.9202778376
  0
LINE
  5
4D7
100
AcDbEntity
  8
606077392-000-00-ED1_FORMAT
100
AcDbLine
 62
90
  6
CONTINUOUS
 10
323.4864284974
 20
56.9202778376
 11
325.4072355017
 21
56.9202778376
  0
LINE
  5
4D8
100
AcDbEntity
  8
606077392-000-00-ED1_FORMAT
100
AcDbLine
 62
90
  6
CONTINUOUS
 10
326.932168458
 20
56.9202778376
 11
327.5174346078
 21
56.9202778376
  0
LINE
  5
4D9
100
AcDbEntity
  8
606077392-000-00-ED1_FORMAT
100
AcDbLine
 62
90
  6
CONTINUOUS
 10
327.5174346078
 20
57.2102787712
 11
326.932168458
 21
57.2102787712
  0
LINE
  5
4DA
100
AcDbEntity
  8
606077392-000-00-ED1_FORMAT
100
AcDbLine
 62
90
  6
CONTINUOUS
 10
325.4072355017
 20
57.2102787712
 11
325.1310514025
 21
57.2102787712
  0
LINE
  5
4DB
100
AcDbEntity
  8
606077392-000-00-ED1_FORMAT
100
AcDbLine
 62
90
  6
CONTINUOUS
 10
324.643502544
 20
57.2102787712
 11
323.4325954862
 21
57.2102787712
  0
LINE
  5
4DC
100
AcDbEntity
  8
606077392-000-00-ED1_FORMAT
100
AcDbLine
 62
90
  6
CONTINUOUS
 10
323.2237942037
 20
57.2102787712
 11
309.9671405461
 21
57.2102787712
  0
LINE
  5
4DD
100
AcDbEntity
  8
606077392-000-00-ED1_FORMAT
100
AcDbLine
 62
90
  6
CONTINUOUS
 10
309.0664141716
 20
57.2102787712
 11
308.8020098583
 21
57.2102787712
  0
LINE
  5
4DE
100
AcDbEntity
  8
606077392-000-00-ED1_FORMAT
100
AcDbLine
 62
90
  6
CONTINUOUS
 10
306.8566667195
 20
57.2102787712
 11
306.2538224437
 21
57.2102787712
  0
LINE
  5
4DF
100
AcDbEntity
  8
606077392-000-00-ED1_FORMAT
100
AcDbLine
 62
90
  6
CONTINUOUS
 10
306.2538224437
 20
57.5002797048
 11
306.8567582723
 21
57.5002797048
  0
LINE
  5
4E0
100
AcDbEntity
  8
606077392-000-00-ED1_FORMAT
100
AcDbLine
 62
90
  6
CONTINUOUS
 10
308.7041704967
 20
57.5002797048
 11
308.9650347708
 21
57.5002797048
  0
LINE
  5
4E1
100
AcDbEntity
  8
606077392-000-00-ED1_FORMAT
100
AcDbLine
 62
90
  6
CONTINUOUS
 10
310.6052021092
 20
57.5002797048
 11
324.0003750626
 21
57.5002797048
  0
LINE
  5
4E2
100
AcDbEntity
  8
606077392-000-00-ED1_FORMAT
100
AcDbLine
 62
90
  6
CONTINUOUS
 10
325.1310514025
 20
57.5002797048
 11
325.4072355017
 21
57.5002797048
  0
LINE
  5
4E3
100
AcDbEntity
  8
606077392-000-00-ED1_FORMAT
100
AcDbLine
 62
90
  6
CONTINUOUS
 10
326.932168458
 20
57.5002797048
 11
327.5174346078
 21
57.5002797048
  0
LINE
  5
4E4
100
AcDbEntity
  8
606077392-000-00-ED1_FORMAT
100
AcDbLine
 62
90
  6
CONTINUOUS
 10
327.5174346078
 20
57.7902806384
 11
326.932168458
 21
57.7902806384
  0
LINE
  5
4E5
100
AcDbEntity
  8
606077392-000-00-ED1_FORMAT
100
AcDbLine
 62
90
  6
CONTINUOUS
 10
325.4072355017
 20
57.7902806384
 11
325.1310514025
 21
57.7902806384
  0
LINE
  5
4E6
100
AcDbEntity
  8
606077392-000-00-ED1_FORMAT
100
AcDbLine
 62
90
  6
CONTINUOUS
 10
323.3572780987
 20
57.7902806384
 11
311.24329419
 21
57.7902806384
  0
LINE
  5
4E7
100
AcDbEntity
  8
606077392-000-00-ED1_FORMAT
100
AcDbLine
 62
90
  6
CONTINUOUS
 10
308.8636553699
 20
57.7902806384
 11
308.6063311351
 21
57.7902806384
  0
LINE
  5
4E8
100
AcDbEntity
  8
606077392-000-00-ED1_FORMAT
100
AcDbLine
 62
90
  6
CONTINUOUS
 10
306.856849825
 20
57.7902806384
 11
306.2538224437
 21
57.7902806384
  0
LINE
  5
4E9
100
AcDbEntity
  8
606077392-000-00-ED1_FORMAT
100
AcDbLine
 62
90
  6
CONTINUOUS
 10
306.2538224437
 20
58.0802777573
 11
306.8569413778
 21
58.0802777573
  0
LINE
  5
4EA
100
AcDbEntity
  8
606077392-000-00-ED1_FORMAT
100
AcDbLine
 62
90
  6
CONTINUOUS
 10
308.5084917736
 20
58.0802777573
 11
308.7622759691
 21
58.0802777573
  0
LINE
  5
4EB
100
AcDbEntity
  8
606077392-000-00-ED1_FORMAT
100
AcDbLine
 62
90
  6
CONTINUOUS
 10
311.8813862707
 20
58.0802777573
 11
322.7141811348
 21
58.0802777573
  0
LINE
  5
4EC
100
AcDbEntity
  8
606077392-000-00-ED1_FORMAT
100
AcDbLine
 62
90
  6
CONTINUOUS
 10
325.1310514025
 20
58.0802777573
 11
325.4072355017
 21
58.0802777573
  0
LINE
  5
4ED
100
AcDbEntity
  8
606077392-000-00-ED1_FORMAT
100
AcDbLine
 62
90
  6
CONTINUOUS
 10
326.932168458
 20
58.0802777573
 11
327.5174346078
 21
58.0802777573
  0
LINE
  5
4EE
100
AcDbEntity
  8
606077392-000-00-ED1_FORMAT
100
AcDbLine
 62
90
  6
CONTINUOUS
 10
327.4869170277
 20
58.3702786909
 11
326.932168458
 21
58.3702786909
  0
LINE
  5
4EF
100
AcDbEntity
  8
606077392-000-00-ED1_FORMAT
100
AcDbLine
 62
90
  6
CONTINUOUS
 10
325.9910368076
 20
58.3702786909
 11
325.3282254871
 21
58.3702786909
  0
LINE
  5
4F0
100
AcDbEntity
  8
606077392-000-00-ED1_FORMAT
100
AcDbLine
 62
90
  6
CONTINUOUS
 10
322.0710536534
 20
58.3702786909
 11
312.5194478339
 21
58.3702786909
  0
LINE
  5
4F1
100
AcDbEntity
  8
606077392-000-00-ED1_FORMAT
100
AcDbLine
 62
90
  6
CONTINUOUS
 10
308.6608965682
 20
58.3702786909
 11
308.2872088008
 21
58.3702786909
  0
LINE
  5
4F2
100
AcDbEntity
  8
606077392-000-00-ED1_FORMAT
100
AcDbLine
 62
90
  6
CONTINUOUS
 10
306.8570329305
 20
58.3702786909
 11
306.2538224437
 21
58.3702786909
  0
LINE
  5
4F3
100
AcDbEntity
  8
606077392-000-00-ED1_FORMAT
100
AcDbLine
 62
90
  6
CONTINUOUS
 10
306.2538224437
 20
58.6602796245
 11
306.8571550008
 21
58.6602796245
  0
LINE
  5
4F4
100
AcDbEntity
  8
606077392-000-00-ED1_FORMAT
100
AcDbLine
 62
90
  6
CONTINUOUS
 10
307.674629417
 20
58.6602796245
 11
308.2281267659
 21
58.6602796245
  0
LINE
  5
4F5
100
AcDbEntity
  8
606077392-000-00-ED1_FORMAT
100
AcDbLine
 62
90
  6
CONTINUOUS
 10
313.1575399147
 20
58.6602796245
 11
321.4279566895
 21
58.6602796245
  0
LINE
  5
4F6
100
AcDbEntity
  8
606077392-000-00-ED1_FORMAT
100
AcDbLine
 62
90
  6
CONTINUOUS
 10
326.0322355407
 20
58.6602796245
 11
326.7106108271
 21
58.6602796245
  0
LINE
  5
4F7
100
AcDbEntity
  8
606077392-000-00-ED1_FORMAT
100
AcDbLine
 62
90
  6
CONTINUOUS
 10
326.932168458
 20
58.6602796245
 11
327.2830290756
 21
58.6602796245
  0
LINE
  5
4F8
100
AcDbEntity
  8
606077392-000-00-ED1_FORMAT
100
AcDbLine
 62
90
  6
CONTINUOUS
 10
327.079171641
 20
58.9502805581
 11
326.7362761119
 21
58.9502805581
  0
LINE
  5
4F9
100
AcDbEntity
  8
606077392-000-00-ED1_FORMAT
100
AcDbLine
 62
90
  6
CONTINUOUS
 10
320.7848597256
 20
58.9502805581
 11
313.7956319954
 21
58.9502805581
  0
LINE
  5
4FA
100
AcDbEntity
  8
606077392-000-00-ED1_FORMAT
100
AcDbLine
 62
90
  6
CONTINUOUS
 10
307.6149065129
 20
58.9502805581
 11
307.0620195155
 21
58.9502805581
  0
LINE
  5
4FB
100
AcDbEntity
  8
606077392-000-00-ED1_FORMAT
100
AcDbLine
 62
90
  6
CONTINUOUS
 10
306.8572465536
 20
58.9502805581
 11
306.2538224437
 21
58.9502805581
  0
LINE
  5
4FC
100
AcDbEntity
  8
606077392-000-00-ED1_FORMAT
100
AcDbLine
 62
7
  6
CONTINUOUS
 10
410.0
 20
58.9546825665
 11
365.999998592
 21
58.9546825665
  0
LINE
  5
4FD
100
AcDbEntity
  8
606077392-000-00-ED1_FORMAT
100
AcDbLine
 62
90
  6
CONTINUOUS
 10
306.6714555264
 20
59.240277677
 11
307.0016862598
 21
59.240277677
  0
LINE
  5
4FE
100
AcDbEntity
  8
606077392-000-00-ED1_FORMAT
100
AcDbLine
 62
90
  6
CONTINUOUS
 10
314.4336935586
 20
59.240277677
 11
320.1417322441
 21
59.240277677
  0
LINE
  5
4FF
100
AcDbEntity
  8
606077392-000-00-ED1_FORMAT
100
AcDbLine
 62
90
  6
CONTINUOUS
 10
319.4986352803
 20
59.5302786105
 11
315.0717856394
 21
59.5302786105
  0
LINE
  5
500
100
AcDbEntity
  8
606077392-000-00-ED1_FORMAT
100
AcDbLine
 62
90
  6
CONTINUOUS
 10
315.7098777201
 20
59.8202795441
 11
318.8555383164
 21
59.8202795441
  0
LINE
  5
501
100
AcDbEntity
  8
606077392-000-00-ED1_FORMAT
100
AcDbLine
 62
90
  6
CONTINUOUS
 10
318.2124108349
 20
60.1102804777
 11
316.3479392833
 21
60.1102804777
  0
LINE
  5
502
100
AcDbEntity
  8
606077392-000-00-ED1_FORMAT
100
AcDbLine
 62
90
  6
CONTINUOUS
 10
317.5471381942
 20
60.4102804964
 11
317.0080338075
 21
60.4102804964
  0
LINE
  5
503
100
AcDbEntity
  8
606077392-000-00-ED1_FORMAT
100
AcDbLine
 62
90
  6
CONTINUOUS
 10
315.5730674088
 20
56.5955211951
 11
315.773903603
 21
56.5907451938
  0
LINE
  5
504
100
AcDbEntity
  8
606077392-000-00-ED1_FORMAT
100
AcDbLine
 62
90
  6
CONTINUOUS
 10
315.773903603
 20
56.5907451938
 11
315.9725120138
 21
56.5857631989
  0
LINE
  5
505
100
AcDbEntity
  8
606077392-000-00-ED1_FORMAT
100
AcDbLine
 62
90
  6
CONTINUOUS
 10
315.3701865368
 20
56.6009647684
 11
315.5730674088
 21
56.5955211951
  0
LINE
  5
506
100
AcDbEntity
  8
606077392-000-00-ED1_FORMAT
100
AcDbLine
 62
90
  6
CONTINUOUS
 10
315.1653830573
 20
56.6079761825
 11
315.3701865368
 21
56.6009647684
  0
LINE
  5
507
100
AcDbEntity
  8
606077392-000-00-ED1_FORMAT
100
AcDbLine
 62
90
  6
CONTINUOUS
 10
317.7706383465
 20
51.8433922981
 11
317.504647119
 21
51.8526314954
  0
LINE
  5
508
100
AcDbEntity
  8
606077392-000-00-ED1_FORMAT
100
AcDbLine
 62
90
  6
CONTINUOUS
 10
314.9588095581
 20
56.617440447
 11
315.1653830573
 21
56.6079761825
  0
LINE
  5
509
100
AcDbEntity
  8
606077392-000-00-ED1_FORMAT
100
AcDbLine
 62
90
  6
CONTINUOUS
 10
318.9437646402
 20
55.5377780567
 11
318.7525720014
 21
55.5470821039
  0
LINE
  5
50A
100
AcDbEntity
  8
606077392-000-00-ED1_FORMAT
100
AcDbLine
 62
90
  6
CONTINUOUS
 10
318.0062645819
 20
51.8308648315
 11
317.7706383465
 21
51.8433922981
  0
LINE
  5
50B
100
AcDbEntity
  8
606077392-000-00-ED1_FORMAT
100
AcDbLine
 62
90
  6
CONTINUOUS
 10
318.2189110795
 20
51.8161324697
 11
318.0062645819
 21
51.8308648315
  0
LINE
  5
50C
100
AcDbEntity
  8
606077392-000-00-ED1_FORMAT
100
AcDbLine
 62
90
  6
CONTINUOUS
 10
318.7938317696
 20
51.769318502
 11
318.605233125
 21
51.7842911897
  0
LINE
  5
50D
100
AcDbEntity
  8
606077392-000-00-ED1_FORMAT
100
AcDbLine
 62
90
  6
CONTINUOUS
 10
318.416085164
 20
51.8002480693
 11
318.2189110795
 21
51.8161324697
  0
LINE
  5
50E
100
AcDbEntity
  8
606077392-000-00-ED1_FORMAT
100
AcDbLine
 62
90
  6
CONTINUOUS
 10
318.605233125
 20
51.7842911897
 11
318.416085164
 21
51.8002480693
  0
LINE
  5
50F
100
AcDbEntity
  8
606077392-000-00-ED1_FORMAT
100
AcDbLine
 62
7
  6
CONTINUOUS
 10
135.000019298
 20
287.0000045341
 11
135.000019298
 21
259.0000098321
  0
LINE
  5
510
100
AcDbEntity
  8
606077392-000-00-ED1_FORMAT
100
AcDbLine
 62
7
  6
CONTINUOUS
 10
146.999991584
 20
65.00000176
 11
410.0
 21
65.00000176
  0
LINE
  5
511
100
AcDbEntity
  8
606077392-000-00-ED1_FORMAT
100
AcDbLine
 62
7
  6
CONTINUOUS
 10
146.999993584
 20
72.500002
 11
410.0
 21
72.500002
  0
LINE
  5
512
100
AcDbEntity
  8
606077392-000-00-ED1_FORMAT
100
AcDbLine
 62
90
  6
CONTINUOUS
 10
314.750557592
 20
56.6302463865
 11
314.9588095581
 21
56.617440447
  0
LINE
  5
513
100
AcDbEntity
  8
606077392-000-00-ED1_FORMAT
100
AcDbLine
 62
90
  6
CONTINUOUS
 10
314.5408102645
 20
56.6472866402
 11
314.750557592
 21
56.6302463865
  0
LINE
  5
514
100
AcDbEntity
  8
606077392-000-00-ED1_FORMAT
100
AcDbLine
 62
90
  6
CONTINUOUS
 10
322.2427760762
 20
53.4197740796
 11
322.8411647853
 21
53.3604707922
  0
LINE
  5
515
100
AcDbEntity
  8
606077392-000-00-ED1_FORMAT
100
AcDbLine
 62
90
  6
CONTINUOUS
 10
314.3296591283
 20
56.669446218
 11
314.5408102645
 21
56.6472866402
  0
LINE
  5
516
100
AcDbEntity
  8
606077392-000-00-ED1_FORMAT
100
AcDbLine
 62
90
  6
CONTINUOUS
 10
322.0031825554
 20
51.4534806222
 11
320.5375452571
 21
51.6192978933
  0
LINE
  5
517
100
AcDbEntity
  8
606077392-000-00-ED1_FORMAT
100
AcDbLine
 62
90
  6
CONTINUOUS
 10
319.1197290067
 20
55.5162898657
 11
318.9437646402
 21
55.5377780567
  0
LINE
  5
518
100
AcDbEntity
  8
606077392-000-00-ED1_FORMAT
100
AcDbLine
 62
90
  6
CONTINUOUS
 10
314.1172567713
 20
56.6976177591
 11
314.3296591283
 21
56.669446218
  0
LINE
  5
519
100
AcDbEntity
  8
606077392-000-00-ED1_FORMAT
100
AcDbLine
 62
90
  6
CONTINUOUS
 10
319.1211633329
 20
56.6452572212
 11
319.3581628594
 21
56.6093113266
  0
LINE
  5
51A
100
AcDbEntity
  8
606077392-000-00-ED1_FORMAT
100
AcDbLine
 62
90
  6
CONTINUOUS
 10
322.9365017053
 20
51.8976983318
 11
322.1121303161
 21
52.0335969303
  0
LINE
  5
51B
100
AcDbEntity
  8
606077392-000-00-ED1_FORMAT
100
AcDbLine
 62
90
  6
CONTINUOUS
 10
324.5936673358
 20
50.9565552373
 11
322.9856044916
 21
51.2672776077
  0
LINE
  5
51C
100
AcDbEntity
  8
606077392-000-00-ED1_FORMAT
100
AcDbLine
 62
7
  6
CONTINUOUS
 10
146.999991584
 20
10.0
 11
146.999993584
 21
72.500002
  0
LINE
  5
51D
100
AcDbEntity
  8
606077392-000-00-ED1_FORMAT
100
AcDbLine
 62
90
  6
CONTINUOUS
 10
311.0026020363
 20
57.1580441183
 11
312.2078938594
 21
56.9181225336
  0
LINE
  5
51E
100
AcDbEntity
  8
606077392-000-00-ED1_FORMAT
100
AcDbLine
 62
90
  6
CONTINUOUS
 10
319.3581628594
 20
56.6093113266
 11
319.5746545721
 21
56.5594341567
  0
LINE
  5
51F
100
AcDbEntity
  8
606077392-000-00-ED1_FORMAT
100
AcDbLine
 62
90
  6
CONTINUOUS
 10
319.2772302372
 20
55.4772960278
 11
319.1197290067
 21
55.5162898657
  0
LINE
  5
520
100
AcDbEntity
  8
606077392-000-00-ED1_FORMAT
100
AcDbLine
 62
7
  6
CONTINUOUS
 10
154.499993824
 20
65.00000176
 11
154.499993824
 21
72.500002
  0
LINE
  5
521
100
AcDbEntity
  8
606077392-000-00-ED1_FORMAT
100
AcDbLine
 62
3
  6
CONTINUOUS
 10
160.0
 20
10.0
 11
160.0
 21
5.0
  0
LINE
  5
522
100
AcDbEntity
  8
606077392-000-00-ED1_FORMAT
100
AcDbLine
 62
3
  6
CONTINUOUS
 10
160.0
 20
287.0
 11
160.0
 21
292.0
  0
LINE
  5
523
100
AcDbEntity
  8
606077392-000-00-ED1_FORMAT
100
AcDbLine
 62
7
  6
CONTINUOUS
 10
161.999994064
 20
65.00000176
 11
161.999994064
 21
72.500002
  0
LINE
  5
524
100
AcDbEntity
  8
606077392-000-00-ED1_FORMAT
100
AcDbLine
 62
3
  6
CONTINUOUS
 10
22.9999999122
 20
93.4999984459
 11
28.9999998068
 21
93.4999984459
  0
LINE
  5
525
100
AcDbEntity
  8
606077392-000-00-ED1_FORMAT
100
AcDbLine
 62
3
  6
CONTINUOUS
 10
23.0
 20
98.5
 11
18.0
 21
98.5
  0
LINE
  5
526
100
AcDbEntity
  8
606077392-000-00-ED1_FORMAT
100
AcDbLine
 62
3
  6
CONTINUOUS
 10
410.0
 20
98.5
 11
415.0
 21
98.5
  0
LINE
  5
527
100
AcDbEntity
  8
606077392-000-00-ED1_FORMAT
100
AcDbLine
 62
90
  6
CONTINUOUS
 10
319.5746545721
 20
56.5594341567
 11
319.771370893
 21
56.4966518652
  0
LINE
  5
528
100
AcDbEntity
  8
606077392-000-00-ED1_FORMAT
100
AcDbLine
 62
90
  6
CONTINUOUS
 10
327.4483428066
 20
51.7095612656
 11
328.8858123785
 21
51.1495865603
  0
LINE
  5
529
100
AcDbEntity
  8
606077392-000-00-ED1_FORMAT
100
AcDbLine
 62
90
  6
CONTINUOUS
 10
326.932168458
 20
51.5395669008
 11
328.2963042852
 21
50.9884537378
  0
LINE
  5
52A
100
AcDbEntity
  8
606077392-000-00-ED1_FORMAT
100
AcDbLine
 62
90
  6
CONTINUOUS
 10
319.771370893
 20
56.4966518652
 11
319.9490137263
 21
56.4220058645
  0
LINE
  5
52B
100
AcDbEntity
  8
606077392-000-00-ED1_FORMAT
100
AcDbLine
 62
90
  6
CONTINUOUS
 10
317.2765282083
 20
47.4442869521
 11
308.6544268413
 21
51.5949067174
  0
LINE
  5
52C
100
AcDbEntity
  8
606077392-000-00-ED1_FORMAT
100
AcDbLine
 62
3
  6
CONTINUOUS
 10
306.2529679515
 20
52.1786164706
 11
302.0615436566
 21
54.2349992063
  0
LINE
  5
52D
100
AcDbEntity
  8
606077392-000-00-ED1_FORMAT
100
AcDbLine
 62
3
  6
CONTINUOUS
 10
317.2765282083
 20
46.7702794944
 11
308.6552813335
 21
51.0000084565
  0
LINE
  5
52E
100
AcDbEntity
  8
606077392-000-00-ED1_FORMAT
100
AcDbLine
 62
90
  6
CONTINUOUS
 10
306.8480912796
 20
49.2196929465
 11
306.2529679515
 21
49.5195586878
  0
LINE
  5
52F
100
AcDbEntity
  8
606077392-000-00-ED1_FORMAT
100
AcDbLine
 62
7
  6
CONTINUOUS
 10
171.3988033648
 20
65.00000176
 11
171.3988033648
 21
72.500002
  0
LINE
  5
530
100
AcDbEntity
  8
606077392-000-00-ED1_FORMAT
100
AcDbLine
 62
7
  6
CONTINUOUS
 10
176.3988035248
 20
65.00000176
 11
176.3988035248
 21
72.500002
  0
LINE
  5
531
100
AcDbEntity
  8
606077392-000-00-ED1_FORMAT
100
AcDbLine
 62
90
  6
CONTINUOUS
 10
327.5174346078
 20
55.960812751
 11
331.7164705138
 21
54.2350054536
  0
LINE
  5
532
100
AcDbEntity
  8
606077392-000-00-ED1_FORMAT
100
AcDbLine
 62
3
  6
CONTINUOUS
 10
317.2765282083
 20
61.1759505575
 11
325.1310514025
 21
57.6838620222
  0
LINE
  5
533
100
AcDbEntity
  8
606077392-000-00-ED1_FORMAT
100
AcDbLine
 62
3
  6
CONTINUOUS
 10
327.5174346078
 20
56.6228802056
 11
332.8883150692
 21
54.2350054536
  0
LINE
  5
534
100
AcDbEntity
  8
606077392-000-00-ED1_FORMAT
100
AcDbLine
 62
90
  6
CONTINUOUS
 10
317.2765282083
 20
60.5323080919
 11
325.1310514025
 21
56.99042631
  0
LINE
  5
535
100
AcDbEntity
  8
606077392-000-00-ED1_FORMAT
100
AcDbLine
 62
90
  6
CONTINUOUS
 10
319.4130945035
 20
55.4154712254
 11
319.2772302372
 21
55.4772960278
  0
LINE
  5
536
100
AcDbEntity
  8
606077392-000-00-ED1_FORMAT
100
AcDbLine
 62
90
  6
CONTINUOUS
 10
306.8379899606
 20
59.3176893334
 11
308.625160482
 21
58.4725202134
  0
LINE
  5
537
100
AcDbEntity
  8
606077392-000-00-ED1_FORMAT
100
AcDbLine
 62
90
  6
CONTINUOUS
 10
306.8572770711
 20
59.0472120216
 11
308.4341204311
 21
58.3007329407
  0
LINE
  5
538
100
AcDbEntity
  8
606077392-000-00-ED1_FORMAT
100
AcDbLine
 62
90
  6
CONTINUOUS
 10
328.2963042852
 20
49.2870452456
 11
325.4072355017
 21
50.7446373469
  0
LINE
  5
539
100
AcDbEntity
  8
606077392-000-00-ED1_FORMAT
100
AcDbLine
 62
90
  6
CONTINUOUS
 10
328.3335052152
 20
48.9736602163
 11
325.1310514025
 21
50.6036919035
  0
LINE
  5
53A
100
AcDbEntity
  8
606077392-000-00-ED1_FORMAT
100
AcDbLine
 62
90
  6
CONTINUOUS
 10
306.2529679515
 20
52.7537889307
 11
303.350532468
 21
54.2350054536
  0
LINE
  5
53B
100
AcDbEntity
  8
606077392-000-00-ED1_FORMAT
100
AcDbLine
 62
90
  6
CONTINUOUS
 10
319.9490137263
 20
56.4220058645
 11
320.108315494
 21
56.3365261228
  0
LINE
  5
53C
100
AcDbEntity
  8
606077392-000-00-ED1_FORMAT
100
AcDbLine
 62
90
  6
CONTINUOUS
 10
320.108315494
 20
56.3365261228
 11
320.2500391357
 21
56.2412464233
  0
LINE
  5
53D
100
AcDbEntity
  8
606077392-000-00-ED1_FORMAT
100
AcDbLine
 62
7
  6
CONTINUOUS
 10
207.999993536
 20
65.00000176
 11
207.999993536
 21
72.500002
  0
LINE
  5
53E
100
AcDbEntity
  8
606077392-000-00-ED1_FORMAT
100
AcDbLine
 62
7
  6
CONTINUOUS
 10
210.0
 20
292.0
 11
210.0
 21
277.0
  0
LINE
  5
53F
100
AcDbEntity
  8
606077392-000-00-ED1_FORMAT
100
AcDbLine
 62
3
  6
CONTINUOUS
 10
210.0
 20
10.0
 11
210.0
 21
5.0
  0
LINE
  5
540
100
AcDbEntity
  8
606077392-000-00-ED1_FORMAT
100
AcDbLine
 62
7
  6
CONTINUOUS
 10
415.0
 20
148.5
 11
400.0
 21
148.5
  0
LINE
  5
541
100
AcDbEntity
  8
606077392-000-00-ED1_FORMAT
100
AcDbLine
 62
7
  6
CONTINUOUS
 10
18.0
 20
148.5
 11
33.0
 21
148.5
  0
LINE
  5
542
100
AcDbEntity
  8
606077392-000-00-ED1_FORMAT
100
AcDbLine
 62
3
  6
CONTINUOUS
 10
23.0
 20
148.515014696
 11
29.000000192
 21
148.515014696
  0
LINE
  5
543
100
AcDbEntity
  8
606077392-000-00-ED1_FORMAT
100
AcDbLine
 62
90
  6
CONTINUOUS
 10
319.524086942
 20
55.3254977701
 11
319.4130945035
 21
55.4154712254
  0
LINE
  5
544
100
AcDbEntity
  8
606077392-000-00-ED1_FORMAT
100
AcDbLine
 62
90
  6
CONTINUOUS
 10
320.2500391357
 20
56.2412464233
 11
320.3748255204
 21
56.1372005489
  0
LINE
  5
545
100
AcDbEntity
  8
606077392-000-00-ED1_FORMAT
100
AcDbLine
 62
7
  6
CONTINUOUS
 10
223.999992048
 20
10.0
 11
223.999992048
 21
65.00000176
  0
LINE
  5
546
100
AcDbEntity
  8
606077392-000-00-ED1_FORMAT
100
AcDbLine
 62
90
  6
CONTINUOUS
 10
320.3748255204
 20
56.1372005489
 11
320.4834681053
 21
56.025418468
  0
LINE
  5
547
100
AcDbEntity
  8
606077392-000-00-ED1_FORMAT
100
AcDbLine
 62
90
  6
CONTINUOUS
 10
320.4834681053
 20
56.025418468
 11
320.5766382771
 21
55.9069454076
  0
LINE
  5
548
100
AcDbEntity
  8
606077392-000-00-ED1_FORMAT
100
AcDbLine
 62
90
  6
CONTINUOUS
 10
327.0021757866
 20
59.0598043381
 11
327.5174346078
 21
58.326871248
  0
LINE
  5
549
100
AcDbEntity
  8
606077392-000-00-ED1_FORMAT
100
AcDbLine
 62
90
  6
CONTINUOUS
 10
319.6070032069
 20
55.2020465295
 11
319.524086942
 21
55.3254977701
  0
LINE
  5
54A
100
AcDbEntity
  8
606077392-000-00-ED1_FORMAT
100
AcDbLine
 62
90
  6
CONTINUOUS
 10
320.5766382771
 20
55.9069454076
 11
320.6550989753
 21
55.7828037068
  0
LINE
  5
54B
100
AcDbEntity
  8
606077392-000-00-ED1_FORMAT
100
AcDbLine
 62
3
  6
CONTINUOUS
 10
260.0
 20
10.0
 11
260.0
 21
5.0
  0
LINE
  5
54C
100
AcDbEntity
  8
606077392-000-00-ED1_FORMAT
100
AcDbLine
 62
3
  6
CONTINUOUS
 10
260.0
 20
287.0
 11
260.0
 21
292.0
  0
LINE
  5
54D
100
AcDbEntity
  8
606077392-000-00-ED1_FORMAT
100
AcDbLine
 62
7
  6
CONTINUOUS
 10
260.999993232
 20
43.500001072
 11
260.999993232
 21
35.0000008
  0
LINE
  5
54E
100
AcDbEntity
  8
606077392-000-00-ED1_FORMAT
100
AcDbLine
 62
7
  6
CONTINUOUS
 10
264.9013593819
 20
287.0
 11
264.9013593819
 21
225.000007
  0
LINE
  5
54F
100
AcDbEntity
  8
606077392-000-00-ED1_FORMAT
100
AcDbLine
 62
3
  6
CONTINUOUS
 10
23.0
 20
198.5
 11
18.0
 21
198.5
  0
LINE
  5
550
100
AcDbEntity
  8
606077392-000-00-ED1_FORMAT
100
AcDbLine
 62
3
  6
CONTINUOUS
 10
410.0
 20
198.5
 11
415.0
 21
198.5
  0
LINE
  5
551
100
AcDbEntity
  8
606077392-000-00-ED1_FORMAT
100
AcDbLine
 62
90
  6
CONTINUOUS
 10
320.6550989753
 20
55.7828037068
 11
320.7195215868
 21
55.6540347778
  0
LINE
  5
552
100
AcDbEntity
  8
606077392-000-00-ED1_FORMAT
100
AcDbLine
 62
90
  6
CONTINUOUS
 10
309.6609271481
 20
51.1619538096
 11
308.4533770241
 21
54.0527163187
  0
LINE
  5
553
100
AcDbEntity
  8
606077392-000-00-ED1_FORMAT
100
AcDbLine
 62
7
  6
CONTINUOUS
 10
274.9014193732
 20
225.000007
 11
274.9014193732
 21
287.0000007463
  0
LINE
  5
554
100
AcDbEntity
  8
606077392-000-00-ED1_FORMAT
100
AcDbLine
 62
3
  6
CONTINUOUS
 10
28.9999998068
 20
209.9999964
 11
22.9999999122
 21
209.9999964
  0
LINE
  5
555
100
AcDbEntity
  8
606077392-000-00-ED1_FORMAT
100
AcDbLine
 62
90
  6
CONTINUOUS
 10
320.7195215868
 20
55.6540347778
 11
320.7706995685
 21
55.5216724039
  0
LINE
  5
556
100
AcDbEntity
  8
606077392-000-00-ED1_FORMAT
100
AcDbLine
 62
90
  6
CONTINUOUS
 10
308.625160482
 20
58.4725202134
 11
309.189918818
 21
56.8570377824
  0
LINE
  5
557
100
AcDbEntity
  8
606077392-000-00-ED1_FORMAT
100
AcDbLine
 62
90
  6
CONTINUOUS
 10
308.4341204311
 20
58.3007329407
 11
309.5429461837
 21
55.0142718596
  0
LINE
  5
558
100
AcDbEntity
  8
606077392-000-00-ED1_FORMAT
100
AcDbLine
 62
7
  6
CONTINUOUS
 10
294.99999432
 20
65.00000176
 11
294.99999432
 21
35.0000008
  0
LINE
  5
559
100
AcDbEntity
  8
606077392-000-00-ED1_FORMAT
100
AcDbLine
 62
7
  6
CONTINUOUS
 10
264.9013593819
 20
225.000007
 11
410.0000007463
 21
225.000007
  0
LINE
  5
55A
100
AcDbEntity
  8
606077392-000-00-ED1_FORMAT
100
AcDbLine
 62
7
  6
CONTINUOUS
 10
274.9014193732
 20
229.5500015411
 11
376.900004085
 21
229.5500015411
  0
LINE
  5
55B
100
AcDbEntity
  8
606077392-000-00-ED1_FORMAT
100
AcDbLine
 62
7
  6
CONTINUOUS
 10
264.9013593819
 20
234.0999960821
 11
410.0000007463
 21
234.0999960821
  0
LINE
  5
55C
100
AcDbEntity
  8
606077392-000-00-ED1_FORMAT
100
AcDbLine
 62
90
  6
CONTINUOUS
 10
319.6586389523
 20
55.03980363
 11
319.6070032069
 21
55.2020465295
  0
LINE
  5
55D
100
AcDbEntity
  8
606077392-000-00-ED1_FORMAT
100
AcDbLine
 62
90
  6
CONTINUOUS
 10
320.7706995685
 20
55.5216724039
 11
320.8093043072
 21
55.3867427385
  0
LINE
  5
55E
100
AcDbEntity
  8
606077392-000-00-ED1_FORMAT
100
AcDbLine
 62
90
  6
CONTINUOUS
 10
315.9725120138
 20
56.5857631989
 11
317.1683433871
 21
51.8564423783
  0
LINE
  5
55F
100
AcDbEntity
  8
606077392-000-00-ED1_FORMAT
100
AcDbLine
 62
90
  6
CONTINUOUS
 10
315.6792380698
 20
51.8104561999
 11
315.4687888379
 21
52.775513633
  0
LINE
  5
560
100
AcDbEntity
  8
606077392-000-00-ED1_FORMAT
100
AcDbLine
 62
90
  6
CONTINUOUS
 10
315.336312023
 20
53.8016825201
 11
314.9602133668
 21
55.541772045
  0
LINE
  5
561
100
AcDbEntity
  8
606077392-000-00-ED1_FORMAT
100
AcDbLine
 62
90
  6
CONTINUOUS
 10
319.6758203499
 20
54.8334437538
 11
319.6586389523
 21
55.03980363
  0
LINE
  5
562
100
AcDbEntity
  8
606077392-000-00-ED1_FORMAT
100
AcDbLine
 62
7
  6
CONTINUOUS
 10
299.9999903875
 20
10.0
 11
299.999990634
 21
24.250000456
  0
LINE
  5
563
100
AcDbEntity
  8
606077392-000-00-ED1_FORMAT
100
AcDbLine
 62
90
  6
CONTINUOUS
 10
306.2529679515
 20
49.5195586878
 11
306.2529679515
 21
52.7537889307
  0
LINE
  5
564
100
AcDbEntity
  8
606077392-000-00-ED1_FORMAT
100
AcDbLine
 62
90
  6
CONTINUOUS
 10
306.2538224437
 20
55.54782597
 11
306.2538224437
 21
59.0461400916
  0
LINE
  5
565
100
AcDbEntity
  8
606077392-000-00-ED1_FORMAT
100
AcDbLine
 62
90
  6
CONTINUOUS
 10
308.4533770241
 20
54.0527163187
 11
308.4533770241
 21
50.4031799586
  0
LINE
  5
566
100
AcDbEntity
  8
606077392-000-00-ED1_FORMAT
100
AcDbLine
 62
90
  6
CONTINUOUS
 10
308.6544268413
 20
51.5949067174
 11
308.6544268413
 21
50.2336204693
  0
LINE
  5
567
100
AcDbEntity
  8
606077392-000-00-ED1_FORMAT
100
AcDbLine
 62
3
  6
CONTINUOUS
 10
310.0
 20
10.0
 11
310.0
 21
5.0
  0
LINE
  5
568
100
AcDbEntity
  8
606077392-000-00-ED1_FORMAT
100
AcDbLine
 62
3
  6
CONTINUOUS
 10
310.0
 20
287.0
 11
310.0
 21
292.0
  0
LINE
  5
569
100
AcDbEntity
  8
606077392-000-00-ED1_FORMAT
100
AcDbLine
 62
90
  6
CONTINUOUS
 10
310.7759784871
 20
51.0971573578
 11
310.7759784871
 21
53.7835398188
  0
LINE
  5
56A
100
AcDbEntity
  8
606077392-000-00-ED1_FORMAT
100
AcDbLine
 62
90
  6
CONTINUOUS
 10
312.2078938594
 20
56.9181225336
 11
312.2078938594
 21
51.4102448407
  0
LINE
  5
56B
100
AcDbEntity
  8
606077392-000-00-ED1_FORMAT
100
AcDbLine
 62
7
  6
CONTINUOUS
 10
314.0000008808
 20
65.00000176
 11
314.0000008808
 21
72.500002
  0
LINE
  5
56C
100
AcDbEntity
  8
606077392-000-00-ED1_FORMAT
100
AcDbLine
 62
90
  6
CONTINUOUS
 10
306.8541032428
 20
49.5294349396
 11
306.8572770711
 21
59.0472120216
  0
LINE
  5
56D
100
AcDbEntity
  8
606077392-000-00-ED1_FORMAT
100
AcDbLine
 62
7
  6
CONTINUOUS
 10
274.9014193732
 20
238.6499906232
 11
376.900004085
 21
238.6499906232
  0
LINE
  5
56E
100
AcDbEntity
  8
606077392-000-00-ED1_FORMAT
100
AcDbLine
 62
7
  6
CONTINUOUS
 10
264.9013593819
 20
243.1999851642
 11
410.0000007463
 21
243.1999851642
  0
LINE
  5
56F
100
AcDbEntity
  8
606077392-000-00-ED1_FORMAT
100
AcDbLine
 62
7
  6
CONTINUOUS
 10
274.9014193732
 20
247.7499797053
 11
376.900004085
 21
247.7499797053
  0
LINE
  5
570
100
AcDbEntity
  8
606077392-000-00-ED1_FORMAT
100
AcDbLine
 62
3
  6
CONTINUOUS
 10
23.0
 20
248.5
 11
18.0
 21
248.5
  0
LINE
  5
571
100
AcDbEntity
  8
606077392-000-00-ED1_FORMAT
100
AcDbLine
 62
3
  6
CONTINUOUS
 10
410.0
 20
248.5
 11
415.0
 21
248.5
  0
LINE
  5
572
100
AcDbEntity
  8
606077392-000-00-ED1_FORMAT
100
AcDbLine
 62
7
  6
CONTINUOUS
 10
264.9013593819
 20
252.2999732463
 11
410.0000007463
 21
252.2999732463
  0
LINE
  5
573
100
AcDbEntity
  8
606077392-000-00-ED1_FORMAT
100
AcDbLine
 62
90
  6
CONTINUOUS
 10
320.8093043072
 20
55.3867427385
 11
320.8360377073
 21
55.2502871941
  0
LINE
  5
574
100
AcDbEntity
  8
606077392-000-00-ED1_FORMAT
100
AcDbLine
 62
90
  6
CONTINUOUS
 10
323.4244472923
 20
57.2541096455
 11
324.5936673358
 21
50.9565552373
  0
LINE
  5
575
100
AcDbEntity
  8
606077392-000-00-ED1_FORMAT
100
AcDbLine
 62
90
  6
CONTINUOUS
 10
322.8411647853
 20
53.3604707922
 11
322.5284816604
 21
55.3982936425
  0
LINE
  5
576
100
AcDbEntity
  8
606077392-000-00-ED1_FORMAT
100
AcDbLine
 62
90
  6
CONTINUOUS
 10
320.8360377073
 20
55.2502871941
 11
320.8516932259
 21
55.113335739
  0
LINE
  5
577
100
AcDbEntity
  8
606077392-000-00-ED1_FORMAT
100
AcDbLine
 62
90
  6
CONTINUOUS
 10
322.9856044916
 20
51.2672776077
 11
322.9365017053
 21
51.8976983318
  0
LINE
  5
578
100
AcDbEntity
  8
606077392-000-00-ED1_FORMAT
100
AcDbLine
 62
90
  6
CONTINUOUS
 10
320.8516932259
 20
55.113335739
 11
320.8569422496
 21
54.976925971
  0
LINE
  5
579
100
AcDbEntity
  8
606077392-000-00-ED1_FORMAT
100
AcDbLine
 62
90
  6
CONTINUOUS
 10
318.7525720014
 20
55.5470821039
 11
318.7601098437
 21
53.9302530848
  0
LINE
  5
57A
100
AcDbEntity
  8
606077392-000-00-ED1_FORMAT
100
AcDbLine
 62
90
  6
CONTINUOUS
 10
317.504647119
 20
51.8526314954
 11
317.504647119
 21
56.61847423
  0
LINE
  5
57B
100
AcDbEntity
  8
606077392-000-00-ED1_FORMAT
100
AcDbLine
 62
90
  6
CONTINUOUS
 10
318.7919396796
 20
52.828049647
 11
318.7919396796
 21
51.769318502
  0
LINE
  5
57C
100
AcDbEntity
  8
606077392-000-00-ED1_FORMAT
100
AcDbLine
 62
90
  6
CONTINUOUS
 10
325.1310514025
 20
50.6036919035
 11
325.1310514025
 21
51.1375969661
  0
LINE
  5
57D
100
AcDbEntity
  8
606077392-000-00-ED1_FORMAT
100
AcDbLine
 62
90
  6
CONTINUOUS
 10
325.1310514025
 20
56.99042631
 11
325.1310514025
 21
58.2890561516
  0
LINE
  5
57E
100
AcDbEntity
  8
606077392-000-00-ED1_FORMAT
100
AcDbLine
 62
90
  6
CONTINUOUS
 10
325.4072355017
 20
50.7446373469
 11
325.4072355017
 21
58.1349919636
  0
LINE
  5
57F
100
AcDbEntity
  8
606077392-000-00-ED1_FORMAT
100
AcDbLine
 62
90
  6
CONTINUOUS
 10
326.932168458
 20
58.7495740636
 11
326.932168458
 21
51.5395669008
  0
LINE
  5
580
100
AcDbEntity
  8
606077392-000-00-ED1_FORMAT
100
AcDbLine
 62
90
  6
CONTINUOUS
 10
327.4483428066
 20
52.1575097493
 11
327.4483428066
 21
51.7095612656
  0
LINE
  5
581
100
AcDbEntity
  8
606077392-000-00-ED1_FORMAT
100
AcDbLine
 62
90
  6
CONTINUOUS
 10
327.5174346078
 20
58.326871248
 11
327.5174346078
 21
55.960812751
  0
LINE
  5
582
100
AcDbEntity
  8
606077392-000-00-ED1_FORMAT
100
AcDbLine
 62
90
  6
CONTINUOUS
 10
328.2963042852
 20
50.9884537378
 11
328.2963042852
 21
49.2870452456
  0
LINE
  5
583
100
AcDbEntity
  8
606077392-000-00-ED1_FORMAT
100
AcDbLine
 62
90
  6
CONTINUOUS
 10
328.8858123785
 20
51.1495865603
 11
328.8858123785
 21
49.3918693183
  0
LINE
  5
584
100
AcDbEntity
  8
606077392-000-00-ED1_FORMAT
100
AcDbLine
 62
90
  6
CONTINUOUS
 10
320.8569422496
 20
54.976925971
 11
320.8524256478
 21
54.7780543461
  0
LINE
  5
585
100
AcDbEntity
  8
606077392-000-00-ED1_FORMAT
100
AcDbLine
 62
90
  6
CONTINUOUS
 10
319.6602563841
 20
54.6050921466
 11
319.6758203499
 21
54.8334437538
  0
LINE
  5
586
100
AcDbEntity
  8
606077392-000-00-ED1_FORMAT
100
AcDbLine
 62
90
  6
CONTINUOUS
 10
320.8524256478
 20
54.7780543461
 11
320.8380823852
 21
54.5885821358
  0
LINE
  5
587
100
AcDbEntity
  8
606077392-000-00-ED1_FORMAT
100
AcDbLine
 62
7
  6
CONTINUOUS
 10
274.9014193732
 20
256.8499677874
 11
376.900004085
 21
256.8499677874
  0
LINE
  5
588
100
AcDbEntity
  8
606077392-000-00-ED1_FORMAT
100
AcDbLine
 62
7
  6
CONTINUOUS
 10
135.0000610636
 20
259.0000097341
 11
23.0001
 21
259.0000097341
  0
LINE
  5
589
100
AcDbEntity
  8
606077392-000-00-ED1_FORMAT
100
AcDbLine
 62
7
  6
CONTINUOUS
 10
264.9013593819
 20
261.3999623285
 11
410.0000007463
 21
261.3999623285
  0
LINE
  5
58A
100
AcDbEntity
  8
606077392-000-00-ED1_FORMAT
100
AcDbLine
 62
7
  6
CONTINUOUS
 10
135.0000610636
 20
265.0000076482
 11
23.0001
 21
265.0000076482
  0
LINE
  5
58B
100
AcDbEntity
  8
606077392-000-00-ED1_FORMAT
100
AcDbLine
 62
7
  6
CONTINUOUS
 10
274.9014193732
 20
265.9499568695
 11
376.900004085
 21
265.9499568695
  0
LINE
  5
58C
100
AcDbEntity
  8
606077392-000-00-ED1_FORMAT
100
AcDbLine
 62
90
  6
CONTINUOUS
 10
320.8380823852
 20
54.5885821358
 11
320.8140040145
 21
54.4085627459
  0
LINE
  5
58D
100
AcDbEntity
  8
606077392-000-00-ED1_FORMAT
100
AcDbLine
 62
90
  6
CONTINUOUS
 10
322.5284816604
 20
55.3982936425
 11
322.2427760762
 21
53.4197740796
  0
LINE
  5
58E
100
AcDbEntity
  8
606077392-000-00-ED1_FORMAT
100
AcDbLine
 62
90
  6
CONTINUOUS
 10
322.1121303161
 20
52.0335969303
 11
322.0031825554
 21
51.4534806222
  0
LINE
  5
58F
100
AcDbEntity
  8
606077392-000-00-ED1_FORMAT
100
AcDbLine
 62
90
  6
CONTINUOUS
 10
320.8140040145
 20
54.4085627459
 11
320.780251571
 21
54.2380190647
  0
LINE
  5
590
100
AcDbEntity
  8
606077392-000-00-ED1_FORMAT
100
AcDbLine
 62
90
  6
CONTINUOUS
 10
314.4483114794
 20
52.701374987
 11
314.221260684
 21
51.6919106602
  0
LINE
  5
591
100
AcDbEntity
  8
606077392-000-00-ED1_FORMAT
100
AcDbLine
 62
90
  6
CONTINUOUS
 10
314.9602133668
 20
55.541772045
 11
314.5568930292
 21
53.7608995891
  0
LINE
  5
592
100
AcDbEntity
  8
606077392-000-00-ED1_FORMAT
100
AcDbLine
 62
90
  6
CONTINUOUS
 10
320.5375452571
 20
51.6192978933
 11
321.735726484
 21
56.8852055088
  0
LINE
  5
593
100
AcDbEntity
  8
606077392-000-00-ED1_FORMAT
100
AcDbLine
 62
90
  6
CONTINUOUS
 10
319.6160669282
 20
54.4151469138
 11
319.6602563841
 21
54.6050921466
  0
LINE
  5
594
100
AcDbEntity
  8
606077392-000-00-ED1_FORMAT
100
AcDbLine
 62
90
  6
CONTINUOUS
 10
320.780251571
 20
54.2380190647
 11
320.7368860898
 21
54.077000683
  0
LINE
  5
595
100
AcDbEntity
  8
606077392-000-00-ED1_FORMAT
100
AcDbLine
 62
90
  6
CONTINUOUS
 10
312.6779866622
 20
51.4975518225
 11
314.1172567713
 21
56.6976177591
  0
LINE
  5
596
100
AcDbEntity
  8
606077392-000-00-ED1_FORMAT
100
AcDbLine
 62
90
  6
CONTINUOUS
 10
310.7759784871
 20
53.7835398188
 11
309.6609271481
 21
51.1619538096
  0
LINE
  5
597
100
AcDbEntity
  8
606077392-000-00-ED1_FORMAT
100
AcDbLine
 62
90
  6
CONTINUOUS
 10
308.4533770241
 20
50.4031799586
 11
306.8541032428
 21
49.5294349396
  0
LINE
  5
598
100
AcDbEntity
  8
606077392-000-00-ED1_FORMAT
100
AcDbLine
 62
90
  6
CONTINUOUS
 10
319.9253015666
 20
53.0628747959
 11
319.7895898882
 21
52.9992570857
  0
LINE
  5
599
100
AcDbEntity
  8
606077392-000-00-ED1_FORMAT
100
AcDbLine
 62
90
  6
CONTINUOUS
 10
306.2538224437
 20
59.0461400916
 11
306.8379899606
 21
59.3176893334
  0
LINE
  5
59A
100
AcDbEntity
  8
606077392-000-00-ED1_FORMAT
100
AcDbLine
 62
3
  6
CONTINUOUS
 10
302.0615436566
 20
54.2349992063
 11
306.2538224437
 21
56.1474824568
  0
LINE
  5
59B
100
AcDbEntity
  8
606077392-000-00-ED1_FORMAT
100
AcDbLine
 62
3
  6
CONTINUOUS
 10
309.0000094785
 20
57.4002704925
 11
317.2765282083
 21
61.1759505575
  0
LINE
  5
59C
100
AcDbEntity
  8
606077392-000-00-ED1_FORMAT
100
AcDbLine
 62
90
  6
CONTINUOUS
 10
309.189918818
 20
56.8570377824
 11
317.2765282083
 21
60.5323080919
  0
LINE
  5
59D
100
AcDbEntity
  8
606077392-000-00-ED1_FORMAT
100
AcDbLine
 62
90
  6
CONTINUOUS
 10
303.350532468
 20
54.2350054536
 11
306.2538224437
 21
55.54782597
  0
LINE
  5
59E
100
AcDbEntity
  8
606077392-000-00-ED1_FORMAT
100
AcDbLine
 62
90
  6
CONTINUOUS
 10
325.1310514025
 20
58.2890561516
 11
327.0021757866
 21
59.0598043381
  0
LINE
  5
59F
100
AcDbEntity
  8
606077392-000-00-ED1_FORMAT
100
AcDbLine
 62
90
  6
CONTINUOUS
 10
319.1567773488
 20
53.9852228758
 11
319.3136377102
 21
54.0486460365
  0
LINE
  5
5A0
100
AcDbEntity
  8
606077392-000-00-ED1_FORMAT
100
AcDbLine
 62
90
  6
CONTINUOUS
 10
325.4072355017
 20
58.1349919636
 11
326.932168458
 21
58.7495740636
  0
LINE
  5
5A1
100
AcDbEntity
  8
606077392-000-00-ED1_FORMAT
100
AcDbLine
 62
90
  6
CONTINUOUS
 10
319.7895898882
 20
52.9992570857
 11
319.6450586292
 21
52.9455957359
  0
LINE
  5
5A2
100
AcDbEntity
  8
606077392-000-00-ED1_FORMAT
100
AcDbLine
 62
90
  6
CONTINUOUS
 10
319.6450586292
 20
52.9455957359
 11
319.4917077896
 21
52.901936523
  0
LINE
  5
5A3
100
AcDbEntity
  8
606077392-000-00-ED1_FORMAT
100
AcDbLine
 62
7
  6
CONTINUOUS
 10
264.9013593819
 20
270.4999514106
 11
410.0000007463
 21
270.4999514106
  0
LINE
  5
5A4
100
AcDbEntity
  8
606077392-000-00-ED1_FORMAT
100
AcDbLine
 62
7
  6
CONTINUOUS
 10
274.9014193732
 20
275.0499459516
 11
376.900004085
 21
275.0499459516
  0
LINE
  5
5A5
100
AcDbEntity
  8
606077392-000-00-ED1_FORMAT
100
AcDbLine
 62
7
  6
CONTINUOUS
 10
264.9013593819
 20
279.5999404927
 11
410.0000007463
 21
279.5999404927
  0
LINE
  5
5A6
100
AcDbEntity
  8
606077392-000-00-ED1_FORMAT
100
AcDbLine
 62
7
  6
CONTINUOUS
 10
135.0000610636
 20
281.0000010853
 11
23.0001
 21
281.0000010853
  0
LINE
  5
5A7
100
AcDbEntity
  8
606077392-000-00-ED1_FORMAT
100
AcDbLine
 62
7
  6
CONTINUOUS
 10
344.9999968815
 20
13.500000112
 11
344.9999968815
 21
24.250000456
  0
LINE
  5
5A8
100
AcDbEntity
  8
606077392-000-00-ED1_FORMAT
100
AcDbLine
 62
90
  6
CONTINUOUS
 10
320.7368860898
 20
54.077000683
 11
320.683968606
 21
53.9255419334
  0
LINE
  5
5A9
100
AcDbEntity
  8
606077392-000-00-ED1_FORMAT
100
AcDbLine
 62
90
  6
CONTINUOUS
 10
320.683968606
 20
53.9255419334
 11
320.6215601549
 21
53.783688592
  0
LINE
  5
5AA
100
AcDbEntity
  8
606077392-000-00-ED1_FORMAT
100
AcDbLine
 62
90
  6
CONTINUOUS
 10
319.5434350877
 20
54.2608958056
 11
319.6160669282
 21
54.4151469138
  0
LINE
  5
5AB
100
AcDbEntity
  8
606077392-000-00-ED1_FORMAT
100
AcDbLine
 62
90
  6
CONTINUOUS
 10
320.6215601549
 20
53.783688592
 11
320.5497522891
 21
53.6514749913
  0
LINE
  5
5AC
100
AcDbEntity
  8
606077392-000-00-ED1_FORMAT
100
AcDbLine
 62
90
  6
CONTINUOUS
 10
320.5497522891
 20
53.6514749913
 11
320.4686060438
 21
53.5289430928
  0
LINE
  5
5AD
100
AcDbEntity
  8
606077392-000-00-ED1_FORMAT
100
AcDbLine
 62
90
  6
CONTINUOUS
 10
309.5429461837
 20
55.0142718596
 11
311.0026020363
 21
57.1580441183
  0
LINE
  5
5AE
100
AcDbEntity
  8
606077392-000-00-ED1_FORMAT
100
AcDbLine
 62
90
  6
CONTINUOUS
 10
320.4686060438
 20
53.5289430928
 11
320.3782129718
 21
53.4161310435
  0
LINE
  5
5AF
100
AcDbEntity
  8
606077392-000-00-ED1_FORMAT
100
AcDbLine
 62
90
  6
CONTINUOUS
 10
319.4425744858
 20
54.1396303867
 11
319.5434350877
 21
54.2608958056
  0
LINE
  5
5B0
100
AcDbEntity
  8
606077392-000-00-ED1_FORMAT
100
AcDbLine
 62
90
  6
CONTINUOUS
 10
320.3782129718
 20
53.4161310435
 11
320.2786035906
 21
53.3130769905
  0
LINE
  5
5B1
100
AcDbEntity
  8
606077392-000-00-ED1_FORMAT
100
AcDbLine
 62
90
  6
CONTINUOUS
 10
320.2786035906
 20
53.3130769905
 11
320.1698694529
 21
53.2198228953
  0
LINE
  5
5B2
100
AcDbEntity
  8
606077392-000-00-ED1_FORMAT
100
AcDbLine
 62
90
  6
CONTINUOUS
 10
320.1698694529
 20
53.2198228953
 11
320.052071594
 21
53.1364107197
  0
LINE
  5
5B3
100
AcDbEntity
  8
606077392-000-00-ED1_FORMAT
100
AcDbLine
 62
90
  6
CONTINUOUS
 10
319.3136377102
 20
54.0486460365
 11
319.4425744858
 21
54.1396303867
  0
LINE
  5
5B4
100
AcDbEntity
  8
606077392-000-00-ED1_FORMAT
100
AcDbLine
 62
90
  6
CONTINUOUS
 10
320.052071594
 20
53.1364107197
 11
319.9253015666
 21
53.0628747959
  0
LINE
  5
5B5
100
AcDbEntity
  8
606077392-000-00-ED1_FORMAT
100
AcDbLine
 62
90
  6
CONTINUOUS
 10
308.6563799664
 20
50.2336204693
 11
306.8480912796
 21
49.2196929465
  0
LINE
  5
5B6
100
AcDbEntity
  8
606077392-000-00-ED1_FORMAT
100
AcDbLine
 62
90
  6
CONTINUOUS
 10
331.7164705138
 20
54.2350054536
 11
327.4483428066
 21
52.1575097493
  0
LINE
  5
5B7
100
AcDbEntity
  8
606077392-000-00-ED1_FORMAT
100
AcDbLine
 62
3
  6
CONTINUOUS
 10
325.2098477941
 20
50.5635765446
 11
317.2765282083
 21
46.7702794944
  0
LINE
  5
5B8
100
AcDbEntity
  8
606077392-000-00-ED1_FORMAT
100
AcDbLine
 62
3
  6
CONTINUOUS
 10
332.8883150692
 20
54.2350054536
 11
327.5355620503
 21
51.6755990137
  0
LINE
  5
5B9
100
AcDbEntity
  8
606077392-000-00-ED1_FORMAT
100
AcDbLine
 62
90
  6
CONTINUOUS
 10
325.1310514025
 20
51.1375969661
 11
317.2765282083
 21
47.4442869521
  0
LINE
  5
5BA
100
AcDbEntity
  8
606077392-000-00-ED1_FORMAT
100
AcDbLine
 62
7
  6
CONTINUOUS
 10
410.0
 20
287.0
 11
264.9013593819
 21
287.0
  0
LINE
  5
5BB
100
AcDbEntity
  8
606077392-000-00-ED1_FORMAT
100
AcDbLine
 62
3
  6
CONTINUOUS
 10
23.0
 20
287.0
 11
23.0001
 21
287.0
  0
LINE
  5
5BC
100
AcDbEntity
  8
606077392-000-00-ED1_FORMAT
100
AcDbLine
 62
7
  6
CONTINUOUS
 10
23.0001
 20
287.0
 11
135.0000610636
 21
287.0
  0
LINE
  5
5BD
100
AcDbEntity
  8
606077392-000-00-ED1_FORMAT
100
AcDbLine
 62
3
  6
CONTINUOUS
 10
135.0000610636
 20
287.0
 11
264.9013593819
 21
287.0
  0
LINE
  5
5BE
100
AcDbEntity
  8
606077392-000-00-ED1_FORMAT
100
AcDbLine
 62
7
  6
CONTINUOUS
 10
415.0
 20
292.0
 11
18.0
 21
292.0
  0
LINE
  5
5BF
100
AcDbEntity
  8
606077392-000-00-ED1_FORMAT
100
AcDbLine
 62
6
  6
HIDDEN
 10
420.0
 20
297.0
 11
0.0
 21
297.0
  0
LINE
  5
5C0
100
AcDbEntity
  8
606077392-000-00-ED1_FORMAT
100
AcDbLine
 62
3
  6
CONTINUOUS
 10
360.0
 20
10.0
 11
360.0
 21
5.0
  0
LINE
  5
5C1
100
AcDbEntity
  8
606077392-000-00-ED1_FORMAT
100
AcDbLine
 62
3
  6
CONTINUOUS
 10
360.0
 20
287.0
 11
360.0
 21
292.0
  0
LINE
  5
5C2
100
AcDbEntity
  8
606077392-000-00-ED1_FORMAT
100
AcDbLine
 62
7
  6
CONTINUOUS
 10
365.999998592
 20
35.0000008
 11
366.0000025448
 21
72.500002
  0
LINE
  5
5C3
100
AcDbEntity
  8
606077392-000-00-ED1_FORMAT
100
AcDbLine
 62
90
  6
CONTINUOUS
 10
328.8858123785
 20
49.3918693183
 11
328.3335052152
 21
48.9736602163
  0
LINE
  5
5C4
100
AcDbEntity
  8
606077392-000-00-ED1_FORMAT
100
AcDbLine
 62
7
  6
CONTINUOUS
 10
376.8994429408
 20
40.9546819905
 11
376.8994429408
 21
65.00000176
  0
LINE
  5
5C5
100
AcDbEntity
  8
606077392-000-00-ED1_FORMAT
100
AcDbLine
 62
7
  6
CONTINUOUS
 10
376.900004085
 20
225.000007
 11
376.900004085
 21
287.0000007463
  0
LINE
  5
5C6
100
AcDbEntity
  8
606077392-000-00-ED1_FORMAT
100
AcDbLine
 62
7
  6
CONTINUOUS
 10
377.7325379674
 20
13.500000112
 11
377.7325379674
 21
10.0
  0
LINE
  5
5C7
100
AcDbEntity
  8
606077392-000-00-ED1_FORMAT
100
AcDbLine
 62
7
  6
CONTINUOUS
 10
391.8994434208
 20
65.00000176
 11
391.8994434208
 21
35.0000008
  0
LINE
  5
5C8
100
AcDbEntity
  8
606077392-000-00-ED1_FORMAT
100
AcDbLine
 62
7
  6
CONTINUOUS
 10
391.900002572
 20
225.000007
 11
391.900002572
 21
287.0000007463
  0
LINE
  5
5C9
100
AcDbEntity
  8
606077392-000-00-ED1_FORMAT
100
AcDbLine
 62
7
  6
CONTINUOUS
 10
399.9999602137
 20
13.500000112
 11
399.9999602137
 21
35.0000008
  0
LINE
  5
5CA
100
AcDbEntity
  8
606077392-000-00-ED1_FORMAT
100
AcDbLine
 62
7
  6
CONTINUOUS
 10
410.0
 20
10.0
 11
410.0
 21
78.4999970131
  0
LINE
  5
5CB
100
AcDbEntity
  8
606077392-000-00-ED1_FORMAT
100
AcDbLine
 62
3
  6
CONTINUOUS
 10
410.0
 20
78.4999970131
 11
410.0000007463
 21
225.000007
  0
LINE
  5
5CC
100
AcDbEntity
  8
606077392-000-00-ED1_FORMAT
100
AcDbLine
 62
7
  6
CONTINUOUS
 10
410.0000007463
 20
225.000007
 11
410.0000007463
 21
287.0000007463
  0
LINE
  5
5CD
100
AcDbEntity
  8
606077392-000-00-ED1_FORMAT
100
AcDbLine
 62
7
  6
CONTINUOUS
 10
415.0
 20
5.0
 11
415.0
 21
292.0
  0
LINE
  5
5CE
100
AcDbEntity
  8
606077392-000-00-ED1_FORMAT
100
AcDbLine
 62
6
  6
HIDDEN
 10
420.0
 20
0.0
 11
420.0
 21
297.0
  0
LINE
  5
5CF
100
AcDbEntity
  8
30338523_CL
100
AcDbLine
 62
7
  6
CONTINUOUS
 10
138.4289986432
 20
136.2136956873
 11
138.4289986432
 21
150.5247457232
  0
LINE
  5
5D0
100
AcDbEntity
  8
30338523_CL
100
AcDbLine
 62
7
  6
CONTINUOUS
 10
138.4289986432
 20
165.0647457232
 11
138.4289986432
 21
179.3757957591
  0
LINE
  5
5D1
100
AcDbEntity
  8
30338523_CL
100
AcDbLine
 62
7
  6
CONTINUOUS
 10
139.4289986432
 20
151.5247457232
 11
139.4289986432
 21
148.7019664526
  0
LINE
  5
5D2
100
AcDbEntity
  8
30338523_HL
100
AcDbLine
 62
6
  6
HIDDEN
 10
139.4289986432
 20
140.7947457232
 11
139.4289986432
 21
148.7019664526
  0
LINE
  5
5D3
100
AcDbEntity
  8
30338523_CL
100
AcDbLine
 62
7
  6
CONTINUOUS
 10
139.4289986432
 20
164.0647457232
 11
139.4289986432
 21
166.8875249938
  0
LINE
  5
5D4
100
AcDbEntity
  8
30338523_HL
100
AcDbLine
 62
6
  6
HIDDEN
 10
139.4289986432
 20
166.8875249938
 11
139.4289986432
 21
174.7947457232
  0
LINE
  5
5D5
100
AcDbEntity
  8
30338523_CL
100
AcDbLine
 62
9
  6
CONTINUOUS
 10
139.5689537128
 20
180.5742925703
 11
139.5689537128
 21
166.9245760928
  0
LINE
  5
5D6
100
AcDbEntity
  8
30338523_CL
100
AcDbLine
 62
9
  6
CONTINUOUS
 10
139.5689537128
 20
148.6649153537
 11
139.5689537128
 21
135.0151988762
  0
LINE
  5
5D7
100
AcDbEntity
  8
30338523_CL
100
AcDbLine
 62
9
  6
CONTINUOUS
 10
142.9289986432
 20
151.5247457232
 11
142.9289986432
 21
148.165449561
  0
LINE
  5
5D8
100
AcDbEntity
  8
30338523_CL
100
AcDbLine
 62
9
  6
CONTINUOUS
 10
142.9289986432
 20
164.0647457232
 11
142.9289986432
 21
167.4240418855
  0
LINE
  5
5D9
100
AcDbEntity
  8
30338523_CL
100
AcDbLine
 62
7
  6
CONTINUOUS
 10
144.4289986432
 20
164.9422805492
 11
144.4289986432
 21
150.6472108972
  0
LINE
  5
5DA
100
AcDbEntity
  8
30338523_HL
100
AcDbLine
 62
6
  6
HIDDEN
 10
151.3329732394
 20
174.7947457232
 11
151.3329732394
 21
140.7947457232
  0
LINE
  5
5DB
100
AcDbEntity
  8
30338523_CL
100
AcDbLine
 62
9
  6
CONTINUOUS
 10
152.8918189662
 20
138.0947457232
 11
152.8918189662
 21
177.4947457232
  0
LINE
  5
5DC
100
AcDbEntity
  8
30338523_CL
100
AcDbLine
 62
9
  6
CONTINUOUS
 10
153.4114342085
 20
137.7947457232
 11
153.4114342085
 21
177.7947457232
  0
LINE
  5
5DD
100
AcDbEntity
  8
30338523_HL
100
AcDbLine
 62
6
  6
HIDDEN
 10
151.3329732394
 20
174.7947457232
 11
152.8918189662
 21
177.4947457232
  0
LINE
  5
5DE
100
AcDbEntity
  8
30338523_HL
100
AcDbLine
 62
6
  6
HIDDEN
 10
151.3329732394
 20
140.7947457232
 11
152.8918189662
 21
138.0947457232
  0
LINE
  5
5DF
100
AcDbEntity
  8
30338523_AXIS
100
AcDbLine
 62
3
  6
CENTER
 10
161.3289986432
 20
157.7947457232
 11
161.3289986432
 21
149.0447457232
  0
LINE
  5
5E0
100
AcDbEntity
  8
30338523_AXIS
100
AcDbLine
 62
3
  6
CENTER
 10
161.3289986432
 20
157.7947457232
 11
161.3289986432
 21
166.5447457232
  0
LINE
  5
5E1
100
AcDbEntity
  8
30338523_CL
100
AcDbLine
 62
9
  6
CONTINUOUS
 10
164.0840006448
 20
155.2506419574
 11
164.0840006448
 21
137.7947457232
  0
LINE
  5
5E2
100
AcDbEntity
  8
30338523_CL
100
AcDbLine
 62
9
  6
CONTINUOUS
 10
164.0840006448
 20
160.338849489
 11
164.0840006448
 21
177.7947457232
  0
LINE
  5
5E3
100
AcDbEntity
  8
30338523_CL
100
AcDbLine
 62
7
  6
CONTINUOUS
 10
170.3289986432
 20
189.0947457232
 11
170.5289986432
 21
189.2947457232
  0
LINE
  5
5E4
100
AcDbEntity
  8
30338523_CL
100
AcDbLine
 62
7
  6
CONTINUOUS
 10
170.3289986432
 20
126.4947457232
 11
170.5289986432
 21
126.2947457232
  0
LINE
  5
5E5
100
AcDbEntity
  8
30338523_CL
100
AcDbLine
 62
7
  6
CONTINUOUS
 10
168.3289986432
 20
133.5743148615
 11
168.3289986432
 21
182.015176585
  0
LINE
  5
5E6
100
AcDbEntity
  8
30338523_CL
100
AcDbLine
 62
9
  6
CONTINUOUS
 10
168.9991088762
 20
181.8356210892
 11
168.9991088762
 21
133.7538703573
  0
LINE
  5
5E7
100
AcDbEntity
  8
30338523_CL
100
AcDbLine
 62
9
  6
CONTINUOUS
 10
169.1544003033
 20
181.815176585
 11
169.1544003033
 21
133.7743148615
  0
LINE
  5
5E8
100
AcDbEntity
  8
30338523_CL
100
AcDbLine
 62
9
  6
CONTINUOUS
 10
169.8289986432
 20
181.815176585
 11
169.8289986432
 21
133.7743148615
  0
LINE
  5
5E9
100
AcDbEntity
  8
30338523_CL
100
AcDbLine
 62
7
  6
CONTINUOUS
 10
170.3289986432
 20
126.4947485348
 11
170.3289986432
 21
189.0947429117
  0
LINE
  5
5EA
100
AcDbEntity
  8
30338523_CL
100
AcDbLine
 62
9
  6
CONTINUOUS
 10
170.4231594844
 20
133.0908110009
 11
170.4231594844
 21
182.4986804456
  0
LINE
  5
5EB
100
AcDbEntity
  8
30338523_HL
100
AcDbLine
 62
6
  6
HIDDEN
 10
170.4289986432
 20
182.4100537673
 11
170.4289986432
 21
133.1794376791
  0
LINE
  5
5EC
100
AcDbEntity
  8
30338523_CL
100
AcDbLine
 62
7
  6
CONTINUOUS
 10
170.5289986432
 20
126.2947457232
 11
170.5289986432
 21
189.2947457232
  0
LINE
  5
5ED
100
AcDbEntity
  8
30338523_CL
100
AcDbLine
 62
7
  6
CONTINUOUS
 10
138.4289986432
 20
150.5247457232
 11
139.4289986432
 21
151.5247457232
  0
LINE
  5
5EE
100
AcDbEntity
  8
30338523_HL
100
AcDbLine
 62
6
  6
HIDDEN
 10
182.9289986432
 20
189.2947457232
 11
182.3289986432
 21
188.6947457232
  0
LINE
  5
5EF
100
AcDbEntity
  8
30338523_HL
100
AcDbLine
 62
6
  6
HIDDEN
 10
177.9289986432
 20
184.2947457232
 11
177.3289986432
 21
183.6947457232
  0
LINE
  5
5F0
100
AcDbEntity
  8
30338523_CL
100
AcDbLine
 62
7
  6
CONTINUOUS
 10
139.4289986432
 20
164.0647457232
 11
138.4289986432
 21
165.0647457232
  0
LINE
  5
5F1
100
AcDbEntity
  8
30338523_HL
100
AcDbLine
 62
6
  6
HIDDEN
 10
172.3289986432
 20
188.6947457232
 11
172.3289986432
 21
184.5947457232
  0
LINE
  5
5F2
100
AcDbEntity
  8
30338523_HL
100
AcDbLine
 62
6
  6
HIDDEN
 10
175.2789986432
 20
158.7947457232
 11
175.2789986432
 21
156.7947457232
  0
LINE
  5
5F3
100
AcDbEntity
  8
30338523_HL
100
AcDbLine
 62
6
  6
HIDDEN
 10
170.3289986432
 20
132.4208218021
 11
170.4231594844
 21
133.0908110009
  0
LINE
  5
5F4
100
AcDbEntity
  8
30338523_HL
100
AcDbLine
 62
6
  6
HIDDEN
 10
182.3289986432
 20
184.5947457232
 11
182.0289986432
 21
184.2947457232
  0
LINE
  5
5F5
100
AcDbEntity
  8
30338523_CL
100
AcDbLine
 62
9
  6
CONTINUOUS
 10
138.675787582
 20
167.9102876964
 11
138.9000347349
 21
168.0120938429
  0
LINE
  5
5F6
100
AcDbEntity
  8
30338523_CL
100
AcDbLine
 62
9
  6
CONTINUOUS
 10
138.9000347352
 20
147.5773976729
 11
138.675787582
 21
147.67920375
  0
LINE
  5
5F7
100
AcDbEntity
  8
30338523_HL
100
AcDbLine
 62
6
  6
HIDDEN
 10
170.3289986432
 20
183.1686696444
 11
170.4231594844
 21
182.4986804456
  0
LINE
  5
5F8
100
AcDbEntity
  8
30338523_AXIS
100
AcDbLine
 62
3
  6
CENTER
 10
177.3289986432
 20
137.2647457232
 11
177.3289986432
 21
123.0533857528
  0
LINE
  5
5F9
100
AcDbEntity
  8
30338523_AXIS
100
AcDbLine
 62
3
  6
CENTER
 10
177.3289986432
 20
180.6947457232
 11
177.3289986432
 21
193.6947457232
  0
LINE
  5
5FA
100
AcDbEntity
  8
30338523_HL
100
AcDbLine
 62
6
  6
HIDDEN
 10
177.9998424456
 20
174.7947457232
 11
177.9998424456
 21
140.7947457232
  0
LINE
  5
5FB
100
AcDbEntity
  8
30338523_HL
100
AcDbLine
 62
6
  6
HIDDEN
 10
180.3289986432
 20
173.5406646595
 11
180.3289986432
 21
142.048826787
  0
LINE
  5
5FC
100
AcDbEntity
  8
30338523_HL
100
AcDbLine
 62
6
  6
HIDDEN
 10
180.3289986432
 20
142.048826787
 11
180.3289986432
 21
142.0447483197
  0
LINE
  5
5FD
100
AcDbEntity
  8
30338523_HL
100
AcDbLine
 62
6
  6
HIDDEN
 10
180.3289986432
 20
173.5406646595
 11
180.3289986432
 21
173.5447431268
  0
LINE
  5
5FE
100
AcDbEntity
  8
30338523_CL
100
AcDbLine
 62
7
  6
CONTINUOUS
 10
191.7064977179
 20
189.2947457232
 11
190.2039986432
 21
186.6923409874
  0
LINE
  5
5FF
100
AcDbEntity
  8
30338523_CL
100
AcDbLine
 62
7
  6
CONTINUOUS
 10
191.7064977179
 20
126.2947457232
 11
190.2039986432
 21
128.897150459
  0
LINE
  5
600
100
AcDbEntity
  8
30338523_HL
100
AcDbLine
 62
6
  6
HIDDEN
 10
182.3289986432
 20
188.6947457232
 11
182.3289986432
 21
184.5947457232
  0
LINE
  5
601
100
AcDbEntity
  8
30338523_CL
100
AcDbLine
 62
7
  6
CONTINUOUS
 10
184.9514995684
 20
189.2947457232
 11
184.9514995684
 21
165.7947457232
  0
LINE
  5
602
100
AcDbEntity
  8
30338523_CL
100
AcDbLine
 62
7
  6
CONTINUOUS
 10
184.9514995684
 20
149.7947457232
 11
184.9514995684
 21
137.7947457232
  0
LINE
  5
603
100
AcDbEntity
  8
30338523_CL
100
AcDbLine
 62
7
  6
CONTINUOUS
 10
184.9514995684
 20
133.458558676
 11
184.9514995684
 21
126.2947457232
  0
LINE
  5
604
100
AcDbEntity
  8
30338523_HL
100
AcDbLine
 62
6
  6
HIDDEN
 10
184.9514995684
 20
133.458558676
 11
184.9514995684
 21
137.7947457232
  0
LINE
  5
605
100
AcDbEntity
  8
30338523_CL
100
AcDbLine
 62
7
  6
CONTINUOUS
 10
186.4539986432
 20
186.6923407837
 11
186.4539986432
 21
165.7947457232
  0
LINE
  5
606
100
AcDbEntity
  8
30338523_CL
100
AcDbLine
 62
7
  6
CONTINUOUS
 10
186.4539986432
 20
128.897152843
 11
186.4539986432
 21
149.7947457232
  0
LINE
  5
607
100
AcDbEntity
  8
30338523_CL
100
AcDbLine
 62
9
  6
CONTINUOUS
 10
187.2039986432
 20
185.2947457232
 11
187.2039986432
 21
165.1432149516
  0
LINE
  5
608
100
AcDbEntity
  8
30338523_CL
100
AcDbLine
 62
9
  6
CONTINUOUS
 10
187.2039986432
 20
150.4462764949
 11
187.2039986432
 21
130.2947457232
  0
LINE
  5
609
100
AcDbEntity
  8
30338523_CL
100
AcDbLine
 62
7
  6
CONTINUOUS
 10
170.5289986432
 20
126.2947457232
 11
173.1303588234
 21
126.2947457232
  0
LINE
  5
60A
100
AcDbEntity
  8
30338523_CL
100
AcDbLine
 62
7
  6
CONTINUOUS
 10
181.5276383082
 20
126.2947457232
 11
184.9514995684
 21
126.2947457232
  0
LINE
  5
60B
100
AcDbEntity
  8
30338523_CL
100
AcDbLine
 62
7
  6
CONTINUOUS
 10
191.7064977179
 20
126.2947457232
 11
196.2789986432
 21
126.2947457232
  0
LINE
  5
60C
100
AcDbEntity
  8
30338523_CL
100
AcDbLine
 62
7
  6
CONTINUOUS
 10
189.4539986432
 20
130.2947457232
 11
187.2039986432
 21
130.2947457232
  0
LINE
  5
60D
100
AcDbEntity
  8
30338523_AXIS
100
AcDbLine
 62
3
  6
CENTER
 10
188.3289986432
 20
157.7947457232
 11
188.3289986432
 21
150.8447457232
  0
LINE
  5
60E
100
AcDbEntity
  8
30338523_AXIS
100
AcDbLine
 62
3
  6
CENTER
 10
188.3289986432
 20
157.7947457232
 11
188.3289986432
 21
164.7447457232
  0
LINE
  5
60F
100
AcDbEntity
  8
30338523_HL
100
AcDbLine
 62
6
  6
HIDDEN
 10
188.6289986432
 20
148.2947484712
 11
188.6289986432
 21
167.2947429753
  0
LINE
  5
610
100
AcDbEntity
  8
30338523_CL
100
AcDbLine
 62
9
  6
CONTINUOUS
 10
189.4539986432
 20
185.2947457232
 11
189.4539986432
 21
165.1432149516
  0
LINE
  5
611
100
AcDbEntity
  8
30338523_CL
100
AcDbLine
 62
9
  6
CONTINUOUS
 10
189.4539986432
 20
150.4462764949
 11
189.4539986432
 21
130.2947457232
  0
LINE
  5
612
100
AcDbEntity
  8
30338523_CL
100
AcDbLine
 62
7
  6
CONTINUOUS
 10
190.2039986432
 20
128.897152843
 11
190.2039986432
 21
149.7947457232
  0
LINE
  5
613
100
AcDbEntity
  8
30338523_CL
100
AcDbLine
 62
7
  6
CONTINUOUS
 10
190.2039986432
 20
165.7947457232
 11
190.2039986432
 21
186.6923407837
  0
LINE
  5
614
100
AcDbEntity
  8
30338523_CL
100
AcDbLine
 62
7
  6
CONTINUOUS
 10
191.7064977179
 20
189.2947457232
 11
191.7064977179
 21
165.7947457232
  0
LINE
  5
615
100
AcDbEntity
  8
30338523_CL
100
AcDbLine
 62
7
  6
CONTINUOUS
 10
191.7064977179
 20
149.7947457232
 11
191.7064977179
 21
137.7947457232
  0
LINE
  5
616
100
AcDbEntity
  8
30338523_CL
100
AcDbLine
 62
7
  6
CONTINUOUS
 10
191.7064977179
 20
133.458558676
 11
191.7064977179
 21
126.2947457232
  0
LINE
  5
617
100
AcDbEntity
  8
30338523_HL
100
AcDbLine
 62
6
  6
HIDDEN
 10
191.7064977179
 20
133.458558676
 11
191.7064977179
 21
137.7947457232
  0
LINE
  5
618
100
AcDbEntity
  8
30338523_HL
100
AcDbLine
 62
6
  6
HIDDEN
 10
192.3289986432
 20
148.2947484712
 11
192.3289986432
 21
167.2947429753
  0
LINE
  5
619
100
AcDbEntity
  8
30338523_HL
100
AcDbLine
 62
6
  6
HIDDEN
 10
139.4289986432
 20
140.7947457232
 11
138.4289986432
 21
140.217395454
  0
LINE
  5
61A
100
AcDbEntity
  8
30338523_CL
100
AcDbLine
 62
7
  6
CONTINUOUS
 10
176.1672847395
 20
133.458558676
 11
184.9514995684
 21
133.458558676
  0
LINE
  5
61B
100
AcDbEntity
  8
30338523_CL
100
AcDbLine
 62
7
  6
CONTINUOUS
 10
191.7064977179
 20
133.458558676
 11
196.2789986432
 21
133.458558676
  0
LINE
  5
61C
100
AcDbEntity
  8
30338523_CL
100
AcDbLine
 62
7
  6
CONTINUOUS
 10
169.1544003033
 20
133.7743148615
 11
169.8289986432
 21
133.7743148615
  0
LINE
  5
61D
100
AcDbEntity
  8
30338523_CL
100
AcDbLine
 62
7
  6
CONTINUOUS
 10
139.5689537128
 20
135.0151988762
 11
168.3289986432
 21
133.5743148615
  0
LINE
  5
61E
100
AcDbEntity
  8
30338523_HL
100
AcDbLine
 62
6
  6
HIDDEN
 10
139.4289986432
 20
174.7947457232
 11
138.4289986432
 21
175.3720959924
  0
LINE
  5
61F
100
AcDbEntity
  8
30338523_CL
100
AcDbLine
 62
7
  6
CONTINUOUS
 10
196.2789986432
 20
126.2947458971
 11
196.2789986432
 21
189.2947453379
  0
LINE
  5
620
100
AcDbEntity
  8
30338523_CL
100
AcDbLine
 62
7
  6
CONTINUOUS
 10
245.8572820666
 20
140.7947457232
 11
289.4074577389
 21
144.2222188812
  0
LINE
  5
621
100
AcDbEntity
  8
30338523_HL
100
AcDbLine
 62
6
  6
HIDDEN
 10
153.4114342085
 20
137.7947457232
 11
164.0840006448
 21
137.7947457232
  0
LINE
  5
622
100
AcDbEntity
  8
30338523_CL
100
AcDbLine
 62
7
  6
CONTINUOUS
 10
183.2789986432
 20
137.7947457232
 11
186.4539986432
 21
137.7947457232
  0
LINE
  5
623
100
AcDbEntity
  8
30338523_CL
100
AcDbLine
 62
7
  6
CONTINUOUS
 10
190.2039986432
 20
137.7947457232
 11
196.2789986432
 21
137.7947457232
  0
LINE
  5
624
100
AcDbEntity
  8
30338523_HL
100
AcDbLine
 62
6
  6
HIDDEN
 10
139.4289986432
 20
140.7947457232
 11
151.3329732394
 21
140.7947457232
  0
LINE
  5
625
100
AcDbEntity
  8
30338523_HL
100
AcDbLine
 62
6
  6
HIDDEN
 10
170.3289986432
 20
140.7947457232
 11
177.9998424456
 21
140.7947457232
  0
LINE
  5
626
100
AcDbEntity
  8
30338523_CL
100
AcDbLine
 62
7
  6
CONTINUOUS
 10
201.2789986432
 20
140.7947457232
 11
228.3289986432
 21
140.7947457232
  0
LINE
  5
627
100
AcDbEntity
  8
30338523_CL
100
AcDbLine
 62
7
  6
CONTINUOUS
 10
236.3289986432
 20
140.7947457232
 11
245.8572820666
 21
140.7947457232
  0
LINE
  5
628
100
AcDbEntity
  8
30338523_CL
100
AcDbLine
 62
7
  6
CONTINUOUS
 10
228.3289986432
 20
140.9447457232
 11
229.8289986432
 21
140.9447457232
  0
LINE
  5
629
100
AcDbEntity
  8
30338523_CL
100
AcDbLine
 62
7
  6
CONTINUOUS
 10
234.8289986432
 20
140.9447457232
 11
236.3289986432
 21
140.9447457232
  0
LINE
  5
62A
100
AcDbEntity
  8
30338523_CL
100
AcDbLine
 62
9
  6
CONTINUOUS
 10
201.2789986432
 20
174.7947457232
 11
201.2789986432
 21
140.7947457232
  0
LINE
  5
62B
100
AcDbEntity
  8
30338523_CL
100
AcDbLine
 62
7
  6
CONTINUOUS
 10
168.3289986432
 20
133.5743148615
 11
168.9991088762
 21
133.7538703573
  0
LINE
  5
62C
100
AcDbEntity
  8
30338523_HL
100
AcDbLine
 62
6
  6
HIDDEN
 10
235.3289986432
 20
147.4447457232
 11
229.3289986432
 21
147.4447457232
  0
LINE
  5
62D
100
AcDbEntity
  8
30338523_HL
100
AcDbLine
 62
6
  6
HIDDEN
 10
172.3289986432
 20
184.5947457232
 11
172.6289986432
 21
184.2947457232
  0
LINE
  5
62E
100
AcDbEntity
  8
30338523_CL
100
AcDbLine
 62
7
  6
CONTINUOUS
 10
186.4539986432
 20
128.897150459
 11
184.9514995684
 21
126.2947457232
  0
LINE
  5
62F
100
AcDbEntity
  8
30338523_HL
100
AcDbLine
 62
6
  6
HIDDEN
 10
192.3289986432
 20
148.2947457232
 11
188.6289986432
 21
148.2947457232
  0
LINE
  5
630
100
AcDbEntity
  8
30338523_HL
100
AcDbLine
 62
6
  6
HIDDEN
 10
188.6289986432
 20
148.7947457232
 11
180.3289986432
 21
148.7947457232
  0
LINE
  5
631
100
AcDbEntity
  8
30338523_HL
100
AcDbLine
 62
6
  6
HIDDEN
 10
190.1562254689
 20
148.7947457232
 11
196.2789986432
 21
148.7947457232
  0
LINE
  5
632
100
AcDbEntity
  8
30338523_HL
100
AcDbLine
 62
6
  6
HIDDEN
 10
188.6289986432
 20
149.2947457232
 11
180.3289986432
 21
149.2947457232
  0
LINE
  5
633
100
AcDbEntity
  8
30338523_HL
100
AcDbLine
 62
6
  6
HIDDEN
 10
234.8289986432
 20
149.4447457232
 11
229.8289986432
 21
149.4447457232
  0
LINE
  5
634
100
AcDbEntity
  8
30338523_CL
100
AcDbLine
 62
7
  6
CONTINUOUS
 10
183.2789986432
 20
149.7947457232
 11
186.715132066
 21
149.7947457232
  0
LINE
  5
635
100
AcDbEntity
  8
30338523_CL
100
AcDbLine
 62
7
  6
CONTINUOUS
 10
189.9428652204
 20
149.7947457232
 11
196.2789986432
 21
149.7947457232
  0
LINE
  5
636
100
AcDbEntity
  8
30338523_CL
100
AcDbLine
 62
7
  6
CONTINUOUS
 10
189.4539986432
 20
150.4462764949
 11
187.2039986432
 21
150.4462764949
  0
LINE
  5
637
100
AcDbEntity
  8
30338523_HL
100
AcDbLine
 62
6
  6
HIDDEN
 10
241.8289986432
 20
150.6447457232
 11
254.3289986432
 21
150.6447457232
  0
LINE
  5
638
100
AcDbEntity
  8
30338523_HL
100
AcDbLine
 62
6
  6
HIDDEN
 10
254.3289986432
 20
150.7947457232
 11
288.3289986432
 21
150.7947457232
  0
LINE
  5
639
100
AcDbEntity
  8
30338523_CL
100
AcDbLine
 62
7
  6
CONTINUOUS
 10
139.4289986432
 20
151.5247457232
 11
142.9289986432
 21
151.5247457232
  0
LINE
  5
63A
100
AcDbEntity
  8
30338523_HL
100
AcDbLine
 62
6
  6
HIDDEN
 10
241.8289986432
 20
152.7947457232
 11
225.3289986432
 21
152.7947457232
  0
LINE
  5
63B
100
AcDbEntity
  8
30252542_HP_HL
100
AcDbLine
 62
6
  6
HIDDEN
 10
230.4439986432
 20
152.7947457232
 11
236.6289986432
 21
152.7947457232
  0
LINE
  5
63C
100
AcDbEntity
  8
30252542_HP_HL
100
AcDbLine
 62
6
  6
HIDDEN
 10
241.8289986432
 20
152.8947457232
 11
243.3289986432
 21
152.8947457232
  0
LINE
  5
63D
100
AcDbEntity
  8
30338523_HL
100
AcDbLine
 62
6
  6
HIDDEN
 10
171.7289986432
 20
189.2947457232
 11
172.3289986432
 21
188.6947457232
  0
LINE
  5
63E
100
AcDbEntity
  8
30338523_HL
100
AcDbLine
 62
6
  6
HIDDEN
 10
176.7289986432
 20
184.2947457232
 11
177.3289986432
 21
183.6947457232
  0
LINE
  5
63F
100
AcDbEntity
  8
30338523_CL
100
AcDbLine
 62
7
  6
CONTINUOUS
 10
186.4539986432
 20
186.6923409874
 11
184.9514995684
 21
189.2947457232
  0
LINE
  5
640
100
AcDbEntity
  8
30338523_HL
100
AcDbLine
 62
6
  6
HIDDEN
 10
288.3289986432
 20
164.7947457232
 11
289.4161543859
 21
164.8898595262
  0
LINE
  5
641
100
AcDbEntity
  8
30338523_HL
100
AcDbLine
 62
6
  6
HIDDEN
 10
223.3289986432
 20
153.2947457232
 11
241.2289986432
 21
153.2947457232
  0
LINE
  5
642
100
AcDbEntity
  8
30252542_HP_HL
100
AcDbLine
 62
6
  6
HIDDEN
 10
229.8289986432
 20
153.4097457232
 11
237.6942098898
 21
153.4097457232
  0
LINE
  5
643
100
AcDbEntity
  8
30338523_HL
100
AcDbLine
 62
6
  6
HIDDEN
 10
192.3289986432
 20
153.7947457232
 11
223.0403235086
 21
153.7947457232
  0
LINE
  5
644
100
AcDbEntity
  8
30252542_HP_HL
100
AcDbLine
 62
6
  6
HIDDEN
 10
238.8352164258
 20
153.9447457232
 11
241.0289986432
 21
153.9447457232
  0
LINE
  5
645
100
AcDbEntity
  8
30252542_HP_HL
100
AcDbLine
 62
6
  6
HIDDEN
 10
229.9522472972
 20
155.2947457232
 11
243.2057499891
 21
155.2947457232
  0
LINE
  5
646
100
AcDbEntity
  8
30252542_HP_HL
100
AcDbLine
 62
6
  6
HIDDEN
 10
243.2057499891
 20
157.7947457232
 11
238.3289986432
 21
157.7947457232
  0
LINE
  5
647
100
AcDbEntity
  8
30338523_AXIS
100
AcDbLine
 62
3
  6
CENTER
 10
188.3289986432
 20
157.7947457232
 11
181.3789986432
 21
157.7947457232
  0
LINE
  5
648
100
AcDbEntity
  8
30338523_AXIS
100
AcDbLine
 62
3
  6
CENTER
 10
161.3289986432
 20
157.7947457232
 11
152.5789986432
 21
157.7947457232
  0
LINE
  5
649
100
AcDbEntity
  8
30338523_AXIS
100
AcDbLine
 62
3
  6
CENTER
 10
295.3289986432
 20
157.7947457232
 11
133.4289986432
 21
157.7947457232
  0
LINE
  5
64A
100
AcDbEntity
  8
30338523_AXIS
100
AcDbLine
 62
3
  6
CENTER
 10
161.3289986432
 20
157.7947457232
 11
170.0789986432
 21
157.7947457232
  0
LINE
  5
64B
100
AcDbEntity
  8
30338523_AXIS
100
AcDbLine
 62
3
  6
CENTER
 10
188.3289986432
 20
157.7947457232
 11
195.2789986432
 21
157.7947457232
  0
LINE
  5
64C
100
AcDbEntity
  8
30252542_HP_HL
100
AcDbLine
 62
6
  6
HIDDEN
 10
229.9522472972
 20
157.7947457232
 11
234.8289986432
 21
157.7947457232
  0
LINE
  5
64D
100
AcDbEntity
  8
30338523_HL
100
AcDbLine
 62
6
  6
HIDDEN
 10
288.3289986432
 20
150.7947457232
 11
289.4161543859
 21
150.6996319203
  0
LINE
  5
64E
100
AcDbEntity
  8
30338523_HL
100
AcDbLine
 62
6
  6
HIDDEN
 10
223.0403235086
 20
161.7947457232
 11
223.3289986432
 21
162.2947457232
  0
LINE
  5
64F
100
AcDbEntity
  8
30338523_HL
100
AcDbLine
 62
6
  6
HIDDEN
 10
234.8289986432
 20
166.1447457232
 11
232.3289986432
 21
164.6425941757
  0
LINE
  5
650
100
AcDbEntity
  8
30252542_HP_HL
100
AcDbLine
 62
6
  6
HIDDEN
 10
229.9522472972
 20
160.2947457232
 11
243.2057499891
 21
160.2947457232
  0
LINE
  5
651
100
AcDbEntity
  8
30252542_HP_HL
100
AcDbLine
 62
6
  6
HIDDEN
 10
238.8352164258
 20
161.6447457232
 11
241.0289986432
 21
161.6447457232
  0
LINE
  5
652
100
AcDbEntity
  8
30338523_HL
100
AcDbLine
 62
6
  6
HIDDEN
 10
192.3289986432
 20
161.7947457232
 11
223.0403235086
 21
161.7947457232
  0
LINE
  5
653
100
AcDbEntity
  8
30252542_HP_HL
100
AcDbLine
 62
6
  6
HIDDEN
 10
229.8289986432
 20
162.1797457232
 11
237.6942098898
 21
162.1797457232
  0
LINE
  5
654
100
AcDbEntity
  8
30338523_HL
100
AcDbLine
 62
6
  6
HIDDEN
 10
223.3289986432
 20
162.2947457232
 11
241.2289986432
 21
162.2947457232
  0
LINE
  5
655
100
AcDbEntity
  8
30252542_HP_HL
100
AcDbLine
 62
6
  6
HIDDEN
 10
241.8289986432
 20
162.6947457232
 11
243.3289986432
 21
162.6947457232
  0
LINE
  5
656
100
AcDbEntity
  8
30338523_HL
100
AcDbLine
 62
6
  6
HIDDEN
 10
241.8289986432
 20
162.7947457232
 11
225.3289986432
 21
162.7947457232
  0
LINE
  5
657
100
AcDbEntity
  8
30252542_HP_HL
100
AcDbLine
 62
6
  6
HIDDEN
 10
230.4439986432
 20
162.7947457232
 11
236.6289986432
 21
162.7947457232
  0
LINE
  5
658
100
AcDbEntity
  8
30338523_HL
100
AcDbLine
 62
6
  6
HIDDEN
 10
234.8289986432
 20
149.4447457232
 11
232.3289986432
 21
150.9468972708
  0
LINE
  5
659
100
AcDbEntity
  8
30338523_HL
100
AcDbLine
 62
6
  6
HIDDEN
 10
223.0403235086
 20
153.7947457232
 11
223.3289986432
 21
153.2947457232
  0
LINE
  5
65A
100
AcDbEntity
  8
30338523_HL
100
AcDbLine
 62
6
  6
HIDDEN
 10
223.0403235086
 20
161.7947457232
 11
223.0403235086
 21
153.7947457232
  0
LINE
  5
65B
100
AcDbEntity
  8
30338523_HL
100
AcDbLine
 62
6
  6
HIDDEN
 10
223.3289986432
 20
153.2947457232
 11
223.3289986432
 21
162.2947457232
  0
LINE
  5
65C
100
AcDbEntity
  8
30338523_HL
100
AcDbLine
 62
6
  6
HIDDEN
 10
225.3289986432
 20
162.7947457232
 11
225.3289986432
 21
152.7947457232
  0
LINE
  5
65D
100
AcDbEntity
  8
30252542_HP_HL
100
AcDbLine
 62
6
  6
HIDDEN
 10
229.8289986432
 20
162.1797457232
 11
230.4439986432
 21
162.7947457232
  0
LINE
  5
65E
100
AcDbEntity
  8
30338523_CL
100
AcDbLine
 62
7
  6
CONTINUOUS
 10
142.9289986432
 20
164.0647457232
 11
139.4289986432
 21
164.0647457232
  0
LINE
  5
65F
100
AcDbEntity
  8
30338523_HL
100
AcDbLine
 62
6
  6
HIDDEN
 10
254.3289986432
 20
164.7947457232
 11
288.3289986432
 21
164.7947457232
  0
LINE
  5
660
100
AcDbEntity
  8
30338523_HL
100
AcDbLine
 62
6
  6
HIDDEN
 10
241.8289986432
 20
164.9447457232
 11
254.3289986432
 21
164.9447457232
  0
LINE
  5
661
100
AcDbEntity
  8
30338523_CL
100
AcDbLine
 62
7
  6
CONTINUOUS
 10
189.4539986432
 20
165.1432149516
 11
187.2039986432
 21
165.1432149516
  0
LINE
  5
662
100
AcDbEntity
  8
30338523_CL
100
AcDbLine
 62
7
  6
CONTINUOUS
 10
183.2789986432
 20
165.7947457232
 11
186.715132066
 21
165.7947457232
  0
LINE
  5
663
100
AcDbEntity
  8
30338523_CL
100
AcDbLine
 62
7
  6
CONTINUOUS
 10
189.9428652204
 20
165.7947457232
 11
196.2789986432
 21
165.7947457232
  0
LINE
  5
664
100
AcDbEntity
  8
30338523_HL
100
AcDbLine
 62
6
  6
HIDDEN
 10
234.8289986432
 20
166.1447457232
 11
229.8289986432
 21
166.1447457232
  0
LINE
  5
665
100
AcDbEntity
  8
30338523_HL
100
AcDbLine
 62
6
  6
HIDDEN
 10
188.6289986432
 20
166.2947457232
 11
180.3289986432
 21
166.2947457232
  0
LINE
  5
666
100
AcDbEntity
  8
30338523_HL
100
AcDbLine
 62
6
  6
HIDDEN
 10
196.2789986432
 20
166.7947457232
 11
190.1562254689
 21
166.7947457232
  0
LINE
  5
667
100
AcDbEntity
  8
30338523_HL
100
AcDbLine
 62
6
  6
HIDDEN
 10
188.6289986432
 20
166.7947457232
 11
180.3289986432
 21
166.7947457232
  0
LINE
  5
668
100
AcDbEntity
  8
30338523_HL
100
AcDbLine
 62
6
  6
HIDDEN
 10
192.3289986432
 20
167.2947457232
 11
188.6289986432
 21
167.2947457232
  0
LINE
  5
669
100
AcDbEntity
  8
30338523_HL
100
AcDbLine
 62
6
  6
HIDDEN
 10
235.3289986432
 20
168.1447457232
 11
229.3289986432
 21
168.1447457232
  0
LINE
  5
66A
100
AcDbEntity
  8
30338523_CL
100
AcDbLine
 62
7
  6
CONTINUOUS
 10
168.3289986432
 20
182.015176585
 11
168.9991088762
 21
181.8356210892
  0
LINE
  5
66B
100
AcDbEntity
  8
30252542_HP_HL
100
AcDbLine
 62
6
  6
HIDDEN
 10
229.8289986432
 20
153.4097457232
 11
230.4439986432
 21
152.7947457232
  0
LINE
  5
66C
100
AcDbEntity
  8
30338523_CL
100
AcDbLine
 62
7
  6
CONTINUOUS
 10
228.3289986432
 20
174.7947457232
 11
228.3289986432
 21
140.7947457232
  0
LINE
  5
66D
100
AcDbEntity
  8
30338523_HL
100
AcDbLine
 62
6
  6
HIDDEN
 10
229.3289986432
 20
147.4447457232
 11
229.3289986432
 21
140.9450666141
  0
LINE
  5
66E
100
AcDbEntity
  8
30338523_HL
100
AcDbLine
 62
6
  6
HIDDEN
 10
229.3289986432
 20
168.1447457232
 11
229.3289986432
 21
174.6444248324
  0
LINE
  5
66F
100
AcDbEntity
  8
30338523_HL
100
AcDbLine
 62
6
  6
HIDDEN
 10
229.8289986432
 20
174.6447457232
 11
229.8289986432
 21
166.1447457232
  0
LINE
  5
670
100
AcDbEntity
  8
30252542_HP_HL
100
AcDbLine
 62
6
  6
HIDDEN
 10
229.8289986432
 20
162.1797457232
 11
229.8289986432
 21
153.4097457232
  0
LINE
  5
671
100
AcDbEntity
  8
30338523_HL
100
AcDbLine
 62
6
  6
HIDDEN
 10
229.8289986432
 20
140.9447457232
 11
229.8289986432
 21
149.4447457232
  0
LINE
  5
672
100
AcDbEntity
  8
30252542_HP_HL
100
AcDbLine
 62
6
  6
HIDDEN
 10
230.4439986432
 20
162.7947457232
 11
230.4439986432
 21
152.7947457232
  0
LINE
  5
673
100
AcDbEntity
  8
30252542_HP_HL
100
AcDbLine
 62
6
  6
HIDDEN
 10
229.8289986432
 20
154.7847457232
 11
230.3389911956
 21
155.2947382756
  0
LINE
  5
674
100
AcDbEntity
  8
30338523_HL
100
AcDbLine
 62
6
  6
HIDDEN
 10
229.8289986432
 20
149.4447457232
 11
232.3289986432
 21
150.9468972708
  0
LINE
  5
675
100
AcDbEntity
  8
30252542_HP_HL
100
AcDbLine
 62
6
  6
HIDDEN
 10
236.6289986432
 20
152.7947457232
 11
238.4352164258
 21
153.8375660463
  0
LINE
  5
676
100
AcDbEntity
  8
30338523_CL
100
AcDbLine
 62
7
  6
CONTINUOUS
 10
228.3289986432
 20
174.6447457232
 11
229.8289986432
 21
174.6447457232
  0
LINE
  5
677
100
AcDbEntity
  8
30338523_CL
100
AcDbLine
 62
7
  6
CONTINUOUS
 10
234.8289986432
 20
174.6447457232
 11
236.3289986432
 21
174.6447457232
  0
LINE
  5
678
100
AcDbEntity
  8
30338523_HL
100
AcDbLine
 62
6
  6
HIDDEN
 10
139.4289986432
 20
174.7947457232
 11
151.3329732394
 21
174.7947457232
  0
LINE
  5
679
100
AcDbEntity
  8
30338523_HL
100
AcDbLine
 62
6
  6
HIDDEN
 10
170.3289986432
 20
174.7947457232
 11
177.9998424456
 21
174.7947457232
  0
LINE
  5
67A
100
AcDbEntity
  8
30338523_CL
100
AcDbLine
 62
7
  6
CONTINUOUS
 10
201.2789986432
 20
174.7947457232
 11
228.3289986432
 21
174.7947457232
  0
LINE
  5
67B
100
AcDbEntity
  8
30338523_CL
100
AcDbLine
 62
7
  6
CONTINUOUS
 10
236.3289986432
 20
174.7947457232
 11
245.8572820666
 21
174.7947457232
  0
LINE
  5
67C
100
AcDbEntity
  8
30252542_HP_HL
100
AcDbLine
 62
6
  6
HIDDEN
 10
236.6289986432
 20
162.7947457232
 11
238.4352164258
 21
161.7519254002
  0
LINE
  5
67D
100
AcDbEntity
  8
30338523_HL
100
AcDbLine
 62
6
  6
HIDDEN
 10
229.8289986432
 20
166.1447457232
 11
232.3289986432
 21
164.6425941757
  0
LINE
  5
67E
100
AcDbEntity
  8
30252542_HP_HL
100
AcDbLine
 62
6
  6
HIDDEN
 10
229.8289986432
 20
160.8047457232
 11
230.3389911956
 21
160.2947531709
  0
LINE
  5
67F
100
AcDbEntity
  8
30338523_CL
100
AcDbLine
 62
30
  6
CONTINUOUS
 10
232.3289986432
 20
141.1309609578
 11
232.3289986432
 21
141.7021239481
  0
LINE
  5
680
100
AcDbEntity
  8
30338523_AXIS
100
AcDbLine
 62
3
  6
CENTER
 10
232.3289986432
 20
137.9446503454
 11
232.3289986432
 21
150.4447457232
  0
LINE
  5
681
100
AcDbEntity
  8
30338523_CL
100
AcDbLine
 62
30
  6
CONTINUOUS
 10
232.3289986432
 20
152.7997457232
 11
232.3289986432
 21
162.7897457203
  0
LINE
  5
682
100
AcDbEntity
  8
30338523_CL
100
AcDbLine
 62
30
  6
CONTINUOUS
 10
232.3289986432
 20
173.8873674798
 11
232.3289986432
 21
174.4585304886
  0
LINE
  5
683
100
AcDbEntity
  8
30338523_AXIS
100
AcDbLine
 62
3
  6
CENTER
 10
232.3289986432
 20
161.6425941757
 11
232.3289986432
 21
175.4980315059
  0
LINE
  5
684
100
AcDbEntity
  8
30338523_HL
100
AcDbLine
 62
6
  6
HIDDEN
 10
234.8289986432
 20
174.6447457232
 11
234.8289986432
 21
166.1447457232
  0
LINE
  5
685
100
AcDbEntity
  8
30338523_HL
100
AcDbLine
 62
6
  6
HIDDEN
 10
234.8289986432
 20
140.9447457232
 11
234.8289986432
 21
149.4447457232
  0
LINE
  5
686
100
AcDbEntity
  8
30252542_HP_HL
100
AcDbLine
 62
6
  6
HIDDEN
 10
234.8289986432
 20
155.2947457232
 11
234.8289986432
 21
160.2947457232
  0
LINE
  5
687
100
AcDbEntity
  8
30338523_HL
100
AcDbLine
 62
6
  6
HIDDEN
 10
235.3289986432
 20
147.4447457232
 11
235.3289986432
 21
140.9450666141
  0
LINE
  5
688
100
AcDbEntity
  8
30338523_HL
100
AcDbLine
 62
6
  6
HIDDEN
 10
235.3289986432
 20
168.1447457232
 11
235.3289986432
 21
174.6444248324
  0
LINE
  5
689
100
AcDbEntity
  8
30338523_CL
100
AcDbLine
 62
7
  6
CONTINUOUS
 10
236.3289986432
 20
174.7947457232
 11
236.3289986432
 21
140.7947457232
  0
LINE
  5
68A
100
AcDbEntity
  8
30252542_HP_HL
100
AcDbLine
 62
6
  6
HIDDEN
 10
236.6289986432
 20
162.7947457232
 11
236.6289986432
 21
152.7947457232
  0
LINE
  5
68B
100
AcDbEntity
  8
30338523_HL
100
AcDbLine
 62
6
  6
HIDDEN
 10
241.2289986432
 20
162.2947457232
 11
241.8289986432
 21
163.3339762078
  0
LINE
  5
68C
100
AcDbEntity
  8
30252542_HP_HL
100
AcDbLine
 62
6
  6
HIDDEN
 10
242.8190060908
 20
160.2947531709
 11
243.3289986432
 21
160.8047457232
  0
LINE
  5
68D
100
AcDbEntity
  8
30338523_HL
100
AcDbLine
 62
6
  6
HIDDEN
 10
153.4114342085
 20
177.7947457232
 11
164.0840006448
 21
177.7947457232
  0
LINE
  5
68E
100
AcDbEntity
  8
30338523_CL
100
AcDbLine
 62
7
  6
CONTINUOUS
 10
245.8572820666
 20
174.7947457232
 11
289.4074577389
 21
171.3672725653
  0
LINE
  5
68F
100
AcDbEntity
  8
30252542_HP_HL
100
AcDbLine
 62
6
  6
HIDDEN
 10
242.8190060908
 20
155.2947382756
 11
243.3289986432
 21
154.7847457232
  0
LINE
  5
690
100
AcDbEntity
  8
30338523_HL
100
AcDbLine
 62
6
  6
HIDDEN
 10
241.2289986432
 20
153.2947457232
 11
241.8289986432
 21
152.2555152387
  0
LINE
  5
691
100
AcDbEntity
  8
30252542_HP_HL
100
AcDbLine
 62
6
  6
HIDDEN
 10
237.6942098898
 20
162.1797457232
 11
237.6942098898
 21
153.4097457232
  0
LINE
  5
692
100
AcDbEntity
  8
30252542_HP_HL
100
AcDbLine
 62
6
  6
HIDDEN
 10
238.3289986432
 20
160.2947457232
 11
238.3289986432
 21
155.2947457232
  0
LINE
  5
693
100
AcDbEntity
  8
30252542_HP_CL
100
AcDbLine
 62
9
  6
CONTINUOUS
 10
238.4352164258
 20
153.8375660463
 11
238.4352164258
 21
161.7519254002
  0
LINE
  5
694
100
AcDbEntity
  8
30252542_HP_CL
100
AcDbLine
 62
9
  6
CONTINUOUS
 10
238.8352164258
 20
153.9447457232
 11
238.8352164258
 21
161.6447457232
  0
LINE
  5
695
100
AcDbEntity
  8
30252542_HP_CL
100
AcDbLine
 62
9
  6
CONTINUOUS
 10
241.0289986432
 20
153.9447457232
 11
241.0289986432
 21
161.6447457232
  0
LINE
  5
696
100
AcDbEntity
  8
30338523_HL
100
AcDbLine
 62
6
  6
HIDDEN
 10
241.2289986432
 20
153.2947457232
 11
241.2289986432
 21
162.2947457232
  0
LINE
  5
697
100
AcDbEntity
  8
30338523_HL
100
AcDbLine
 62
6
  6
HIDDEN
 10
241.8289986432
 20
164.9447457232
 11
241.8289986432
 21
150.6447457232
  0
LINE
  5
698
100
AcDbEntity
  8
30252542_HP_HL
100
AcDbLine
 62
6
  6
HIDDEN
 10
241.8289986432
 20
152.8947667495
 11
241.8289986432
 21
162.694724697
  0
LINE
  5
699
100
AcDbEntity
  8
30338523_CL
100
AcDbLine
 62
7
  6
CONTINUOUS
 10
139.5689537128
 20
180.5742925703
 11
168.3289986432
 21
182.015176585
  0
LINE
  5
69A
100
AcDbEntity
  8
30338523_CL
100
AcDbLine
 62
7
  6
CONTINUOUS
 10
169.1544003033
 20
181.815176585
 11
169.8289986432
 21
181.815176585
  0
LINE
  5
69B
100
AcDbEntity
  8
30338523_HL
100
AcDbLine
 62
6
  6
HIDDEN
 10
172.6289986432
 20
184.2947457232
 11
182.0289986432
 21
184.2947457232
  0
LINE
  5
69C
100
AcDbEntity
  8
30338523_HL
100
AcDbLine
 62
6
  6
HIDDEN
 10
172.3289986432
 20
184.5947457232
 11
182.3289986432
 21
184.5947457232
  0
LINE
  5
69D
100
AcDbEntity
  8
30338523_CL
100
AcDbLine
 62
7
  6
CONTINUOUS
 10
189.4539986432
 20
185.2947457232
 11
187.2039986432
 21
185.2947457232
  0
LINE
  5
69E
100
AcDbEntity
  8
30252542_HP_HL
100
AcDbLine
 62
6
  6
HIDDEN
 10
243.3289986432
 20
152.8947667495
 11
243.3289986432
 21
162.694724697
  0
LINE
  5
69F
100
AcDbEntity
  8
30338523_CL
100
AcDbLine
 62
7
  6
CONTINUOUS
 10
245.8572820666
 20
174.7947457232
 11
245.8572820666
 21
140.7947457232
  0
LINE
  5
6A0
100
AcDbEntity
  8
30338523_HL
100
AcDbLine
 62
6
  6
HIDDEN
 10
172.3289986432
 20
188.6947457232
 11
182.3289986432
 21
188.6947457232
  0
LINE
  5
6A1
100
AcDbEntity
  8
30338523_CL
100
AcDbLine
 62
7
  6
CONTINUOUS
 10
170.5289986432
 20
189.2947457232
 11
171.7289986432
 21
189.2947457232
  0
LINE
  5
6A2
100
AcDbEntity
  8
30338523_CL
100
AcDbLine
 62
7
  6
CONTINUOUS
 10
182.9289986432
 20
189.2947457232
 11
184.9514995684
 21
189.2947457232
  0
LINE
  5
6A3
100
AcDbEntity
  8
30338523_CL
100
AcDbLine
 62
7
  6
CONTINUOUS
 10
191.7064977179
 20
189.2947457232
 11
196.2789986432
 21
189.2947457232
  0
LINE
  5
6A4
100
AcDbEntity
  8
30338523_HL
100
AcDbLine
 62
6
  6
HIDDEN
 10
254.3289986432
 20
164.9447457232
 11
254.3289986432
 21
150.6447457232
  0
LINE
  5
6A5
100
AcDbEntity
  8
30338523_HL
100
AcDbLine
 62
6
  6
HIDDEN
 10
288.3289986432
 20
164.7947457232
 11
288.3289986432
 21
150.7947457232
  0
LINE
  5
6A6
100
AcDbEntity
  8
30338523_CL
100
AcDbLine
 62
9
  6
CONTINUOUS
 10
289.4074577389
 20
171.3672725653
 11
289.4074577389
 21
144.2222188812
  0
LINE
  5
6A7
100
AcDbEntity
  8
30338523_CL
100
AcDbLine
 62
9
  6
CONTINUOUS
 10
289.4161543859
 20
164.8898595262
 11
289.4161543859
 21
150.6996319203
  0
LINE
  5
6A8
100
AcDbEntity
  8
30338523_CL
100
AcDbLine
 62
7
  6
CONTINUOUS
 10
290.3289986432
 20
170.3703552316
 11
290.3289986432
 21
145.2191362149
  0
ARC
  5
6A9
100
AcDbEntity
  8
30338523_CL
100
AcDbCircle
 62
7
  6
CONTINUOUS
 10
139.6289986432
 20
136.2136956873
 40
1.2
100
AcDbArc
 50
180.0
 51
267.131868059
  0
ARC
  5
6AA
100
AcDbEntity
  8
30338523_HL
100
AcDbCircle
 62
6
  6
HIDDEN
 10
153.4114342085
 20
138.3947457232
 40
0.6
100
AcDbArc
 50
210.0
 51
270.0
  0
CIRCLE
  5
6AB
100
AcDbEntity
  8
30338523_CL
100
AcDbCircle
 62
7
  6
CONTINUOUS
 10
161.3289986432
 20
157.7947457232
 40
3.75
  0
ARC
  5
6AC
100
AcDbEntity
  8
30338523_HL
100
AcDbCircle
 62
6
  6
HIDDEN
 10
142.9289986432
 20
153.0247457232
 40
1.5
100
AcDbArc
 50
358.2576964496
 51
360.0
  0
ARC
  5
6AD
100
AcDbEntity
  8
30338523_CL
100
AcDbCircle
 62
7
  6
CONTINUOUS
 10
142.9289986432
 20
153.0247457232
 40
1.5
100
AcDbArc
 50
270.0
 51
358.2576964496
  0
ARC
  5
6AE
100
AcDbEntity
  8
30338523_CL
100
AcDbCircle
 62
7
  6
CONTINUOUS
 10
183.2789986432
 20
129.7947457232
 40
8.0
100
AcDbArc
 50
90.0
 51
152.7433806908
  0
ARC
  5
6AF
100
AcDbEntity
  8
30338523_HL
100
AcDbCircle
 62
6
  6
HIDDEN
 10
178.8289986432
 20
142.0447457232
 40
1.5
100
AcDbArc
 50
236.4426902381
 51
360.0
  0
ARC
  5
6B0
100
AcDbEntity
  8
30338523_CL
100
AcDbCircle
 62
7
  6
CONTINUOUS
 10
187.2039986432
 20
129.5447457232
 40
0.75
100
AcDbArc
 50
90.0
 51
180.0
  0
ARC
  5
6B1
100
AcDbEntity
  8
30338523_HL
100
AcDbCircle
 62
6
  6
HIDDEN
 10
169.8289986432
 20
133.1743148615
 40
0.6
100
AcDbArc
 50
352.0
 51
33.5458509117
  0
ARC
  5
6B2
100
AcDbEntity
  8
30338523_CL
100
AcDbCircle
 62
7
  6
CONTINUOUS
 10
169.1544003033
 20
133.1743148615
 40
0.6
100
AcDbArc
 50
90.0
 51
105.0
  0
ARC
  5
6B3
100
AcDbEntity
  8
30338523_CL
100
AcDbCircle
 62
7
  6
CONTINUOUS
 10
169.8289986432
 20
133.1743148615
 40
0.6
100
AcDbArc
 50
33.5458509117
 51
90.0
  0
ARC
  5
6B4
100
AcDbEntity
  8
30338523_HL
100
AcDbCircle
 62
6
  6
HIDDEN
 10
183.2789986432
 20
158.7947457232
 40
8.0
100
AcDbArc
 50
90.0
 51
180.0
  0
ARC
  5
6B5
100
AcDbEntity
  8
30338523_HL
100
AcDbCircle
 62
6
  6
HIDDEN
 10
183.2789986432
 20
156.7947457232
 40
8.0
100
AcDbArc
 50
180.0
 51
270.0
  0
ARC
  5
6B6
100
AcDbEntity
  8
30338523_HL
100
AcDbCircle
 62
6
  6
HIDDEN
 10
164.0840006448
 20
145.7947457232
 40
8.0
100
AcDbArc
 50
270.0
 51
321.3178125465
  0
ARC
  5
6B7
100
AcDbEntity
  8
30338523_CL
100
AcDbCircle
 62
7
  6
CONTINUOUS
 10
183.2789986432
 20
157.7947457232
 40
8.0
100
AcDbArc
 50
90.0
 51
270.0
  0
ARC
  5
6B8
100
AcDbEntity
  8
30338523_CL
100
AcDbCircle
 62
7
  6
CONTINUOUS
 10
44.9862901329
 20
195.9900608239
 40
153.2985603755
100
AcDbArc
 50
335.9265985332
 51
337.3426013525
  0
ARC
  5
6B9
100
AcDbEntity
  8
30338523_HL
100
AcDbCircle
 62
6
  6
HIDDEN
 10
164.0840006448
 20
169.7947457232
 40
8.0
100
AcDbArc
 50
38.6821874535
 51
90.0
  0
ARC
  5
6BA
100
AcDbEntity
  8
30338523_HL
100
AcDbCircle
 62
6
  6
HIDDEN
 10
178.8289986432
 20
173.5447457232
 40
1.5
100
AcDbArc
 50
0.0
 51
123.5573097619
  0
ARC
  5
6BB
100
AcDbEntity
  8
30338523_HL
100
AcDbCircle
 62
6
  6
HIDDEN
 10
142.9289986432
 20
162.5647457232
 40
1.5
100
AcDbArc
 50
0.0
 51
1.7423035504
  0
ARC
  5
6BC
100
AcDbEntity
  8
30338523_CL
100
AcDbCircle
 62
7
  6
CONTINUOUS
 10
142.9289986432
 20
162.5647457232
 40
1.5
100
AcDbArc
 50
1.7423035504
 51
90.0
  0
ARC
  5
6BD
100
AcDbEntity
  8
30338523_CL
100
AcDbCircle
 62
7
  6
CONTINUOUS
 10
139.6289986432
 20
179.3757957591
 40
1.2
100
AcDbArc
 50
92.868131941
 51
180.0
  0
ARC
  5
6BE
100
AcDbEntity
  8
30338523_CL
100
AcDbCircle
 62
7
  6
CONTINUOUS
 10
187.2039986432
 20
186.0447457232
 40
0.75
100
AcDbArc
 50
180.0
 51
270.0
  0
ARC
  5
6BF
100
AcDbEntity
  8
30338523_HL
100
AcDbCircle
 62
6
  6
HIDDEN
 10
153.4114342085
 20
177.1947457232
 40
0.6
100
AcDbArc
 50
90.0
 51
150.0
  0
ARC
  5
6C0
100
AcDbEntity
  8
30338523_HL
100
AcDbCircle
 62
6
  6
HIDDEN
 10
169.8289986432
 20
182.415176585
 40
0.6
100
AcDbArc
 50
326.4541490883
 51
8.0
  0
ARC
  5
6C1
100
AcDbEntity
  8
30338523_CL
100
AcDbCircle
 62
7
  6
CONTINUOUS
 10
169.1544003033
 20
182.415176585
 40
0.6
100
AcDbArc
 50
255.0
 51
270.0
  0
ARC
  5
6C2
100
AcDbEntity
  8
30338523_CL
100
AcDbCircle
 62
7
  6
CONTINUOUS
 10
169.8289986432
 20
182.415176585
 40
0.6
100
AcDbArc
 50
270.0
 51
326.4541490883
  0
ARC
  5
6C3
100
AcDbEntity
  8
30338523_HL
100
AcDbCircle
 62
6
  6
HIDDEN
 10
232.3289986432
 20
157.7947457232
 40
3.0
100
AcDbArc
 50
194.9200629736
 51
195.0
  0
ARC
  5
6C4
100
AcDbEntity
  8
30338523_HL
100
AcDbCircle
 62
6
  6
HIDDEN
 10
232.3966277759
 20
123.6551785694
 40
17.4791833828
100
AcDbArc
 50
96.0273533131
 51
98.4471110386
  0
ARC
  5
6C5
100
AcDbEntity
  8
30338523_HL
100
AcDbCircle
 62
6
  6
HIDDEN
 10
232.3101416887
 20
124.0396100541
 40
17.0917580342
100
AcDbArc
 50
81.5351232029
 51
89.5398504712
  0
ARC
  5
6C6
100
AcDbEntity
  8
30338523_HL
100
AcDbCircle
 62
6
  6
HIDDEN
 10
232.332322985
 20
124.3161652929
 40
16.8150993473
100
AcDbArc
 50
90.6161008846
 51
96.0459455979
  0
ARC
  5
6C7
100
AcDbEntity
  8
30338523_HL
100
AcDbCircle
 62
6
  6
HIDDEN
 10
232.3290475866
 20
124.4575939616
 40
16.6736437276
100
AcDbArc
 50
90.0001681846
 51
90.610072028
  0
ARC
  5
6C8
100
AcDbEntity
  8
30338523_HL
100
AcDbCircle
 62
6
  6
HIDDEN
 10
232.3289674833
 20
124.4630133589
 40
16.6682243304
100
AcDbArc
 50
89.5928721467
 51
89.9998928902
  0
ARC
  5
6C9
100
AcDbEntity
  8
30338523_CL
100
AcDbCircle
 62
7
  6
CONTINUOUS
 10
201.2789986432
 20
135.7947457232
 40
5.0
100
AcDbArc
 50
90.0
 51
180.0
  0
CIRCLE
  5
6CA
100
AcDbEntity
  8
30338523_CL
100
AcDbCircle
 62
7
  6
CONTINUOUS
 10
188.3289986432
 20
157.7947457232
 40
3.95
  0
CIRCLE
  5
6CB
100
AcDbEntity
  8
30338523_CL
100
AcDbCircle
 62
7
  6
CONTINUOUS
 10
188.3289986432
 20
157.7947457232
 40
3.75
  0
ARC
  5
6CC
100
AcDbEntity
  8
30338523_HL
100
AcDbCircle
 62
6
  6
HIDDEN
 10
232.3289986432
 20
157.7947457232
 40
3.0
100
AcDbArc
 50
255.0
 51
255.0845865451
  0
ARC
  5
6CD
100
AcDbEntity
  8
30338523_CL
100
AcDbCircle
 62
3
  6
CONTINUOUS
 10
232.328995809
 20
157.7947049281
 40
2.9999592049
100
AcDbArc
 50
255.0845865451
 51
194.9200629736
  0
CIRCLE
  5
6CE
100
AcDbEntity
  8
30338523_CL
100
AcDbCircle
 62
7
  6
CONTINUOUS
 10
232.3289986432
 20
157.7947457232
 40
2.5
  0
ARC
  5
6CF
100
AcDbEntity
  8
30338523_HL
100
AcDbCircle
 62
6
  6
HIDDEN
 10
289.3289986432
 20
149.7034372222
 40
1.0
100
AcDbArc
 50
0.0
 51
85.0
  0
ARC
  5
6D0
100
AcDbEntity
  8
30338523_CL
100
AcDbCircle
 62
7
  6
CONTINUOUS
 10
289.3289986432
 20
145.2191362149
 40
1.0
100
AcDbArc
 50
274.5
 51
360.0
  0
ARC
  5
6D1
100
AcDbEntity
  8
30252542_HP_HL
100
AcDbCircle
 62
6
  6
HIDDEN
 10
238.8352164258
 20
153.1447457232
 40
0.8
100
AcDbArc
 50
90.0
 51
120.0
  0
ARC
  5
6D2
100
AcDbEntity
  8
30252542_HP_HL
100
AcDbCircle
 62
6
  6
HIDDEN
 10
241.0289986432
 20
153.1447457232
 40
0.8
100
AcDbArc
 50
0.0
 51
90.0
  0
ARC
  5
6D3
100
AcDbEntity
  8
30338523_CL
100
AcDbCircle
 62
7
  6
CONTINUOUS
 10
189.4539986432
 20
129.5447457232
 40
0.75
100
AcDbArc
 50
0.0
 51
90.0
  0
CIRCLE
  5
6D4
100
AcDbEntity
  8
30338523_CL
100
AcDbCircle
 62
7
  6
CONTINUOUS
 10
188.3289986432
 20
157.7947457232
 40
0.1
  0
ARC
  5
6D5
100
AcDbEntity
  8
30338523_CL
100
AcDbCircle
 62
7
  6
CONTINUOUS
 10
331.6717071537
 20
195.990060824
 40
153.2985603758
100
AcDbArc
 50
202.6573986475
 51
204.0734014668
  0
ARC
  5
6D6
100
AcDbEntity
  8
30338523_HL
100
AcDbCircle
 62
6
  6
HIDDEN
 10
232.2613695125
 20
191.9343128616
 40
17.4791833672
100
AcDbArc
 50
276.0273531388
 51
278.4471110393
  0
ARC
  5
6D7
100
AcDbEntity
  8
30338523_HL
100
AcDbCircle
 62
6
  6
HIDDEN
 10
232.3256743018
 20
191.2733261427
 40
16.8150993365
100
AcDbArc
 50
270.6161008291
 51
276.0459454206
  0
ARC
  5
6D8
100
AcDbEntity
  8
30338523_HL
100
AcDbCircle
 62
6
  6
HIDDEN
 10
232.3289497
 20
191.1318974422
 40
16.673643685
100
AcDbArc
 50
270.0001681837
 51
270.6100719738
  0
ARC
  5
6D9
100
AcDbEntity
  8
30338523_HL
100
AcDbCircle
 62
6
  6
HIDDEN
 10
232.329029803
 20
191.1264780926
 40
16.6682243354
100
AcDbArc
 50
269.5928720226
 51
269.9998928904
  0
ARC
  5
6DA
100
AcDbEntity
  8
30338523_CL
100
AcDbCircle
 62
7
  6
CONTINUOUS
 10
201.2789986432
 20
179.7947457232
 40
5.0
100
AcDbArc
 50
180.0
 51
270.0
  0
ARC
  5
6DB
100
AcDbEntity
  8
30338523_HL
100
AcDbCircle
 62
6
  6
HIDDEN
 10
289.3289986432
 20
165.8860542243
 40
1.0
100
AcDbArc
 50
275.0
 51
360.0
  0
ARC
  5
6DC
100
AcDbEntity
  8
30338523_CL
100
AcDbCircle
 62
7
  6
CONTINUOUS
 10
289.3289986432
 20
170.3703552316
 40
1.0
100
AcDbArc
 50
0.0
 51
85.5
  0
ARC
  5
6DD
100
AcDbEntity
  8
30252542_HP_HL
100
AcDbCircle
 62
6
  6
HIDDEN
 10
238.8352164258
 20
162.4447457232
 40
0.8
100
AcDbArc
 50
240.0
 51
270.0
  0
ARC
  5
6DE
100
AcDbEntity
  8
30252542_HP_HL
100
AcDbCircle
 62
6
  6
HIDDEN
 10
241.0289986432
 20
162.4447457232
 40
0.8
100
AcDbArc
 50
270.0
 51
360.0
  0
ARC
  5
6DF
100
AcDbEntity
  8
30338523_CL
100
AcDbCircle
 62
7
  6
CONTINUOUS
 10
189.4539986432
 20
186.0447457232
 40
0.75
100
AcDbArc
 50
270.0
 51
360.0
  0
SPLINE
  5
6E0
100
AcDbEntity
  8
30338523_HL
100
AcDbSpline
 62
6
  6
HIDDEN
 70
0
 71
3
 72
12
 73
8
 74
0
 42
0.0000001
 43
0.0000001
 44
0.0000000001
 40
0.0
 40
0.0
 40
0.0
 40
0.0
 40
0.0819441258
 40
0.3114471751
 40
0.5409602461
 40
0.7704781778
 40
1.0
 40
1.0
 40
1.0
 40
1.0
 10
186.7151319838
 20
165.7947456956
 30
0.0
 10
186.7062162905
 20
165.8212614751
 30
0.0
 10
186.6736401525
 20
165.9224806874
 30
0.0
 10
186.6247290027
 20
166.1006686812
 30
0.0
 10
186.5738444116
 20
166.3302165892
 30
0.0
 10
186.5327037588
 20
166.5617020463
 30
0.0
 10
186.5111547443
 20
166.7169574448
 30
0.0
 10
186.5017718175
 20
166.7947457232
 30
0.0
  0
SPLINE
  5
6E1
100
AcDbEntity
  8
30338523_HL
100
AcDbSpline
 62
6
  6
HIDDEN
 70
0
 71
3
 72
12
 73
8
 74
0
 42
0.0000001
 43
0.0000001
 44
0.0000000001
 40
0.0
 40
0.0
 40
0.0
 40
0.0
 40
0.2295218208
 40
0.4590397526
 40
0.688552823
 40
0.9180558722
 40
1.0
 40
1.0
 40
1.0
 40
1.0
 10
186.5017718175
 20
148.7947457232
 30
0.0
 10
186.5111547443
 20
148.8725340012
 30
0.0
 10
186.5327037583
 20
149.0277893992
 30
0.0
 10
186.5738444115
 20
149.2592748557
 30
0.0
 10
186.6247290022
 20
149.4888227635
 30
0.0
 10
186.6736401519
 20
149.6670107578
 30
0.0
 10
186.7062162903
 20
149.7682299708
 30
0.0
 10
186.7151319838
 20
149.7947457509
 30
0.0
  0
SPLINE
  5
6E2
100
AcDbEntity
  8
30338523_HL
100
AcDbSpline
 62
6
  6
HIDDEN
 70
0
 71
3
 72
12
 73
8
 74
0
 42
0.0000001
 43
0.0000001
 44
0.0000000001
 40
0.0
 40
0.0
 40
0.0
 40
0.0
 40
0.0819441218
 40
0.3114471739
 40
0.5409602453
 40
0.7704781779
 40
1.0
 40
1.0
 40
1.0
 40
1.0
 10
189.9428653027
 20
149.7947457509
 30
0.0
 10
189.9517809956
 20
149.7682299728
 30
0.0
 10
189.984357134
 20
149.6670107609
 30
0.0
 10
190.0332682833
 20
149.4888227673
 30
0.0
 10
190.0841528741
 20
149.2592748578
 30
0.0
 10
190.125293528
 20
149.0277894005
 30
0.0
 10
190.146842542
 20
148.8725340017
 30
0.0
 10
190.1562254689
 20
148.7947457232
 30
0.0
  0
SPLINE
  5
6E3
100
AcDbEntity
  8
30338523_HL
100
AcDbSpline
 62
6
  6
HIDDEN
 70
0
 71
3
 72
12
 73
8
 74
0
 42
0.0000001
 43
0.0000001
 44
0.0000000001
 40
0.0
 40
0.0
 40
0.0
 40
0.0
 40
0.2295218236
 40
0.4590397561
 40
0.688552828
 40
0.9180558802
 40
1.0
 40
1.0
 40
1.0
 40
1.0
 10
190.1562254689
 20
166.7947457232
 30
0.0
 10
190.146842542
 20
166.7169574443
 30
0.0
 10
190.1252935275
 20
166.5617020451
 30
0.0
 10
190.084152874
 20
166.330216587
 30
0.0
 10
190.0332682829
 20
166.1006686774
 30
0.0
 10
189.9843571335
 20
165.9224806843
 30
0.0
 10
189.9517809954
 20
165.821261473
 30
0.0
 10
189.9428653028
 20
165.7947456955
 30
0.0
  0
SPLINE
  5
6E4
100
AcDbEntity
  8
30252542_HP_HL
100
AcDbSpline
 62
6
  6
HIDDEN
 70
0
 71
3
 72
15
 73
11
 74
0
 42
0.0000001
 43
0.0000001
 44
0.0000000001
 40
0.0
 40
0.0
 40
0.0
 40
0.0
 40
0.126812495
 40
0.2523288371
 40
0.3765810707
 40
0.5000000582
 40
0.6234190356
 40
0.7476712706
 40
0.8731875969
 40
1.0
 40
1.0
 40
1.0
 40
1.0
 10
243.2057499891
 20
155.2947457232
 30
0.0
 10
243.1498279376
 20
155.3916055578
 30
0.0
 10
243.0456929318
 20
155.5886446456
 30
0.0
 10
242.9207022061
 20
155.8971440748
 30
0.0
 10
242.8383817017
 20
156.217089503
 30
0.0
 10
242.8093397014
 20
156.5447458703
 30
0.0
 10
242.8383817756
 20
156.8724022292
 30
0.0
 10
242.9207022844
 20
157.1923476319
 30
0.0
 10
243.0456929923
 20
157.5008469689
 30
0.0
 10
243.1498279781
 20
157.6978859588
 30
0.0
 10
243.2057499891
 20
157.7947457232
 30
0.0
  0
SPLINE
  5
6E5
100
AcDbEntity
  8
30252542_HP_HL
100
AcDbSpline
 62
6
  6
HIDDEN
 70
0
 71
3
 72
15
 73
11
 74
0
 42
0.0000001
 43
0.0000001
 44
0.0000000001
 40
0.0
 40
0.0
 40
0.0
 40
0.0
 40
0.1268123969
 40
0.2523287379
 40
0.3765809926
 40
0.4999999925
 40
0.6234189813
 40
0.7476712065
 40
0.8731875237
 40
1.0
 40
1.0
 40
1.0
 40
1.0
 10
243.2057499891
 20
157.7947457232
 30
0.0
 10
243.1498279808
 20
157.8916054829
 30
0.0
 10
243.0456929882
 20
158.0886444777
 30
0.0
 10
242.9207022751
 20
158.3971438398
 30
0.0
 10
242.8383817596
 20
158.7170892927
 30
0.0
 10
242.8093396969
 20
159.0447456928
 30
0.0
 10
242.8383817341
 20
159.3724020698
 30
0.0
 10
242.9207022347
 20
159.6923474688
 30
0.0
 10
243.0456929573
 20
160.0008468501
 30
0.0
 10
243.1498279458
 20
160.197885903
 30
0.0
 10
243.2057499891
 20
160.2947457232
 30
0.0
  0
SPLINE
  5
6E6
100
AcDbEntity
  8
30252542_HP_HL
100
AcDbSpline
 62
6
  6
HIDDEN
 70
0
 71
3
 72
15
 73
11
 74
0
 42
0.0000001
 43
0.0000001
 44
0.0000000001
 40
0.0
 40
0.0
 40
0.0
 40
0.0
 40
0.126812495
 40
0.2523288371
 40
0.3765810707
 40
0.5000000582
 40
0.6234190356
 40
0.7476712706
 40
0.8731875969
 40
1.0
 40
1.0
 40
1.0
 40
1.0
 10
229.9522472972
 20
155.2947457232
 30
0.0
 10
230.0081693488
 20
155.3916055578
 30
0.0
 10
230.1123043546
 20
155.5886446456
 30
0.0
 10
230.2372950803
 20
155.8971440748
 30
0.0
 10
230.3196155847
 20
156.217089503
 30
0.0
 10
230.3486575849
 20
156.5447458703
 30
0.0
 10
230.3196155108
 20
156.8724022292
 30
0.0
 10
230.237295002
 20
157.1923476319
 30
0.0
 10
230.1123042941
 20
157.5008469689
 30
0.0
 10
230.0081693083
 20
157.6978859588
 30
0.0
 10
229.9522472972
 20
157.7947457232
 30
0.0
  0
SPLINE
  5
6E7
100
AcDbEntity
  8
30252542_HP_HL
100
AcDbSpline
 62
6
  6
HIDDEN
 70
0
 71
3
 72
15
 73
11
 74
0
 42
0.0000001
 43
0.0000001
 44
0.0000000001
 40
0.0
 40
0.0
 40
0.0
 40
0.0
 40
0.1268123969
 40
0.2523287379
 40
0.3765809926
 40
0.4999999925
 40
0.6234189813
 40
0.7476712065
 40
0.8731875237
 40
1.0
 40
1.0
 40
1.0
 40
1.0
 10
229.9522472972
 20
157.7947457232
 30
0.0
 10
230.0081693056
 20
157.8916054829
 30
0.0
 10
230.1123042982
 20
158.0886444777
 30
0.0
 10
230.2372950113
 20
158.3971438398
 30
0.0
 10
230.3196155268
 20
158.7170892927
 30
0.0
 10
230.3486575895
 20
159.0447456928
 30
0.0
 10
230.3196155523
 20
159.3724020698
 30
0.0
 10
230.2372950516
 20
159.6923474688
 30
0.0
 10
230.1123043291
 20
160.0008468501
 30
0.0
 10
230.0081693405
 20
160.197885903
 30
0.0
 10
229.9522472972
 20
160.2947457232
 30
0.0
  0
SPLINE
  5
6E8
100
AcDbEntity
  8
30338523_HL
100
AcDbSpline
 62
6
  6
HIDDEN
 70
0
 71
3
 72
30
 73
26
 74
0
 42
0.0000001
 43
0.0000001
 44
0.0000000001
 40
0.0
 40
0.0
 40
0.0
 40
0.0
 40
0.044445763
 40
0.0888915259
 40
0.1333372889
 40
0.1777830519
 40
0.2222288149
 40
0.2666745778
 40
0.3111203408
 40
0.3555661038
 40
0.4000118667
 40
0.4444576297
 40
0.4889033927
 40
0.5333491556
 40
0.5777949186
 40
0.6222406816
 40
0.6666864446
 40
0.7111322075
 40
0.7555779705
 40
0.8000237335
 40
0.8444694964
 40
0.8889152594
 40
0.9333610224
 40
0.9778067853
 40
1.0
 40
1.0
 40
1.0
 40
1.0
 10
232.3289986432
 20
141.213958649
 30
0.0
 10
232.3983131533
 20
141.2139549553
 30
0.0
 10
232.5369888681
 20
141.213089678
 30
0.0
 10
232.7441410325
 20
141.2091895778
 30
0.0
 10
232.949434667
 20
141.2027728386
 30
0.0
 10
233.1521056631
 20
141.1939451219
 30
0.0
 10
233.3510272718
 20
141.182877255
 30
0.0
 10
233.5454904586
 20
141.1697596363
 30
0.0
 10
233.7342322767
 20
141.1548608248
 30
0.0
 10
233.9165868898
 20
141.1384437282
 30
0.0
 10
234.0912371569
 20
141.1208622447
 30
0.0
 10
234.2575754698
 20
141.1024326669
 30
0.0
 10
234.4143172787
 20
141.0835669434
 30
0.0
 10
234.560958861
 20
141.064604332
 30
0.0
 10
234.6963421162
 20
141.0459747276
 30
0.0
 10
234.8201106135
 20
141.0280036283
 30
0.0
 10
234.9313008377
 20
141.0110956862
 30
0.0
 10
235.0297171412
 20
140.9955297475
 30
0.0
 10
235.1146214616
 20
140.9816488915
 30
0.0
 10
235.1859512724
 20
140.9696647813
 30
0.0
 10
235.2431939369
 20
140.9598346751
 30
0.0
 10
235.2863625099
 20
140.9522965887
 30
0.0
 10
235.3151568756
 20
140.9472087679
 30
0.0
 10
235.327192496
 20
140.9450671987
 30
0.0
 10
235.3289999732
 20
140.9447455836
 30
0.0
 10
235.3290015961
 20
140.9447452949
 30
0.0
  0
SPLINE
  5
6E9
100
AcDbEntity
  8
30338523_HL
100
AcDbSpline
 62
6
  6
HIDDEN
 70
0
 71
3
 72
30
 73
26
 74
0
 42
0.0000001
 43
0.0000001
 44
0.0000000001
 40
0.0
 40
0.0
 40
0.0
 40
0.0
 40
0.0222512281
 40
0.0666943541
 40
0.1111374801
 40
0.1555806061
 40
0.2000237321
 40
0.2444668581
 40
0.2889099841
 40
0.33335311
 40
0.377796236
 40
0.422239362
 40
0.466682488
 40
0.511125614
 40
0.55556874
 40
0.600011866
 40
0.644454992
 40
0.688898118
 40
0.733341244
 40
0.77778437
 40
0.822227496
 40
0.866670622
 40
0.911113748
 40
0.955556874
 40
1.0
 40
1.0
 40
1.0
 40
1.0
 10
229.3289956903
 20
140.9447452949
 30
0.0
 10
229.3289940631
 20
140.9447450053
 30
0.0
 10
229.330798219
 20
140.9450660294
 30
0.0
 10
229.3428401671
 20
140.9472087245
 30
0.0
 10
229.3716341507
 20
140.9522964789
 30
0.0
 10
229.4148028752
 20
140.9598345924
 30
0.0
 10
229.4720447867
 20
140.9696645733
 30
0.0
 10
229.543375226
 20
140.9816487911
 30
0.0
 10
229.6282782842
 20
140.995529449
 30
0.0
 10
229.7266957927
 20
141.011095583
 30
0.0
 10
229.8378842185
 20
141.0280032647
 30
0.0
 10
229.9616544929
 20
141.0459746302
 30
0.0
 10
230.0970354801
 20
141.0646039401
 30
0.0
 10
230.2436793282
 20
141.0835668571
 30
0.0
 10
230.4004185368
 20
141.1024322889
 30
0.0
 10
230.56675947
 20
141.1208621741
 30
0.0
 10
230.7414069933
 20
141.1384434044
 30
0.0
 10
230.923764405
 20
141.1548607739
 30
0.0
 10
231.1125035992
 20
141.1697594001
 30
0.0
 10
231.3069695328
 20
141.1828772271
 30
0.0
 10
231.5058889464
 20
141.1939449883
 30
0.0
 10
231.7085622786
 20
141.2027728297
 30
0.0
 10
231.9138546685
 20
141.2091895369
 30
0.0
 10
232.1210083716
 20
141.2130896824
 30
0.0
 10
232.2596841258
 20
141.2139549575
 30
0.0
 10
232.3289986432
 20
141.213958649
 30
0.0
  0
SPLINE
  5
6EA
100
AcDbEntity
  8
30338523_HL
100
AcDbSpline
 62
6
  6
HIDDEN
 70
0
 71
3
 72
30
 73
26
 74
0
 42
0.0000001
 43
0.0000001
 44
0.0000000001
 40
0.0
 40
0.0
 40
0.0
 40
0.0
 40
0.0222512281
 40
0.0666943541
 40
0.1111374801
 40
0.1555806061
 40
0.2000237321
 40
0.2444668581
 40
0.2889099841
 40
0.33335311
 40
0.377796236
 40
0.422239362
 40
0.466682488
 40
0.511125614
 40
0.55556874
 40
0.600011866
 40
0.644454992
 40
0.688898118
 40
0.733341244
 40
0.77778437
 40
0.822227496
 40
0.866670622
 40
0.911113748
 40
0.955556874
 40
1.0
 40
1.0
 40
1.0
 40
1.0
 10
235.3290015961
 20
174.6447461516
 30
0.0
 10
235.3290032232
 20
174.6447464411
 30
0.0
 10
235.3271990674
 20
174.644425417
 30
0.0
 10
235.3151571193
 20
174.642282722
 30
0.0
 10
235.2863631357
 20
174.6371949675
 30
0.0
 10
235.2431944112
 20
174.6296568541
 30
0.0
 10
235.1859524997
 20
174.6198268732
 30
0.0
 10
235.1146220603
 20
174.6078426553
 30
0.0
 10
235.0297190022
 20
174.5939619974
 30
0.0
 10
234.9313014937
 20
174.5783958635
 30
0.0
 10
234.8201130679
 20
174.5614881818
 30
0.0
 10
234.6963427935
 20
174.5435168163
 30
0.0
 10
234.5609618063
 20
174.5248875063
 30
0.0
 10
234.4143179581
 20
174.5059245893
 30
0.0
 10
234.2575787496
 20
174.4870591576
 30
0.0
 10
234.0912378164
 20
174.4686292723
 30
0.0
 10
233.916590293
 20
174.4510480421
 30
0.0
 10
233.7342328813
 20
174.4346306726
 30
0.0
 10
233.5454936872
 20
174.4197320463
 30
0.0
 10
233.3510277536
 20
174.4066142194
 30
0.0
 10
233.15210834
 20
174.3955464582
 30
0.0
 10
232.9494350077
 20
174.3867186168
 30
0.0
 10
232.7441426179
 20
174.3803019096
 30
0.0
 10
232.5369889148
 20
174.3764017641
 30
0.0
 10
232.3983131606
 20
174.375536489
 30
0.0
 10
232.3289986432
 20
174.3755327974
 30
0.0
  0
SPLINE
  5
6EB
100
AcDbEntity
  8
30338523_HL
100
AcDbSpline
 62
6
  6
HIDDEN
 70
0
 71
3
 72
30
 73
26
 74
0
 42
0.0000001
 43
0.0000001
 44
0.0000000001
 40
0.0
 40
0.0
 40
0.0
 40
0.0
 40
0.044445763
 40
0.0888915259
 40
0.1333372889
 40
0.1777830519
 40
0.2222288149
 40
0.2666745778
 40
0.3111203408
 40
0.3555661038
 40
0.4000118667
 40
0.4444576297
 40
0.4889033927
 40
0.5333491556
 40
0.5777949186
 40
0.6222406816
 40
0.6666864446
 40
0.7111322075
 40
0.7555779705
 40
0.8000237335
 40
0.8444694964
 40
0.8889152594
 40
0.9333610224
 40
0.9778067853
 40
1.0
 40
1.0
 40
1.0
 40
1.0
 10
232.3289986432
 20
174.3755327974
 30
0.0
 10
232.259684133
 20
174.3755364912
 30
0.0
 10
232.1210084183
 20
174.3764017685
 30
0.0
 10
231.9138562539
 20
174.3803018686
 30
0.0
 10
231.7085626193
 20
174.3867186079
 30
0.0
 10
231.5058916233
 20
174.3955463246
 30
0.0
 10
231.3069700146
 20
174.4066141915
 30
0.0
 10
231.1125068278
 20
174.4197318102
 30
0.0
 10
230.9237650097
 20
174.4346306216
 30
0.0
 10
230.7414103966
 20
174.4510477182
 30
0.0
 10
230.5667601295
 20
174.4686292017
 30
0.0
 10
230.4004218166
 20
174.4870587796
 30
0.0
 10
230.2436800077
 20
174.5059245031
 30
0.0
 10
230.0970384253
 20
174.5248871145
 30
0.0
 10
229.9616551702
 20
174.5435167189
 30
0.0
 10
229.8378866729
 20
174.5614878181
 30
0.0
 10
229.7266964487
 20
174.5783957603
 30
0.0
 10
229.6282801452
 20
174.593961699
 30
0.0
 10
229.5433758248
 20
174.607842555
 30
0.0
 10
229.472046014
 20
174.6198266652
 30
0.0
 10
229.4148033494
 20
174.6296567714
 30
0.0
 10
229.3716347765
 20
174.6371948578
 30
0.0
 10
229.3428404108
 20
174.6422826786
 30
0.0
 10
229.3308047904
 20
174.6444242477
 30
0.0
 10
229.3289973132
 20
174.6447458629
 30
0.0
 10
229.3289956903
 20
174.6447461516
 30
0.0
  0
LINE
  5
6EC
100
AcDbEntity
  8
30338523_HL
100
AcDbLine
 62
6
  6
HIDDEN
 10
229.8289986432
 20
174.6447457232
 11
229.8298241117
 21
174.6446232083
  0
SPLINE
  5
6ED
100
AcDbEntity
  8
30338523_HL
100
AcDbSpline
 62
6
  6
HIDDEN
 70
0
 71
3
 72
10
 73
6
 74
0
 42
0.0000001
 43
0.0000001
 44
0.0000000001
 40
0.0
 40
0.0
 40
0.0
 40
0.0
 40
0.3005221493
 40
0.6207356135
 40
1.0
 40
1.0
 40
1.0
 40
1.0
 10
229.8298241117
 20
174.6446232083
 30
0.0
 10
230.0666238906
 20
174.6094933677
 30
0.0
 10
230.5572735601
 20
174.5468261788
 30
0.0
 10
231.351280653
 20
174.4799630254
 30
0.0
 10
231.9084823546
 20
174.4608207344
 30
0.0
 10
232.2105910033
 20
174.4586745557
 30
0.0
  0
LINE
  5
6EE
100
AcDbEntity
  8
30338523_HL
100
AcDbLine
 62
6
  6
HIDDEN
 10
234.8289986432
 20
140.9447457232
 11
234.8261014781
 21
140.9451753815
  0
LINE
  5
6EF
100
AcDbEntity
  8
30338523_HL
100
AcDbLine
 62
6
  6
HIDDEN
 10
171.7289986432
 20
189.2947457232
 11
171.7302431918
 21
189.294557807
  0
LINE
  5
6F0
100
AcDbEntity
  8
30338523_HL
100
AcDbLine
 62
6
  6
HIDDEN
 10
182.9277436338
 20
189.2945562281
 11
182.9289986432
 21
189.2947457232
  0
SPLINE
  5
6F1
100
AcDbEntity
  8
30338523_CL
100
AcDbSpline
 62
3
  6
CONTINUOUS
 70
0
 71
3
 72
30
 73
26
 74
0
 42
0.0000001
 43
0.0000001
 44
0.0000000001
 40
0.0
 40
0.0
 40
0.0
 40
0.0
 40
0.0222512281
 40
0.0666943541
 40
0.1111374801
 40
0.1555806061
 40
0.2000237321
 40
0.2444668581
 40
0.2889099841
 40
0.33335311
 40
0.377796236
 40
0.422239362
 40
0.466682488
 40
0.511125614
 40
0.55556874
 40
0.600011866
 40
0.644454992
 40
0.688898118
 40
0.733341244
 40
0.77778437
 40
0.822227496
 40
0.866670622
 40
0.911113748
 40
0.955556874
 40
1.0
 40
1.0
 40
1.0
 40
1.0
 10
235.3290015961
 20
140.9447452949
 30
0.0
 10
235.3290032232
 20
140.9447450053
 30
0.0
 10
235.3271990674
 20
140.9450660294
 30
0.0
 10
235.3151571193
 20
140.9472087245
 30
0.0
 10
235.2863631357
 20
140.9522964789
 30
0.0
 10
235.2431944112
 20
140.9598345924
 30
0.0
 10
235.1859524997
 20
140.9696645733
 30
0.0
 10
235.1146220603
 20
140.9816487911
 30
0.0
 10
235.0297190022
 20
140.995529449
 30
0.0
 10
234.9313014937
 20
141.011095583
 30
0.0
 10
234.8201130679
 20
141.0280032647
 30
0.0
 10
234.6963427935
 20
141.0459746302
 30
0.0
 10
234.5609618063
 20
141.0646039401
 30
0.0
 10
234.4143179581
 20
141.0835668571
 30
0.0
 10
234.2575787496
 20
141.1024322889
 30
0.0
 10
234.0912378164
 20
141.1208621741
 30
0.0
 10
233.916590293
 20
141.1384434044
 30
0.0
 10
233.7342328813
 20
141.1548607739
 30
0.0
 10
233.5454936872
 20
141.1697594001
 30
0.0
 10
233.3510277536
 20
141.1828772271
 30
0.0
 10
233.15210834
 20
141.1939449883
 30
0.0
 10
232.9494350077
 20
141.2027728297
 30
0.0
 10
232.7441426179
 20
141.2091895369
 30
0.0
 10
232.5369889148
 20
141.2130896824
 30
0.0
 10
232.3983131606
 20
141.2139549575
 30
0.0
 10
232.3289986432
 20
141.213958649
 30
0.0
  0
SPLINE
  5
6F2
100
AcDbEntity
  8
30338523_CL
100
AcDbSpline
 62
3
  6
CONTINUOUS
 70
0
 71
3
 72
30
 73
26
 74
0
 42
0.0000001
 43
0.0000001
 44
0.0000000001
 40
0.0
 40
0.0
 40
0.0
 40
0.0
 40
0.044445763
 40
0.0888915259
 40
0.1333372889
 40
0.1777830519
 40
0.2222288149
 40
0.2666745778
 40
0.3111203408
 40
0.3555661038
 40
0.4000118667
 40
0.4444576297
 40
0.4889033927
 40
0.5333491556
 40
0.5777949186
 40
0.6222406816
 40
0.6666864446
 40
0.7111322075
 40
0.7555779705
 40
0.8000237335
 40
0.8444694964
 40
0.8889152594
 40
0.9333610224
 40
0.9778067853
 40
1.0
 40
1.0
 40
1.0
 40
1.0
 10
232.3289986432
 20
141.213958649
 30
0.0
 10
232.259684133
 20
141.2139549553
 30
0.0
 10
232.1210084183
 20
141.213089678
 30
0.0
 10
231.9138562539
 20
141.2091895778
 30
0.0
 10
231.7085626193
 20
141.2027728386
 30
0.0
 10
231.5058916233
 20
141.1939451219
 30
0.0
 10
231.3069700146
 20
141.182877255
 30
0.0
 10
231.1125068278
 20
141.1697596363
 30
0.0
 10
230.9237650097
 20
141.1548608248
 30
0.0
 10
230.7414103966
 20
141.1384437282
 30
0.0
 10
230.5667601295
 20
141.1208622447
 30
0.0
 10
230.4004218166
 20
141.1024326669
 30
0.0
 10
230.2436800077
 20
141.0835669434
 30
0.0
 10
230.0970384253
 20
141.064604332
 30
0.0
 10
229.9616551702
 20
141.0459747276
 30
0.0
 10
229.8378866729
 20
141.0280036283
 30
0.0
 10
229.7266964487
 20
141.0110956862
 30
0.0
 10
229.6282801452
 20
140.9955297475
 30
0.0
 10
229.5433758248
 20
140.9816488915
 30
0.0
 10
229.472046014
 20
140.9696647813
 30
0.0
 10
229.4148033494
 20
140.9598346751
 30
0.0
 10
229.3716347765
 20
140.9522965887
 30
0.0
 10
229.3428404108
 20
140.9472087679
 30
0.0
 10
229.3308047904
 20
140.9450671987
 30
0.0
 10
229.3289973132
 20
140.9447455836
 30
0.0
 10
229.3289956903
 20
140.9447452949
 30
0.0
  0
SPLINE
  5
6F3
100
AcDbEntity
  8
30338523_CL
100
AcDbSpline
 62
3
  6
CONTINUOUS
 70
0
 71
3
 72
30
 73
26
 74
0
 42
0.0000001
 43
0.0000001
 44
0.0000000001
 40
0.0
 40
0.0
 40
0.0
 40
0.0
 40
0.044445763
 40
0.0888915259
 40
0.1333372889
 40
0.1777830519
 40
0.2222288149
 40
0.2666745778
 40
0.3111203408
 40
0.3555661038
 40
0.4000118667
 40
0.4444576297
 40
0.4889033927
 40
0.5333491556
 40
0.5777949186
 40
0.6222406816
 40
0.6666864446
 40
0.7111322075
 40
0.7555779705
 40
0.8000237335
 40
0.8444694964
 40
0.8889152594
 40
0.9333610224
 40
0.9778067853
 40
1.0
 40
1.0
 40
1.0
 40
1.0
 10
232.3289986432
 20
174.3755327974
 30
0.0
 10
232.3983131533
 20
174.3755364912
 30
0.0
 10
232.5369888681
 20
174.3764017685
 30
0.0
 10
232.7441410325
 20
174.3803018686
 30
0.0
 10
232.949434667
 20
174.3867186079
 30
0.0
 10
233.1521056631
 20
174.3955463246
 30
0.0
 10
233.3510272718
 20
174.4066141915
 30
0.0
 10
233.5454904586
 20
174.4197318102
 30
0.0
 10
233.7342322767
 20
174.4346306216
 30
0.0
 10
233.9165868898
 20
174.4510477182
 30
0.0
 10
234.0912371569
 20
174.4686292017
 30
0.0
 10
234.2575754698
 20
174.4870587796
 30
0.0
 10
234.4143172787
 20
174.5059245031
 30
0.0
 10
234.560958861
 20
174.5248871145
 30
0.0
 10
234.6963421162
 20
174.5435167189
 30
0.0
 10
234.8201106135
 20
174.5614878181
 30
0.0
 10
234.9313008377
 20
174.5783957603
 30
0.0
 10
235.0297171412
 20
174.593961699
 30
0.0
 10
235.1146214616
 20
174.607842555
 30
0.0
 10
235.1859512724
 20
174.6198266652
 30
0.0
 10
235.2431939369
 20
174.6296567714
 30
0.0
 10
235.2863625099
 20
174.6371948578
 30
0.0
 10
235.3151568756
 20
174.6422826786
 30
0.0
 10
235.327192496
 20
174.6444242477
 30
0.0
 10
235.3289999732
 20
174.6447458629
 30
0.0
 10
235.3290015961
 20
174.6447461516
 30
0.0
  0
SPLINE
  5
6F4
100
AcDbEntity
  8
30338523_CL
100
AcDbSpline
 62
3
  6
CONTINUOUS
 70
0
 71
3
 72
30
 73
26
 74
0
 42
0.0000001
 43
0.0000001
 44
0.0000000001
 40
0.0
 40
0.0
 40
0.0
 40
0.0
 40
0.0222512281
 40
0.0666943541
 40
0.1111374801
 40
0.1555806061
 40
0.2000237321
 40
0.2444668581
 40
0.2889099841
 40
0.33335311
 40
0.377796236
 40
0.422239362
 40
0.466682488
 40
0.511125614
 40
0.55556874
 40
0.600011866
 40
0.644454992
 40
0.688898118
 40
0.733341244
 40
0.77778437
 40
0.822227496
 40
0.866670622
 40
0.911113748
 40
0.955556874
 40
1.0
 40
1.0
 40
1.0
 40
1.0
 10
229.3289956903
 20
174.6447461516
 30
0.0
 10
229.3289940631
 20
174.6447464411
 30
0.0
 10
229.330798219
 20
174.644425417
 30
0.0
 10
229.3428401671
 20
174.642282722
 30
0.0
 10
229.3716341507
 20
174.6371949675
 30
0.0
 10
229.4148028752
 20
174.6296568541
 30
0.0
 10
229.4720447867
 20
174.6198268732
 30
0.0
 10
229.543375226
 20
174.6078426553
 30
0.0
 10
229.6282782842
 20
174.5939619974
 30
0.0
 10
229.7266957927
 20
174.5783958635
 30
0.0
 10
229.8378842185
 20
174.5614881818
 30
0.0
 10
229.9616544929
 20
174.5435168163
 30
0.0
 10
230.0970354801
 20
174.5248875063
 30
0.0
 10
230.2436793282
 20
174.5059245893
 30
0.0
 10
230.4004185368
 20
174.4870591576
 30
0.0
 10
230.56675947
 20
174.4686292723
 30
0.0
 10
230.7414069933
 20
174.4510480421
 30
0.0
 10
230.923764405
 20
174.4346306726
 30
0.0
 10
231.1125035992
 20
174.4197320463
 30
0.0
 10
231.3069695328
 20
174.4066142194
 30
0.0
 10
231.5058889464
 20
174.3955464582
 30
0.0
 10
231.7085622786
 20
174.3867186168
 30
0.0
 10
231.9138546685
 20
174.3803019096
 30
0.0
 10
232.1210083716
 20
174.3764017641
 30
0.0
 10
232.2596841258
 20
174.375536489
 30
0.0
 10
232.3289986432
 20
174.3755327974
 30
0.0
  0
SPLINE
  5
6F5
100
AcDbEntity
  8
30338523_CL
100
AcDbSpline
 62
7
  6
CONTINUOUS
 70
0
 71
3
 72
11
 73
7
 74
0
 42
0.0000001
 43
0.0000001
 44
0.0000000001
 40
0.0
 40
0.0
 40
0.0
 40
0.0
 40
0.3723208743
 40
0.695176926
 40
0.9190024421
 40
1.0
 40
1.0
 40
1.0
 40
1.0
 10
177.3289986431
 20
126.5433857617
 30
0.0
 10
177.8512620032
 20
126.5433857617
 30
0.0
 10
178.8265490249
 20
126.5216427638
 30
0.0
 10
180.1133456074
 20
126.4397762293
 30
0.0
 10
180.9899152111
 20
126.3560310781
 30
0.0
 10
181.4148000327
 20
126.3080175129
 30
0.0
 10
181.5276386728
 20
126.2947457232
 30
0.0
  0
SPLINE
  5
6F6
100
AcDbEntity
  8
30338523_CL
100
AcDbSpline
 62
7
  6
CONTINUOUS
 70
0
 71
3
 72
10
 73
6
 74
0
 42
0.0000001
 43
0.0000001
 44
0.0000000001
 40
0.0
 40
0.0
 40
0.0
 40
0.0
 40
0.294194699
 40
0.6182082363
 40
1.0
 40
1.0
 40
1.0
 40
1.0
 10
234.8289986432
 20
174.6447457232
 30
0.0
 10
234.585605246
 20
174.6086110856
 30
0.0
 10
234.0725632136
 20
174.5433745972
 30
0.0
 10
233.2387283707
 20
174.4752559655
 30
0.0
 10
232.6482987441
 20
174.4582537573
 30
0.0
 10
232.3289986432
 20
174.4582537573
 30
0.0
  0
SPLINE
  5
6F7
100
AcDbEntity
  8
30338523_CL
100
AcDbSpline
 62
7
  6
CONTINUOUS
 70
0
 71
3
 72
31
 73
27
 74
0
 42
0.0000001
 43
0.0000001
 44
0.0000000001
 40
0.0
 40
0.0
 40
0.0
 40
0.0
 40
0.0003235857
 40
0.0007278917
 40
0.0012937167
 40
0.002909446
 40
0.0051691799
 40
0.0080702321
 40
0.0116097496
 40
0.015783938
 40
0.0205882665
 40
0.0320673459
 40
0.0459998145
 40
0.0623298863
 40
0.0809940199
 40
0.1019215699
 40
0.1250358016
 40
0.1774933824
 40
0.2376672897
 40
0.3048147722
 40
0.3781685908
 40
0.4569504167
 40
0.5403788715
 40
0.6276737206
 40
0.8107530161
 40
1.0
 40
1.0
 40
1.0
 40
1.0
 10
173.1303586136
 20
126.2947457232
 30
0.0
 10
173.1307915539
 20
126.2948821362
 30
0.0
 10
173.1318338279
 20
126.2948699595
 30
0.0
 10
173.1336216524
 20
126.2951498293
 30
0.0
 10
173.1372326046
 20
126.2955343116
 30
0.0
 10
173.1434141463
 20
126.2962893768
 30
0.0
 10
173.1528585629
 20
126.2973817328
 30
0.0
 10
173.1649796285
 20
126.2988035844
 30
0.0
 10
173.1797702972
 20
126.3005246492
 30
0.0
 10
173.1972132476
 20
126.3025497042
 30
0.0
 10
173.2257213803
 20
126.3058431042
 30
0.0
 10
173.2678321762
 20
126.3106698979
 30
0.0
 10
173.3260155885
 20
126.3172539233
 30
0.0
 10
173.394227281
 20
126.3248548576
 30
0.0
 10
173.472208302
 20
126.3333882121
 30
0.0
 10
173.5596708784
 20
126.3427605854
 30
0.0
 10
173.6943044237
 20
126.3568469428
 30
0.0
 10
173.8837780979
 20
126.375847044
 30
0.0
 10
174.134870787
 20
126.3993910763
 30
0.0
 10
174.4153345894
 20
126.4236149672
 30
0.0
 10
174.7220109024
 20
126.4475881249
 30
0.0
 10
175.0516729548
 20
126.4704169425
 30
0.0
 10
175.4010601715
 20
126.4912728845
 30
0.0
 10
175.8967690295
 20
126.5158576559
 30
0.0
 10
176.541211008
 20
126.5374743903
 30
0.0
 10
177.0635248974
 20
126.5433857617
 30
0.0
 10
177.3289986431
 20
126.5433857617
 30
0.0
  0
SPLINE
  5
6F8
100
AcDbEntity
  8
30338523_CL
100
AcDbSpline
 62
7
  6
CONTINUOUS
 70
0
 71
3
 72
10
 73
6
 74
0
 42
0.0000001
 43
0.0000001
 44
0.0000000001
 40
0.0
 40
0.0
 40
0.0
 40
0.0
 40
0.3817917644
 40
0.7058053016
 40
1.0
 40
1.0
 40
1.0
 40
1.0
 10
232.3289986432
 20
141.1312376892
 30
0.0
 10
232.6482987447
 20
141.1312376892
 30
0.0
 10
233.2387283718
 20
141.1142354809
 30
0.0
 10
234.0725632147
 20
141.0461168491
 30
0.0
 10
234.5856052465
 20
140.9808803608
 30
0.0
 10
234.8289986432
 20
140.9447457232
 30
0.0
  0
SPLINE
  5
6F9
100
AcDbEntity
  8
30338523_CL
100
AcDbSpline
 62
7
  6
CONTINUOUS
 70
0
 71
3
 72
10
 73
6
 74
0
 42
0.0000001
 43
0.0000001
 44
0.0000000001
 40
0.0
 40
0.0
 40
0.0
 40
0.0
 40
0.2941946992
 40
0.6182082364
 40
1.0
 40
1.0
 40
1.0
 40
1.0
 10
229.8289986432
 20
140.9447457232
 30
0.0
 10
230.0723920405
 20
140.9808803609
 30
0.0
 10
230.585434073
 20
141.0461168493
 30
0.0
 10
231.4192689159
 20
141.114235481
 30
0.0
 10
232.0096985423
 20
141.1312376892
 30
0.0
 10
232.3289986432
 20
141.1312376892
 30
0.0
  0
SPLINE
  5
6FA
100
AcDbEntity
  8
30338523_CL
100
AcDbSpline
 62
7
  6
CONTINUOUS
 70
0
 71
3
 72
10
 73
6
 74
0
 42
0.0000001
 43
0.0000001
 44
0.0000000001
 40
0.0
 40
0.0
 40
0.0
 40
0.0
 40
0.3817917646
 40
0.7058053017
 40
1.0
 40
1.0
 40
1.0
 40
1.0
 10
232.3289986432
 20
174.4582537573
 30
0.0
 10
232.0096985415
 20
174.4582537573
 30
0.0
 10
231.4192689143
 20
174.4752559656
 30
0.0
 10
230.5854340715
 20
174.5433745974
 30
0.0
 10
230.0723920397
 20
174.6086110856
 30
0.0
 10
229.8289986432
 20
174.6447457232
 30
0.0
  0
SPLINE
  5
6FB
100
AcDbEntity
  8
30338523_CL
100
AcDbSpline
 62
7
  6
CONTINUOUS
 70
0
 71
3
 72
15
 73
11
 74
0
 42
0.0000001
 43
0.0000001
 44
0.0000000001
 40
0.0
 40
0.0
 40
0.0
 40
0.0
 40
0.041365825
 40
0.1543852447
 40
0.3154477639
 40
0.5000000006
 40
0.6845522376
 40
0.8456147564
 40
0.9586341756
 40
1.0
 40
1.0
 40
1.0
 40
1.0
 10
182.9289986432
 20
189.2947457232
 30
0.0
 10
182.7757230183
 20
189.2716086754
 30
0.0
 10
182.2031587042
 20
189.1885696506
 30
0.0
 10
181.02964587
 20
189.0445726819
 30
0.0
 10
179.3160138262
 20
188.9043626368
 30
0.0
 10
177.3289986356
 20
188.8473201696
 30
0.0
 10
175.3419834463
 20
188.9043626376
 30
0.0
 10
173.6283514047
 20
189.0445726831
 30
0.0
 10
172.4548385758
 20
189.1885696515
 30
0.0
 10
171.8822742658
 20
189.2716086758
 30
0.0
 10
171.7289986432
 20
189.2947457232
 30
0.0
  0
SPLINE
  5
6FC
100
AcDbEntity
  8
30338523_CL
100
AcDbSpline
 62
7
  6
CONTINUOUS
 70
0
 71
3
 72
17
 73
13
 74
0
 42
0.0000001
 43
0.0000001
 44
0.0000000001
 40
0.0
 40
0.0
 40
0.0
 40
0.0
 40
0.1250509093
 40
0.2500997825
 40
0.3751448249
 40
0.5001812055
 40
0.6251946291
 40
0.7501381638
 40
0.8126521836
 40
0.8751440342
 40
0.9375937337
 40
1.0
 40
1.0
 40
1.0
 40
1.0
 10
189.9428652204
 20
149.7947457232
 30
0.0
 10
189.9314935711
 20
149.8285650969
 30
0.0
 10
189.9076324403
 20
149.8958354937
 30
0.0
 10
189.8679084509
 20
149.9952644957
 30
0.0
 10
189.8234229271
 20
150.0926698621
 30
0.0
 10
189.772947113
 20
150.187156728
 30
0.0
 10
189.7146197419
 20
150.2770202721
 30
0.0
 10
189.6568202293
 20
150.3455131886
 30
0.0
 10
189.6027652958
 20
150.3922887219
 30
0.0
 10
189.5575722316
 20
150.421347033
 30
0.0
 10
189.5075839947
 20
150.4413871644
 30
0.0
 10
189.4718046502
 20
150.4462764949
 30
0.0
 10
189.4539986432
 20
150.4462764949
 30
0.0
  0
SPLINE
  5
6FD
100
AcDbEntity
  8
30338523_CL
100
AcDbSpline
 62
7
  6
CONTINUOUS
 70
0
 71
3
 72
21
 73
17
 74
0
 42
0.0000001
 43
0.0000001
 44
0.0000000001
 40
0.0
 40
0.0
 40
0.0
 40
0.0
 40
0.0627710938
 40
0.1255058605
 40
0.188175608
 40
0.2507622175
 40
0.3132613376
 40
0.3756814035
 40
0.4380409772
 40
0.5003651512
 40
0.6248738353
 40
0.7495561122
 40
0.8120634359
 40
0.8746436607
 40
0.9372922237
 40
1.0
 40
1.0
 40
1.0
 40
1.0
 10
166.2046738502
 20
157.7947457232
 30
0.0
 10
166.2046738502
 20
157.6438437938
 30
0.0
 10
166.186893108
 20
157.3418278682
 30
0.0
 10
166.1075176729
 20
156.8954806155
 30
0.0
 10
165.9772972671
 20
156.4616684664
 30
0.0
 10
165.7990786591
 20
156.0459536675
 30
0.0
 10
165.5764125043
 20
155.6529946071
 30
0.0
 10
165.3132695293
 20
155.2866568823
 30
0.0
 10
165.0137368453
 20
154.9500045131
 30
0.0
 10
164.571792375
 20
154.5443237734
 30
0.0
 10
163.947657473
 20
154.1215694038
 30
0.0
 10
163.2555980706
 20
153.8227729721
 30
0.0
 10
162.6764793995
 20
153.6616276044
 30
0.0
 10
162.2319211441
 20
153.5801505367
 30
0.0
 10
161.7814457389
 20
153.5388089518
 30
0.0
 10
161.4796084515
 20
153.5382525056
 30
0.0
 10
161.3289986432
 20
153.5447457232
 30
0.0
  0
SPLINE
  5
6FE
100
AcDbEntity
  8
30338523_CL
100
AcDbSpline
 62
7
  6
CONTINUOUS
 70
0
 71
3
 72
17
 73
13
 74
0
 42
0.0000001
 43
0.0000001
 44
0.0000000001
 40
0.0
 40
0.0
 40
0.0
 40
0.0
 40
0.0624063166
 40
0.1248560489
 40
0.1873479255
 40
0.2498619781
 40
0.3748055357
 40
0.4998189312
 40
0.6248552878
 40
0.7499002895
 40
0.8749491252
 40
1.0
 40
1.0
 40
1.0
 40
1.0
 10
189.4539986432
 20
165.1432149516
 30
0.0
 10
189.4718046646
 20
165.1432149516
 30
0.0
 10
189.5075840322
 20
165.1481042949
 30
0.0
 10
189.5575722954
 20
165.1681444432
 30
0.0
 10
189.6027653773
 20
165.1972027764
 30
0.0
 10
189.6568203128
 20
165.2439783438
 30
0.0
 10
189.7146198094
 20
165.3124712816
 30
0.0
 10
189.7729471906
 20
165.4023348098
 30
0.0
 10
189.8234229509
 20
165.4968216748
 30
0.0
 10
189.8679084795
 20
165.5942270061
 30
0.0
 10
189.9076324512
 20
165.6936559812
 30
0.0
 10
189.9314935743
 20
165.7609263588
 30
0.0
 10
189.9428652204
 20
165.7947457232
 30
0.0
  0
SPLINE
  5
6FF
100
AcDbEntity
  8
30338523_CL
100
AcDbSpline
 62
7
  6
CONTINUOUS
 70
0
 71
3
 72
16
 73
12
 74
0
 42
0.0000001
 43
0.0000001
 44
0.0000000001
 40
0.0
 40
0.0
 40
0.0
 40
0.0
 40
0.2626124719
 40
0.3899788842
 40
0.5145498291
 40
0.636341096
 40
0.7557749642
 40
0.8150803778
 40
0.8747733232
 40
0.9359251566
 40
1.0
 40
1.0
 40
1.0
 40
1.0
 10
139.4289986432
 20
148.7019664526
 30
0.0
 10
139.3755776726
 20
148.6063021171
 30
0.0
 10
139.2958727123
 20
148.4644501819
 30
0.0
 10
139.1910773156
 20
148.2770810108
 30
0.0
 10
139.1156917194
 20
148.1405796204
 30
0.0
 10
139.0436493265
 20
148.0060347987
 30
0.0
 10
138.9875858683
 20
147.893807639
 30
0.0
 10
138.9481056937
 20
147.8024572506
 30
0.0
 10
138.9226633327
 20
147.7316465765
 30
0.0
 10
138.9042421975
 20
147.6565076332
 30
0.0
 10
138.8999523349
 20
147.6041314079
 30
0.0
 10
138.9000347352
 20
147.5773976729
 30
0.0
  0
SPLINE
  5
700
100
AcDbEntity
  8
30338523_CL
100
AcDbSpline
 62
7
  6
CONTINUOUS
 70
0
 71
3
 72
9
 73
5
 74
0
 42
0.0000001
 43
0.0000001
 44
0.0000000001
 40
0.0
 40
0.0
 40
0.0
 40
0.0
 40
0.2502442154
 40
1.0
 40
1.0
 40
1.0
 40
1.0
 10
139.5689537128
 20
148.6649153537
 30
0.0
 10
139.5569473814
 20
148.6663925372
 30
0.0
 10
139.5091860518
 20
148.6740303652
 30
0.0
 10
139.4625948187
 20
148.6883694535
 30
0.0
 10
139.4289986432
 20
148.7019664526
 30
0.0
  0
SPLINE
  5
701
100
AcDbEntity
  8
30338523_CL
100
AcDbSpline
 62
7
  6
CONTINUOUS
 70
0
 71
3
 72
21
 73
17
 74
0
 42
0.0000001
 43
0.0000001
 44
0.0000000001
 40
0.0
 40
0.0
 40
0.0
 40
0.0
 40
0.0627077769
 40
0.1253563398
 40
0.1879365642
 40
0.2504438882
 40
0.3751261638
 40
0.4996348478
 40
0.5619590218
 40
0.6243185952
 40
0.6867386609
 40
0.7492377812
 40
0.8118243901
 40
0.8744941376
 40
0.9372289048
 40
1.0
 40
1.0
 40
1.0
 40
1.0
 10
161.3289986432
 20
162.0447457232
 30
0.0
 10
161.4796084529
 20
162.0512389409
 30
0.0
 10
161.7814457415
 20
162.0506824945
 30
0.0
 10
162.2319211469
 20
162.0093409094
 30
0.0
 10
162.6764794018
 20
161.9278638415
 30
0.0
 10
163.2555980695
 20
161.7667184746
 30
0.0
 10
163.9476574694
 20
161.4679220442
 30
0.0
 10
164.5717923693
 20
161.0451676775
 30
0.0
 10
165.0137368395
 20
160.6394869391
 30
0.0
 10
165.3132695232
 20
160.3028345713
 30
0.0
 10
165.5764124992
 20
159.936496848
 30
0.0
 10
165.7990786538
 20
159.543537789
 30
0.0
 10
165.9772972629
 20
159.1278229917
 30
0.0
 10
166.1075176705
 20
158.6940108432
 30
0.0
 10
166.1868931071
 20
158.247663586
 30
0.0
 10
166.2046738502
 20
157.945647656
 30
0.0
 10
166.2046738502
 20
157.7947457232
 30
0.0
  0
SPLINE
  5
702
100
AcDbEntity
  8
30338523_CL
100
AcDbSpline
 62
7
  6
CONTINUOUS
 70
0
 71
3
 72
21
 73
17
 74
0
 42
0.0000001
 43
0.0000001
 44
0.0000000001
 40
0.0
 40
0.0
 40
0.0
 40
0.0
 40
0.0625460668
 40
0.125082566
 40
0.1876038345
 40
0.2501064639
 40
0.3125914489
 40
0.3750639347
 40
0.4375316437
 40
0.5000035122
 40
0.5624878625
 40
0.6249904382
 40
0.687513588
 40
0.7500554211
 40
0.8750491672
 40
1.0
 40
1.0
 40
1.0
 40
1.0
 10
156.9185596201
 20
157.7947457232
 30
0.0
 10
156.9185596201
 20
157.9356251539
 30
0.0
 10
156.9338497184
 20
158.2176000275
 30
0.0
 10
157.0022387917
 20
158.635377921
 30
0.0
 10
157.1148717738
 20
159.0433889039
 30
0.0
 10
157.2698363499
 20
159.4371070447
 30
0.0
 10
157.4646672876
 20
159.8125442061
 30
0.0
 10
157.6964863482
 20
160.1662065728
 30
0.0
 10
157.962155158
 20
160.4951209644
 30
0.0
 10
158.2583833926
 20
160.7967975978
 30
0.0
 10
158.5818187185
 20
161.0691808075
 30
0.0
 10
158.9290884812
 20
161.3105864277
 30
0.0
 10
159.2968786203
 20
161.5196665572
 30
0.0
 10
159.8098473366
 20
161.7537694727
 30
0.0
 10
160.4863162232
 20
161.9610052783
 30
0.0
 10
161.0478192444
 20
162.0326232788
 30
0.0
 10
161.3289986432
 20
162.0447457232
 30
0.0
  0
SPLINE
  5
703
100
AcDbEntity
  8
30338523_CL
100
AcDbSpline
 62
7
  6
CONTINUOUS
 70
0
 71
3
 72
22
 73
18
 74
0
 42
0.0000001
 43
0.0000001
 44
0.0000000001
 40
0.0
 40
0.0
 40
0.0
 40
0.0
 40
0.033005072
 40
0.0657529327
 40
0.0980576226
 40
0.1299491723
 40
0.161532279
 40
0.1929009501
 40
0.2552184981
 40
0.3172415163
 40
0.3791144923
 40
0.4409175763
 40
0.5027024068
 40
0.6263192874
 40
0.7502556021
 40
0.8747388659
 40
1.0
 40
1.0
 40
1.0
 40
1.0
 10
142.9289986432
 20
167.4240418855
 30
0.0
 10
142.9627656557
 20
167.4303918188
 30
0.0
 10
143.0318124413
 20
167.4354241795
 30
0.0
 10
143.1332621302
 20
167.4178719588
 30
0.0
 10
143.2276063613
 20
167.380574371
 30
0.0
 10
143.3140470064
 20
167.3303704775
 30
0.0
 10
143.3937491747
 20
167.2718657676
 30
0.0
 10
143.4925183866
 20
167.1865676306
 30
0.0
 10
143.6053945983
 20
167.069809553
 30
0.0
 10
143.7285030371
 20
166.9198878341
 30
0.0
 10
143.8413653512
 20
166.762792034
 30
0.0
 10
143.9450112225
 20
166.5997860434
 30
0.0
 10
144.0713304874
 20
166.375465672
 30
0.0
 10
144.2070275757
 20
166.0826998614
 30
0.0
 10
144.3306990557
 20
165.7147946466
 30
0.0
 10
144.4100053072
 20
165.3329794661
 30
0.0
 10
144.4289986432
 20
165.0726796758
 30
0.0
 10
144.4289986432
 20
164.9422805492
 30
0.0
  0
SPLINE
  5
704
100
AcDbEntity
  8
30338523_CL
100
AcDbSpline
 62
7
  6
CONTINUOUS
 70
0
 71
3
 72
11
 73
7
 74
0
 42
0.0000001
 43
0.0000001
 44
0.0000000001
 40
0.0
 40
0.0
 40
0.0
 40
0.0
 40
0.2500281574
 40
0.5000499697
 40
0.7500513787
 40
1.0
 40
1.0
 40
1.0
 40
1.0
 10
139.5689537128
 20
166.9245760928
 30
0.0
 10
139.8499881304
 20
166.9591527998
 30
0.0
 10
140.4117555272
 20
167.030731435
 30
0.0
 10
141.2531825458
 20
167.1471700931
 30
0.0
 10
142.0928081433
 20
167.2754039994
 30
0.0
 10
142.6508113178
 20
167.3717283749
 30
0.0
 10
142.9289986432
 20
167.4240418855
 30
0.0
  0
SPLINE
  5
705
100
AcDbEntity
  8
30338523_CL
100
AcDbSpline
 62
7
  6
CONTINUOUS
 70
0
 71
3
 72
16
 73
12
 74
0
 42
0.0000001
 43
0.0000001
 44
0.0000000001
 40
0.0
 40
0.0
 40
0.0
 40
0.0
 40
0.0589538769
 40
0.1208822345
 40
0.184010769
 40
0.2475668013
 40
0.374920502
 40
0.5019456004
 40
0.6282295968
 40
0.7534791672
 40
1.0
 40
1.0
 40
1.0
 40
1.0
 10
138.675787582
 20
147.67920375
 30
0.0
 10
138.67585942
 20
147.7093023172
 30
0.0
 10
138.6710335371
 20
147.7710424642
 30
0.0
 10
138.6544212455
 20
147.8635616497
 30
0.0
 10
138.6329667729
 20
147.957453189
 30
0.0
 10
138.6016607548
 20
148.0833160977
 30
0.0
 10
138.5617244219
 20
148.240650073
 30
0.0
 10
138.5179075771
 20
148.4300137281
 30
0.0
 10
138.4806915052
 20
148.6197321833
 30
0.0
 10
138.4426381786
 20
148.87117418
 30
0.0
 10
138.4289986432
 20
149.061127028
 30
0.0
 10
138.4289986432
 20
149.1869871981
 30
0.0
  0
SPLINE
  5
706
100
AcDbEntity
  8
30338523_CL
100
AcDbSpline
 62
7
  6
CONTINUOUS
 70
0
 71
3
 72
9
 73
5
 74
0
 42
0.0000001
 43
0.0000001
 44
0.0000000001
 40
0.0
 40
0.0
 40
0.0
 40
0.0
 40
0.7497560392
 40
1.0
 40
1.0
 40
1.0
 40
1.0
 10
139.4289986432
 20
166.8875249938
 30
0.0
 10
139.4625948302
 20
166.9011219977
 30
0.0
 10
139.5091860613
 20
166.9154610981
 30
0.0
 10
139.5569473936
 20
166.9230989108
 30
0.0
 10
139.5689537128
 20
166.9245760928
 30
0.0
  0
SPLINE
  5
707
100
AcDbEntity
  8
30338523_CL
100
AcDbSpline
 62
7
  6
CONTINUOUS
 70
0
 71
3
 72
16
 73
12
 74
0
 42
0.0000001
 43
0.0000001
 44
0.0000000001
 40
0.0
 40
0.0
 40
0.0
 40
0.0
 40
0.0640762649
 40
0.1252314861
 40
0.1849256615
 40
0.2442309358
 40
0.3636640305
 40
0.485454454
 40
0.6100242674
 40
0.7373897431
 40
1.0
 40
1.0
 40
1.0
 40
1.0
 10
138.9000347352
 20
168.0120937736
 30
0.0
 10
138.8999523331
 20
167.9853594513
 30
0.0
 10
138.9042438489
 20
167.9329814244
 30
0.0
 10
138.9226637996
 20
167.8578395828
 30
0.0
 10
138.948110239
 20
167.7870283236
 30
0.0
 10
138.9875901034
 20
167.6956777862
 30
0.0
 10
139.0436528803
 20
167.5834510921
 30
0.0
 10
139.1156934059
 20
167.44890662
 30
0.0
 10
139.1910796059
 20
167.3124069786
 30
0.0
 10
139.2958737526
 20
167.1250392159
 30
0.0
 10
139.3755781348
 20
166.9831885017
 30
0.0
 10
139.4289986432
 20
166.8875249938
 30
0.0
  0
SPLINE
  5
708
100
AcDbEntity
  8
30338523_CL
100
AcDbSpline
 62
7
  6
CONTINUOUS
 70
0
 71
3
 72
40
 73
36
 74
0
 42
0.0000001
 43
0.0000001
 44
0.0000000001
 40
0.0
 40
0.0
 40
0.0
 40
0.0
 40
0.0637055856
 40
0.1279278657
 40
0.1926978598
 40
0.258087182
 40
0.3242323816
 40
0.3913979963
 40
0.4255266446
 40
0.4601770978
 40
0.4777582219
 40
0.4955149296
 40
0.5132089531
 40
0.5216098181
 40
0.5289440528
 40
0.5350034549
 40
0.5406151325
 40
0.5463385167
 40
0.552286329
 40
0.5584431629
 40
0.5647749272
 40
0.5778439668
 40
0.5913245201
 40
0.605109709
 40
0.6191319401
 40
0.6333461123
 40
0.6622303867
 40
0.6915969636
 40
0.7213461217
 40
0.7514136669
 40
0.7817556101
 40
0.8123406281
 40
0.8741523541
 40
0.9367279803
 40
1.0
 40
1.0
 40
1.0
 40
1.0
 10
138.675787582
 20
167.9102876964
 30
0.0
 10
138.6757101773
 20
167.9427186141
 30
0.0
 10
138.6761353322
 20
168.0078462893
 30
0.0
 10
138.6785284109
 20
168.1059203178
 30
0.0
 10
138.6828339701
 20
168.2047881443
 30
0.0
 10
138.6893619481
 20
168.3045193308
 30
0.0
 10
138.6987169834
 20
168.4052512306
 30
0.0
 10
138.709743857
 20
168.489815448
 30
0.0
 10
138.721934744
 20
168.5579533108
 30
0.0
 10
138.7317225493
 20
168.6008446227
 30
0.0
 10
138.741846639
 20
168.6350333137
 30
0.0
 10
138.7512395671
 20
168.660339791
 30
0.0
 10
138.7613825717
 20
168.6804329368
 30
0.0
 10
138.7721968938
 20
168.6936651261
 30
0.0
 10
138.7815405979
 20
168.7002239479
 30
0.0
 10
138.7916359234
 20
168.7012704868
 30
0.0
 10
138.7999919742
 20
168.6976486006
 30
0.0
 10
138.8067466205
 20
168.6919225079
 30
0.0
 10
138.8125728077
 20
168.6849240612
 30
0.0
 10
138.8177352141
 20
168.6770709839
 30
0.0
 10
138.8240123794
 20
168.6656638444
 30
0.0
 10
138.8308016864
 20
168.6503345254
 30
0.0
 10
138.8378002574
 20
168.6310214357
 30
0.0
 10
138.8439892308
 20
168.6109275517
 30
0.0
 10
138.8495381599
 20
168.5902639427
 30
0.0
 10
138.8562676315
 20
168.5619713632
 30
0.0
 10
138.863538666
 20
168.5257934343
 30
0.0
 10
138.8708813009
 20
168.4815946718
 30
0.0
 10
138.8771284706
 20
168.4366208643
 30
0.0
 10
138.882443584
 20
168.3910289528
 30
0.0
 10
138.8869396414
 20
168.3449220205
 30
0.0
 10
138.8919664842
 20
168.2826388968
 30
0.0
 10
138.8965370024
 20
168.2038671523
 30
0.0
 10
138.8996019757
 20
168.1083746647
 30
0.0
 10
138.9001340153
 20
168.0443039125
 30
0.0
 10
138.9000347352
 20
168.0120937736
 30
0.0
  0
SPLINE
  5
709
100
AcDbEntity
  8
30338523_CL
100
AcDbSpline
 62
7
  6
CONTINUOUS
 70
0
 71
3
 72
16
 73
12
 74
0
 42
0.0000001
 43
0.0000001
 44
0.0000000001
 40
0.0
 40
0.0
 40
0.0
 40
0.0
 40
0.2465192083
 40
0.3717687171
 40
0.4980529312
 40
0.6250781892
 40
0.7524320654
 40
0.8159881962
 40
0.8791169268
 40
0.9410456946
 40
1.0
 40
1.0
 40
1.0
 40
1.0
 10
138.4289986432
 20
166.4025042483
 30
0.0
 10
138.4289986432
 20
166.5283635884
 30
0.0
 10
138.4426381135
 20
166.7183155616
 30
0.0
 10
138.4806910062
 20
166.9697568672
 30
0.0
 10
138.5179071633
 20
167.1594754694
 30
0.0
 10
138.5617238404
 20
167.3488394513
 30
0.0
 10
138.6016603416
 20
167.5061736132
 30
0.0
 10
138.6329663238
 20
167.6320367773
 30
0.0
 10
138.6544209106
 20
167.725928658
 30
0.0
 10
138.6710334307
 20
167.8184483367
 30
0.0
 10
138.6758594206
 20
167.8801889107
 30
0.0
 10
138.675787582
 20
167.9102876964
 30
0.0
  0
SPLINE
  5
70A
100
AcDbEntity
  8
30338523_CL
100
AcDbSpline
 62
7
  6
CONTINUOUS
 70
0
 71
3
 72
21
 73
17
 74
0
 42
0.0000001
 43
0.0000001
 44
0.0000000001
 40
0.0
 40
0.0
 40
0.0
 40
0.0
 40
0.1249508325
 40
0.249944579
 40
0.3124864115
 40
0.3750095608
 40
0.4375121371
 40
0.4999964866
 40
0.5624683546
 40
0.6249360634
 40
0.6874085493
 40
0.7498935345
 40
0.8123961638
 40
0.8749174323
 40
0.9374539316
 40
1.0
 40
1.0
 40
1.0
 40
1.0
 10
161.3289986432
 20
153.5447457232
 30
0.0
 10
161.047819245
 20
153.5568681676
 30
0.0
 10
160.4863162236
 20
153.6284861679
 30
0.0
 10
159.8098473381
 20
153.8357219733
 30
0.0
 10
159.2968786229
 20
154.0698248879
 30
0.0
 10
158.9290884845
 20
154.2789050167
 30
0.0
 10
158.5818187228
 20
154.5203106357
 30
0.0
 10
158.2583833979
 20
154.7926938438
 30
0.0
 10
157.9621551652
 20
155.0943704741
 30
0.0
 10
157.6964863556
 20
155.423284864
 30
0.0
 10
157.4646672933
 20
155.77694723
 30
0.0
 10
157.2698363547
 20
156.1523843915
 30
0.0
 10
157.1148717773
 20
156.5461025317
 30
0.0
 10
157.0022387942
 20
156.9541135143
 30
0.0
 10
156.9338497193
 20
157.3718914114
 30
0.0
 10
156.9185596201
 20
157.653866289
 30
0.0
 10
156.9185596201
 20
157.7947457232
 30
0.0
  0
SPLINE
  5
70B
100
AcDbEntity
  8
30338523_CL
100
AcDbSpline
 62
7
  6
CONTINUOUS
 70
0
 71
3
 72
40
 73
36
 74
0
 42
0.0000001
 43
0.0000001
 44
0.0000000001
 40
0.0
 40
0.0
 40
0.0
 40
0.0
 40
0.0632719483
 40
0.1258474972
 40
0.1876591509
 40
0.2182441314
 40
0.2485860332
 40
0.2786535445
 40
0.3084026755
 40
0.3377692217
 40
0.3666534715
 40
0.3808676404
 40
0.3948898608
 40
0.4086750174
 40
0.4221556411
 40
0.4352245996
 40
0.4415563434
 40
0.4477131829
 40
0.4536609596
 40
0.4593845576
 40
0.4649966383
 40
0.4710557281
 40
0.4783916602
 40
0.4867926204
 40
0.5044864104
 40
0.5222430783
 40
0.5398242853
 40
0.5744747496
 40
0.6086030829
 40
0.6757682656
 40
0.7419132839
 40
0.8073024833
 40
0.8720723654
 40
0.9362945334
 40
1.0
 40
1.0
 40
1.0
 40
1.0
 10
138.9000347352
 20
147.5773976729
 30
0.0
 10
138.9001340152
 20
147.545187569
 30
0.0
 10
138.8996019787
 20
147.4811168897
 30
0.0
 10
138.8965370092
 20
147.3856245105
 30
0.0
 10
138.8919665102
 20
147.3068528571
 30
0.0
 10
138.8869396833
 20
147.2445698065
 30
0.0
 10
138.8824436207
 20
147.1984629304
 30
0.0
 10
138.8771285252
 20
147.1528710676
 30
0.0
 10
138.8708813954
 20
147.1078972997
 30
0.0
 10
138.8635387763
 20
147.0636985753
 30
0.0
 10
138.8562677634
 20
147.0275206705
 30
0.0
 10
138.8495383316
 20
146.9992281022
 30
0.0
 10
138.8439894634
 20
146.9785644962
 30
0.0
 10
138.8378003188
 20
146.9584706566
 30
0.0
 10
138.8308021313
 20
146.9391574452
 30
0.0
 10
138.8240125429
 20
146.9238282586
 30
0.0
 10
138.8177353819
 20
146.9124211815
 30
0.0
 10
138.8125730802
 20
146.9045680607
 30
0.0
 10
138.8067466993
 20
146.8975696412
 30
0.0
 10
138.7999920714
 20
146.8918431903
 30
0.0
 10
138.7916362045
 20
146.8882203401
 30
0.0
 10
138.7815397099
 20
146.8892670898
 30
0.0
 10
138.7721964902
 20
146.8958280394
 30
0.0
 10
138.7613807519
 20
146.9090597976
 30
0.0
 10
138.7512390826
 20
146.9291538668
 30
0.0
 10
138.7418460371
 20
146.9544600275
 30
0.0
 10
138.7317218013
 20
146.9886487672
 30
0.0
 10
138.7219344866
 20
147.0315400558
 30
0.0
 10
138.7097435674
 20
147.0996775356
 30
0.0
 10
138.6987169152
 20
147.1842413114
 30
0.0
 10
138.6893618834
 20
147.2849728369
 30
0.0
 10
138.6828339446
 20
147.3847038188
 30
0.0
 10
138.6785283947
 20
147.4835714729
 30
0.0
 10
138.6761353338
 20
147.5816453314
 30
0.0
 10
138.6757101774
 20
147.6467728916
 30
0.0
 10
138.675787582
 20
147.67920375
 30
0.0
  0
SPLINE
  5
70C
100
AcDbEntity
  8
30338523_CL
100
AcDbSpline
 62
7
  6
CONTINUOUS
 70
0
 71
3
 72
11
 73
7
 74
0
 42
0.0000001
 43
0.0000001
 44
0.0000000001
 40
0.0
 40
0.0
 40
0.0
 40
0.0
 40
0.2500281574
 40
0.5000499697
 40
0.7500513787
 40
1.0
 40
1.0
 40
1.0
 40
1.0
 10
139.5689537128
 20
148.6649153537
 30
0.0
 10
139.8499881304
 20
148.6303386467
 30
0.0
 10
140.4117555272
 20
148.5587600114
 30
0.0
 10
141.2531825458
 20
148.4423213534
 30
0.0
 10
142.0928081433
 20
148.314087447
 30
0.0
 10
142.6508113178
 20
148.2177630716
 30
0.0
 10
142.9289986432
 20
148.165449561
 30
0.0
  0
SPLINE
  5
70D
100
AcDbEntity
  8
30338523_CL
100
AcDbSpline
 62
7
  6
CONTINUOUS
 70
0
 71
3
 72
22
 73
18
 74
0
 42
0.0000001
 43
0.0000001
 44
0.0000000001
 40
0.0
 40
0.0
 40
0.0
 40
0.0
 40
0.1252608019
 40
0.2497438156
 40
0.3736799211
 40
0.4972967244
 40
0.5590815351
 40
0.6208846178
 40
0.6827576082
 40
0.7447806311
 40
0.8070981545
 40
0.838466804
 40
0.8700499327
 40
0.9019415099
 40
0.9342457638
 40
0.9669933662
 40
1.0
 40
1.0
 40
1.0
 40
1.0
 10
144.4289986432
 20
150.6472108972
 30
0.0
 10
144.4289986432
 20
150.5168121179
 30
0.0
 10
144.4100053863
 20
150.256512938
 30
0.0
 10
144.3306994696
 20
149.8746985459
 30
0.0
 10
144.2070285205
 20
149.506793743
 30
0.0
 10
144.0713316084
 20
149.2140282047
 30
0.0
 10
143.9450125499
 20
148.9897078378
 30
0.0
 10
143.8413668259
 20
148.8267017739
 30
0.0
 10
143.7285049435
 20
148.6696056315
 30
0.0
 10
143.6053962314
 20
148.5196841418
 30
0.0
 10
143.4925203005
 20
148.4029258831
 30
0.0
 10
143.3937512526
 20
148.3176275794
 30
0.0
 10
143.3140491724
 20
148.2591227466
 30
0.0
 10
143.227609304
 20
148.2089182713
 30
0.0
 10
143.1332658005
 20
148.171620857
 30
0.0
 10
143.0318155237
 20
148.1540669064
 30
0.0
 10
142.9627672533
 20
148.1590993272
 30
0.0
 10
142.9289986432
 20
148.165449561
 30
0.0
  0
SPLINE
  5
70E
100
AcDbEntity
  8
30338523_CL
100
AcDbSpline
 62
7
  6
CONTINUOUS
 70
0
 71
3
 72
17
 73
13
 74
0
 42
0.0000001
 43
0.0000001
 44
0.0000000001
 40
0.0
 40
0.0
 40
0.0
 40
0.0
 40
0.1250508644
 40
0.2500996897
 40
0.3751446807
 40
0.5001810315
 40
0.6251944193
 40
0.7501379882
 40
0.8126520564
 40
0.8751439365
 40
0.9375936643
 40
1.0
 40
1.0
 40
1.0
 40
1.0
 10
186.715132066
 20
165.7947457232
 30
0.0
 10
186.7265037112
 20
165.7609263616
 30
0.0
 10
186.7503648319
 20
165.6936559895
 30
0.0
 10
186.7900887985
 20
165.5942270217
 30
0.0
 10
186.8345743291
 20
165.4968217001
 30
0.0
 10
186.8850500743
 20
165.4023348347
 30
0.0
 10
186.9433774595
 20
165.3124713096
 30
0.0
 10
187.0011769537
 20
165.2439783631
 30
0.0
 10
187.0552318932
 20
165.1972027866
 30
0.0
 10
187.1004249778
 20
165.1681444498
 30
0.0
 10
187.1504132443
 20
165.1481042962
 30
0.0
 10
187.1861926163
 20
165.1432149516
 30
0.0
 10
187.2039986432
 20
165.1432149516
 30
0.0
  0
SPLINE
  5
70F
100
AcDbEntity
  8
30338523_CL
100
AcDbSpline
 62
7
  6
CONTINUOUS
 70
0
 71
3
 72
17
 73
13
 74
0
 42
0.0000001
 43
0.0000001
 44
0.0000000001
 40
0.0
 40
0.0
 40
0.0
 40
0.0
 40
0.0624062854
 40
0.1248559801
 40
0.187347834
 40
0.2498618695
 40
0.3748054156
 40
0.4998188314
 40
0.6248552065
 40
0.7499002383
 40
0.8749491011
 40
1.0
 40
1.0
 40
1.0
 40
1.0
 10
187.2039986432
 20
150.4462764949
 30
0.0
 10
187.1861926307
 20
150.4462764949
 30
0.0
 10
187.1504132819
 20
150.4413871631
 30
0.0
 10
187.1004250418
 20
150.4213470264
 30
0.0
 10
187.0552319749
 20
150.3922887119
 30
0.0
 10
187.0011770375
 20
150.3455131694
 30
0.0
 10
186.9433775274
 20
150.2770202441
 30
0.0
 10
186.8850501519
 20
150.1871567034
 30
0.0
 10
186.834574353
 20
150.092669837
 30
0.0
 10
186.7900888271
 20
149.9952644801
 30
0.0
 10
186.7503648428
 20
149.8958354855
 30
0.0
 10
186.7265037143
 20
149.8285650941
 30
0.0
 10
186.715132066
 20
149.7947457232
 30
0.0
  0
ENDSEC
  0
SECTION
  2
OBJECTS
  0
DICTIONARY
  5
C
100
AcDbDictionary
280
0
281
1
  3
ACAD_GROUP
350
D
  3
ACAD_MLINESTYLE
350
17
  3
ACAD_LAYOUT
350
1A
  3
ACAD_PLOTSETTINGS
350
19
  3
ACAD_PLOTSTYLENAME
350
E
  0
DICTIONARY
  5
D
102
{ACAD_REACTORS
330
C
102
}
100
AcDbDictionary
280
0
281
1
  0
ACDBDICTIONARYWDFLT
  5
E
102
{ACAD_REACTORS
330
C
102
}
100
AcDbDictionary
281
1
  3
Normal
350
F
100
AcDbDictionaryWithDefault
340
F
  0
DICTIONARY
  5
17
102
{ACAD_REACTORS
330
C
102
}
100
AcDbDictionary
280
0
281
1
  3
Standard
350
18
  0
DICTIONARY
  5
19
102
{ACAD_REACTORS
330
C
102
}
100
AcDbDictionary
281
1
  0
DICTIONARY
  5
1A
102
{ACAD_REACTORS
330
C
102
}
100
AcDbDictionary
281
1
  3
Model
350
710
  3
Layout1
350
711
  0
ACDBPLACEHOLDER
  5
F
102
{ACAD_REACTORS
330
E
102
}
  0
MLINESTYLE
  5
18
102
{ACAD_REACTORS
330
17
102
}
100
AcDbMlineStyle
  2
STANDARD
 70
0
  3

 62
256
 51
90.0
 52
90.0
 71
2
 49
0.5
 62
256
  6
BYLAYER
 49
-0.5
 62
256
  6
BYLAYER
  0
LAYOUT
  5
710
102
{ACAD_REACTORS
330
1A
102
}
100
AcDbPlotSettings
  1

  2
none_device
  4
ISO_A3_(420.00_x_297.00_MM)
  6

 40
0.0
 41
0.0
 42
0.0
 43
0.0
 44
420.0
 45
297.0
 46
0.0
 47
0.0
 48
0.0
 49
0.0
140
0.0
141
0.0
142
1.0
143
1.0
 70
1024
 72
1
 73
0
 74
0
  7

 75
0
147
1.0
148
0.0
149
0.0
100
AcDbLayout
  1
Model
 70
0
 71
0
 10
0.0
 20
0.0
 11
420.0
 21
297.0
 12
0.0
 22
0.0
 32
0.0
 14
0.0
 24
0.0
 34
0.0
 15
0.0
 25
0.0
 35
0.0
146
0.0
 13
0.0
 23
0.0
 33
0.0
 16
1.0
 26
0.0
 36
0.0
 17
0.0
 27
1.0
 37
0.0
 76
0
330
217
345
0
346
0
  0
LAYOUT
  5
711
102
{ACAD_REACTORS
330
1A
102
}
100
AcDbPlotSettings
  1

  2
none_device
  4
ISO_A3_(420.00_x_297.00_MM)
  6

 40
0.0
 41
0.0
 42
0.0
 43
0.0
 44
420.0
 45
297.0
 46
0.0
 47
0.0
 48
0.0
 49
0.0
140
0.0
141
0.0
142
1.0
143
1.0
 70
0
 72
1
 73
0
 74
0
  7

 75
0
147
1.0
148
0.0
149
0.0
100
AcDbLayout
  1
Layout1
 70
0
 71
1
 10
0.0
 20
0.0
 11
420.0
 21
297.0
 12
0.0
 22
0.0
 32
0.0
 14
0.0
 24
0.0
 34
0.0
 15
0.0
 25
0.0
 35
0.0
146
0.0
 13
0.0
 23
0.0
 33
0.0
 16
1.0
 26
0.0
 36
0.0
 17
0.0
 27
1.0
 37
0.0
 76
0
330
218
345
0
346
0
  0
ENDSEC
  0
EOF
