999
DXF file: 606446690-000-00-ed1.dxf
999
Pro/ENGINEER 2011220 by Parametric Technology Corporation
  0
SECTION
  2
HEADER
  9
$ACADVER
  1
AC1015
  9
$DWGCODEPAGE
  3
ANSI_1252
  9
$EXTMAX
 10
420.0
 20
297.0
 30
0.0
  9
$EXTMIN
 10
0.0
 20
0.0
 30
0.0
  9
$LIMMIN
 10
0.0
 20
0.0
  9
$LIMMAX
 10
420.0
 20
297.0
  9
$VIEWCTR
 10
210.0
 20
148.5
  9
$VIEWSIZE
 40
297.0
  9
$CLAYER
  8
0
  9
$LTSCALE
 40
23.1
  9
$CELTYPE
  6
BYLAYER
  9
$DIMSCALE
 40
1.0
  9
$DIMASZ
 40
3.5
  9
$DIMEXO
 40
2.625
  9
$DIMDLI
 40
15.96
  9
$DIMEXE
 40
7.56
  9
$DIMCEN
 40
3.78
  9
$DIMLFAC
 40
1.0
  9
$DIMBLK
  1
_FILLED
  9
$DIMTXT
 40
3.5
  9
$DIMTOL
 70
1
  9
$DIMLIM
 70
0
  9
$DIMTFAC
 40
1.0
  9
$DIMTP
 40
0.005
  9
$DIMTM
 40
0.005
  9
$PDMODE
 70
3
  9
$PDSIZE
 40
0.3125
  9
$HANDSEED
  5
828
  9
$TILEMODE
 70
1
  9
$MEASUREMENT
 70
1
  9
$INSUNITS
 70
4
  0
ENDSEC
  0
SECTION
  2
CLASSES
  0
CLASS
  1
ACDBDICTIONARYWDFLT
  2
AcDbDictionaryWithDefault
  3
AutoCAD 2000
 90
0
280
0
281
0
  0
CLASS
  1
ACDBPLACEHOLDER
  2
AcDbPlaceHolder
  3
AutoCAD 2000
 90
0
280
0
281
0
  0
CLASS
  1
LAYOUT
  2
AcDbLayout
  3
AutoCAD 2000
 90
0
280
0
281
0
  0
ENDSEC
  0
SECTION
  2
TABLES
  0
TABLE
  2
VPORT
  5
8
100
AcDbSymbolTable
 70
2
  0
VPORT
  5
1F4
100
AcDbSymbolTableRecord
100
AcDbViewportTableRecord
  2
*ACTIVE
 70
0
 10
0.0
 20
0.0
 11
1.0
 21
1.0
 12
210.0
 22
148.5
 13
0.0
 23
0.0
 14
1.0
 24
1.0
 15
0.0
 25
0.0
 16
0.0
 26
0.0
 36
1.0
 17
0.0
 27
0.0
 37
0.0
 40
297.0
 41
1.4141414141
 42
50.0
 43
0.0
 44
0.0
 50
0.0
 51
0.0
 71
0
 72
100
 73
1
 74
1
 75
0
 76
0
 77
0
 78
0
  0
ENDTAB
  0
TABLE
  2
LTYPE
  5
5
100
AcDbSymbolTable
 70
6
  0
LTYPE
  5
14
100
AcDbSymbolTableRecord
100
AcDbLinetypeTableRecord
  2
BYBLOCK
 70
0
  3

 72
65
 73
0
 40
0.0
  0
LTYPE
  5
15
100
AcDbSymbolTableRecord
100
AcDbLinetypeTableRecord
  2
BYLAYER
 70
0
  3

 72
65
 73
0
 40
0.0
  0
LTYPE
  5
16
100
AcDbSymbolTableRecord
100
AcDbLinetypeTableRecord
  2
CONTINUOUS
 70
64
  3
Solid line
 72
65
 73
0
 40
0.0
  0
LTYPE
  5
1F5
100
AcDbSymbolTableRecord
100
AcDbLinetypeTableRecord
  2
CENTER
 70
64
  3
____ _ ____ _ ____ _ ____ _ ____ _ ____ _ ____
 72
65
 73
4
 40
0.6
 49
0.375
 74
0
 49
-0.075
 74
0
 49
0.075
 74
0
 49
-0.075
 74
0
  0
LTYPE
  5
1F6
100
AcDbSymbolTableRecord
100
AcDbLinetypeTableRecord
  2
HIDDEN
 70
64
  3
- - - - - - - - - - - - - - - - - - - -
 72
65
 73
2
 40
0.2
 49
0.1
 74
0
 49
-0.1
 74
0
  0
LTYPE
  5
1F7
100
AcDbSymbolTableRecord
100
AcDbLinetypeTableRecord
  2
PHANTOM
 70
64
  3
_____ _ _ _____ _ _ _____ _ _ _____
 72
65
 73
6
 40
0.8
 49
0.45
 74
0
 49
-0.05
 74
0
 49
0.1
 74
0
 49
-0.05
 74
0
 49
0.1
 74
0
 49
-0.05
 74
0
  0
LTYPE
  5
1F8
100
AcDbSymbolTableRecord
100
AcDbLinetypeTableRecord
  2
DOT
 70
64
  3
. . . . . . . . . . . . . . . . . . . .
 72
65
 73
2
 40
0.2
 49
0.1
 74
0
 49
-0.1
 74
0
  0
LTYPE
  5
1F9
100
AcDbSymbolTableRecord
100
AcDbLinetypeTableRecord
  2
DASHED
 70
64
  3
- - - - - - - - - - - - - - - - - - - -
 72
65
 73
2
 40
0.2
 49
0.1
 74
0
 49
-0.1
 74
0
  0
ENDTAB
  0
TABLE
  2
LAYER
  5
2
100
AcDbSymbolTable
 70
36
  0
LAYER
  5
10
100
AcDbSymbolTableRecord
100
AcDbLayerTableRecord
  2
0
 70
0
 62
7
  6
CONTINUOUS
370
-3
390
F
  0
LAYER
  5
1FA
100
AcDbSymbolTableRecord
100
AcDbLayerTableRecord
  2
DEFAULT_1
 70
0
 62
7
  6
CENTER
370
-3
390
F
  0
LAYER
  5
1FB
100
AcDbSymbolTableRecord
100
AcDbLayerTableRecord
  2
DEFAULT_2
 70
0
 62
6
  6
HIDDEN
370
-3
390
F
  0
LAYER
  5
1FC
100
AcDbSymbolTableRecord
100
AcDbLayerTableRecord
  2
DEFAULT_3
 70
0
 62
7
  6
PHANTOM
370
-3
390
F
  0
LAYER
  5
1FD
100
AcDbSymbolTableRecord
100
AcDbLayerTableRecord
  2
COLLECTION01
 70
0
 62
7
  6
CONTINUOUS
370
-3
390
F
  0
LAYER
  5
1FE
100
AcDbSymbolTableRecord
100
AcDbLayerTableRecord
  2
COLLECTION02
 70
0
 62
7
  6
CONTINUOUS
370
-3
390
F
  0
LAYER
  5
1FF
100
AcDbSymbolTableRecord
100
AcDbLayerTableRecord
  2
COLLECTION03
 70
0
 62
7
  6
CONTINUOUS
370
-3
390
F
  0
LAYER
  5
200
100
AcDbSymbolTableRecord
100
AcDbLayerTableRecord
  2
COLLECTION12
 70
0
 62
7
  6
CONTINUOUS
370
-3
390
F
  0
LAYER
  5
201
100
AcDbSymbolTableRecord
100
AcDbLayerTableRecord
  2
COLLECTION04
 70
0
 62
7
  6
CONTINUOUS
370
-3
390
F
  0
LAYER
  5
202
100
AcDbSymbolTableRecord
100
AcDbLayerTableRecord
  2
COLLECTION06
 70
0
 62
7
  6
CONTINUOUS
370
-3
390
F
  0
LAYER
  5
203
100
AcDbSymbolTableRecord
100
AcDbLayerTableRecord
  2
COLLECTION07
 70
0
 62
7
  6
CONTINUOUS
370
-3
390
F
  0
LAYER
  5
204
100
AcDbSymbolTableRecord
100
AcDbLayerTableRecord
  2
COLLECTION09
 70
0
 62
7
  6
CONTINUOUS
370
-3
390
F
  0
LAYER
  5
205
100
AcDbSymbolTableRecord
100
AcDbLayerTableRecord
  2
COLLECTION10
 70
0
 62
7
  6
CONTINUOUS
370
-3
390
F
  0
LAYER
  5
206
100
AcDbSymbolTableRecord
100
AcDbLayerTableRecord
  2
COLLECTION13
 70
0
 62
7
  6
CONTINUOUS
370
-3
390
F
  0
LAYER
  5
207
100
AcDbSymbolTableRecord
100
AcDbLayerTableRecord
  2
COLLECTION15
 70
0
 62
7
  6
CONTINUOUS
370
-3
390
F
  0
LAYER
  5
208
100
AcDbSymbolTableRecord
100
AcDbLayerTableRecord
  2
COLLECTION16
 70
0
 62
7
  6
CONTINUOUS
370
-3
390
F
  0
LAYER
  5
209
100
AcDbSymbolTableRecord
100
AcDbLayerTableRecord
  2
606446690-000-00-ED1_FORMAT
 70
0
 62
7
  6
CONTINUOUS
370
-3
390
F
  0
LAYER
  5
20A
100
AcDbSymbolTableRecord
100
AcDbLayerTableRecord
  2
606446690-000-00-ED1_DIM
 70
0
 62
7
  6
CONTINUOUS
370
-3
390
F
  0
LAYER
  5
20B
100
AcDbSymbolTableRecord
100
AcDbLayerTableRecord
  2
30261785_DIM
 70
0
 62
7
  6
CONTINUOUS
370
-3
390
F
  0
LAYER
  5
20C
100
AcDbSymbolTableRecord
100
AcDbLayerTableRecord
  2
30338420_DIM
 70
0
 62
7
  6
CONTINUOUS
370
-3
390
F
  0
LAYER
  5
20D
100
AcDbSymbolTableRecord
100
AcDbLayerTableRecord
  2
606446690-000-00-ED1_CL
 70
0
 62
7
  6
CONTINUOUS
370
-3
390
F
  0
LAYER
  5
20E
100
AcDbSymbolTableRecord
100
AcDbLayerTableRecord
  2
606446690-000-00-ED1_TEXT
 70
0
 62
7
  6
CONTINUOUS
370
-3
390
F
  0
LAYER
  5
20F
100
AcDbSymbolTableRecord
100
AcDbLayerTableRecord
  2
30338420_CL
 70
0
 62
7
  6
CONTINUOUS
370
-3
390
F
  0
LAYER
  5
210
100
AcDbSymbolTableRecord
100
AcDbLayerTableRecord
  2
30338420_HL
 70
0
 62
7
  6
CONTINUOUS
370
-3
390
F
  0
LAYER
  5
211
100
AcDbSymbolTableRecord
100
AcDbLayerTableRecord
  2
30338420_AXIS
 70
0
 62
7
  6
CONTINUOUS
370
-3
390
F
  0
LAYER
  5
212
100
AcDbSymbolTableRecord
100
AcDbLayerTableRecord
  2
30252539_HP_HL
 70
0
 62
7
  6
CONTINUOUS
370
-3
390
F
  0
LAYER
  5
213
100
AcDbSymbolTableRecord
100
AcDbLayerTableRecord
  2
30252539_HP_CL
 70
0
 62
7
  6
CONTINUOUS
370
-3
390
F
  0
ENDTAB
  0
TABLE
  2
STYLE
  5
3
100
AcDbSymbolTable
 70
1
  0
STYLE
  5
11
100
AcDbSymbolTableRecord
100
AcDbTextStyleTableRecord
  2
STANDARD
 70
0
 40
0.0
 41
0.7
 50
0.0
 71
0
 42
0.2
  3
TXT.SHX
  4

  0
STYLE
  5
214
100
AcDbSymbolTableRecord
100
AcDbTextStyleTableRecord
  2
TEXTSTYLE_1
 70
0
 40
0.0
 41
0.8
 50
0.0
 71
0
 42
0.2
  3
gdt
  4

  0
STYLE
  5
215
100
AcDbSymbolTableRecord
100
AcDbTextStyleTableRecord
  2
TEXTSTYLE_2
 70
0
 40
0.0
 41
0.675
 50
0.0
 71
0
 42
0.2
  3
TXT.SHX
  4

  0
STYLE
  5
216
100
AcDbSymbolTableRecord
100
AcDbTextStyleTableRecord
  2
TEXTSTYLE_3
 70
0
 40
0.0
 41
0.7
 50
0.0
 71
0
 42
0.2
  3
gdt
  4

  0
ENDTAB
  0
TABLE
  2
VIEW
  5
6
100
AcDbSymbolTable
 70
0
  0
ENDTAB
  0
TABLE
  2
UCS
  5
7
100
AcDbSymbolTable
 70
0
  0
ENDTAB
  0
TABLE
  2
APPID
  5
9
100
AcDbSymbolTable
 70
1
  0
APPID
  5
217
100
AcDbSymbolTableRecord
100
AcDbRegAppTableRecord
  2
ACAD
 70
0
  0
ENDTAB
  0
TABLE
  2
BLOCK_RECORD
  5
1
100
AcDbSymbolTable
 70
0
  0
BLOCK_RECORD
  5
218
100
AcDbSymbolTableRecord
100
AcDbBlockTableRecord
  2
*Model_Space
  0
BLOCK_RECORD
  5
219
100
AcDbSymbolTableRecord
100
AcDbBlockTableRecord
  2
*Paper_Space
  0
BLOCK_RECORD
  5
21A
100
AcDbSymbolTableRecord
100
AcDbBlockTableRecord
  2
_FILLED
  0
BLOCK_RECORD
  5
21B
100
AcDbSymbolTableRecord
100
AcDbBlockTableRecord
  2
_DOT
  0
BLOCK_RECORD
  5
21C
100
AcDbSymbolTableRecord
100
AcDbBlockTableRecord
  2
*D0
  0
BLOCK_RECORD
  5
21D
100
AcDbSymbolTableRecord
100
AcDbBlockTableRecord
  2
*D1
  0
BLOCK_RECORD
  5
21E
100
AcDbSymbolTableRecord
100
AcDbBlockTableRecord
  2
*D2
  0
BLOCK_RECORD
  5
21F
100
AcDbSymbolTableRecord
100
AcDbBlockTableRecord
  2
*D3
  0
BLOCK_RECORD
  5
220
100
AcDbSymbolTableRecord
100
AcDbBlockTableRecord
  2
*D4
  0
BLOCK_RECORD
  5
221
100
AcDbSymbolTableRecord
100
AcDbBlockTableRecord
  2
*D5
  0
BLOCK_RECORD
  5
222
100
AcDbSymbolTableRecord
100
AcDbBlockTableRecord
  2
*D6
  0
BLOCK_RECORD
  5
223
100
AcDbSymbolTableRecord
100
AcDbBlockTableRecord
  2
*D7
  0
BLOCK_RECORD
  5
224
100
AcDbSymbolTableRecord
100
AcDbBlockTableRecord
  2
*D8
  0
BLOCK_RECORD
  5
225
100
AcDbSymbolTableRecord
100
AcDbBlockTableRecord
  2
*D9
  0
BLOCK_RECORD
  5
226
100
AcDbSymbolTableRecord
100
AcDbBlockTableRecord
  2
*D10
  0
BLOCK_RECORD
  5
227
100
AcDbSymbolTableRecord
100
AcDbBlockTableRecord
  2
*D11
  0
BLOCK_RECORD
  5
228
100
AcDbSymbolTableRecord
100
AcDbBlockTableRecord
  2
BOMBALLOON_BL4
  0
BLOCK_RECORD
  5
229
100
AcDbSymbolTableRecord
100
AcDbBlockTableRecord
  2
GEOM_TOLERANCE_SYMBOLS_BL3
  0
BLOCK_RECORD
  5
22A
100
AcDbSymbolTableRecord
100
AcDbBlockTableRecord
  2
GEOM_TOLERANCE_SYMBOLS_BL2
  0
BLOCK_RECORD
  5
22B
100
AcDbSymbolTableRecord
100
AcDbBlockTableRecord
  2
GEOM_TOLERANCE_SYMBOLS_BL1
  0
BLOCK_RECORD
  5
22C
100
AcDbSymbolTableRecord
100
AcDbBlockTableRecord
  2
BARCODEBOX_BL0
  0
ENDTAB
  0
TABLE
  2
DIMSTYLE
  5
A
100
AcDbSymbolTable
 70
1
100
AcDbDimStyleTable
 71
0
  0
DIMSTYLE
105
22D
100
AcDbSymbolTableRecord
100
AcDbDimStyleTableRecord
  2
STANDARD
 70
0
  3

  4

 40
1.0
 41
3.5
 42
0.0625
 43
0.38
 44
0.18
 45
0.0
 46
0.0
 47
0.005
 48
0.005
140
3.5
141
0.09
142
0.0
143
25.4
144
1.0
145
0.0
146
1.0
147
0.09
 71
1.0
 72
0.0
 73
0
 74
0
 75
0
 76
0
 77
1
 78
8
170
0
171
2
172
0
173
0
174
0
175
0
176
0
177
0
178
2
270
2
271
3
272
3
273
2
274
2
275
0
280
0
281
0
282
0
283
1
284
8
285
0
286
0
287
3
288
0
340
11
341
21A
342
21A
343
21A
344
21A
  0
DIMSTYLE
105
22E
100
AcDbSymbolTableRecord
100
AcDbDimStyleTableRecord
  2
DIMSTYLE_1
 70
0
  3

  4

 40
1.0
 41
3.5
 42
0.0625
 43
0.38
 44
0.18
 45
0.0
 46
0.0
 47
0.1
 48
0.1
140
3.5
141
0.09
142
0.0
143
25.4
144
1.0
145
0.0
146
1.0
147
0.09
 71
0.0
 72
0.0
 73
0
 74
0
 75
0
 76
0
 77
1
 78
8
170
0
171
2
172
0
173
0
174
0
175
0
176
0
177
0
178
2
270
2
271
3
272
3
273
2
274
2
275
0
280
0
281
0
282
0
283
1
284
8
285
0
286
0
287
3
288
0
340
11
341
21A
342
21A
343
21A
344
21A
  0
DIMSTYLE
105
22F
100
AcDbSymbolTableRecord
100
AcDbDimStyleTableRecord
  2
DIMSTYLE_2
 70
0
  3

  4

 40
1.0
 41
3.5
 42
0.0625
 43
0.38
 44
0.18
 45
0.0
 46
0.0
 47
0.25
 48
0.25
140
3.5
141
0.09
142
0.0
143
25.4
144
1.0
145
0.0
146
1.0
147
0.09
 71
1.0
 72
0.0
 73
0
 74
0
 75
0
 76
0
 77
1
 78
8
170
0
171
2
172
0
173
0
174
0
175
0
176
0
177
0
178
2
270
2
271
2
272
2
273
2
274
2
275
0
280
0
281
0
282
0
283
1
284
8
285
0
286
0
287
3
288
0
340
11
341
21A
342
21A
343
21A
344
21A
  0
DIMSTYLE
105
230
100
AcDbSymbolTableRecord
100
AcDbDimStyleTableRecord
  2
DIMSTYLE_3
 70
0
  3

  4

 40
1.0
 41
3.5
 42
0.0625
 43
0.38
 44
0.18
 45
0.0
 46
0.0
 47
0.1
 48
0.1
140
3.5
141
0.09
142
0.0
143
25.4
144
1.0
145
0.0
146
1.0
147
0.09
 71
0.0
 72
0.0
 73
0
 74
0
 75
0
 76
0
 77
1
 78
8
170
0
171
2
172
0
173
0
174
0
175
0
176
0
177
0
178
2
270
2
271
3
272
3
273
2
274
2
275
0
280
0
281
0
282
0
283
1
284
8
285
0
286
0
287
3
288
0
340
11
341
21A
342
21A
343
21A
344
21A
  0
DIMSTYLE
105
231
100
AcDbSymbolTableRecord
100
AcDbDimStyleTableRecord
  2
DIMSTYLE_4
 70
0
  3

  4

 40
1.0
 41
3.5
 42
0.0625
 43
0.38
 44
0.18
 45
0.0
 46
0.0
 47
0.05
 48
0.05
140
3.5
141
0.09
142
0.0
143
25.4
144
1.0
145
0.0
146
1.0
147
0.09
 71
0.0
 72
0.0
 73
0
 74
0
 75
0
 76
0
 77
1
 78
8
170
0
171
2
172
0
173
0
174
0
175
0
176
0
177
0
178
2
270
2
271
3
272
3
273
2
274
2
275
0
280
0
281
0
282
0
283
1
284
8
285
0
286
0
287
3
288
0
340
11
341
21A
342
21A
343
21A
344
21A
  0
DIMSTYLE
105
232
100
AcDbSymbolTableRecord
100
AcDbDimStyleTableRecord
  2
DIMSTYLE_5
 70
0
  3

  4

 40
1.0
 41
3.5
 42
0.0625
 43
0.38
 44
0.18
 45
0.0
 46
0.0
 47
0.15
 48
0.15
140
3.5
141
0.09
142
0.0
143
25.4
144
1.0
145
0.0
146
1.0
147
0.09
 71
0.0
 72
0.0
 73
0
 74
0
 75
0
 76
0
 77
1
 78
8
170
0
171
2
172
0
173
0
174
0
175
0
176
0
177
0
178
2
270
2
271
3
272
3
273
2
274
2
275
0
280
0
281
0
282
0
283
1
284
8
285
0
286
0
287
3
288
0
340
11
341
21A
342
21A
343
21A
344
21A
  0
DIMSTYLE
105
233
100
AcDbSymbolTableRecord
100
AcDbDimStyleTableRecord
  2
DIMSTYLE_6
 70
0
  3

  4

 40
1.0
 41
3.5
 42
0.0625
 43
0.38
 44
0.18
 45
0.0
 46
0.0
 47
0.15
 48
0.15
140
3.5
141
0.09
142
0.0
143
25.4
144
1.0
145
0.0
146
1.0
147
0.09
 71
0.0
 72
0.0
 73
0
 74
0
 75
0
 76
0
 77
1
 78
8
170
0
171
2
172
0
173
0
174
0
175
0
176
0
177
0
178
2
270
2
271
2
272
2
273
2
274
2
275
0
280
0
281
0
282
0
283
1
284
8
285
0
286
0
287
3
288
0
340
11
341
21A
342
21A
343
21A
344
21A
  0
ENDTAB
  0
ENDSEC
  0
SECTION
  2
BLOCKS
  0
BLOCK
  5
20
100
AcDbEntity
  8
0
100
AcDbBlockBegin
  2
*Model_Space
 70
0
 10
0.0
 20
0.0
 30
0.0
  3
*Model_Space
  1

  0
ENDBLK
  5
21
100
AcDbEntity
  8
0
100
AcDbBlockEnd
  0
BLOCK
  5
1C
100
AcDbEntity
  8
0
100
AcDbBlockBegin
  2
*Paper_Space
 70
0
 10
0.0
 20
0.0
 30
0.0
  3
*Paper_Space
  1

  0
ENDBLK
  5
1D
100
AcDbEntity
  8
0
100
AcDbBlockEnd
  0
BLOCK
  5
234
100
AcDbEntity
  8
606446690-000-00-ED1_CL
100
AcDbBlockBegin
 62
3
  6
CONTINUOUS
  2
BOMBALLOON_BL4
 70
64
 10
230.1784732625
 20
202.6312044809
  3
BOMBALLOON_BL4
  1

  0
CIRCLE
  5
235
100
AcDbEntity
  8
606446690-000-00-ED1_CL
100
AcDbCircle
 62
3
  6
CONTINUOUS
 10
230.1784732625
 20
202.6312044809
 40
6.125
  0
LINE
  5
236
100
AcDbEntity
  8
606446690-000-00-ED1_CL
100
AcDbLine
 62
3
  6
CONTINUOUS
 10
224.0534732625
 20
202.6312044809
 11
236.3034732625
 21
202.6312044809
  0
TEXT
  5
237
100
AcDbEntity
  8
606446690-000-00-ED1_CL
100
AcDbText
 62
2
  6
CONTINUOUS
 10
229.0736555542
 20
203.5700065642
  7
STANDARD
 40
3.5
  1
1
 41
0.5714285714
 72
0
100
AcDbText
  0
TEXT
  5
238
100
AcDbEntity
  8
606446690-000-00-ED1_CL
100
AcDbText
 62
2
  6
CONTINUOUS
 10
229.1739159709
 20
198.4567253142
  7
STANDARD
 40
3.5
  1
1
 41
0.5714285714
 72
0
100
AcDbText
  0
ENDBLK
  5
239
100
AcDbEntity
  8
0
  6
BYBLOCK
 62
0
100
AcDbBlockEnd
  0
BLOCK
  5
23A
100
AcDbEntity
  8
606446690-000-00-ED1_CL
100
AcDbBlockBegin
 62
3
  6
CONTINUOUS
  2
GEOM_TOLERANCE_SYMBOLS_BL3
 70
64
 10
138.3439688534
 20
208.3185264751
  3
GEOM_TOLERANCE_SYMBOLS_BL3
  1

  0
LINE
  5
23B
100
AcDbEntity
  8
606446690-000-00-ED1_CL
100
AcDbLine
 62
3
  6
CONTINUOUS
 10
140.2952121966
 20
202.1015836247
 11
137.2989701688
 21
201.9514712987
  0
LINE
  5
23C
100
AcDbEntity
  8
606446690-000-00-ED1_CL
100
AcDbLine
 62
3
  6
CONTINUOUS
 10
134.6732221071
 20
214.3355986507
 11
141.6644535055
 21
214.6858607449
  0
LINE
  5
23D
100
AcDbEntity
  8
606446690-000-00-ED1_CL
100
AcDbLine
 62
3
  6
CONTINUOUS
 10
141.6644535055
 20
214.6858607449
 11
142.0147155996
 21
207.6946293465
  0
LINE
  5
23E
100
AcDbEntity
  8
606446690-000-00-ED1_CL
100
AcDbLine
 62
3
  6
CONTINUOUS
 10
142.0147155996
 20
207.6946293465
 11
135.0234842013
 21
207.3443672524
  0
LINE
  5
23F
100
AcDbEntity
  8
606446690-000-00-ED1_CL
100
AcDbLine
 62
3
  6
CONTINUOUS
 10
135.0234842013
 20
207.3443672524
 11
134.6732221071
 21
214.3355986507
  0
LINE
  5
240
100
AcDbEntity
  8
606446690-000-00-ED1_CL
100
AcDbLine
 62
3
  6
CONTINUOUS
 10
137.2933994665
 20
201.9511922054
 11
138.6692122265
 21
204.5232562716
  0
LINE
  5
241
100
AcDbEntity
  8
606446690-000-00-ED1_CL
100
AcDbLine
 62
3
  6
CONTINUOUS
 10
138.6692122265
 20
204.5232562716
 11
140.2896414943
 21
202.1013045314
  0
LINE
  5
242
100
AcDbEntity
  8
606446690-000-00-ED1_CL
100
AcDbLine
 62
3
  6
CONTINUOUS
 10
138.6692122265
 20
204.5232562716
 11
138.5190999004
 21
207.5194982995
  0
LINE
  5
243
100
AcDbEntity
  8
606446690-000-00-ED1_CL
100
AcDbLine
 62
3
  6
CONTINUOUS
 10
137.3960595519
 20
201.9563354962
 11
137.3875033085
 21
202.1271181144
  0
LINE
  5
244
100
AcDbEntity
  8
606446690-000-00-ED1_CL
100
AcDbLine
 62
3
  6
CONTINUOUS
 10
137.4959342861
 20
201.9613392404
 11
137.4790539455
 21
202.29827084
  0
LINE
  5
245
100
AcDbEntity
  8
606446690-000-00-ED1_CL
100
AcDbLine
 62
3
  6
CONTINUOUS
 10
137.5958090204
 20
201.9663429846
 11
137.5706045825
 21
202.4694235655
  0
LINE
  5
246
100
AcDbEntity
  8
606446690-000-00-ED1_CL
100
AcDbLine
 62
3
  6
CONTINUOUS
 10
137.6956837547
 20
201.9713467288
 11
137.6621552195
 21
202.640576291
  0
LINE
  5
247
100
AcDbEntity
  8
606446690-000-00-ED1_CL
100
AcDbLine
 62
3
  6
CONTINUOUS
 10
137.7955584889
 20
201.976350473
 11
137.7537058565
 21
202.8117290165
  0
LINE
  5
248
100
AcDbEntity
  8
606446690-000-00-ED1_CL
100
AcDbLine
 62
3
  6
CONTINUOUS
 10
137.8954332232
 20
201.9813542172
 11
137.8452564935
 21
202.982881742
  0
LINE
  5
249
100
AcDbEntity
  8
606446690-000-00-ED1_CL
100
AcDbLine
 62
3
  6
CONTINUOUS
 10
137.9953079575
 20
201.9863579614
 11
137.9368071305
 21
203.1540344675
  0
LINE
  5
24A
100
AcDbEntity
  8
606446690-000-00-ED1_CL
100
AcDbLine
 62
3
  6
CONTINUOUS
 10
138.0951826917
 20
201.9913617056
 11
138.0283577675
 21
203.325187193
  0
LINE
  5
24B
100
AcDbEntity
  8
606446690-000-00-ED1_CL
100
AcDbLine
 62
3
  6
CONTINUOUS
 10
138.195057426
 20
201.9963654498
 11
138.1199084045
 21
203.4963399185
  0
LINE
  5
24C
100
AcDbEntity
  8
606446690-000-00-ED1_CL
100
AcDbLine
 62
3
  6
CONTINUOUS
 10
138.2949321602
 20
202.001369194
 11
138.2114590415
 21
203.667492644
  0
LINE
  5
24D
100
AcDbEntity
  8
606446690-000-00-ED1_CL
100
AcDbLine
 62
3
  6
CONTINUOUS
 10
138.3948068945
 20
202.0063729382
 11
138.3030096785
 21
203.8386453695
  0
LINE
  5
24E
100
AcDbEntity
  8
606446690-000-00-ED1_CL
100
AcDbLine
 62
3
  6
CONTINUOUS
 10
138.4946816288
 20
202.0113766824
 11
138.3945603155
 21
204.0097980951
  0
LINE
  5
24F
100
AcDbEntity
  8
606446690-000-00-ED1_CL
100
AcDbLine
 62
3
  6
CONTINUOUS
 10
138.594556363
 20
202.0163804266
 11
138.4861109525
 21
204.1809508206
  0
LINE
  5
250
100
AcDbEntity
  8
606446690-000-00-ED1_CL
100
AcDbLine
 62
3
  6
CONTINUOUS
 10
138.6944310973
 20
202.0213841708
 11
138.5776615895
 21
204.3521035461
  0
LINE
  5
251
100
AcDbEntity
  8
606446690-000-00-ED1_CL
100
AcDbLine
 62
3
  6
CONTINUOUS
 10
138.7943058315
 20
202.026387915
 11
138.6692122265
 21
204.5232562716
  0
LINE
  5
252
100
AcDbEntity
  8
606446690-000-00-ED1_CL
100
AcDbLine
 62
3
  6
CONTINUOUS
 10
138.8941805658
 20
202.0313916592
 11
138.7774420685
 21
204.3614920654
  0
LINE
  5
253
100
AcDbEntity
  8
606446690-000-00-ED1_CL
100
AcDbLine
 62
3
  6
CONTINUOUS
 10
138.9940553001
 20
202.0363954034
 11
138.8856719105
 21
204.1997278593
  0
LINE
  5
254
100
AcDbEntity
  8
606446690-000-00-ED1_CL
100
AcDbLine
 62
3
  6
CONTINUOUS
 10
139.0939300343
 20
202.0413991476
 11
138.9939017525
 21
204.0379636531
  0
LINE
  5
255
100
AcDbEntity
  8
606446690-000-00-ED1_CL
100
AcDbLine
 62
3
  6
CONTINUOUS
 10
139.1938047686
 20
202.0464028918
 11
139.1021315945
 21
203.8761994469
  0
LINE
  5
256
100
AcDbEntity
  8
606446690-000-00-ED1_CL
100
AcDbLine
 62
3
  6
CONTINUOUS
 10
139.2936795029
 20
202.051406636
 11
139.2103614365
 21
203.7144352407
  0
LINE
  5
257
100
AcDbEntity
  8
606446690-000-00-ED1_CL
100
AcDbLine
 62
3
  6
CONTINUOUS
 10
139.3935542371
 20
202.0564103802
 11
139.3185912785
 21
203.5526710346
  0
LINE
  5
258
100
AcDbEntity
  8
606446690-000-00-ED1_CL
100
AcDbLine
 62
3
  6
CONTINUOUS
 10
139.4934289714
 20
202.0614141244
 11
139.4268211205
 21
203.3909068284
  0
LINE
  5
259
100
AcDbEntity
  8
606446690-000-00-ED1_CL
100
AcDbLine
 62
3
  6
CONTINUOUS
 10
139.5933037056
 20
202.0664178686
 11
139.5350509625
 21
203.2291426222
  0
LINE
  5
25A
100
AcDbEntity
  8
606446690-000-00-ED1_CL
100
AcDbLine
 62
3
  6
CONTINUOUS
 10
139.6931784399
 20
202.0714216129
 11
139.6432808045
 21
203.0673784161
  0
LINE
  5
25B
100
AcDbEntity
  8
606446690-000-00-ED1_CL
100
AcDbLine
 62
3
  6
CONTINUOUS
 10
139.7930531742
 20
202.0764253571
 11
139.7515106465
 21
202.9056142099
  0
LINE
  5
25C
100
AcDbEntity
  8
606446690-000-00-ED1_CL
100
AcDbLine
 62
3
  6
CONTINUOUS
 10
139.8929279084
 20
202.0814291013
 11
139.8597404885
 21
202.7438500037
  0
LINE
  5
25D
100
AcDbEntity
  8
606446690-000-00-ED1_CL
100
AcDbLine
 62
3
  6
CONTINUOUS
 10
139.9928026427
 20
202.0864328455
 11
139.9679703305
 21
202.5820857976
  0
LINE
  5
25E
100
AcDbEntity
  8
606446690-000-00-ED1_CL
100
AcDbLine
 62
3
  6
CONTINUOUS
 10
140.092677377
 20
202.0914365897
 11
140.0762001725
 21
202.4203215914
  0
LINE
  5
25F
100
AcDbEntity
  8
606446690-000-00-ED1_CL
100
AcDbLine
 62
3
  6
CONTINUOUS
 10
140.1925521112
 20
202.0964403339
 11
140.1844300145
 21
202.2585573852
  0
TEXT
  5
260
100
AcDbEntity
  8
606446690-000-00-ED1_CL
100
AcDbText
 62
2
  6
CONTINUOUS
 10
137.3362506307
 20
209.209590182
  7
STANDARD
 40
3.5
  1
A
 50
2.868131941
 41
0.8571428571
 72
0
100
AcDbText
  0
ENDBLK
  5
261
100
AcDbEntity
  8
0
  6
BYBLOCK
 62
0
100
AcDbBlockEnd
  0
BLOCK
  5
262
100
AcDbEntity
  8
606446690-000-00-ED1_CL
100
AcDbBlockBegin
 62
3
  6
CONTINUOUS
  2
GEOM_TOLERANCE_SYMBOLS_BL2
 70
64
 10
291.4946439206
 20
132.9325242508
  3
GEOM_TOLERANCE_SYMBOLS_BL2
  1

  0
LINE
  5
263
100
AcDbEntity
  8
606446690-000-00-ED1_CL
100
AcDbLine
 62
3
  6
CONTINUOUS
 10
275.9762265256
 20
136.4322633875
 11
275.9762265256
 21
129.4322631635
  0
LINE
  5
264
100
AcDbEntity
  8
606446690-000-00-ED1_CL
100
AcDbLine
 62
3
  6
CONTINUOUS
 10
275.9762265256
 20
129.4322631635
 11
297.9762272296
 21
129.4322631635
  0
LINE
  5
265
100
AcDbEntity
  8
606446690-000-00-ED1_CL
100
AcDbLine
 62
3
  6
CONTINUOUS
 10
304.9762274536
 20
129.4322631635
 11
304.9762274536
 21
136.4322633875
  0
LINE
  5
266
100
AcDbEntity
  8
606446690-000-00-ED1_CL
100
AcDbLine
 62
3
  6
CONTINUOUS
 10
297.9762272296
 20
136.4322633875
 11
275.9762265256
 21
136.4322633875
  0
LINE
  5
267
100
AcDbEntity
  8
606446690-000-00-ED1_CL
100
AcDbLine
 62
3
  6
CONTINUOUS
 10
282.9762267496
 20
136.4322633875
 11
282.9762267496
 21
129.4322631635
  0
LINE
  5
268
100
AcDbEntity
  8
606446690-000-00-ED1_CL
100
AcDbLine
 62
3
  6
CONTINUOUS
 10
297.9762272296
 20
136.4322633875
 11
297.9762272296
 21
129.4322631635
  0
LINE
  5
269
100
AcDbEntity
  8
606446690-000-00-ED1_CL
100
AcDbLine
 62
3
  6
CONTINUOUS
 10
297.9762272296
 20
136.4322633875
 11
304.9762274536
 21
136.4322633875
  0
LINE
  5
26A
100
AcDbEntity
  8
606446690-000-00-ED1_CL
100
AcDbLine
 62
3
  6
CONTINUOUS
 10
297.9762272296
 20
129.4322631635
 11
304.9762274536
 21
129.4322631635
  0
LINE
  5
26B
100
AcDbEntity
  8
606446690-000-00-ED1_CL
100
AcDbLine
 62
3
  6
CONTINUOUS
 10
270.9762265256
 20
132.9322631635
 11
275.9762265256
 21
132.9322631635
  0
LINE
  5
26C
100
AcDbEntity
  8
606446690-000-00-ED1_CL
100
AcDbLine
 62
3
  6
CONTINUOUS
 10
305.0130610915
 20
136.4327853381
 11
312.0130613155
 21
136.4327853381
  0
LINE
  5
26D
100
AcDbEntity
  8
606446690-000-00-ED1_CL
100
AcDbLine
 62
3
  6
CONTINUOUS
 10
312.0130610915
 20
136.4327853381
 11
312.0130610915
 21
129.4327851141
  0
LINE
  5
26E
100
AcDbEntity
  8
606446690-000-00-ED1_CL
100
AcDbLine
 62
3
  6
CONTINUOUS
 10
305.0130610915
 20
129.4327853381
 11
312.0130613155
 21
129.4327853381
  0
TEXT
  5
26F
100
AcDbEntity
  8
606446690-000-00-ED1_CL
100
AcDbText
 62
2
  6
CONTINUOUS
 10
276.1262265304
 20
131.7322632371
  7
TEXTSTYLE_3
 40
2.4000000768
  1
t
 41
1.0
 72
0
100
AcDbText
  0
TEXT
  5
270
100
AcDbEntity
  8
606446690-000-00-ED1_CL
100
AcDbText
 62
2
  6
CONTINUOUS
 10
284.1012267856
 20
131.1822632195
  7
STANDARD
 40
3.500000112
  1
0.003
 41
0.7285714286
 72
0
100
AcDbText
  0
TEXT
  5
271
100
AcDbEntity
  8
606446690-000-00-ED1_CL
100
AcDbText
 62
2
  6
CONTINUOUS
 10
299.9762272936
 20
131.1822632195
  7
STANDARD
 40
3.500000112
  1
A
 41
0.8571428571
 72
0
100
AcDbText
  0
TEXT
  5
272
100
AcDbEntity
  8
606446690-000-00-ED1_CL
100
AcDbText
 62
2
  6
CONTINUOUS
 10
307.1380612035
 20
131.1827852585
  7
STANDARD
 40
3.5
  1
B
 41
0.7857142857
 72
0
100
AcDbText
  0
ENDBLK
  5
273
100
AcDbEntity
  8
0
  6
BYBLOCK
 62
0
100
AcDbBlockEnd
  0
BLOCK
  5
274
100
AcDbEntity
  8
606446690-000-00-ED1_CL
100
AcDbBlockBegin
 62
3
  6
CONTINUOUS
  2
GEOM_TOLERANCE_SYMBOLS_BL1
 70
64
 10
164.7261844836
 20
231.2431974521
  3
GEOM_TOLERANCE_SYMBOLS_BL1
  1

  0
LINE
  5
275
100
AcDbEntity
  8
606446690-000-00-ED1_CL
100
AcDbLine
 62
3
  6
CONTINUOUS
 10
170.9761844836
 20
229.7431974521
 11
168.4761844836
 21
231.2431974521
  0
LINE
  5
276
100
AcDbEntity
  8
606446690-000-00-ED1_CL
100
AcDbLine
 62
3
  6
CONTINUOUS
 10
168.4761844836
 20
231.2431974521
 11
170.9761844836
 21
232.7431974521
  0
LINE
  5
277
100
AcDbEntity
  8
606446690-000-00-ED1_CL
100
AcDbLine
 62
3
  6
CONTINUOUS
 10
170.9761844836
 20
232.7431974521
 11
170.9761844836
 21
229.7431974521
  0
LINE
  5
278
100
AcDbEntity
  8
606446690-000-00-ED1_CL
100
AcDbLine
 62
3
  6
CONTINUOUS
 10
168.4761844836
 20
231.2431974521
 11
165.4761844836
 21
231.2431974521
  0
LINE
  5
279
100
AcDbEntity
  8
606446690-000-00-ED1_CL
100
AcDbLine
 62
3
  6
CONTINUOUS
 10
165.4761844836
 20
227.7431974521
 11
165.4761844836
 21
234.7431974521
  0
LINE
  5
27A
100
AcDbEntity
  8
606446690-000-00-ED1_CL
100
AcDbLine
 62
3
  6
CONTINUOUS
 10
165.4761844836
 20
234.7431974521
 11
158.4761844836
 21
234.7431974521
  0
LINE
  5
27B
100
AcDbEntity
  8
606446690-000-00-ED1_CL
100
AcDbLine
 62
3
  6
CONTINUOUS
 10
158.4761844836
 20
234.7431974521
 11
158.4761844836
 21
227.7431974521
  0
LINE
  5
27C
100
AcDbEntity
  8
606446690-000-00-ED1_CL
100
AcDbLine
 62
3
  6
CONTINUOUS
 10
158.4761844836
 20
227.7431974521
 11
165.4761844836
 21
227.7431974521
  0
LINE
  5
27D
100
AcDbEntity
  8
606446690-000-00-ED1_CL
100
AcDbLine
 62
3
  6
CONTINUOUS
 10
170.9761844836
 20
232.6404086075
 11
170.8048697425
 21
232.6404086075
  0
LINE
  5
27E
100
AcDbEntity
  8
606446690-000-00-ED1_CL
100
AcDbLine
 62
3
  6
CONTINUOUS
 10
170.9761844836
 20
232.5404086075
 11
170.6382030759
 21
232.5404086075
  0
LINE
  5
27F
100
AcDbEntity
  8
606446690-000-00-ED1_CL
100
AcDbLine
 62
3
  6
CONTINUOUS
 10
170.9761844836
 20
232.4404086075
 11
170.4715364092
 21
232.4404086075
  0
LINE
  5
280
100
AcDbEntity
  8
606446690-000-00-ED1_CL
100
AcDbLine
 62
3
  6
CONTINUOUS
 10
170.9761844836
 20
232.3404086075
 11
170.3048697425
 21
232.3404086075
  0
LINE
  5
281
100
AcDbEntity
  8
606446690-000-00-ED1_CL
100
AcDbLine
 62
3
  6
CONTINUOUS
 10
170.9761844836
 20
232.2404086075
 11
170.1382030759
 21
232.2404086075
  0
LINE
  5
282
100
AcDbEntity
  8
606446690-000-00-ED1_CL
100
AcDbLine
 62
3
  6
CONTINUOUS
 10
170.9761844836
 20
232.1404086075
 11
169.9715364092
 21
232.1404086075
  0
LINE
  5
283
100
AcDbEntity
  8
606446690-000-00-ED1_CL
100
AcDbLine
 62
3
  6
CONTINUOUS
 10
170.9761844836
 20
232.0404086075
 11
169.8048697425
 21
232.0404086075
  0
LINE
  5
284
100
AcDbEntity
  8
606446690-000-00-ED1_CL
100
AcDbLine
 62
3
  6
CONTINUOUS
 10
170.9761844836
 20
231.9404086075
 11
169.6382030759
 21
231.9404086075
  0
LINE
  5
285
100
AcDbEntity
  8
606446690-000-00-ED1_CL
100
AcDbLine
 62
3
  6
CONTINUOUS
 10
170.9761844836
 20
231.8404086075
 11
169.4715364092
 21
231.8404086075
  0
LINE
  5
286
100
AcDbEntity
  8
606446690-000-00-ED1_CL
100
AcDbLine
 62
3
  6
CONTINUOUS
 10
170.9761844836
 20
231.7404086075
 11
169.3048697425
 21
231.7404086075
  0
LINE
  5
287
100
AcDbEntity
  8
606446690-000-00-ED1_CL
100
AcDbLine
 62
3
  6
CONTINUOUS
 10
170.9761844836
 20
231.6404086075
 11
169.1382030759
 21
231.6404086075
  0
LINE
  5
288
100
AcDbEntity
  8
606446690-000-00-ED1_CL
100
AcDbLine
 62
3
  6
CONTINUOUS
 10
170.9761844836
 20
231.5404086075
 11
168.9715364092
 21
231.5404086075
  0
LINE
  5
289
100
AcDbEntity
  8
606446690-000-00-ED1_CL
100
AcDbLine
 62
3
  6
CONTINUOUS
 10
170.9761844836
 20
231.4404086075
 11
168.8048697425
 21
231.4404086075
  0
LINE
  5
28A
100
AcDbEntity
  8
606446690-000-00-ED1_CL
100
AcDbLine
 62
3
  6
CONTINUOUS
 10
170.9761844836
 20
231.3404086075
 11
168.6382030759
 21
231.3404086075
  0
LINE
  5
28B
100
AcDbEntity
  8
606446690-000-00-ED1_CL
100
AcDbLine
 62
3
  6
CONTINUOUS
 10
170.9761844836
 20
231.2404086075
 11
168.4808325579
 21
231.2404086075
  0
LINE
  5
28C
100
AcDbEntity
  8
606446690-000-00-ED1_CL
100
AcDbLine
 62
3
  6
CONTINUOUS
 10
170.9761844836
 20
231.1404086075
 11
168.6474992246
 21
231.1404086075
  0
LINE
  5
28D
100
AcDbEntity
  8
606446690-000-00-ED1_CL
100
AcDbLine
 62
3
  6
CONTINUOUS
 10
170.9761844836
 20
231.0404086075
 11
168.8141658913
 21
231.0404086075
  0
LINE
  5
28E
100
AcDbEntity
  8
606446690-000-00-ED1_CL
100
AcDbLine
 62
3
  6
CONTINUOUS
 10
170.9761844836
 20
230.9404086075
 11
168.9808325579
 21
230.9404086075
  0
LINE
  5
28F
100
AcDbEntity
  8
606446690-000-00-ED1_CL
100
AcDbLine
 62
3
  6
CONTINUOUS
 10
170.9761844836
 20
230.8404086075
 11
169.1474992246
 21
230.8404086075
  0
LINE
  5
290
100
AcDbEntity
  8
606446690-000-00-ED1_CL
100
AcDbLine
 62
3
  6
CONTINUOUS
 10
170.9761844836
 20
230.7404086075
 11
169.3141658913
 21
230.7404086075
  0
LINE
  5
291
100
AcDbEntity
  8
606446690-000-00-ED1_CL
100
AcDbLine
 62
3
  6
CONTINUOUS
 10
170.9761844836
 20
230.6404086075
 11
169.4808325579
 21
230.6404086075
  0
LINE
  5
292
100
AcDbEntity
  8
606446690-000-00-ED1_CL
100
AcDbLine
 62
3
  6
CONTINUOUS
 10
170.9761844836
 20
230.5404086075
 11
169.6474992246
 21
230.5404086075
  0
LINE
  5
293
100
AcDbEntity
  8
606446690-000-00-ED1_CL
100
AcDbLine
 62
3
  6
CONTINUOUS
 10
170.9761844836
 20
230.4404086075
 11
169.8141658913
 21
230.4404086075
  0
LINE
  5
294
100
AcDbEntity
  8
606446690-000-00-ED1_CL
100
AcDbLine
 62
3
  6
CONTINUOUS
 10
170.9761844836
 20
230.3404086075
 11
169.9808325579
 21
230.3404086075
  0
LINE
  5
295
100
AcDbEntity
  8
606446690-000-00-ED1_CL
100
AcDbLine
 62
3
  6
CONTINUOUS
 10
170.9761844836
 20
230.2404086075
 11
170.1474992246
 21
230.2404086075
  0
LINE
  5
296
100
AcDbEntity
  8
606446690-000-00-ED1_CL
100
AcDbLine
 62
3
  6
CONTINUOUS
 10
170.9761844836
 20
230.1404086075
 11
170.3141658913
 21
230.1404086075
  0
LINE
  5
297
100
AcDbEntity
  8
606446690-000-00-ED1_CL
100
AcDbLine
 62
3
  6
CONTINUOUS
 10
170.9761844836
 20
230.0404086075
 11
170.4808325579
 21
230.0404086075
  0
LINE
  5
298
100
AcDbEntity
  8
606446690-000-00-ED1_CL
100
AcDbLine
 62
3
  6
CONTINUOUS
 10
170.9761844836
 20
229.9404086075
 11
170.6474992246
 21
229.9404086075
  0
LINE
  5
299
100
AcDbEntity
  8
606446690-000-00-ED1_CL
100
AcDbLine
 62
3
  6
CONTINUOUS
 10
170.9761844836
 20
229.8404086075
 11
170.8141658913
 21
229.8404086075
  0
TEXT
  5
29A
100
AcDbEntity
  8
606446690-000-00-ED1_CL
100
AcDbText
 62
2
  6
CONTINUOUS
 10
161.0011844836
 20
229.4931974521
  7
STANDARD
 40
3.5
  1
B
 41
0.7857142857
 72
0
100
AcDbText
  0
ENDBLK
  5
29B
100
AcDbEntity
  8
0
  6
BYBLOCK
 62
0
100
AcDbBlockEnd
  0
BLOCK
  5
29C
100
AcDbEntity
  8
606446690-000-00-ED1_FORMAT
100
AcDbBlockBegin
 62
3
  6
CONTINUOUS
  2
BARCODEBOX_BL0
 70
64
 10
87.5
 20
46.5
  3
BARCODEBOX_BL0
  1

  0
LINE
  5
29D
100
AcDbEntity
  8
606446690-000-00-ED1_FORMAT
100
AcDbLine
 62
3
  6
CONTINUOUS
 10
48.0
 20
83.0
 11
53.0
 21
83.0
  0
LINE
  5
29E
100
AcDbEntity
  8
606446690-000-00-ED1_FORMAT
100
AcDbLine
 62
3
  6
CONTINUOUS
 10
53.0
 20
83.0
 11
53.0
 21
78.0
  0
LINE
  5
29F
100
AcDbEntity
  8
606446690-000-00-ED1_FORMAT
100
AcDbLine
 62
3
  6
CONTINUOUS
 10
135.0
 20
65.0
 11
140.0
 21
65.0
  0
LINE
  5
2A0
100
AcDbEntity
  8
606446690-000-00-ED1_FORMAT
100
AcDbLine
 62
3
  6
CONTINUOUS
 10
140.0
 20
65.0
 11
140.0
 21
60.0
  0
LINE
  5
2A1
100
AcDbEntity
  8
606446690-000-00-ED1_FORMAT
100
AcDbLine
 62
3
  6
CONTINUOUS
 10
91.5
 20
65.0
 11
101.5
 21
65.0
  0
LINE
  5
2A2
100
AcDbEntity
  8
606446690-000-00-ED1_FORMAT
100
AcDbLine
 62
3
  6
CONTINUOUS
 10
140.0
 20
42.5
 11
140.0
 21
32.5
  0
LINE
  5
2A3
100
AcDbEntity
  8
606446690-000-00-ED1_FORMAT
100
AcDbLine
 62
3
  6
CONTINUOUS
 10
140.0
 20
10.0
 11
140.0
 21
15.0
  0
LINE
  5
2A4
100
AcDbEntity
  8
606446690-000-00-ED1_FORMAT
100
AcDbLine
 62
3
  6
CONTINUOUS
 10
40.0
 20
83.0
 11
35.0
 21
83.0
  0
LINE
  5
2A5
100
AcDbEntity
  8
606446690-000-00-ED1_FORMAT
100
AcDbLine
 62
3
  6
CONTINUOUS
 10
58.0
 20
65.0
 11
48.0
 21
65.0
  0
LINE
  5
2A6
100
AcDbEntity
  8
606446690-000-00-ED1_FORMAT
100
AcDbLine
 62
3
  6
CONTINUOUS
 10
53.0
 20
65.0
 11
53.0
 21
70.0
  0
LINE
  5
2A7
100
AcDbEntity
  8
606446690-000-00-ED1_FORMAT
100
AcDbLine
 62
3
  6
CONTINUOUS
 10
35.0
 20
65.0
 11
40.0
 21
65.0
  0
TEXT
  5
2A8
100
AcDbEntity
  8
606446690-000-00-ED1_FORMAT
100
AcDbText
 62
2
  6
CONTINUOUS
 10
139.0
 20
11.0
  7
STANDARD
 40
2.0
  1
BARCODE-ZONE
 50
90.0
 41
0.7876984127
 72
0
100
AcDbText
  0
ENDBLK
  5
2A9
100
AcDbEntity
  8
0
  6
BYBLOCK
 62
0
100
AcDbBlockEnd
  0
BLOCK
  5
2AA
100
AcDbEntity
  8
0
100
AcDbBlockBegin
  2
_FILLED
 70
64
 10
0.0
 20
0.0
  3
_FILLED
  1

  0
SOLID
  5
2AB
100
AcDbEntity
  8
0
  6
BYBLOCK
 62
0
100
AcDbTrace
 10
0.0
 20
0.0
 11
-1.0
 21
0.125
 12
-1.0
 22
-0.125
 13
-1.0
 23
-0.125
  0
ENDBLK
  5
2AC
100
AcDbEntity
  8
0
  6
BYBLOCK
 62
0
100
AcDbBlockEnd
  0
BLOCK
  5
2AD
100
AcDbEntity
  8
0
100
AcDbBlockBegin
  2
_DOT
 70
64
 10
0.0
 20
0.0
  3
_DOT
  1

  0
LWPOLYLINE
  5
2AE
100
AcDbEntity
  8
0
  6
BYBLOCK
 62
0
100
AcDbPolyline
 90
2
 70
1
 43
0.125
 10
-0.0625
 20
0.0
 42
1.0
 10
0.0625
 20
0.0
 42
1.0
  0
LINE
  5
2AF
100
AcDbEntity
  8
0
  6
BYBLOCK
 62
0
100
AcDbLine
 10
-0.125
 20
0.0
 11
-1.0
 21
0.0
  0
ENDBLK
  5
2B0
100
AcDbEntity
  8
0
  6
BYBLOCK
 62
0
100
AcDbBlockEnd
  0
BLOCK
  5
2B1
100
AcDbEntity
  8
606446690-000-00-ED1_DIM
100
AcDbBlockBegin
 62
3
  6
CONTINUOUS
  2
*D0
 70
65
 10
0.0
 20
0.0
  3
*D0
  1

  0
TEXT
  5
2B2
100
AcDbEntity
  8
606446690-000-00-ED1_DIM
100
AcDbText
 62
2
  6
CONTINUOUS
 10
204.9313793122
 20
148.0613585489
  7
STANDARD
 40
3.5
  1
R
 50
-42.0655941921
 41
0.7857142857
 72
1
 11
205.9521494675
 21
147.1401347487
100
AcDbText
  0
TEXT
  5
2B3
100
AcDbEntity
  8
606446690-000-00-ED1_DIM
100
AcDbText
 62
2
  6
CONTINUOUS
 10
206.9729196228
 20
146.2189109485
  7
STANDARD
 40
3.5
  1
7.5
 50
-42.0655941921
 41
0.6904761905
 72
1
 11
209.6640409413
 21
143.7902300207
100
AcDbText
  0
LINE
  5
2B4
100
AcDbEntity
  8
606446690-000-00-ED1_DIM
100
AcDbLine
 62
3
  6
CONTINUOUS
 10
201.8583472729
 20
149.6560615729
 11
211.7689289324
 21
140.711968085
  0
INSERT
  5
2B5
100
AcDbEntity
  8
606446690-000-00-ED1_DIM
100
AcDbBlockReference
 62
3
  6
CONTINUOUS
  2
_FILLED
 10
201.8583472729
 20
149.6560615729
 41
3.5
 42
3.5
 43
3.5
 50
137.9344058079
  0
ENDBLK
  5
2B6
100
AcDbEntity
  8
0
  6
BYBLOCK
 62
0
100
AcDbBlockEnd
  0
BLOCK
  5
2B7
100
AcDbEntity
  8
606446690-000-00-ED1_DIM
100
AcDbBlockBegin
 62
3
  6
CONTINUOUS
  2
*D1
 70
65
 10
0.0
 20
0.0
  3
*D1
  1

  0
TEXT
  5
2B8
100
AcDbEntity
  8
606446690-000-00-ED1_DIM
100
AcDbText
 62
2
  6
CONTINUOUS
 10
240.8727694726
 20
200.8992712935
  7
STANDARD
 40
3.5
  1
4.5
 50
-66.023983534
 41
0.6904761905
 72
1
 11
242.3458034656
 21
197.5870521196
100
AcDbText
  0
TEXT
  5
2B9
100
AcDbEntity
  8
606446690-000-00-ED1_DIM
100
AcDbText
 62
2
  6
CONTINUOUS
 10
243.8188374586
 20
194.2748329458
  7
TEXTSTYLE_3
 40
3.5
  1
~
 50
-66.023983534
 41
1.0
 72
1
 11
244.2929173644
 21
193.2088313726
100
AcDbText
  0
TEXT
  5
2BA
100
AcDbEntity
  8
606446690-000-00-ED1_DIM
100
AcDbText
 62
2
  6
CONTINUOUS
 10
245.2466979781
 20
192.356165757
  7
TEXTSTYLE_3
 40
2.45
  1
`
 50
-66.023983534
 41
1.0
 72
1
 11
245.8274458627
 21
191.0503138299
100
AcDbText
  0
TEXT
  5
2BB
100
AcDbEntity
  8
606446690-000-00-ED1_DIM
100
AcDbText
 62
2
  6
CONTINUOUS
 10
246.4081937473
 20
189.7444619027
  7
STANDARD
 40
2.45
  1
0.25
 50
-66.023983534
 41
0.7142857143
 72
1
 11
247.8304334647
 21
186.5464571832
100
AcDbText
  0
TEXT
  5
2BC
100
AcDbEntity
  8
606446690-000-00-ED1_DIM
100
AcDbText
 62
2
  6
CONTINUOUS
 10
249.2526731821
 20
183.3484524636
  7
TEXTSTYLE_3
 40
2.45
  1
~
 50
-66.023983534
 41
1.0
 72
1
 11
249.5845291161
 21
182.6022513624
100
AcDbText
  0
LINE
  5
2BD
100
AcDbEntity
  8
606446690-000-00-ED1_DIM
100
AcDbLine
 62
3
  6
CONTINUOUS
 10
236.476198071
 20
177.6658866946
 11
245.6465340966
 21
176.9441655972
  0
LINE
  5
2BE
100
AcDbEntity
  8
606446690-000-00-ED1_DIM
100
AcDbLine
 62
3
  6
CONTINUOUS
 10
236.210997251
 20
179.1312044809
 11
245.7324630884
 21
179.1312044809
  0
ARC
  5
2BF
100
AcDbEntity
  8
606446690-000-00-ED1_DIM
100
AcDbCircle
 62
3
  6
CONTINUOUS
 10
217.857570275
 20
179.1312044809
 40
26.3748928134
100
AcDbArc
 50
342.4658360505
 51
355.5
  0
ARC
  5
2C0
100
AcDbEntity
  8
606446690-000-00-ED1_DIM
100
AcDbCircle
 62
3
  6
CONTINUOUS
 10
217.857570275
 20
179.1312044809
 40
26.3748928134
100
AcDbArc
 50
0.0
 51
23.976016466
  0
ARC
  5
2C1
100
AcDbEntity
  8
606446690-000-00-ED1_DIM
100
AcDbCircle
 62
3
  6
CONTINUOUS
 10
217.857570275
 20
179.1312044809
 40
26.3748928134
100
AcDbArc
 50
355.5
 51
360.0
  0
SOLID
  5
2C2
100
AcDbEntity
  8
606446690-000-00-ED1_DIM
100
AcDbTrace
 62
3
  6
CONTINUOUS
 10
244.0787285296
 20
173.5353602017
 11
244.151158096
 21
177.0618542408
 12
243.2128970604
 22
173.661696527
 13
243.2128970604
 23
173.661696527
  0
SOLID
  5
2C3
100
AcDbEntity
  8
606446690-000-00-ED1_DIM
100
AcDbTrace
 62
3
  6
CONTINUOUS
 10
243.563867698
 20
182.5944957557
 11
244.2324630884
 21
179.1312044809
 12
244.4369423315
 22
182.6525102741
 13
244.4369423315
 23
182.6525102741
  0
ENDBLK
  5
2C4
100
AcDbEntity
  8
0
  6
BYBLOCK
 62
0
100
AcDbBlockEnd
  0
BLOCK
  5
2C5
100
AcDbEntity
  8
30261785_DIM
100
AcDbBlockBegin
 62
3
  6
CONTINUOUS
  2
*D2
 70
65
 10
0.0
 20
0.0
  3
*D2
  1

  0
TEXT
  5
2C6
100
AcDbEntity
  8
30261785_DIM
100
AcDbText
 62
2
  6
CONTINUOUS
 10
206.393814025
 20
106.5062044809
  7
STANDARD
 40
3.5
  1
10
 41
0.6785714286
 72
2
 11
211.143814025
 21
106.5062044809
100
AcDbText
  0
TEXT
  5
2C7
100
AcDbEntity
  8
30261785_DIM
100
AcDbText
 62
2
  6
CONTINUOUS
 10
180.2271473583
 20
100.3812044809
  7
STANDARD
 40
3.5
  1
VERSTELLWEG
 41
0.803030303
 72
2
 11
211.143814025
 21
100.3812044809
100
AcDbText
  0
LINE
  5
2C8
100
AcDbEntity
  8
30261785_DIM
100
AcDbLine
 62
3
  6
CONTINUOUS
 10
219.9761844836
 20
165.6312044809
 11
219.9761844836
 21
104.1312044809
  0
LINE
  5
2C9
100
AcDbEntity
  8
30261785_DIM
100
AcDbLine
 62
3
  6
CONTINUOUS
 10
229.9761844836
 20
165.6312044809
 11
229.9761844836
 21
104.1312044809
  0
LINE
  5
2CA
100
AcDbEntity
  8
30261785_DIM
100
AcDbLine
 62
3
  6
CONTINUOUS
 10
219.9761844836
 20
105.6312044809
 11
224.9761844836
 21
105.6312044809
  0
LINE
  5
2CB
100
AcDbEntity
  8
30261785_DIM
100
AcDbLine
 62
3
  6
CONTINUOUS
 10
224.9761844836
 20
105.6312044809
 11
180.2271473583
 21
105.6312044809
  0
LINE
  5
2CC
100
AcDbEntity
  8
30261785_DIM
100
AcDbLine
 62
3
  6
CONTINUOUS
 10
229.9761844836
 20
105.6312044809
 11
224.9761844836
 21
105.6312044809
  0
INSERT
  5
2CD
100
AcDbEntity
  8
30261785_DIM
100
AcDbBlockReference
 62
3
  6
CONTINUOUS
  2
_FILLED
 10
219.9761844836
 20
105.6312044809
 41
3.5
 42
3.5
 43
3.5
 50
180.0
  0
INSERT
  5
2CE
100
AcDbEntity
  8
30261785_DIM
100
AcDbBlockReference
 62
3
  6
CONTINUOUS
  2
_FILLED
 10
229.9761844836
 20
105.6312044809
 41
3.5
 42
3.5
 43
3.5
  0
ENDBLK
  5
2CF
100
AcDbEntity
  8
0
  6
BYBLOCK
 62
0
100
AcDbBlockEnd
  0
BLOCK
  5
2D0
100
AcDbEntity
  8
30338420_DIM
100
AcDbBlockBegin
 62
3
  6
CONTINUOUS
  2
*D3
 70
65
 10
0.0
 20
0.0
  3
*D3
  1

  0
TEXT
  5
2D1
100
AcDbEntity
  8
30338420_DIM
100
AcDbText
 62
2
  6
CONTINUOUS
 10
191.7202574019
 20
223.5062044809
  7
STANDARD
 40
3.5
  1
M
 41
0.8571428571
 72
2
 11
194.7202574019
 21
223.5062044809
100
AcDbText
  0
TEXT
  5
2D2
100
AcDbEntity
  8
30338420_DIM
100
AcDbText
 62
2
  6
CONTINUOUS
 10
194.7202574019
 20
223.5062044809
  7
STANDARD
 40
3.5
  1
6
 41
0.7857142857
 72
2
 11
197.4702574019
 21
223.5062044809
100
AcDbText
  0
TEXT
  5
2D3
100
AcDbEntity
  8
30338420_DIM
100
AcDbText
 62
2
  6
CONTINUOUS
 10
197.4702574019
 20
223.5062044809
  7
STANDARD
 40
3.5
  1
(
 41
0.4285714286
 72
2
 11
198.9702574019
 21
223.5062044809
100
AcDbText
  0
TEXT
  5
2D4
100
AcDbEntity
  8
30338420_DIM
100
AcDbText
 62
2
  6
CONTINUOUS
 10
198.9702574019
 20
223.5062044809
  7
STANDARD
 40
3.5
  1
4
 41
0.7857142857
 72
2
 11
201.7202574019
 21
223.5062044809
100
AcDbText
  0
TEXT
  5
2D5
100
AcDbEntity
  8
30338420_DIM
100
AcDbText
 62
2
  6
CONTINUOUS
 10
201.7202574019
 20
223.5062044809
  7
STANDARD
 40
3.5
  1
x)
 41
0.5714285714
 72
2
 11
205.7202574019
 21
223.5062044809
100
AcDbText
  0
LINE
  5
2D6
100
AcDbEntity
  8
30338420_DIM
100
AcDbLine
 62
3
  6
CONTINUOUS
 10
210.4761844836
 20
178.9813134653
 11
210.4761844836
 21
224.1312044809
  0
LINE
  5
2D7
100
AcDbEntity
  8
30338420_DIM
100
AcDbLine
 62
3
  6
CONTINUOUS
 10
216.4761844836
 20
178.9813134653
 11
216.4761844836
 21
224.1312044809
  0
LINE
  5
2D8
100
AcDbEntity
  8
30338420_DIM
100
AcDbLine
 62
3
  6
CONTINUOUS
 10
210.4761844836
 20
222.6312044809
 11
191.7202574019
 21
222.6312044809
  0
LINE
  5
2D9
100
AcDbEntity
  8
30338420_DIM
100
AcDbLine
 62
3
  6
CONTINUOUS
 10
191.7202574019
 20
222.6312044809
 11
213.4761844836
 21
222.6312044809
  0
LINE
  5
2DA
100
AcDbEntity
  8
30338420_DIM
100
AcDbLine
 62
3
  6
CONTINUOUS
 10
216.4761844836
 20
222.6312044809
 11
222.4761844836
 21
222.6312044809
  0
LINE
  5
2DB
100
AcDbEntity
  8
30338420_DIM
100
AcDbLine
 62
3
  6
CONTINUOUS
 10
222.4761844836
 20
222.6312044809
 11
213.4761844836
 21
222.6312044809
  0
INSERT
  5
2DC
100
AcDbEntity
  8
30338420_DIM
100
AcDbBlockReference
 62
3
  6
CONTINUOUS
  2
_FILLED
 10
210.4761844836
 20
222.6312044809
 41
3.5
 42
3.5
 43
3.5
  0
INSERT
  5
2DD
100
AcDbEntity
  8
30338420_DIM
100
AcDbBlockReference
 62
3
  6
CONTINUOUS
  2
_FILLED
 10
216.4761844836
 20
222.6312044809
 41
3.5
 42
3.5
 43
3.5
 50
180.0
  0
ENDBLK
  5
2DE
100
AcDbEntity
  8
0
  6
BYBLOCK
 62
0
100
AcDbBlockEnd
  0
BLOCK
  5
2DF
100
AcDbEntity
  8
30338420_DIM
100
AcDbBlockBegin
 62
3
  6
CONTINUOUS
  2
*D4
 70
65
 10
0.0
 20
0.0
  3
*D4
  1

  0
TEXT
  5
2E0
100
AcDbEntity
  8
30338420_DIM
100
AcDbText
 62
2
  6
CONTINUOUS
 10
229.7261844836
 20
86.5062044809
  7
STANDARD
 40
3.5
  1
42.5
 41
0.7142857143
 72
1
 11
234.7261844836
 21
86.5062044809
100
AcDbText
  0
LINE
  5
2E1
100
AcDbEntity
  8
30338420_DIM
100
AcDbLine
 62
3
  6
CONTINUOUS
 10
213.4761844836
 20
150.5699253061
 11
213.4761844836
 21
84.1312044809
  0
LINE
  5
2E2
100
AcDbEntity
  8
30338420_DIM
100
AcDbLine
 62
3
  6
CONTINUOUS
 10
255.9761844836
 20
156.0555949725
 11
255.9761844836
 21
84.1312044809
  0
LINE
  5
2E3
100
AcDbEntity
  8
30338420_DIM
100
AcDbLine
 62
3
  6
CONTINUOUS
 10
213.4761844836
 20
85.6312044809
 11
234.7261844836
 21
85.6312044809
  0
LINE
  5
2E4
100
AcDbEntity
  8
30338420_DIM
100
AcDbLine
 62
3
  6
CONTINUOUS
 10
255.9761844836
 20
85.6312044809
 11
234.7261844836
 21
85.6312044809
  0
INSERT
  5
2E5
100
AcDbEntity
  8
30338420_DIM
100
AcDbBlockReference
 62
3
  6
CONTINUOUS
  2
_FILLED
 10
213.4761844836
 20
85.6312044809
 41
3.5
 42
3.5
 43
3.5
 50
180.0
  0
INSERT
  5
2E6
100
AcDbEntity
  8
30338420_DIM
100
AcDbBlockReference
 62
3
  6
CONTINUOUS
  2
_FILLED
 10
255.9761844836
 20
85.6312044809
 41
3.5
 42
3.5
 43
3.5
  0
ENDBLK
  5
2E7
100
AcDbEntity
  8
0
  6
BYBLOCK
 62
0
100
AcDbBlockEnd
  0
BLOCK
  5
2E8
100
AcDbEntity
  8
30338420_DIM
100
AcDbBlockBegin
 62
3
  6
CONTINUOUS
  2
*D5
 70
65
 10
0.0
 20
0.0
  3
*D5
  1

  0
TEXT
  5
2E9
100
AcDbEntity
  8
30338420_DIM
100
AcDbText
 62
2
  6
CONTINUOUS
 10
235.3511844836
 20
96.5062044809
  7
STANDARD
 40
3.5
  1
36
 41
0.75
 72
1
 11
237.9761844836
 21
96.5062044809
100
AcDbText
  0
LINE
  5
2EA
100
AcDbEntity
  8
30338420_DIM
100
AcDbLine
 62
3
  6
CONTINUOUS
 10
219.9761844836
 20
165.290799293
 11
219.9761844836
 21
94.1312044809
  0
LINE
  5
2EB
100
AcDbEntity
  8
30338420_DIM
100
AcDbLine
 62
3
  6
CONTINUOUS
 10
255.9761844836
 20
157.2804949098
 11
255.9761844836
 21
94.1312044809
  0
LINE
  5
2EC
100
AcDbEntity
  8
30338420_DIM
100
AcDbLine
 62
3
  6
CONTINUOUS
 10
219.9761844836
 20
95.6312044809
 11
237.9761844836
 21
95.6312044809
  0
LINE
  5
2ED
100
AcDbEntity
  8
30338420_DIM
100
AcDbLine
 62
3
  6
CONTINUOUS
 10
255.9761844836
 20
95.6312044809
 11
237.9761844836
 21
95.6312044809
  0
INSERT
  5
2EE
100
AcDbEntity
  8
30338420_DIM
100
AcDbBlockReference
 62
3
  6
CONTINUOUS
  2
_FILLED
 10
219.9761844836
 20
95.6312044809
 41
3.5
 42
3.5
 43
3.5
 50
180.0
  0
INSERT
  5
2EF
100
AcDbEntity
  8
30338420_DIM
100
AcDbBlockReference
 62
3
  6
CONTINUOUS
  2
_FILLED
 10
255.9761844836
 20
95.6312044809
 41
3.5
 42
3.5
 43
3.5
  0
ENDBLK
  5
2F0
100
AcDbEntity
  8
0
  6
BYBLOCK
 62
0
100
AcDbBlockEnd
  0
BLOCK
  5
2F1
100
AcDbEntity
  8
30338420_DIM
100
AcDbBlockBegin
 62
3
  6
CONTINUOUS
  2
*D6
 70
65
 10
0.0
 20
0.0
  3
*D6
  1

  0
TEXT
  5
2F2
100
AcDbEntity
  8
30338420_DIM
100
AcDbText
 62
2
  6
CONTINUOUS
 10
210.8511844836
 20
233.5062044809
  7
STANDARD
 40
3.5
  1
85
 41
0.75
 72
1
 11
213.4761844836
 21
233.5062044809
100
AcDbText
  0
LINE
  5
2F3
100
AcDbEntity
  8
30338420_DIM
100
AcDbLine
 62
3
  6
CONTINUOUS
 10
255.9761844836
 20
175.0893151612
 11
255.9761844836
 21
234.1312044809
  0
LINE
  5
2F4
100
AcDbEntity
  8
30338420_DIM
100
AcDbLine
 62
3
  6
CONTINUOUS
 10
170.9761844836
 20
215.0050826786
 11
170.9761844836
 21
234.1312044809
  0
LINE
  5
2F5
100
AcDbEntity
  8
30338420_DIM
100
AcDbLine
 62
3
  6
CONTINUOUS
 10
255.9761844836
 20
232.6312044809
 11
213.4761844836
 21
232.6312044809
  0
LINE
  5
2F6
100
AcDbEntity
  8
30338420_DIM
100
AcDbLine
 62
3
  6
CONTINUOUS
 10
170.9761844836
 20
232.6312044809
 11
213.4761844836
 21
232.6312044809
  0
INSERT
  5
2F7
100
AcDbEntity
  8
30338420_DIM
100
AcDbBlockReference
 62
3
  6
CONTINUOUS
  2
_FILLED
 10
255.9761844836
 20
232.6312044809
 41
3.5
 42
3.5
 43
3.5
  0
INSERT
  5
2F8
100
AcDbEntity
  8
30338420_DIM
100
AcDbBlockReference
 62
3
  6
CONTINUOUS
  2
_FILLED
 10
170.9761844836
 20
232.6312044809
 41
3.5
 42
3.5
 43
3.5
 50
180.0
  0
ENDBLK
  5
2F9
100
AcDbEntity
  8
0
  6
BYBLOCK
 62
0
100
AcDbBlockEnd
  0
BLOCK
  5
2FA
100
AcDbEntity
  8
30338420_DIM
100
AcDbBlockBegin
 62
3
  6
CONTINUOUS
  2
*D7
 70
65
 10
0.0
 20
0.0
  3
*D7
  1

  0
TEXT
  5
2FB
100
AcDbEntity
  8
30338420_DIM
100
AcDbText
 62
2
  6
CONTINUOUS
 10
110.2011844836
 20
151.4039172868
  7
STANDARD
 40
3.5
  1
M
 50
90.0
 41
0.8571428571
 72
2
 11
110.2011844836
 21
154.4039172868
100
AcDbText
  0
TEXT
  5
2FC
100
AcDbEntity
  8
30338420_DIM
100
AcDbText
 62
2
  6
CONTINUOUS
 10
110.2011844836
 20
154.4039172868
  7
STANDARD
 40
3.5
  1
5
 50
90.0
 41
0.7142857143
 72
2
 11
110.2011844836
 21
156.9039172868
100
AcDbText
  0
LINE
  5
2FD
100
AcDbEntity
  8
30338420_DIM
100
AcDbLine
 62
3
  6
CONTINUOUS
 10
204.4761844836
 20
163.1312044809
 11
109.5761844836
 21
163.1312044809
  0
LINE
  5
2FE
100
AcDbEntity
  8
30338420_DIM
100
AcDbLine
 62
3
  6
CONTINUOUS
 10
204.4761844836
 20
168.1312044809
 11
109.5761844836
 21
168.1312044809
  0
LINE
  5
2FF
100
AcDbEntity
  8
30338420_DIM
100
AcDbLine
 62
3
  6
CONTINUOUS
 10
111.0761844836
 20
163.1312044809
 11
111.0761844836
 21
151.4039172868
  0
LINE
  5
300
100
AcDbEntity
  8
30338420_DIM
100
AcDbLine
 62
3
  6
CONTINUOUS
 10
111.0761844836
 20
151.4039172868
 11
111.0761844836
 21
165.6312044809
  0
LINE
  5
301
100
AcDbEntity
  8
30338420_DIM
100
AcDbLine
 62
3
  6
CONTINUOUS
 10
111.0761844836
 20
168.1312044809
 11
111.0761844836
 21
174.1312044809
  0
LINE
  5
302
100
AcDbEntity
  8
30338420_DIM
100
AcDbLine
 62
3
  6
CONTINUOUS
 10
111.0761844836
 20
174.1312044809
 11
111.0761844836
 21
165.6312044809
  0
INSERT
  5
303
100
AcDbEntity
  8
30338420_DIM
100
AcDbBlockReference
 62
3
  6
CONTINUOUS
  2
_FILLED
 10
111.0761844836
 20
163.1312044809
 41
3.5
 42
3.5
 43
3.5
 50
90.0
  0
INSERT
  5
304
100
AcDbEntity
  8
30338420_DIM
100
AcDbBlockReference
 62
3
  6
CONTINUOUS
  2
_FILLED
 10
111.0761844836
 20
168.1312044809
 41
3.5
 42
3.5
 43
3.5
 50
270.0
  0
ENDBLK
  5
305
100
AcDbEntity
  8
0
  6
BYBLOCK
 62
0
100
AcDbBlockEnd
  0
BLOCK
  5
306
100
AcDbEntity
  8
30338420_DIM
100
AcDbBlockBegin
 62
3
  6
CONTINUOUS
  2
*D8
 70
65
 10
0.0
 20
0.0
  3
*D8
  1

  0
TEXT
  5
307
100
AcDbEntity
  8
30338420_DIM
100
AcDbText
 62
2
  6
CONTINUOUS
 10
270.1011844836
 20
140.9823931447
  7
TEXTSTYLE_3
 40
3.5
  1
n
 50
90.0
 41
1.0
 72
2
 11
270.1011844836
 21
145.6490598114
100
AcDbText
  0
TEXT
  5
308
100
AcDbEntity
  8
30338420_DIM
100
AcDbText
 62
2
  6
CONTINUOUS
 10
270.1011844836
 20
145.6490598114
  7
STANDARD
 40
3.5
  1
6
 50
90.0
 41
0.7857142857
 72
2
 11
270.1011844836
 21
148.3990598114
100
AcDbText
  0
LINE
  5
309
100
AcDbEntity
  8
30338420_DIM
100
AcDbLine
 62
3
  6
CONTINUOUS
 10
253.9761844836
 20
162.6312044809
 11
272.4761844836
 21
162.6312044809
  0
LINE
  5
30A
100
AcDbEntity
  8
30338420_DIM
100
AcDbLine
 62
3
  6
CONTINUOUS
 10
253.9761844836
 20
168.6312044809
 11
272.4761844836
 21
168.6312044809
  0
LINE
  5
30B
100
AcDbEntity
  8
30338420_DIM
100
AcDbLine
 62
3
  6
CONTINUOUS
 10
270.9761844836
 20
162.6312044809
 11
270.9761844836
 21
140.9823931447
  0
LINE
  5
30C
100
AcDbEntity
  8
30338420_DIM
100
AcDbLine
 62
3
  6
CONTINUOUS
 10
270.9761844836
 20
140.9823931447
 11
270.9761844836
 21
165.6312044809
  0
LINE
  5
30D
100
AcDbEntity
  8
30338420_DIM
100
AcDbLine
 62
3
  6
CONTINUOUS
 10
270.9761844836
 20
168.6312044809
 11
270.9761844836
 21
174.6312044809
  0
LINE
  5
30E
100
AcDbEntity
  8
30338420_DIM
100
AcDbLine
 62
3
  6
CONTINUOUS
 10
270.9761844836
 20
174.6312044809
 11
270.9761844836
 21
165.6312044809
  0
INSERT
  5
30F
100
AcDbEntity
  8
30338420_DIM
100
AcDbBlockReference
 62
3
  6
CONTINUOUS
  2
_FILLED
 10
270.9761844836
 20
162.6312044809
 41
3.5
 42
3.5
 43
3.5
 50
90.0
  0
INSERT
  5
310
100
AcDbEntity
  8
30338420_DIM
100
AcDbBlockReference
 62
3
  6
CONTINUOUS
  2
_FILLED
 10
270.9761844836
 20
168.6312044809
 41
3.5
 42
3.5
 43
3.5
 50
270.0
  0
ENDBLK
  5
311
100
AcDbEntity
  8
0
  6
BYBLOCK
 62
0
100
AcDbBlockEnd
  0
BLOCK
  5
312
100
AcDbEntity
  8
30338420_DIM
100
AcDbBlockBegin
 62
3
  6
CONTINUOUS
  2
*D9
 70
65
 10
0.0
 20
0.0
  3
*D9
  1

  0
TEXT
  5
313
100
AcDbEntity
  8
30338420_DIM
100
AcDbText
 62
2
  6
CONTINUOUS
 10
229.4168773793
 20
213.5062044809
  7
STANDARD
 40
3.5
  1
(
 41
0.4285714286
 72
1
 11
230.1668773793
 21
213.5062044809
100
AcDbText
  0
TEXT
  5
314
100
AcDbEntity
  8
30338420_DIM
100
AcDbText
 62
2
  6
CONTINUOUS
 10
230.9168773793
 20
213.5062044809
  7
STANDARD
 40
3.5
  1
38.12
 41
0.6857142857
 72
1
 11
236.9168773793
 21
213.5062044809
100
AcDbText
  0
TEXT
  5
315
100
AcDbEntity
  8
30338420_DIM
100
AcDbText
 62
2
  6
CONTINUOUS
 10
242.9168773793
 20
213.5062044809
  7
STANDARD
 40
3.5
  1
)
 41
0.4285714286
 72
1
 11
243.6668773793
 21
213.5062044809
100
AcDbText
  0
LINE
  5
316
100
AcDbEntity
  8
30338420_DIM
100
AcDbLine
 62
3
  6
CONTINUOUS
 10
255.9761844836
 20
175.2068139892
 11
255.9761844836
 21
214.1312044809
  0
LINE
  5
317
100
AcDbEntity
  8
30338420_DIM
100
AcDbLine
 62
3
  6
CONTINUOUS
 10
217.857570275
 20
179.1312044809
 11
217.857570275
 21
214.1312044809
  0
LINE
  5
318
100
AcDbEntity
  8
30338420_DIM
100
AcDbLine
 62
3
  6
CONTINUOUS
 10
255.9761844836
 20
212.6312044809
 11
236.9168773793
 21
212.6312044809
  0
LINE
  5
319
100
AcDbEntity
  8
30338420_DIM
100
AcDbLine
 62
3
  6
CONTINUOUS
 10
217.857570275
 20
212.6312044809
 11
236.9168773793
 21
212.6312044809
  0
INSERT
  5
31A
100
AcDbEntity
  8
30338420_DIM
100
AcDbBlockReference
 62
3
  6
CONTINUOUS
  2
_FILLED
 10
255.9761844836
 20
212.6312044809
 41
3.5
 42
3.5
 43
3.5
  0
INSERT
  5
31B
100
AcDbEntity
  8
30338420_DIM
100
AcDbBlockReference
 62
3
  6
CONTINUOUS
  2
_FILLED
 10
217.857570275
 20
212.6312044809
 41
3.5
 42
3.5
 43
3.5
 50
180.0
  0
ENDBLK
  5
31C
100
AcDbEntity
  8
0
  6
BYBLOCK
 62
0
100
AcDbBlockEnd
  0
BLOCK
  5
31D
100
AcDbEntity
  8
30338420_DIM
100
AcDbBlockBegin
 62
3
  6
CONTINUOUS
  2
*D10
 70
65
 10
0.0
 20
0.0
  3
*D10
  1

  0
TEXT
  5
31E
100
AcDbEntity
  8
30338420_DIM
100
AcDbText
 62
2
  6
CONTINUOUS
 10
290.1011844836
 20
160.5478711476
  7
TEXTSTYLE_3
 40
3.5
  1
n
 50
90.0
 41
1.0
 72
1
 11
290.1011844836
 21
162.8812044809
100
AcDbText
  0
TEXT
  5
31F
100
AcDbEntity
  8
30338420_DIM
100
AcDbText
 62
2
  6
CONTINUOUS
 10
290.1011844836
 20
165.2145378142
  7
STANDARD
 40
3.5
  1
27
 50
90.0
 41
0.7857142857
 72
1
 11
290.1011844836
 21
167.9645378142
100
AcDbText
  0
LINE
  5
320
100
AcDbEntity
  8
30338420_DIM
100
AcDbLine
 62
3
  6
CONTINUOUS
 10
217.857570275
 20
152.1312044809
 11
292.4761844836
 21
152.1312044809
  0
LINE
  5
321
100
AcDbEntity
  8
30338420_DIM
100
AcDbLine
 62
3
  6
CONTINUOUS
 10
217.857570275
 20
179.1312044809
 11
292.4761844836
 21
179.1312044809
  0
LINE
  5
322
100
AcDbEntity
  8
30338420_DIM
100
AcDbLine
 62
3
  6
CONTINUOUS
 10
290.9761844836
 20
152.1312044809
 11
290.9761844836
 21
165.6312044809
  0
LINE
  5
323
100
AcDbEntity
  8
30338420_DIM
100
AcDbLine
 62
3
  6
CONTINUOUS
 10
290.9761844836
 20
179.1312044809
 11
290.9761844836
 21
165.6312044809
  0
INSERT
  5
324
100
AcDbEntity
  8
30338420_DIM
100
AcDbBlockReference
 62
3
  6
CONTINUOUS
  2
_FILLED
 10
290.9761844836
 20
152.1312044809
 41
3.5
 42
3.5
 43
3.5
 50
270.0
  0
INSERT
  5
325
100
AcDbEntity
  8
30338420_DIM
100
AcDbBlockReference
 62
3
  6
CONTINUOUS
  2
_FILLED
 10
290.9761844836
 20
179.1312044809
 41
3.5
 42
3.5
 43
3.5
 50
90.0
  0
ENDBLK
  5
326
100
AcDbEntity
  8
0
  6
BYBLOCK
 62
0
100
AcDbBlockEnd
  0
BLOCK
  5
327
100
AcDbEntity
  8
30338420_DIM
100
AcDbBlockBegin
 62
3
  6
CONTINUOUS
  2
*D11
 70
65
 10
0.0
 20
0.0
  3
*D11
  1

  0
TEXT
  5
328
100
AcDbEntity
  8
30338420_DIM
100
AcDbText
 62
2
  6
CONTINUOUS
 10
280.1011844836
 20
160.9228711476
  7
TEXTSTYLE_3
 40
3.5
  1
n
 50
90.0
 41
1.0
 72
1
 11
280.1011844836
 21
163.2562044809
100
AcDbText
  0
TEXT
  5
329
100
AcDbEntity
  8
30338420_DIM
100
AcDbText
 62
2
  6
CONTINUOUS
 10
280.1011844836
 20
165.5895378142
  7
STANDARD
 40
3.5
  1
21
 50
90.0
 41
0.6785714286
 72
1
 11
280.1011844836
 21
167.9645378142
100
AcDbText
  0
LINE
  5
32A
100
AcDbEntity
  8
30338420_DIM
100
AcDbLine
 62
3
  6
CONTINUOUS
 10
255.9761844836
 20
155.1312044809
 11
282.4761844836
 21
155.1312044809
  0
LINE
  5
32B
100
AcDbEntity
  8
30338420_DIM
100
AcDbLine
 62
3
  6
CONTINUOUS
 10
255.9761844836
 20
176.1312044809
 11
282.4761844836
 21
176.1312044809
  0
LINE
  5
32C
100
AcDbEntity
  8
30338420_DIM
100
AcDbLine
 62
3
  6
CONTINUOUS
 10
280.9761844836
 20
155.1312044809
 11
280.9761844836
 21
165.6312044809
  0
LINE
  5
32D
100
AcDbEntity
  8
30338420_DIM
100
AcDbLine
 62
3
  6
CONTINUOUS
 10
280.9761844836
 20
176.1312044809
 11
280.9761844836
 21
165.6312044809
  0
INSERT
  5
32E
100
AcDbEntity
  8
30338420_DIM
100
AcDbBlockReference
 62
3
  6
CONTINUOUS
  2
_FILLED
 10
280.9761844836
 20
155.1312044809
 41
3.5
 42
3.5
 43
3.5
 50
270.0
  0
INSERT
  5
32F
100
AcDbEntity
  8
30338420_DIM
100
AcDbBlockReference
 62
3
  6
CONTINUOUS
  2
_FILLED
 10
280.9761844836
 20
176.1312044809
 41
3.5
 42
3.5
 43
3.5
 50
90.0
  0
ENDBLK
  5
330
100
AcDbEntity
  8
0
  6
BYBLOCK
 62
0
100
AcDbBlockEnd
  0
ENDSEC
  0
SECTION
  2
ENTITIES
  0
TEXT
  5
331
100
AcDbEntity
  8
606446690-000-00-ED1_FORMAT
100
AcDbText
 62
90
  6
CONTINUOUS
 10
34.0
 20
287.75
  7
TEXTSTYLE_2
 40
3.5
  1
1
 41
0.5714285714
 72
1
 11
35.0
 21
287.75
100
AcDbText
  0
TEXT
  5
332
100
AcDbEntity
  8
606446690-000-00-ED1_FORMAT
100
AcDbText
 62
90
  6
CONTINUOUS
 10
83.625
 20
287.75
  7
TEXTSTYLE_2
 40
3.5
  1
2
 41
0.7857142857
 72
1
 11
85.0
 21
287.75
100
AcDbText
  0
TEXT
  5
333
100
AcDbEntity
  8
606446690-000-00-ED1_FORMAT
100
AcDbText
 62
90
  6
CONTINUOUS
 10
133.75
 20
287.75
  7
TEXTSTYLE_2
 40
3.5
  1
3
 41
0.7142857143
 72
1
 11
135.0
 21
287.75
100
AcDbText
  0
TEXT
  5
334
100
AcDbEntity
  8
606446690-000-00-ED1_FORMAT
100
AcDbText
 62
90
  6
CONTINUOUS
 10
183.625
 20
287.75
  7
TEXTSTYLE_2
 40
3.5
  1
4
 41
0.7857142857
 72
1
 11
185.0
 21
287.75
100
AcDbText
  0
TEXT
  5
335
100
AcDbEntity
  8
606446690-000-00-ED1_FORMAT
100
AcDbText
 62
90
  6
CONTINUOUS
 10
233.75
 20
287.75
  7
TEXTSTYLE_2
 40
3.5
  1
5
 41
0.7142857143
 72
1
 11
235.0
 21
287.75
100
AcDbText
  0
TEXT
  5
336
100
AcDbEntity
  8
606446690-000-00-ED1_FORMAT
100
AcDbText
 62
90
  6
CONTINUOUS
 10
283.625
 20
287.75
  7
TEXTSTYLE_2
 40
3.5
  1
6
 41
0.7857142857
 72
1
 11
285.0
 21
287.75
100
AcDbText
  0
TEXT
  5
337
100
AcDbEntity
  8
606446690-000-00-ED1_FORMAT
100
AcDbText
 62
90
  6
CONTINUOUS
 10
333.625
 20
287.75
  7
TEXTSTYLE_2
 40
3.5
  1
7
 41
0.7857142857
 72
1
 11
335.0
 21
287.75
100
AcDbText
  0
TEXT
  5
338
100
AcDbEntity
  8
606446690-000-00-ED1_FORMAT
100
AcDbText
 62
90
  6
CONTINUOUS
 10
383.625
 20
287.75
  7
TEXTSTYLE_2
 40
3.5
  1
8
 41
0.7857142857
 72
1
 11
385.0
 21
287.75
100
AcDbText
  0
TEXT
  5
339
100
AcDbEntity
  8
606446690-000-00-ED1_FORMAT
100
AcDbText
 62
90
  6
CONTINUOUS
 10
133.75
 20
5.75
  7
TEXTSTYLE_2
 40
3.5
  1
3
 41
0.7142857143
 72
1
 11
135.0
 21
5.75
100
AcDbText
  0
TEXT
  5
33A
100
AcDbEntity
  8
606446690-000-00-ED1_FORMAT
100
AcDbText
 62
90
  6
CONTINUOUS
 10
83.625
 20
5.75
  7
TEXTSTYLE_2
 40
3.5
  1
2
 41
0.7857142857
 72
1
 11
85.0
 21
5.75
100
AcDbText
  0
TEXT
  5
33B
100
AcDbEntity
  8
606446690-000-00-ED1_FORMAT
100
AcDbText
 62
90
  6
CONTINUOUS
 10
34.0
 20
5.75
  7
TEXTSTYLE_2
 40
3.5
  1
1
 41
0.5714285714
 72
1
 11
35.0
 21
5.75
100
AcDbText
  0
TEXT
  5
33C
100
AcDbEntity
  8
606446690-000-00-ED1_FORMAT
100
AcDbText
 62
90
  6
CONTINUOUS
 10
19.0
 20
262.75
  7
TEXTSTYLE_2
 40
3.5
  1
A
 41
0.8571428571
 72
1
 11
20.5
 21
262.75
100
AcDbText
  0
TEXT
  5
33D
100
AcDbEntity
  8
606446690-000-00-ED1_FORMAT
100
AcDbText
 62
90
  6
CONTINUOUS
 10
411.0
 20
262.75
  7
TEXTSTYLE_2
 40
3.5
  1
A
 41
0.8571428571
 72
1
 11
412.5
 21
262.75
100
AcDbText
  0
TEXT
  5
33E
100
AcDbEntity
  8
606446690-000-00-ED1_FORMAT
100
AcDbText
 62
90
  6
CONTINUOUS
 10
411.125
 20
221.75
  7
TEXTSTYLE_2
 40
3.5
  1
B
 41
0.7857142857
 72
1
 11
412.5
 21
221.75
100
AcDbText
  0
TEXT
  5
33F
100
AcDbEntity
  8
606446690-000-00-ED1_FORMAT
100
AcDbText
 62
90
  6
CONTINUOUS
 10
19.125
 20
221.75
  7
TEXTSTYLE_2
 40
3.5
  1
B
 41
0.7857142857
 72
1
 11
20.5
 21
221.75
100
AcDbText
  0
TEXT
  5
340
100
AcDbEntity
  8
606446690-000-00-ED1_FORMAT
100
AcDbText
 62
90
  6
CONTINUOUS
 10
19.0416666667
 20
171.75
  7
TEXTSTYLE_2
 40
3.5
  1
C
 41
0.8333333333
 72
1
 11
20.5
 21
171.75
100
AcDbText
  0
TEXT
  5
341
100
AcDbEntity
  8
606446690-000-00-ED1_FORMAT
100
AcDbText
 62
90
  6
CONTINUOUS
 10
411.0416666667
 20
171.75
  7
TEXTSTYLE_2
 40
3.5
  1
C
 41
0.8333333333
 72
1
 11
412.5
 21
171.75
100
AcDbText
  0
TEXT
  5
342
100
AcDbEntity
  8
606446690-000-00-ED1_FORMAT
100
AcDbText
 62
90
  6
CONTINUOUS
 10
410.9166666667
 20
121.75
  7
TEXTSTYLE_2
 40
3.5
  1
D
 41
0.9047619048
 72
1
 11
412.5
 21
121.75
100
AcDbText
  0
TEXT
  5
343
100
AcDbEntity
  8
606446690-000-00-ED1_FORMAT
100
AcDbText
 62
90
  6
CONTINUOUS
 10
18.9166666667
 20
121.75
  7
TEXTSTYLE_2
 40
3.5
  1
D
 41
0.9047619048
 72
1
 11
20.5
 21
121.75
100
AcDbText
  0
TEXT
  5
344
100
AcDbEntity
  8
606446690-000-00-ED1_FORMAT
100
AcDbText
 62
90
  6
CONTINUOUS
 10
19.25
 20
71.75
  7
TEXTSTYLE_2
 40
3.5
  1
E
 41
0.7142857143
 72
1
 11
20.5
 21
71.75
100
AcDbText
  0
TEXT
  5
345
100
AcDbEntity
  8
606446690-000-00-ED1_FORMAT
100
AcDbText
 62
90
  6
CONTINUOUS
 10
411.25
 20
71.75
  7
TEXTSTYLE_2
 40
3.5
  1
E
 41
0.7142857143
 72
1
 11
412.5
 21
71.75
100
AcDbText
  0
TEXT
  5
346
100
AcDbEntity
  8
606446690-000-00-ED1_FORMAT
100
AcDbText
 62
90
  6
CONTINUOUS
 10
411.25
 20
21.75
  7
TEXTSTYLE_2
 40
3.5
  1
F
 41
0.7142857143
 72
1
 11
412.5
 21
21.75
100
AcDbText
  0
TEXT
  5
347
100
AcDbEntity
  8
606446690-000-00-ED1_FORMAT
100
AcDbText
 62
90
  6
CONTINUOUS
 10
19.25
 20
21.75
  7
TEXTSTYLE_2
 40
3.5
  1
F
 41
0.7142857143
 72
1
 11
20.5
 21
21.75
100
AcDbText
  0
TEXT
  5
348
100
AcDbEntity
  8
606446690-000-00-ED1_FORMAT
100
AcDbText
 62
2
  6
CONTINUOUS
 10
266.0792011722
 20
283.4479128464
  7
STANDARD
 40
1.9999997015
  1
INDEX
 41
0.780952381
 72
0
100
AcDbText
  0
TEXT
  5
349
100
AcDbEntity
  8
606446690-000-00-ED1_FORMAT
100
AcDbText
 62
2
  6
CONTINUOUS
 10
267.8411056711
 20
280.4479132942
  7
STANDARD
 40
1.9999997015
  1
NR.
 41
0.7142857143
 72
0
100
AcDbText
  0
TEXT
  5
34A
100
AcDbEntity
  8
606446690-000-00-ED1_FORMAT
100
AcDbText
 62
2
  6
CONTINUOUS
 10
310.3389765087
 20
281.9588201847
  7
STANDARD
 40
1.9999997015
  1
ART DER AENDERUNG
 41
0.799719888
 72
0
100
AcDbText
  0
TEXT
  5
34B
100
AcDbEntity
  8
606446690-000-00-ED1_FORMAT
100
AcDbText
 62
2
  6
CONTINUOUS
 10
379.9980938591
 20
282.0962316584
  7
STANDARD
 40
1.9999997015
  1
DATUM
 41
0.8523809524
 72
0
100
AcDbText
  0
TEXT
  5
34C
100
AcDbEntity
  8
606446690-000-00-ED1_FORMAT
100
AcDbText
 62
2
  6
CONTINUOUS
 10
397.8615854447
 20
282.0962316584
  7
STANDARD
 40
1.9999997015
  1
NAME
 41
0.8035714286
 72
0
100
AcDbText
  0
TEXT
  5
34D
100
AcDbEntity
  8
606446690-000-00-ED1_FORMAT
100
AcDbText
 62
2
  6
CONTINUOUS
 10
27.6553587823
 20
149.7733961004
  7
STANDARD
 40
3.0
  1
VORGANGS-NR.:
 50
90.0
 41
0.7399267399
 72
0
100
AcDbText
  0
TEXT
  5
34E
100
AcDbEntity
  8
606446690-000-00-ED1_FORMAT
100
AcDbText
 62
2
  6
CONTINUOUS
 10
27.9024680453
 20
94.666552576
  7
STANDARD
 40
3.0
  1
PROJEKT-NR.:
 50
90.0
 41
0.7142857143
 72
0
100
AcDbText
  0
TEXT
  5
34F
100
AcDbEntity
  8
606446690-000-00-ED1_FORMAT
100
AcDbText
 62
2
  6
CONTINUOUS
 10
27.9024680453
 20
11.0873145846
  7
STANDARD
 40
3.0
  1
KUNDE:
 50
90.0
 41
0.7222222222
 72
0
100
AcDbText
  0
TEXT
  5
350
100
AcDbEntity
  8
606446690-000-00-ED1_FORMAT
100
AcDbText
 62
2
  6
CONTINUOUS
 10
225.0528335394
 20
61.7772757079
  7
STANDARD
 40
1.4000001944
  1
DIE ZEICHNUNGEN,  MODELLE  ETC. BLEIBEN  UNSER  AUSSCHLIESSLICHES
 41
0.7549450549
 72
0
100
AcDbText
  0
TEXT
  5
351
100
AcDbEntity
  8
606446690-000-00-ED1_FORMAT
100
AcDbText
 62
2
  6
CONTINUOUS
 10
225.0528335394
 20
58.9772753192
  7
STANDARD
 40
1.4000001944
  1
EIGENTUM. SIE WERDEN NUR ZU DEM VEREINBARTEN  ZWECK ANVERTRAUT
 41
0.7976190476
 72
0
100
AcDbText
  0
TEXT
  5
352
100
AcDbEntity
  8
606446690-000-00-ED1_FORMAT
100
AcDbText
 62
2
  6
CONTINUOUS
 10
225.0528335394
 20
56.1772749305
  7
STANDARD
 40
1.4000001944
  1
UND DUERFEN ZU KEINEM ANDEREN  ZWECK VERWENDET WERDEN. KOPIEN
 41
0.8040593286
 72
0
100
AcDbText
  0
TEXT
  5
353
100
AcDbEntity
  8
606446690-000-00-ED1_FORMAT
100
AcDbText
 62
2
  6
CONTINUOUS
 10
225.0528335394
 20
53.3772745417
  7
STANDARD
 40
1.4000001944
  1
ODER  SONSTIGE  VERVIELFAELTIGUNGEN  DUERFEN  NUR ZU DEM VEREIN-
 41
0.7689732143
 72
0
100
AcDbText
  0
TEXT
  5
354
100
AcDbEntity
  8
606446690-000-00-ED1_FORMAT
100
AcDbText
 62
2
  6
CONTINUOUS
 10
225.0528335394
 20
50.577274153
  7
STANDARD
 40
1.4000001944
  1
BARTEN ZWECK ANGEFERTIGT WERDEN. WEDER ORIGINALE NOCH VERVIEL-
 41
0.7949308756
 72
0
100
AcDbText
  0
TEXT
  5
355
100
AcDbEntity
  8
606446690-000-00-ED1_FORMAT
100
AcDbText
 62
2
  6
CONTINUOUS
 10
225.0528335394
 20
47.7772737643
  7
STANDARD
 40
1.4000001944
  1
FAELTIGUNGEN  DUERFEN  DRITTEN  AUSGEHAENDIGT ODER IN SONSTIGER
 41
0.776266062
 72
0
100
AcDbText
  0
TEXT
  5
356
100
AcDbEntity
  8
606446690-000-00-ED1_FORMAT
100
AcDbText
 62
2
  6
CONTINUOUS
 10
225.0528335394
 20
44.9772733756
  7
STANDARD
 40
1.4000001944
  1
WEISE ZUGAENGLICH GEMACHT WERDEN.
 41
0.803030303
 72
0
100
AcDbText
  0
TEXT
  5
357
100
AcDbEntity
  8
606446690-000-00-ED1_FORMAT
100
AcDbText
 62
2
  6
CONTINUOUS
 10
225.1601630615
 20
39.378272574
  7
STANDARD
 40
1.8000002499
  1
MASSE OHNE TOLERANZANGABE
 41
0.7857142857
 72
0
100
AcDbText
  0
TEXT
  5
358
100
AcDbEntity
  8
606446690-000-00-ED1_FORMAT
100
AcDbText
 62
2
  6
CONTINUOUS
 10
236.0244502841
 20
36.6782721992
  7
STANDARD
 40
1.8000002499
  1
ISO 2768-F
 41
0.7571428571
 72
0
100
AcDbText
  0
TEXT
  5
359
100
AcDbEntity
  8
606446690-000-00-ED1_FORMAT
100
AcDbText
 62
2
  6
CONTINUOUS
 10
262.1543713235
 20
39.5917730329
  7
STANDARD
 40
1.8000002499
  1
UNBEMASSTE EINZELHEITEN
 41
0.7608695652
 72
0
100
AcDbText
  0
TEXT
  5
35A
100
AcDbEntity
  8
606446690-000-00-ED1_FORMAT
100
AcDbText
 62
2
  6
CONTINUOUS
 10
267.382943478
 20
36.8917726581
  7
STANDARD
 40
1.8000002499
  1
NACH WERKSNORM
 41
0.8350340136
 72
0
100
AcDbText
  0
TEXT
  5
35B
100
AcDbEntity
  8
606446690-000-00-ED1_FORMAT
100
AcDbText
 62
2
  6
CONTINUOUS
 10
150.063304016
 20
38.7910868059
  7
STANDARD
 40
2.0
  1
ZUSAETZLICH ZU VA-NR. 07.05.01 BESCHRIFTET MIT:
 41
0.7507598784
 72
1
 11
185.3490183017
 21
38.7910868059
100
AcDbText
  0
TEXT
  5
35C
100
AcDbEntity
  8
606446690-000-00-ED1_FORMAT
100
AcDbText
 62
2
  6
CONTINUOUS
 10
224.7601228044
 20
20.7999897947
  7
STANDARD
 40
2.5
  1
TECHNISCHE SPEZIFIKATION:
 41
0.7466666667
 72
0
100
AcDbText
  0
TEXT
  5
35D
100
AcDbEntity
  8
606446690-000-00-ED1_FORMAT
100
AcDbText
 62
2
  6
CONTINUOUS
 10
224.8199471988
 20
31.7602174681
  7
STANDARD
 40
2.5
  1
BENENNUNG:
 41
0.7285714286
 72
0
100
AcDbText
  0
TEXT
  5
35E
100
AcDbEntity
  8
606446690-000-00-ED1_FORMAT
100
AcDbText
 62
2
  6
CONTINUOUS
 10
224.5262063004
 20
11.0903924223
  7
STANDARD
 40
1.6000002221
  1
ERSATZ F. ZCHNR.:
 41
0.7380952381
 72
0
100
AcDbText
  0
TEXT
  5
35F
100
AcDbEntity
  8
606446690-000-00-ED1_FORMAT
100
AcDbText
 62
2
  6
CONTINUOUS
 10
300.4889576042
 20
10.8414910836
  7
STANDARD
 40
1.6000002221
  1
ERSETZT D. ZCHNR.:
 41
0.7473544974
 72
0
100
AcDbText
  0
TEXT
  5
360
100
AcDbEntity
  8
606446690-000-00-ED1_FORMAT
100
AcDbText
 62
2
  6
CONTINUOUS
 10
379.498513208
 20
60.814916182
  7
STANDARD
 40
2.0000002777
  1
DATUM
 41
0.8523809524
 72
0
100
AcDbText
  0
TEXT
  5
361
100
AcDbEntity
  8
606446690-000-00-ED1_FORMAT
100
AcDbText
 62
2
  6
CONTINUOUS
 10
398.0389134502
 20
60.814916182
  7
STANDARD
 40
2.0000002777
  1
NAME
 41
0.8035714286
 72
0
100
AcDbText
  0
TEXT
  5
362
100
AcDbEntity
  8
606446690-000-00-ED1_FORMAT
100
AcDbText
 62
2
  6
CONTINUOUS
 10
366.6248819325
 20
54.9911796252
  7
STANDARD
 40
2.0000002777
  1
GEZ.
 41
0.7142857143
 72
0
100
AcDbText
  0
TEXT
  5
363
100
AcDbEntity
  8
606446690-000-00-ED1_FORMAT
100
AcDbText
 62
2
  6
CONTINUOUS
 10
366.6248819325
 20
48.9031554343
  7
STANDARD
 40
2.0
  1
GEPR.
 41
0.7285714286
 72
0
100
AcDbText
  0
TEXT
  5
364
100
AcDbEntity
  8
606446690-000-00-ED1_FORMAT
100
AcDbText
 62
2
  6
CONTINUOUS
 10
366.6248819325
 20
42.8151311047
  7
STANDARD
 40
2.0
  1
FREIG.
 41
0.7023809524
 72
0
100
AcDbText
  0
TEXT
  5
365
100
AcDbEntity
  8
606446690-000-00-ED1_FORMAT
100
AcDbText
 62
2
  6
CONTINUOUS
 10
300.5448732723
 20
20.8921153842
  7
STANDARD
 40
2.5
  1
MATERIALNUMMER:
 41
0.7571428571
 72
0
100
AcDbText
  0
TEXT
  5
366
100
AcDbEntity
  8
606446690-000-00-ED1_FORMAT
100
AcDbText
 62
2
  6
CONTINUOUS
 10
345.5006276188
 20
20.8921153842
  7
STANDARD
 40
2.5
  1
ZEICHNUNGSNUMMER:
 41
0.7549019608
 72
0
100
AcDbText
  0
TEXT
  5
367
100
AcDbEntity
  8
606446690-000-00-ED1_FORMAT
100
AcDbText
 62
2
  6
CONTINUOUS
 10
400.7764463981
 20
32.1524019301
  7
STANDARD
 40
2.0
  1
ORIGIN
 41
0.7380952381
 72
0
100
AcDbText
  0
TEXT
  5
368
100
AcDbEntity
  8
606446690-000-00-ED1_FORMAT
100
AcDbText
 62
2
  6
CONTINUOUS
 10
400.4059589228
 20
21.1649440759
  7
STANDARD
 40
2.5
  1
INDEX
 41
0.780952381
 72
0
100
AcDbText
  0
TEXT
  5
369
100
AcDbEntity
  8
606446690-000-00-ED1_FORMAT
100
AcDbText
 62
2
  6
CONTINUOUS
 10
366.825457919
 20
36.6922441013
  7
STANDARD
 40
2.0000002777
  1
MASSSTAB: 
 41
0.7714285714
 72
0
100
AcDbText
  0
TEXT
  5
36A
100
AcDbEntity
  8
606446690-000-00-ED1_FORMAT
100
AcDbText
 62
2
  6
CONTINUOUS
 10
382.2540314895
 20
36.6922441013
  7
STANDARD
 40
2.0000002777
  1
1:1
 41
0.5
 72
0
100
AcDbText
  0
TEXT
  5
36B
100
AcDbEntity
  8
606446690-000-00-ED1_FORMAT
100
AcDbText
 62
2
  6
CONTINUOUS
 10
148.8802806988
 20
67.4938922276
  7
STANDARD
 40
2.0000002777
  1
POS
 41
0.7857142857
 72
0
100
AcDbText
  0
TEXT
  5
36C
100
AcDbEntity
  8
606446690-000-00-ED1_FORMAT
100
AcDbText
 62
2
  6
CONTINUOUS
 10
156.2800350516
 20
67.4938922276
  7
STANDARD
 40
2.0000002777
  1
TYP
 41
0.8333333333
 72
0
100
AcDbText
  0
TEXT
  5
36D
100
AcDbEntity
  8
606446690-000-00-ED1_FORMAT
100
AcDbText
 62
2
  6
CONTINUOUS
 10
163.3396899162
 20
67.5421772957
  7
STANDARD
 40
2.0000002777
  1
MENGE
 41
0.7714285714
 72
0
100
AcDbText
  0
TEXT
  5
36E
100
AcDbEntity
  8
606446690-000-00-ED1_FORMAT
100
AcDbText
 62
2
  6
CONTINUOUS
 10
172.6578100909
 20
67.5585023576
  7
STANDARD
 40
2.0000002777
  1
ME
 41
0.7857142857
 72
0
100
AcDbText
  0
TEXT
  5
36F
100
AcDbEntity
  8
606446690-000-00-ED1_FORMAT
100
AcDbText
 62
2
  6
CONTINUOUS
 10
181.2151302056
 20
67.5585023576
  7
STANDARD
 40
2.0000002777
  1
MATERIALNUMMER
 41
0.7857142857
 72
0
100
AcDbText
  0
TEXT
  5
370
100
AcDbEntity
  8
606446690-000-00-ED1_FORMAT
100
AcDbText
 62
2
  6
CONTINUOUS
 10
257.4508902212
 20
67.6477439033
  7
STANDARD
 40
2.0000002777
  1
BENENNUNG
 41
0.7698412698
 72
0
100
AcDbText
  0
TEXT
  5
371
100
AcDbEntity
  8
606446690-000-00-ED1_FORMAT
100
AcDbText
 62
2
  6
CONTINUOUS
 10
321.8093099266
 20
67.455938924
  7
STANDARD
 40
2.0000002777
  1
TECHNISCHE SPEZIFIKATION
 41
0.7628968254
 72
0
100
AcDbText
  0
TEXT
  5
372
100
AcDbEntity
  8
606446690-000-00-ED1_FORMAT
100
AcDbText
 62
2
  6
CONTINUOUS
 10
378.8634420866
 20
67.8395488825
  7
STANDARD
 40
2.0000002777
  1
KUNDENNUMMER
 41
0.7956349206
 72
0
100
AcDbText
  0
TEXT
  5
373
100
AcDbEntity
  8
606446690-000-00-ED1_FORMAT
100
AcDbText
 62
2
  6
CONTINUOUS
 10
378.2047936993
 20
10.9096736719
  7
STANDARD
 40
1.6
  1
BLATT   V.   BLAETTERN
 41
0.7781385281
 72
0
100
AcDbText
  0
TEXT
  5
374
100
AcDbEntity
  8
606446690-000-00-ED1_FORMAT
100
AcDbText
 62
2
  6
CONTINUOUS
 10
385.137224502
 20
10.8641703019
  7
STANDARD
 40
1.6
  1
1
 41
0.5714285714
 72
0
100
AcDbText
  0
TEXT
  5
375
100
AcDbEntity
  8
606446690-000-00-ED1_FORMAT
100
AcDbText
 62
2
  6
CONTINUOUS
 10
391.2747609807
 20
10.9140689725
  7
STANDARD
 40
1.6
  1
1
 41
0.5714285714
 72
0
100
AcDbText
  0
TEXT
  5
376
100
AcDbEntity
  8
606446690-000-00-ED1_FORMAT
100
AcDbText
 62
2
  6
CONTINUOUS
 10
398.7751202552
 20
36.7556960436
  7
STANDARD
 40
2.0
  1
A3
 41
0.7857142857
 72
0
100
AcDbText
  0
TEXT
  5
377
100
AcDbEntity
  8
606446690-000-00-ED1_FORMAT
100
AcDbText
 62
2
  6
CONTINUOUS
 10
23.9272382303
 20
282.7195210512
  7
STANDARD
 40
1.9999995576
  1
MASCH.-NR.:
 41
0.7186147186
 72
0
100
AcDbText
  0
TEXT
  5
378
100
AcDbEntity
  8
606446690-000-00-ED1_FORMAT
100
AcDbText
 62
2
  6
CONTINUOUS
 10
61.221262923
 20
282.7441697896
  7
STANDARD
 40
1.9999995184
  1
STATION:
 41
0.7410714286
 72
0
100
AcDbText
  0
TEXT
  5
379
100
AcDbEntity
  8
606446690-000-00-ED1_FORMAT
100
AcDbText
 62
2
  6
CONTINUOUS
 10
99.2119750426
 20
282.7441697896
  7
STANDARD
 40
1.9999995184
  1
SPINDEL:
 41
0.7023809524
 72
0
100
AcDbText
  0
TEXT
  5
37A
100
AcDbEntity
  8
606446690-000-00-ED1_FORMAT
100
AcDbText
 62
2
  6
CONTINUOUS
 10
23.5637846434
 20
277.4328879656
  7
STANDARD
 40
1.9999995576
  1
WERKST.-BEN.:
 41
0.7527472527
 72
0
100
AcDbText
  0
TEXT
  5
37B
100
AcDbEntity
  8
606446690-000-00-ED1_FORMAT
100
AcDbText
 62
2
  6
CONTINUOUS
 10
23.7506774
 20
266.657832536
  7
STANDARD
 40
1.9999995184
  1
WERKSTOFF:
 41
0.7857142857
 72
0
100
AcDbText
  0
TEXT
  5
37C
100
AcDbEntity
  8
606446690-000-00-ED1_FORMAT
100
AcDbText
 62
2
  6
CONTINUOUS
 10
99.2058269153
 20
260.6643446337
  7
STANDARD
 40
1.9999995184
  1
BOHRUNGS-NR.:
 41
0.7307692308
 72
0
100
AcDbText
  0
TEXT
  5
37D
100
AcDbEntity
  8
606446690-000-00-ED1_FORMAT
100
AcDbText
 62
2
  6
CONTINUOUS
 10
23.8681648642
 20
272.062255871
  7
STANDARD
 40
1.9999995576
  1
WERKST.-NR.:
 41
0.755952381
 72
0
100
AcDbText
  0
TEXT
  5
37E
100
AcDbEntity
  8
606446690-000-00-ED1_FORMAT
100
AcDbText
 62
2
  6
CONTINUOUS
 10
61.140009526
 20
260.6643443929
  7
STANDARD
 40
2.0
  1
OP-NR.:
 41
0.6836734694
 72
0
100
AcDbText
  0
TEXT
  5
37F
100
AcDbEntity
  8
606446690-000-00-ED1_FORMAT
100
AcDbText
 62
2
  6
CONTINUOUS
 10
23.9309790234
 20
260.9091406462
  7
STANDARD
 40
2.0
  1
TOOL-NR.:
 41
0.6984126984
 72
0
100
AcDbText
  0
TEXT
  5
380
100
AcDbEntity
  8
606446690-000-00-ED1_FORMAT
100
AcDbText
 62
2
  6
CONTINUOUS
 10
326.44999432
 20
53.0000824065
  7
STANDARD
 40
2.5
  1
Präzisionswerkzeuge
 41
0.7147869674
 72
0
100
AcDbText
  0
TEXT
  5
381
100
AcDbEntity
  8
606446690-000-00-ED1_FORMAT
100
AcDbText
 62
2
  6
CONTINUOUS
 10
326.44999432
 20
48.4000824065
  7
STANDARD
 40
2.5
  1
Dr. Kress KG
 41
0.751984127
 72
0
100
AcDbText
  0
TEXT
  5
382
100
AcDbEntity
  8
606446690-000-00-ED1_FORMAT
100
AcDbText
 62
2
  6
CONTINUOUS
 10
326.44999432
 20
57.6000824065
  7
STANDARD
 40
2.5
  1
MAPAL
 41
0.8380952381
 72
0
100
AcDbText
  0
INSERT
  5
383
100
AcDbEntity
  8
606446690-000-00-ED1_FORMAT
100
AcDbBlockReference
 62
3
  6
CONTINUOUS
  2
BARCODEBOX_BL0
 10
87.5
 20
46.5
  0
DIMENSION
  5
384
100
AcDbEntity
  8
606446690-000-00-ED1_DIM
100
AcDbDimension
 62
3
  6
CONTINUOUS
  2
*D0
 10
207.4261844836
 20
144.6312044809
 11
210.6633618075
 21
143.6586947214
 70
164
 71
2
 42
7.5
  1
<>
  3
DIMSTYLE_1
100
AcDbRadialDimension
 15
201.8583472729
 25
149.6560615729
  0
DIMENSION
  5
385
100
AcDbEntity
  8
606446690-000-00-ED1_DIM
100
AcDbDimension
 62
3
  6
CONTINUOUS
  2
*D1
 10
245.7324630884
 20
179.1312044809
 11
249.73997451
 21
191.9765923563
 70
162
 71
2
 42
0.0785398163
  3
DIMSTYLE_2
100
AcDb2LineAngularDimension
 13
245.6465340966
 23
176.9441655972
 14
236.476198071
 24
177.6658866946
 15
236.210997251
 25
179.1312044809
 16
244.2121290019
 26
178.0957310484
  0
DIMENSION
  5
386
100
AcDbEntity
  8
30261785_DIM
100
AcDbDimension
 62
3
  6
CONTINUOUS
  2
*D2
 10
229.9761844836
 20
105.6312044809
 11
177.8521473583
 21
105.1937044809
 70
160
 71
3
 42
10.0
  1
<>\PVERSTELLWEG
  3
DIMSTYLE_3
100
AcDbAlignedDimension
 13
219.9761844836
 23
165.6312044809
 14
229.9761844836
 24
165.6312044809
100
AcDbRotatedDimension
  0
DIMENSION
  5
387
100
AcDbEntity
  8
30338420_DIM
100
AcDbDimension
 62
3
  6
CONTINUOUS
  2
*D3
 10
216.4761844836
 20
222.6312044809
 11
195.2202574019
 21
225.2562044809
 70
160
 71
3
 42
6.0
  1
M<>(4x)
  3
DIMSTYLE_4
100
AcDbAlignedDimension
 13
210.4761844836
 23
178.9813134653
 14
216.4761844836
 24
178.9813134653
100
AcDbRotatedDimension
  0
DIMENSION
  5
388
100
AcDbEntity
  8
30338420_DIM
100
AcDbDimension
 62
3
  6
CONTINUOUS
  2
*D4
 10
255.9761844836
 20
85.6312044809
 11
229.7261844836
 21
88.2562044809
 70
160
 71
2
 42
42.5
  3
DIMSTYLE_5
100
AcDbAlignedDimension
 13
213.4761844836
 23
150.5699253061
 14
255.9761844836
 24
156.0555949725
100
AcDbRotatedDimension
  0
DIMENSION
  5
389
100
AcDbEntity
  8
30338420_DIM
100
AcDbDimension
 62
3
  6
CONTINUOUS
  2
*D5
 10
255.9761844836
 20
95.6312044809
 11
235.3511844836
 21
98.2562044809
 70
160
 71
2
 42
36.0
  3
DIMSTYLE_5
100
AcDbAlignedDimension
 13
219.9761844836
 23
165.290799293
 14
255.9761844836
 24
157.2804949098
100
AcDbRotatedDimension
  0
DIMENSION
  5
38A
100
AcDbEntity
  8
30338420_DIM
100
AcDbDimension
 62
3
  6
CONTINUOUS
  2
*D6
 10
170.9761844836
 20
232.6312044809
 11
210.8511844836
 21
235.2562044809
 70
160
 71
2
 42
85.0
  3
DIMSTYLE_5
100
AcDbAlignedDimension
 13
255.9761844836
 23
175.0893151612
 14
170.9761844836
 24
215.0050826786
 50
180.0
100
AcDbRotatedDimension
  0
INSERT
  5
38B
100
AcDbEntity
  8
606446690-000-00-ED1_CL
100
AcDbBlockReference
 62
3
  6
CONTINUOUS
  2
GEOM_TOLERANCE_SYMBOLS_BL1
 10
164.7261844836
 20
231.2431974521
  0
DIMENSION
  5
38C
100
AcDbEntity
  8
30338420_DIM
100
AcDbDimension
 62
3
  6
CONTINUOUS
  2
*D7
 10
111.0761844836
 20
168.1312044809
 11
109.6833869279
 21
151.6954264619
 70
160
 71
3
 42
5.0
  1
M<>
  3
DIMSTYLE_4
100
AcDbAlignedDimension
 13
204.4761844836
 23
163.1312044809
 14
204.4761844836
 24
168.1312044809
 50
90.0
100
AcDbRotatedDimension
  0
DIMENSION
  5
38D
100
AcDbEntity
  8
30338420_DIM
100
AcDbDimension
 62
3
  6
CONTINUOUS
  2
*D8
 10
270.9761844836
 20
168.6312044809
 11
270.0127908101
 21
141.3754888506
 70
160
 71
3
 42
6.0
  1
%%c<>
  3
DIMSTYLE_4
100
AcDbAlignedDimension
 13
253.9761844836
 23
162.6312044809
 14
253.9761844836
 24
168.6312044809
 50
90.0
100
AcDbRotatedDimension
  0
LEADER
  5
38E
100
AcDbEntity
  8
606446690-000-00-ED1_CL
100
AcDbLeader
 62
3
  6
CONTINUOUS
  3
STANDARD
 71
1
 72
0
 73
2
 75
0
 76
3
 10
270.9761844836
 20
162.6312044809
 30
0.0
 10
270.9761844836
 20
132.9322631635
 30
0.0
 10
270.9762265256
 20
132.9322631635
 30
0.0
340
38F
1001
ACAD
1000
DSTYLE
1002
{
1070
77
1070
0
1002
}
  0
INSERT
  5
38F
102
{ACAD_REACTORS
330
38E
102
}
100
AcDbEntity
  8
606446690-000-00-ED1_CL
100
AcDbBlockReference
 62
3
  6
CONTINUOUS
  2
GEOM_TOLERANCE_SYMBOLS_BL2
 10
291.4946439206
 20
132.9325242508
  0
TEXT
  5
390
100
AcDbEntity
  8
0
100
AcDbText
 62
2
  6
CONTINUOUS
 10
275.9761844836
 20
119.9654200498
  7
STANDARD
 40
3.5
  1
FUER SCHAEFTE MIT
 41
0.7759103641
 72
0
100
AcDbText
  0
TEXT
  5
391
100
AcDbEntity
  8
0
100
AcDbText
 62
2
  6
CONTINUOUS
 10
275.9761844836
 20
114.7154200498
  7
STANDARD
 40
3.5
  1
TOLERANZFELD h6
 41
0.7650793651
 72
0
100
AcDbText
  0
LEADER
  5
392
100
AcDbEntity
  8
0
100
AcDbLeader
 62
3
  6
CONTINUOUS
  3
STANDARD
 71
1
 72
0
 73
3
 75
0
 76
3
 10
270.9761844836
 20
162.6312044809
 30
0.0
 10
270.9761844836
 20
121.7154200498
 30
0.0
 10
275.9761844836
 20
121.7154200498
 30
0.0
1001
ACAD
1000
DSTYLE
1002
{
1070
77
1070
0
1002
}
  0
DIMENSION
  5
393
100
AcDbEntity
  8
30338420_DIM
100
AcDbDimension
 62
3
  6
CONTINUOUS
  2
*D9
 10
217.857570275
 20
212.6312044809
 11
234.2918773793
 21
215.2562044809
 70
160
 71
2
 42
38.1186142085
  1
(<>)
  3
DIMSTYLE_6
100
AcDbAlignedDimension
 13
255.9761844836
 23
175.2068139892
 14
217.857570275
 24
179.1312044809
 50
180.0
100
AcDbRotatedDimension
  0
DIMENSION
  5
394
100
AcDbEntity
  8
30338420_DIM
100
AcDbDimension
 62
3
  6
CONTINUOUS
  2
*D10
 10
290.9761844836
 20
179.1312044809
 11
289.4900382579
 21
163.3589629609
 70
160
 71
2
 42
27.0
  1
%%c<>
  3
DIMSTYLE_3
100
AcDbAlignedDimension
 13
217.857570275
 23
152.1312044809
 14
217.857570275
 24
179.1312044809
 50
90.0
100
AcDbRotatedDimension
  0
DIMENSION
  5
395
100
AcDbEntity
  8
30338420_DIM
100
AcDbDimension
 62
3
  6
CONTINUOUS
  2
*D11
 10
280.9761844836
 20
176.1312044809
 11
279.4060244549
 21
163.5265873353
 70
160
 71
2
 42
21.0
  1
%%c<>
  3
DIMSTYLE_3
100
AcDbAlignedDimension
 13
255.9761844836
 23
155.1312044809
 14
255.9761844836
 24
176.1312044809
 50
90.0
100
AcDbRotatedDimension
  0
LINE
  5
396
100
AcDbEntity
  8
606446690-000-00-ED1_FORMAT
100
AcDbLine
 62
3
  6
CONTINUOUS
 10
264.9
 20
287.0000007463
 11
410.0
 21
287.0000007463
  0
LINE
  5
397
100
AcDbEntity
  8
606446690-000-00-ED1_FORMAT
100
AcDbLine
 62
3
  6
CONTINUOUS
 10
264.9
 20
287.0000007463
 11
264.9
 21
225.0000007463
  0
LINE
  5
398
100
AcDbEntity
  8
606446690-000-00-ED1_FORMAT
100
AcDbLine
 62
3
  6
CONTINUOUS
 10
264.9
 20
225.0000007463
 11
410.0
 21
225.0000007463
  0
LINE
  5
399
100
AcDbEntity
  8
606446690-000-00-ED1_FORMAT
100
AcDbLine
 62
3
  6
CONTINUOUS
 10
410.0
 20
287.0000007463
 11
410.0
 21
225.0000007463
  0
LINE
  5
39A
100
AcDbEntity
  8
606446690-000-00-ED1_FORMAT
100
AcDbLine
 62
3
  6
CONTINUOUS
 10
23.0
 20
10.0
 11
23.0
 21
210.0
  0
LINE
  5
39B
100
AcDbEntity
  8
606446690-000-00-ED1_FORMAT
100
AcDbLine
 62
3
  6
CONTINUOUS
 10
23.0
 20
10.0
 11
29.0
 21
10.0
  0
LINE
  5
39C
100
AcDbEntity
  8
606446690-000-00-ED1_FORMAT
100
AcDbLine
 62
3
  6
CONTINUOUS
 10
29.0
 20
10.0
 11
29.0
 21
210.0
  0
LINE
  5
39D
100
AcDbEntity
  8
606446690-000-00-ED1_FORMAT
100
AcDbLine
 62
3
  6
CONTINUOUS
 10
23.0
 20
210.0
 11
29.0
 21
210.0
  0
LINE
  5
39E
100
AcDbEntity
  8
606446690-000-00-ED1_FORMAT
100
AcDbLine
 62
3
  6
CONTINUOUS
 10
146.999991584
 20
65.00000176
 11
410.000001584
 21
65.00000176
  0
LINE
  5
39F
100
AcDbEntity
  8
606446690-000-00-ED1_FORMAT
100
AcDbLine
 62
3
  6
CONTINUOUS
 10
146.999991584
 20
65.00000176
 11
146.999991584
 21
78.50000176
  0
LINE
  5
3A0
100
AcDbEntity
  8
606446690-000-00-ED1_FORMAT
100
AcDbLine
 62
3
  6
CONTINUOUS
 10
146.999991584
 20
72.50000176
 11
410.000001584
 21
72.50000176
  0
LINE
  5
3A1
100
AcDbEntity
  8
606446690-000-00-ED1_FORMAT
100
AcDbLine
 62
3
  6
CONTINUOUS
 10
146.999991584
 20
78.50000176
 11
410.000001584
 21
78.50000176
  0
LINE
  5
3A2
100
AcDbEntity
  8
606446690-000-00-ED1_FORMAT
100
AcDbLine
 62
3
  6
CONTINUOUS
 10
154.499991584
 20
65.00000176
 11
154.499991584
 21
78.50000176
  0
LINE
  5
3A3
100
AcDbEntity
  8
606446690-000-00-ED1_FORMAT
100
AcDbLine
 62
3
  6
CONTINUOUS
 10
161.999991584
 20
65.00000176
 11
161.999991584
 21
78.50000176
  0
LINE
  5
3A4
100
AcDbEntity
  8
606446690-000-00-ED1_FORMAT
100
AcDbLine
 62
3
  6
CONTINUOUS
 10
171.398801584
 20
65.00000176
 11
171.398801584
 21
78.50000176
  0
LINE
  5
3A5
100
AcDbEntity
  8
606446690-000-00-ED1_FORMAT
100
AcDbLine
 62
3
  6
CONTINUOUS
 10
176.398801584
 20
65.00000176
 11
176.398801584
 21
78.50000176
  0
LINE
  5
3A6
100
AcDbEntity
  8
606446690-000-00-ED1_FORMAT
100
AcDbLine
 62
3
  6
CONTINUOUS
 10
208.000001584
 20
65.00000176
 11
208.000001584
 21
78.50000176
  0
LINE
  5
3A7
100
AcDbEntity
  8
606446690-000-00-ED1_FORMAT
100
AcDbLine
 62
3
  6
CONTINUOUS
 10
314.000001584
 20
65.00000176
 11
314.000001584
 21
78.50000176
  0
LINE
  5
3A8
100
AcDbEntity
  8
606446690-000-00-ED1_FORMAT
100
AcDbLine
 62
3
  6
CONTINUOUS
 10
366.000001584
 20
65.00000176
 11
366.000001584
 21
78.50000176
  0
LINE
  5
3A9
100
AcDbEntity
  8
606446690-000-00-ED1_FORMAT
100
AcDbLine
 62
3
  6
CONTINUOUS
 10
410.000001584
 20
65.00000176
 11
410.000001584
 21
78.50000176
  0
TEXT
  5
3AA
100
AcDbEntity
  8
606446690-000-00-ED1_FORMAT
100
AcDbText
 62
2
  6
CONTINUOUS
 10
148.224991584
 20
74.25000176
  7
STANDARD
 40
2.0
  1
1
 41
0.5714285714
 72
0
100
AcDbText
  0
TEXT
  5
3AB
100
AcDbEntity
  8
606446690-000-00-ED1_FORMAT
100
AcDbText
 62
2
  6
CONTINUOUS
 10
163.224991584
 20
74.25000176
  7
STANDARD
 40
2.0
  1
1
 41
0.5714285714
 72
0
100
AcDbText
  0
TEXT
  5
3AC
100
AcDbEntity
  8
606446690-000-00-ED1_FORMAT
100
AcDbText
 62
2
  6
CONTINUOUS
 10
177.623801584
 20
74.25000176
  7
STANDARD
 40
2.0
  1
30252539
 41
0.75
 72
0
100
AcDbText
  0
TEXT
  5
3AD
100
AcDbEntity
  8
606446690-000-00-ED1_FORMAT
100
AcDbText
 62
2
  6
CONTINUOUS
 10
209.225001584
 20
74.25000176
  7
STANDARD
 40
2.0
  1
ANSCHLAGSCHRAUBE
 41
0.7916666667
 72
0
100
AcDbText
  0
TEXT
  5
3AE
100
AcDbEntity
  8
606446690-000-00-ED1_FORMAT
100
AcDbText
 62
2
  6
CONTINUOUS
 10
315.225001584
 20
74.25000176
  7
STANDARD
 40
2.0
  1
M5 SW2.5
 41
0.8214285714
 72
0
100
AcDbText
  0
TEXT
  5
3AF
100
AcDbEntity
  8
606446690-000-00-ED1_FORMAT
100
AcDbText
 62
2
  6
CONTINUOUS
 10
406.5242872983
 20
76.72000176
  7
STANDARD
 40
0.03
  1
30252539_HP
 41
0.7597402597
 72
2
 11
406.775001584
 21
76.72000176
100
AcDbText
  0
TEXT
  5
3B0
100
AcDbEntity
  8
606446690-000-00-ED1_FORMAT
100
AcDbText
 62
2
  6
CONTINUOUS
 10
407.7257158697
 20
76.72000176
  7
STANDARD
 40
0.03
  1
KA
 41
0.8214285714
 72
2
 11
407.775001584
 21
76.72000176
100
AcDbText
  0
TEXT
  5
3B1
100
AcDbEntity
  8
606446690-000-00-ED1_FORMAT
100
AcDbText
 62
2
  6
CONTINUOUS
 10
408.7278587269
 20
76.72000176
  7
STANDARD
 40
0.03
  1
HP
 41
0.7857142857
 72
2
 11
408.775001584
 21
76.72000176
100
AcDbText
  0
LINE
  5
3B2
100
AcDbEntity
  8
606446690-000-00-ED1_FORMAT
100
AcDbLine
 62
3
  6
CONTINUOUS
 10
23.0
 20
287.0
 11
135.0
 21
287.0
  0
LINE
  5
3B3
100
AcDbEntity
  8
606446690-000-00-ED1_FORMAT
100
AcDbLine
 62
3
  6
CONTINUOUS
 10
23.0
 20
287.0
 11
23.0
 21
259.00001
  0
LINE
  5
3B4
100
AcDbEntity
  8
606446690-000-00-ED1_FORMAT
100
AcDbLine
 62
3
  6
CONTINUOUS
 10
23.0
 20
259.00001
 11
135.0
 21
259.00001
  0
LINE
  5
3B5
100
AcDbEntity
  8
606446690-000-00-ED1_FORMAT
100
AcDbLine
 62
3
  6
CONTINUOUS
 10
135.0
 20
287.0
 11
135.0
 21
259.00001
  0
LINE
  5
3B6
100
AcDbEntity
  8
606446690-000-00-ED1_FORMAT
100
AcDbLine
 62
3
  6
CONTINUOUS
 10
146.999991584
 20
65.00000176
 11
409.999961584
 21
65.00000176
  0
LINE
  5
3B7
100
AcDbEntity
  8
606446690-000-00-ED1_FORMAT
100
AcDbLine
 62
3
  6
CONTINUOUS
 10
146.999991584
 20
65.00000176
 11
146.999991584
 21
10.00000176
  0
LINE
  5
3B8
100
AcDbEntity
  8
606446690-000-00-ED1_FORMAT
100
AcDbLine
 62
3
  6
CONTINUOUS
 10
146.999991584
 20
10.00000176
 11
409.999961584
 21
10.00000176
  0
LINE
  5
3B9
100
AcDbEntity
  8
606446690-000-00-ED1_FORMAT
100
AcDbLine
 62
3
  6
CONTINUOUS
 10
409.999961584
 20
65.00000176
 11
409.999961584
 21
10.00000176
  0
TEXT
  5
3BA
100
AcDbEntity
  8
606446690-000-00-ED1_FORMAT
100
AcDbText
 62
2
  6
CONTINUOUS
 10
184.5178487269
 20
60.75000176
  7
STANDARD
 40
2.5
  1
 
 41
0.7857142857
 72
1
 11
185.499991584
 21
60.75000176
100
AcDbText
  0
TEXT
  5
3BB
100
AcDbEntity
  8
606446690-000-00-ED1_FORMAT
100
AcDbText
 62
2
  6
CONTINUOUS
 10
154.130943965
 20
58.24975176
  7
STANDARD
 40
2.5
  1
AUSWUCHTGUETE DIN ISO 1940-G 
 41
0.7939244663
 72
1
 11
182.9107058697
 21
58.24975176
100
AcDbText
  0
TEXT
  5
3BC
100
AcDbEntity
  8
606446690-000-00-ED1_FORMAT
100
AcDbText
 62
2
  6
CONTINUOUS
 10
211.6904677745
 20
58.24975176
  7
STANDARD
 40
2.5
  1
2.5
 41
0.6904761905
 72
1
 11
214.2797534888
 21
58.24975176
100
AcDbText
  0
TEXT
  5
3BD
100
AcDbEntity
  8
606446690-000-00-ED1_FORMAT
100
AcDbText
 62
2
  6
CONTINUOUS
 10
184.5178487269
 20
56.57968176
  7
STANDARD
 40
2.5
  1
 
 41
0.7857142857
 72
1
 11
185.499991584
 21
56.57968176
100
AcDbText
  0
TEXT
  5
3BE
100
AcDbEntity
  8
606446690-000-00-ED1_FORMAT
100
AcDbText
 62
2
  6
CONTINUOUS
 10
167.7321344411
 20
52.82968176
  7
STANDARD
 40
2.5
  1
(KOMPLETT MONTIERT)
 41
0.7481203008
 72
1
 11
185.499991584
 21
52.82968176
100
AcDbText
  0
TEXT
  5
3BF
100
AcDbEntity
  8
606446690-000-00-ED1_FORMAT
100
AcDbText
 62
2
  6
CONTINUOUS
 10
378.122491584
 20
54.95468176
  7
STANDARD
 40
2.0
  1
27.05.15
 41
0.6875
 72
0
100
AcDbText
  0
TEXT
  5
3C0
100
AcDbEntity
  8
606446690-000-00-ED1_FORMAT
100
AcDbText
 62
2
  6
CONTINUOUS
 10
398.5201551554
 20
54.95468176
  7
STANDARD
 40
2.0
  1
SMU
 41
0.8095238095
 72
1
 11
400.948726584
 21
54.95468176
100
AcDbText
  0
TEXT
  5
3C1
100
AcDbEntity
  8
606446690-000-00-ED1_FORMAT
100
AcDbText
 62
2
  6
CONTINUOUS
 10
157.8511820602
 20
46.82968176
  7
STANDARD
 40
2.5
  1
FUER NENNDREHZAHL 
 41
0.7724867725
 72
1
 11
175.2321344411
 21
46.82968176
100
AcDbText
  0
TEXT
  5
3C2
100
AcDbEntity
  8
606446690-000-00-ED1_FORMAT
100
AcDbText
 62
2
  6
CONTINUOUS
 10
192.6130868221
 20
46.82968176
  7
STANDARD
 40
2.5
  1
25000
 41
0.7714285714
 72
1
 11
197.4345153935
 21
46.82968176
100
AcDbText
  0
TEXT
  5
3C3
100
AcDbEntity
  8
606446690-000-00-ED1_FORMAT
100
AcDbText
 62
2
  6
CONTINUOUS
 10
202.255943965
 20
46.82968176
  7
STANDARD
 40
2.5
  1
 MIN
 41
0.7678571429
 72
1
 11
206.0952296792
 21
46.82968176
100
AcDbText
  0
TEXT
  5
3C4
100
AcDbEntity
  8
606446690-000-00-ED1_FORMAT
100
AcDbText
 62
2
  6
CONTINUOUS
 10
209.9345153935
 20
48.70468176
  7
STANDARD
 40
2.5
  1
-1
 41
0.6428571429
 72
1
 11
211.5416582507
 21
48.70468176
100
AcDbText
  0
TEXT
  5
3C5
100
AcDbEntity
  8
606446690-000-00-ED1_FORMAT
100
AcDbText
 62
2
  6
CONTINUOUS
 10
378.122491584
 20
48.95468176
  7
STANDARD
 40
2.0
  1
27.05.15
 41
0.6875
 72
0
100
AcDbText
  0
TEXT
  5
3C6
100
AcDbEntity
  8
606446690-000-00-ED1_FORMAT
100
AcDbText
 62
2
  6
CONTINUOUS
 10
398.5201551554
 20
48.95468176
  7
STANDARD
 40
2.0
  1
SMU
 41
0.8095238095
 72
1
 11
400.948726584
 21
48.95468176
100
AcDbText
  0
TEXT
  5
3C7
100
AcDbEntity
  8
606446690-000-00-ED1_FORMAT
100
AcDbText
 62
7
  6
CONTINUOUS
 10
225.224991584
 20
26.00000176
  7
STANDARD
 40
2.5
  1
THERMOCHUCK, HSK, STANDARDAUSFUEHRUNG
 41
0.7889317889
 72
0
100
AcDbText
  0
TEXT
  5
3C8
100
AcDbEntity
  8
606446690-000-00-ED1_FORMAT
100
AcDbText
 62
2
  6
CONTINUOUS
 10
402.5951996792
 20
26.00000176
  7
STANDARD
 40
2.0
  1
EHD
 41
0.8015873016
 72
1
 11
404.999961584
 21
26.00000176
100
AcDbText
  0
TEXT
  5
3C9
100
AcDbEntity
  8
606446690-000-00-ED1_FORMAT
100
AcDbText
 62
7
  6
CONTINUOUS
 10
225.224991584
 20
15.25000176
  7
STANDARD
 40
2.5
  1
MTC-HSK-A100-06-085-1-0-A
 41
0.759047619
 72
0
100
AcDbText
  0
TEXT
  5
3CA
100
AcDbEntity
  8
606446690-000-00-ED1_FORMAT
100
AcDbText
 62
7
  6
CONTINUOUS
 10
301.224991584
 20
15.25000176
  7
STANDARD
 40
2.5
  1
30261785
 41
0.7410714286
 72
0
100
AcDbText
  0
TEXT
  5
3CB
100
AcDbEntity
  8
606446690-000-00-ED1_FORMAT
100
AcDbText
 62
7
  6
CONTINUOUS
 10
346.224991584
 20
15.25000176
  7
STANDARD
 40
2.5
  1
606446690-000-00-ED1
 41
0.7666666667
 72
0
100
AcDbText
  0
TEXT
  5
3CC
100
AcDbEntity
  8
606446690-000-00-ED1_FORMAT
100
AcDbText
 62
2
  6
CONTINUOUS
 10
403.0356758697
 20
15.25000176
  7
STANDARD
 40
2.5
  1
00
 41
0.7857142857
 72
1
 11
404.999961584
 21
15.25000176
100
AcDbText
  0
LINE
  5
3CD
100
AcDbEntity
  8
606446690-000-00-ED1_FORMAT
100
AcDbLine
 62
3
  6
CONTINUOUS
 10
29.0
 20
10.0
 11
29.0
 21
145.0
  0
LINE
  5
3CE
100
AcDbEntity
  8
606446690-000-00-ED1_FORMAT
100
AcDbLine
 62
3
  6
CONTINUOUS
 10
29.0
 20
10.0
 11
35.0
 21
10.0
  0
LINE
  5
3CF
100
AcDbEntity
  8
606446690-000-00-ED1_FORMAT
100
AcDbLine
 62
3
  6
CONTINUOUS
 10
35.0
 20
10.0
 11
35.0
 21
145.0
  0
LINE
  5
3D0
100
AcDbEntity
  8
606446690-000-00-ED1_FORMAT
100
AcDbLine
 62
3
  6
CONTINUOUS
 10
29.0
 20
80.0
 11
35.0
 21
80.0
  0
LINE
  5
3D1
100
AcDbEntity
  8
606446690-000-00-ED1_FORMAT
100
AcDbLine
 62
3
  6
CONTINUOUS
 10
29.0
 20
145.0
 11
35.0
 21
145.0
  0
TEXT
  5
3D2
100
AcDbEntity
  8
606446690-000-00-ED1_FORMAT
100
AcDbText
 62
2
  6
CONTINUOUS
 10
34.0
 20
11.225
  7
STANDARD
 40
3.0
  1
AEHNLICH:
 50
90.0
 41
0.7116402116
 72
0
100
AcDbText
  0
TEXT
  5
3D3
100
AcDbEntity
  8
606446690-000-00-ED1_FORMAT
100
AcDbText
 62
2
  6
CONTINUOUS
 10
34.0
 20
81.225
  7
STANDARD
 40
3.0
  1
SKIZZE:
 50
90.0
 41
0.693877551
 72
0
100
AcDbText
  0
LINE
  5
3D4
100
AcDbEntity
  8
606446690-000-00-ED1_FORMAT
100
AcDbLine
 62
3
  6
CONTINUOUS
 10
365.999998592
 20
35.0000008
 11
294.999998592
 21
35.0000008
  0
LINE
  5
3D5
100
AcDbEntity
  8
606446690-000-00-ED1_FORMAT
100
AcDbLine
 62
3
  6
CONTINUOUS
 10
365.999998592
 20
35.0000008
 11
365.999998592
 21
43.5000008
  0
LINE
  5
3D6
100
AcDbEntity
  8
606446690-000-00-ED1_FORMAT
100
AcDbLine
 62
3
  6
CONTINUOUS
 10
365.999998592
 20
43.5000008
 11
294.999998592
 21
43.5000008
  0
LINE
  5
3D7
100
AcDbEntity
  8
606446690-000-00-ED1_FORMAT
100
AcDbLine
 62
3
  6
CONTINUOUS
 10
294.999998592
 20
35.0000008
 11
294.999998592
 21
43.5000008
  0
TEXT
  5
3D8
100
AcDbEntity
  8
606446690-000-00-ED1_FORMAT
100
AcDbText
 62
2
  6
CONTINUOUS
 10
304.9642843063
 20
38.0000008
  7
STANDARD
 40
2.5
  1
PATENTRECHTLICH GESCHUETZT
 41
0.7857142857
 72
1
 11
330.499998592
 21
38.0000008
100
AcDbText
  0
TEXT
  5
3D9
100
AcDbEntity
  8
606446690-000-00-ED1_TEXT
100
AcDbText
 62
2
  6
CONTINUOUS
 10
161.1844000524
 20
265.1312044809
  7
STANDARD
 40
5.0
  1
TRENNSTELLE HSK-A100
 41
0.7666666667
 72
0
100
AcDbText
  0
TEXT
  5
3DA
100
AcDbEntity
  8
606446690-000-00-ED1_TEXT
100
AcDbText
 62
2
  6
CONTINUOUS
 10
161.1844000524
 20
257.6312044809
  7
STANDARD
 40
5.0
  1
(AEHNLICH DIN 69893-1)
 41
0.7251082251
 72
0
100
AcDbText
  0
TEXT
  5
3DB
100
AcDbEntity
  8
606446690-000-00-ED1_TEXT
100
AcDbText
 62
2
  6
CONTINUOUS
 10
161.1844000524
 20
250.1312044809
  7
STANDARD
 40
5.0
  1
NACH MN609 BLATT 2-6
 41
0.7952380952
 72
0
100
AcDbText
  0
INSERT
  5
3DC
100
AcDbEntity
  8
606446690-000-00-ED1_CL
100
AcDbBlockReference
 62
3
  6
CONTINUOUS
  2
GEOM_TOLERANCE_SYMBOLS_BL3
 10
138.3439688534
 20
208.3185264751
  0
LEADER
  5
3DD
100
AcDbEntity
  8
606446690-000-00-ED1_CL
100
AcDbLeader
 62
3
  6
CONTINUOUS
  3
STANDARD
 71
1
 72
0
 73
2
 75
0
 76
2
 10
218.4249651529
 20
166.6977925242
 30
0.0
 10
228.2743127949
 20
196.8097100066
 30
0.0
340
3DE
1001
ACAD
1000
DSTYLE
1002
{
1070
77
1070
0
1070
341
1005
21B
1002
}
  0
INSERT
  5
3DE
102
{ACAD_REACTORS
330
3DD
102
}
100
AcDbEntity
  8
606446690-000-00-ED1_CL
100
AcDbBlockReference
 62
3
  6
CONTINUOUS
  2
BOMBALLOON_BL4
 10
230.1784732625
 20
202.6312044809
  0
LINE
  5
3DF
100
AcDbEntity
  8
606446690-000-00-ED1_FORMAT
100
AcDbLine
 62
6
  6
HIDDEN
 10
0.0
 20
297.0
 11
0.0
 21
0.0
  0
LINE
  5
3E0
100
AcDbEntity
  8
606446690-000-00-ED1_FORMAT
100
AcDbLine
 62
7
  6
CONTINUOUS
 10
18.0
 20
292.0
 11
18.0
 21
5.0
  0
LINE
  5
3E1
100
AcDbEntity
  8
606446690-000-00-ED1_FORMAT
100
AcDbLine
 62
3
  6
CONTINUOUS
 10
23.0
 20
259.0000097341
 11
23.0
 21
10.0
  0
LINE
  5
3E2
100
AcDbEntity
  8
606446690-000-00-ED1_FORMAT
100
AcDbLine
 62
7
  6
CONTINUOUS
 10
23.0
 20
259.0000097341
 11
23.0
 21
287.0
  0
LINE
  5
3E3
100
AcDbEntity
  8
606446690-000-00-ED1_FORMAT
100
AcDbLine
 62
3
  6
CONTINUOUS
 10
28.9999998068
 20
9.9999999122
 11
28.9999998068
 21
209.9999964
  0
LINE
  5
3E4
100
AcDbEntity
  8
606446690-000-00-ED1_FORMAT
100
AcDbLine
 62
3
  6
CONTINUOUS
 10
60.0
 20
10.0
 11
60.0
 21
5.0
  0
LINE
  5
3E5
100
AcDbEntity
  8
606446690-000-00-ED1_FORMAT
100
AcDbLine
 62
3
  6
CONTINUOUS
 10
60.0
 20
287.0
 11
60.0
 21
292.0
  0
LINE
  5
3E6
100
AcDbEntity
  8
606446690-000-00-ED1_FORMAT
100
AcDbLine
 62
7
  6
CONTINUOUS
 10
60.4999978194
 20
259.0000097341
 11
60.4999978194
 21
265.0000076482
  0
LINE
  5
3E7
100
AcDbEntity
  8
606446690-000-00-ED1_FORMAT
100
AcDbLine
 62
7
  6
CONTINUOUS
 10
60.500027184
 20
281.0047710842
 11
60.500027184
 21
287.0
  0
LINE
  5
3E8
100
AcDbEntity
  8
606446690-000-00-ED1_FORMAT
100
AcDbLine
 62
6
  6
HIDDEN
 10
0.0
 20
0.0
 11
420.0
 21
0.0
  0
LINE
  5
3E9
100
AcDbEntity
  8
606446690-000-00-ED1_FORMAT
100
AcDbLine
 62
7
  6
CONTINUOUS
 10
18.0
 20
5.0
 11
415.0
 21
5.0
  0
LINE
  5
3EA
100
AcDbEntity
  8
606446690-000-00-ED1_FORMAT
100
AcDbLine
 62
3
  6
CONTINUOUS
 10
23.0
 20
10.0
 11
146.999991584
 21
10.0
  0
LINE
  5
3EB
100
AcDbEntity
  8
606446690-000-00-ED1_FORMAT
100
AcDbLine
 62
7
  6
CONTINUOUS
 10
146.999991584
 20
10.0
 11
410.0
 21
10.0
  0
LINE
  5
3EC
100
AcDbEntity
  8
606446690-000-00-ED1_FORMAT
100
AcDbLine
 62
7
  6
CONTINUOUS
 10
410.0
 20
13.500000112
 11
223.999992048
 21
13.500000112
  0
LINE
  5
3ED
100
AcDbEntity
  8
606446690-000-00-ED1_FORMAT
100
AcDbLine
 62
2
  6
CONTINUOUS
 10
308.1737564759
 20
52.0267386374
 11
309.1516114228
 21
52.2473767493
  0
LINE
  5
3EE
100
AcDbEntity
  8
606446690-000-00-ED1_FORMAT
100
AcDbLine
 62
7
  6
CONTINUOUS
 10
410.0
 20
24.250000456
 11
223.999992048
 21
24.250000456
  0
LINE
  5
3EF
100
AcDbEntity
  8
606446690-000-00-ED1_FORMAT
100
AcDbLine
 62
7
  6
CONTINUOUS
 10
98.4999894133
 20
259.0000097341
 11
98.4999894133
 21
265.0000076482
  0
LINE
  5
3F0
100
AcDbEntity
  8
606446690-000-00-ED1_FORMAT
100
AcDbLine
 62
7
  6
CONTINUOUS
 10
98.5000134045
 20
281.0047710842
 11
98.5000134045
 21
287.0
  0
LINE
  5
3F1
100
AcDbEntity
  8
606446690-000-00-ED1_FORMAT
100
AcDbLine
 62
2
  6
CONTINUOUS
 10
316.811390075
 20
56.3655426444
 11
315.6581835473
 21
56.1055812919
  0
LINE
  5
3F2
100
AcDbEntity
  8
606446690-000-00-ED1_FORMAT
100
AcDbLine
 62
2
  6
CONTINUOUS
 10
313.8970140824
 20
54.0619609694
 11
313.770971016
 21
54.0347884704
  0
LINE
  5
3F3
100
AcDbEntity
  8
606446690-000-00-ED1_FORMAT
100
AcDbLine
 62
2
  6
CONTINUOUS
 10
314.0150648347
 20
53.2748724898
 11
314.125727646
 21
53.2985664359
  0
LINE
  5
3F4
100
AcDbEntity
  8
606446690-000-00-ED1_FORMAT
100
AcDbLine
 62
2
  6
CONTINUOUS
 10
309.4726377778
 20
52.3088992873
 11
309.7481381608
 21
52.3575829001
  0
LINE
  5
3F5
100
AcDbEntity
  8
606446690-000-00-ED1_FORMAT
100
AcDbLine
 62
2
  6
CONTINUOUS
 10
309.7481381608
 20
52.3575829001
 11
310.0106653611
 21
52.3954383742
  0
LINE
  5
3F6
100
AcDbEntity
  8
606446690-000-00-ED1_FORMAT
100
AcDbLine
 62
2
  6
CONTINUOUS
 10
310.0106653611
 20
52.3954383742
 11
310.2676594209
 21
52.4242614386
  0
LINE
  5
3F7
100
AcDbEntity
  8
606446690-000-00-ED1_FORMAT
100
AcDbLine
 62
2
  6
CONTINUOUS
 10
313.7760873475
 20
53.2488129126
 11
314.0150648347
 21
53.2748724898
  0
LINE
  5
3F8
100
AcDbEntity
  8
606446690-000-00-ED1_FORMAT
100
AcDbLine
 62
2
  6
CONTINUOUS
 10
310.2676594209
 20
52.4242614386
 11
310.5265291215
 21
52.4458639518
  0
LINE
  5
3F9
100
AcDbEntity
  8
606446690-000-00-ED1_FORMAT
100
AcDbLine
 62
2
  6
CONTINUOUS
 10
313.770971016
 20
54.0347884704
 11
313.62612986
 21
54.0232237601
  0
LINE
  5
3FA
100
AcDbEntity
  8
606446690-000-00-ED1_FORMAT
100
AcDbLine
 62
2
  6
CONTINUOUS
 10
310.6816029405
 20
53.1572307303
 11
311.3784660447
 21
53.2094789191
  0
LINE
  5
3FB
100
AcDbEntity
  8
606446690-000-00-ED1_FORMAT
100
AcDbLine
 62
2
  6
CONTINUOUS
 10
311.5221922364
 20
52.5294029883
 11
311.8167824754
 21
52.5503549529
  0
LINE
  5
3FC
100
AcDbEntity
  8
606446690-000-00-ED1_FORMAT
100
AcDbLine
 62
7
  6
CONTINUOUS
 10
223.999992048
 20
35.0000008
 11
410.0
 21
35.0000008
  0
LINE
  5
3FD
100
AcDbEntity
  8
606446690-000-00-ED1_FORMAT
100
AcDbLine
 62
7
  6
CONTINUOUS
 10
410.0
 20
40.9546819905
 11
365.999998592
 21
40.9546819905
  0
LINE
  5
3FE
100
AcDbEntity
  8
606446690-000-00-ED1_FORMAT
100
AcDbLine
 62
7
  6
CONTINUOUS
 10
365.999998592
 20
43.500001072
 11
146.999991584
 21
43.500001072
  0
LINE
  5
3FF
100
AcDbEntity
  8
606446690-000-00-ED1_FORMAT
100
AcDbLine
 62
7
  6
CONTINUOUS
 10
410.0
 20
46.9546821825
 11
365.999998592
 21
46.9546821825
  0
LINE
  5
400
100
AcDbEntity
  8
606446690-000-00-ED1_FORMAT
100
AcDbLine
 62
3
  6
CONTINUOUS
 10
110.0
 20
10.0
 11
110.0
 21
5.0
  0
LINE
  5
401
100
AcDbEntity
  8
606446690-000-00-ED1_FORMAT
100
AcDbLine
 62
3
  6
CONTINUOUS
 10
110.0
 20
287.0
 11
110.0
 21
292.0
  0
LINE
  5
402
100
AcDbEntity
  8
606446690-000-00-ED1_FORMAT
100
AcDbLine
 62
2
  6
CONTINUOUS
 10
311.2880080537
 20
53.9326200889
 11
310.7557428559
 21
53.9038776709
  0
LINE
  5
403
100
AcDbEntity
  8
606446690-000-00-ED1_FORMAT
100
AcDbLine
 62
2
  6
CONTINUOUS
 10
313.0830380463
 20
55.9298901709
 11
312.7687535783
 21
55.9176103949
  0
LINE
  5
404
100
AcDbEntity
  8
606446690-000-00-ED1_FORMAT
100
AcDbLine
 62
2
  6
CONTINUOUS
 10
311.8167824754
 20
52.5503549529
 11
311.9618945573
 21
52.5553174018
  0
LINE
  5
405
100
AcDbEntity
  8
606446690-000-00-ED1_FORMAT
100
AcDbLine
 62
2
  6
CONTINUOUS
 10
313.6478560334
 20
53.2465010459
 11
313.7760873475
 21
53.2488129126
  0
LINE
  5
406
100
AcDbEntity
  8
606446690-000-00-ED1_FORMAT
100
AcDbLine
 62
2
  6
CONTINUOUS
 10
311.9618945573
 20
52.5553174018
 11
312.2501805589
 21
52.5601884513
  0
LINE
  5
407
100
AcDbEntity
  8
606446690-000-00-ED1_FORMAT
100
AcDbLine
 62
2
  6
CONTINUOUS
 10
311.9618945573
 20
52.5553174018
 11
312.3943235597
 21
52.5618121345
  0
LINE
  5
408
100
AcDbEntity
  8
606446690-000-00-ED1_FORMAT
100
AcDbLine
 62
2
  6
CONTINUOUS
 10
312.2501805589
 20
52.5601884513
 11
312.3943235597
 21
52.5618121345
  0
LINE
  5
409
100
AcDbEntity
  8
606446690-000-00-ED1_FORMAT
100
AcDbLine
 62
2
  6
CONTINUOUS
 10
313.8726828523
 20
55.9364870559
 11
313.0830380463
 21
55.9298901709
  0
LINE
  5
40A
100
AcDbEntity
  8
606446690-000-00-ED1_FORMAT
100
AcDbLine
 62
3
  6
CONTINUOUS
 10
23.0
 20
48.5
 11
18.0
 21
48.5
  0
LINE
  5
40B
100
AcDbEntity
  8
606446690-000-00-ED1_FORMAT
100
AcDbLine
 62
3
  6
CONTINUOUS
 10
410.0
 20
48.5
 11
415.0
 21
48.5
  0
LINE
  5
40C
100
AcDbEntity
  8
606446690-000-00-ED1_FORMAT
100
AcDbLine
 62
2
  6
CONTINUOUS
 10
312.5957904147
 20
49.4612169223
 11
312.6308094674
 21
49.4612169223
  0
LINE
  5
40D
100
AcDbEntity
  8
606446690-000-00-ED1_FORMAT
100
AcDbLine
 62
2
  6
CONTINUOUS
 10
312.3970603564
 20
49.5612169223
 11
312.8368994729
 21
49.5612169223
  0
LINE
  5
40E
100
AcDbEntity
  8
606446690-000-00-ED1_FORMAT
100
AcDbLine
 62
2
  6
CONTINUOUS
 10
312.1983302981
 20
49.6612169223
 11
313.0429894784
 21
49.6612169223
  0
LINE
  5
40F
100
AcDbEntity
  8
606446690-000-00-ED1_FORMAT
100
AcDbLine
 62
2
  6
CONTINUOUS
 10
311.9996002398
 20
49.7612169223
 11
313.249079484
 21
49.7612169223
  0
LINE
  5
410
100
AcDbEntity
  8
606446690-000-00-ED1_FORMAT
100
AcDbLine
 62
2
  6
CONTINUOUS
 10
311.8008701816
 20
49.8612169223
 11
313.4551694895
 21
49.8612169223
  0
LINE
  5
411
100
AcDbEntity
  8
606446690-000-00-ED1_FORMAT
100
AcDbLine
 62
2
  6
CONTINUOUS
 10
311.6021401233
 20
49.9612169223
 11
313.661259495
 21
49.9612169223
  0
LINE
  5
412
100
AcDbEntity
  8
606446690-000-00-ED1_FORMAT
100
AcDbLine
 62
2
  6
CONTINUOUS
 10
311.403410065
 20
50.0612169223
 11
313.8673495005
 21
50.0612169223
  0
LINE
  5
413
100
AcDbEntity
  8
606446690-000-00-ED1_FORMAT
100
AcDbLine
 62
2
  6
CONTINUOUS
 10
311.2046800067
 20
50.1612169223
 11
314.073439506
 21
50.1612169223
  0
LINE
  5
414
100
AcDbEntity
  8
606446690-000-00-ED1_FORMAT
100
AcDbLine
 62
2
  6
CONTINUOUS
 10
311.0059499484
 20
50.2612169223
 11
314.2795295116
 21
50.2612169223
  0
LINE
  5
415
100
AcDbEntity
  8
606446690-000-00-ED1_FORMAT
100
AcDbLine
 62
2
  6
CONTINUOUS
 10
310.8072198901
 20
50.3612169223
 11
314.4856195171
 21
50.3612169223
  0
LINE
  5
416
100
AcDbEntity
  8
606446690-000-00-ED1_FORMAT
100
AcDbLine
 62
2
  6
CONTINUOUS
 10
310.6084898318
 20
50.4612169223
 11
314.6917095226
 21
50.4612169223
  0
LINE
  5
417
100
AcDbEntity
  8
606446690-000-00-ED1_FORMAT
100
AcDbLine
 62
2
  6
CONTINUOUS
 10
310.4097597735
 20
50.5612169223
 11
314.8977995281
 21
50.5612169223
  0
LINE
  5
418
100
AcDbEntity
  8
606446690-000-00-ED1_FORMAT
100
AcDbLine
 62
2
  6
CONTINUOUS
 10
320.1049530975
 20
50.5612169223
 11
320.2033331149
 21
50.5612169223
  0
LINE
  5
419
100
AcDbEntity
  8
606446690-000-00-ED1_FORMAT
100
AcDbLine
 62
2
  6
CONTINUOUS
 10
310.2110297152
 20
50.6612169223
 11
315.1038895337
 21
50.6612169223
  0
LINE
  5
41A
100
AcDbEntity
  8
606446690-000-00-ED1_FORMAT
100
AcDbLine
 62
2
  6
CONTINUOUS
 10
319.9145646092
 20
50.6612169223
 11
320.3313136725
 21
50.6612169223
  0
LINE
  5
41B
100
AcDbEntity
  8
606446690-000-00-ED1_FORMAT
100
AcDbLine
 62
2
  6
CONTINUOUS
 10
305.3807768328
 20
50.7612169223
 11
305.5908168656
 21
50.7612169223
  0
LINE
  5
41C
100
AcDbEntity
  8
606446690-000-00-ED1_FORMAT
100
AcDbLine
 62
2
  6
CONTINUOUS
 10
310.012299657
 20
50.7612169223
 11
315.3099795392
 21
50.7612169223
  0
LINE
  5
41D
100
AcDbEntity
  8
606446690-000-00-ED1_FORMAT
100
AcDbLine
 62
2
  6
CONTINUOUS
 10
319.724176121
 20
50.7612169223
 11
320.119060279
 21
50.7612169223
  0
LINE
  5
41E
100
AcDbEntity
  8
606446690-000-00-ED1_FORMAT
100
AcDbLine
 62
2
  6
CONTINUOUS
 10
320.1383810082
 20
50.7612169223
 11
320.4592942301
 21
50.7612169223
  0
LINE
  5
41F
100
AcDbEntity
  8
606446690-000-00-ED1_FORMAT
100
AcDbLine
 62
2
  6
CONTINUOUS
 10
305.1884579939
 20
50.8612169223
 11
305.7636453527
 21
50.8612169223
  0
LINE
  5
420
100
AcDbEntity
  8
606446690-000-00-ED1_FORMAT
100
AcDbLine
 62
2
  6
CONTINUOUS
 10
309.8135695987
 20
50.8612169223
 11
315.5160695447
 21
50.8612169223
  0
LINE
  5
421
100
AcDbEntity
  8
606446690-000-00-ED1_FORMAT
100
AcDbLine
 62
2
  6
CONTINUOUS
 10
319.5337876327
 20
50.8612169223
 11
319.9269830626
 21
50.8612169223
  0
LINE
  5
422
100
AcDbEntity
  8
606446690-000-00-ED1_FORMAT
100
AcDbLine
 62
2
  6
CONTINUOUS
 10
320.1383810082
 20
50.8612169223
 11
320.5409560601
 21
50.8612169223
  0
LINE
  5
423
100
AcDbEntity
  8
606446690-000-00-ED1_FORMAT
100
AcDbLine
 62
2
  6
CONTINUOUS
 10
305.0850031937
 20
50.9612169223
 11
305.4976754456
 21
50.9612169223
  0
LINE
  5
424
100
AcDbEntity
  8
606446690-000-00-ED1_FORMAT
100
AcDbLine
 62
2
  6
CONTINUOUS
 10
305.5651294594
 20
50.9612169223
 11
305.9364738399
 21
50.9612169223
  0
LINE
  5
425
100
AcDbEntity
  8
606446690-000-00-ED1_FORMAT
100
AcDbLine
 62
2
  6
CONTINUOUS
 10
309.6148395404
 20
50.9612169223
 11
315.7221595502
 21
50.9612169223
  0
LINE
  5
426
100
AcDbEntity
  8
606446690-000-00-ED1_FORMAT
100
AcDbLine
 62
2
  6
CONTINUOUS
 10
319.3433991445
 20
50.9612169223
 11
319.7349058461
 21
50.9612169223
  0
LINE
  5
427
100
AcDbEntity
  8
606446690-000-00-ED1_FORMAT
100
AcDbLine
 62
2
  6
CONTINUOUS
 10
320.1383810082
 20
50.9612169223
 11
320.5409560601
 21
50.9612169223
  0
LINE
  5
428
100
AcDbEntity
  8
606446690-000-00-ED1_FORMAT
100
AcDbLine
 62
2
  6
CONTINUOUS
 10
305.0850031937
 20
51.0612169223
 11
305.4976754456
 21
51.0612169223
  0
LINE
  5
429
100
AcDbEntity
  8
606446690-000-00-ED1_FORMAT
100
AcDbLine
 62
2
  6
CONTINUOUS
 10
305.7425043521
 20
51.0612169223
 11
306.109302327
 21
51.0612169223
  0
LINE
  5
42A
100
AcDbEntity
  8
606446690-000-00-ED1_FORMAT
100
AcDbLine
 62
2
  6
CONTINUOUS
 10
309.4161094821
 20
51.0612169223
 11
315.9282495557
 21
51.0612169223
  0
LINE
  5
42B
100
AcDbEntity
  8
606446690-000-00-ED1_FORMAT
100
AcDbLine
 62
2
  6
CONTINUOUS
 10
319.1530106562
 20
51.0612169223
 11
319.5428286297
 21
51.0612169223
  0
LINE
  5
42C
100
AcDbEntity
  8
606446690-000-00-ED1_FORMAT
100
AcDbLine
 62
2
  6
CONTINUOUS
 10
320.1383810082
 20
51.0612169223
 11
320.5409560601
 21
51.0612169223
  0
LINE
  5
42D
100
AcDbEntity
  8
606446690-000-00-ED1_FORMAT
100
AcDbLine
 62
2
  6
CONTINUOUS
 10
305.0850031937
 20
51.1612169223
 11
305.4976754456
 21
51.1612169223
  0
LINE
  5
42E
100
AcDbEntity
  8
606446690-000-00-ED1_FORMAT
100
AcDbLine
 62
2
  6
CONTINUOUS
 10
305.9198792448
 20
51.1612169223
 11
306.2821308142
 21
51.1612169223
  0
LINE
  5
42F
100
AcDbEntity
  8
606446690-000-00-ED1_FORMAT
100
AcDbLine
 62
2
  6
CONTINUOUS
 10
309.2173794238
 20
51.1612169223
 11
316.1343395613
 21
51.1612169223
  0
LINE
  5
430
100
AcDbEntity
  8
606446690-000-00-ED1_FORMAT
100
AcDbLine
 62
2
  6
CONTINUOUS
 10
318.9626221679
 20
51.1612169223
 11
319.3507514132
 21
51.1612169223
  0
LINE
  5
431
100
AcDbEntity
  8
606446690-000-00-ED1_FORMAT
100
AcDbLine
 62
2
  6
CONTINUOUS
 10
320.1383810082
 20
51.1612169223
 11
320.5409560601
 21
51.1612169223
  0
LINE
  5
432
100
AcDbEntity
  8
606446690-000-00-ED1_FORMAT
100
AcDbLine
 62
2
  6
CONTINUOUS
 10
305.0850031937
 20
51.2612169223
 11
305.4976754456
 21
51.2612169223
  0
LINE
  5
433
100
AcDbEntity
  8
606446690-000-00-ED1_FORMAT
100
AcDbLine
 62
2
  6
CONTINUOUS
 10
306.0972541374
 20
51.2612169223
 11
306.4549593013
 21
51.2612169223
  0
LINE
  5
434
100
AcDbEntity
  8
606446690-000-00-ED1_FORMAT
100
AcDbLine
 62
2
  6
CONTINUOUS
 10
309.0186493655
 20
51.2612169223
 11
316.3404295668
 21
51.2612169223
  0
LINE
  5
435
100
AcDbEntity
  8
606446690-000-00-ED1_FORMAT
100
AcDbLine
 62
2
  6
CONTINUOUS
 10
318.7722336797
 20
51.2612169223
 11
319.1586741968
 21
51.2612169223
  0
LINE
  5
436
100
AcDbEntity
  8
606446690-000-00-ED1_FORMAT
100
AcDbLine
 62
2
  6
CONTINUOUS
 10
320.1383810082
 20
51.2612169223
 11
320.5409560601
 21
51.2612169223
  0
LINE
  5
437
100
AcDbEntity
  8
606446690-000-00-ED1_FORMAT
100
AcDbLine
 62
2
  6
CONTINUOUS
 10
305.0850031937
 20
51.3612169223
 11
305.4976754456
 21
51.3612169223
  0
LINE
  5
438
100
AcDbEntity
  8
606446690-000-00-ED1_FORMAT
100
AcDbLine
 62
2
  6
CONTINUOUS
 10
306.2746290301
 20
51.3612169223
 11
306.6277877884
 21
51.3612169223
  0
LINE
  5
439
100
AcDbEntity
  8
606446690-000-00-ED1_FORMAT
100
AcDbLine
 62
2
  6
CONTINUOUS
 10
308.8199193072
 20
51.3612169223
 11
316.5465195723
 21
51.3612169223
  0
LINE
  5
43A
100
AcDbEntity
  8
606446690-000-00-ED1_FORMAT
100
AcDbLine
 62
2
  6
CONTINUOUS
 10
318.5818451914
 20
51.3612169223
 11
318.9665969803
 21
51.3612169223
  0
LINE
  5
43B
100
AcDbEntity
  8
606446690-000-00-ED1_FORMAT
100
AcDbLine
 62
2
  6
CONTINUOUS
 10
320.1383810082
 20
51.3612169223
 11
320.5409560601
 21
51.3612169223
  0
LINE
  5
43C
100
AcDbEntity
  8
606446690-000-00-ED1_FORMAT
100
AcDbLine
 62
2
  6
CONTINUOUS
 10
305.0850031937
 20
51.4612169223
 11
305.4976754456
 21
51.4612169223
  0
LINE
  5
43D
100
AcDbEntity
  8
606446690-000-00-ED1_FORMAT
100
AcDbLine
 62
2
  6
CONTINUOUS
 10
306.4520039228
 20
51.4612169223
 11
306.7262247592
 21
51.4612169223
  0
LINE
  5
43E
100
AcDbEntity
  8
606446690-000-00-ED1_FORMAT
100
AcDbLine
 62
2
  6
CONTINUOUS
 10
308.6211892489
 20
51.4612169223
 11
316.7526095778
 21
51.4612169223
  0
LINE
  5
43F
100
AcDbEntity
  8
606446690-000-00-ED1_FORMAT
100
AcDbLine
 62
2
  6
CONTINUOUS
 10
318.3914567032
 20
51.4612169223
 11
318.7745197639
 21
51.4612169223
  0
LINE
  5
440
100
AcDbEntity
  8
606446690-000-00-ED1_FORMAT
100
AcDbLine
 62
2
  6
CONTINUOUS
 10
320.1383810082
 20
51.4612169223
 11
320.5409560601
 21
51.4612169223
  0
LINE
  5
441
100
AcDbEntity
  8
606446690-000-00-ED1_FORMAT
100
AcDbLine
 62
2
  6
CONTINUOUS
 10
305.0850031937
 20
51.5612169223
 11
305.4976754456
 21
51.5612169223
  0
LINE
  5
442
100
AcDbEntity
  8
606446690-000-00-ED1_FORMAT
100
AcDbLine
 62
2
  6
CONTINUOUS
 10
306.5876624558
 20
51.5612169223
 11
306.72608996
 21
51.5612169223
  0
LINE
  5
443
100
AcDbEntity
  8
606446690-000-00-ED1_FORMAT
100
AcDbLine
 62
2
  6
CONTINUOUS
 10
308.4224591907
 20
51.5612169223
 11
316.9586995833
 21
51.5612169223
  0
LINE
  5
444
100
AcDbEntity
  8
606446690-000-00-ED1_FORMAT
100
AcDbLine
 62
2
  6
CONTINUOUS
 10
318.2010682149
 20
51.5612169223
 11
318.5824425474
 21
51.5612169223
  0
LINE
  5
445
100
AcDbEntity
  8
606446690-000-00-ED1_FORMAT
100
AcDbLine
 62
2
  6
CONTINUOUS
 10
320.1383810082
 20
51.5612169223
 11
320.5409560601
 21
51.5612169223
  0
LINE
  5
446
100
AcDbEntity
  8
606446690-000-00-ED1_FORMAT
100
AcDbLine
 62
2
  6
CONTINUOUS
 10
305.0850031937
 20
51.6612169223
 11
305.4976754456
 21
51.6612169223
  0
LINE
  5
447
100
AcDbEntity
  8
606446690-000-00-ED1_FORMAT
100
AcDbLine
 62
2
  6
CONTINUOUS
 10
306.5876624558
 20
51.6612169223
 11
306.7259551609
 21
51.6612169223
  0
LINE
  5
448
100
AcDbEntity
  8
606446690-000-00-ED1_FORMAT
100
AcDbLine
 62
2
  6
CONTINUOUS
 10
308.2237291324
 20
51.6612169223
 11
317.1647895889
 21
51.6612169223
  0
LINE
  5
449
100
AcDbEntity
  8
606446690-000-00-ED1_FORMAT
100
AcDbLine
 62
2
  6
CONTINUOUS
 10
318.0106797267
 20
51.6612169223
 11
318.390365331
 21
51.6612169223
  0
LINE
  5
44A
100
AcDbEntity
  8
606446690-000-00-ED1_FORMAT
100
AcDbLine
 62
2
  6
CONTINUOUS
 10
320.1383810082
 20
51.6612169223
 11
320.5409560601
 21
51.6612169223
  0
LINE
  5
44B
100
AcDbEntity
  8
606446690-000-00-ED1_FORMAT
100
AcDbLine
 62
2
  6
CONTINUOUS
 10
305.0850031937
 20
51.7612169223
 11
305.4976754456
 21
51.7612169223
  0
LINE
  5
44C
100
AcDbEntity
  8
606446690-000-00-ED1_FORMAT
100
AcDbLine
 62
2
  6
CONTINUOUS
 10
306.5876624558
 20
51.7612169223
 11
306.7258203617
 21
51.7612169223
  0
LINE
  5
44D
100
AcDbEntity
  8
606446690-000-00-ED1_FORMAT
100
AcDbLine
 62
2
  6
CONTINUOUS
 10
308.0249990741
 20
51.7612169223
 11
317.3708795944
 21
51.7612169223
  0
LINE
  5
44E
100
AcDbEntity
  8
606446690-000-00-ED1_FORMAT
100
AcDbLine
 62
2
  6
CONTINUOUS
 10
317.9768299493
 20
51.7612169223
 11
318.1982881145
 21
51.7612169223
  0
LINE
  5
44F
100
AcDbEntity
  8
606446690-000-00-ED1_FORMAT
100
AcDbLine
 62
2
  6
CONTINUOUS
 10
320.1383810082
 20
51.7612169223
 11
320.5409560601
 21
51.7612169223
  0
LINE
  5
450
100
AcDbEntity
  8
606446690-000-00-ED1_FORMAT
100
AcDbLine
 62
2
  6
CONTINUOUS
 10
305.0850031937
 20
51.8612169223
 11
305.4976754456
 21
51.8612169223
  0
LINE
  5
451
100
AcDbEntity
  8
606446690-000-00-ED1_FORMAT
100
AcDbLine
 62
2
  6
CONTINUOUS
 10
306.5876624558
 20
51.8612169223
 11
306.7256855626
 21
51.8612169223
  0
LINE
  5
452
100
AcDbEntity
  8
606446690-000-00-ED1_FORMAT
100
AcDbLine
 62
2
  6
CONTINUOUS
 10
307.8262690158
 20
51.8612169223
 11
317.5769695999
 21
51.8612169223
  0
LINE
  5
453
100
AcDbEntity
  8
606446690-000-00-ED1_FORMAT
100
AcDbLine
 62
2
  6
CONTINUOUS
 10
317.9768299493
 20
51.8612169223
 11
318.1654360589
 21
51.8612169223
  0
LINE
  5
454
100
AcDbEntity
  8
606446690-000-00-ED1_FORMAT
100
AcDbLine
 62
2
  6
CONTINUOUS
 10
320.1383810082
 20
51.8612169223
 11
320.5409560601
 21
51.8612169223
  0
LINE
  5
455
100
AcDbEntity
  8
606446690-000-00-ED1_FORMAT
100
AcDbLine
 62
2
  6
CONTINUOUS
 10
305.0850031937
 20
51.9612169223
 11
305.4976754456
 21
51.9612169223
  0
LINE
  5
456
100
AcDbEntity
  8
606446690-000-00-ED1_FORMAT
100
AcDbLine
 62
2
  6
CONTINUOUS
 10
306.5876624558
 20
51.9612169223
 11
306.7255507634
 21
51.9612169223
  0
LINE
  5
457
100
AcDbEntity
  8
606446690-000-00-ED1_FORMAT
100
AcDbLine
 62
2
  6
CONTINUOUS
 10
307.6275389575
 20
51.9612169223
 11
317.4415652387
 21
51.9612169223
  0
LINE
  5
458
100
AcDbEntity
  8
606446690-000-00-ED1_FORMAT
100
AcDbLine
 62
2
  6
CONTINUOUS
 10
317.6038131628
 20
51.9612169223
 11
317.7830596054
 21
51.9612169223
  0
LINE
  5
459
100
AcDbEntity
  8
606446690-000-00-ED1_FORMAT
100
AcDbLine
 62
2
  6
CONTINUOUS
 10
317.9768299493
 20
51.9612169223
 11
318.1654360589
 21
51.9612169223
  0
LINE
  5
45A
100
AcDbEntity
  8
606446690-000-00-ED1_FORMAT
100
AcDbLine
 62
2
  6
CONTINUOUS
 10
320.1117998511
 20
51.9612169223
 11
320.5409560601
 21
51.9612169223
  0
LINE
  5
45B
100
AcDbEntity
  8
606446690-000-00-ED1_FORMAT
100
AcDbLine
 62
2
  6
CONTINUOUS
 10
305.0850031937
 20
52.0612169223
 11
305.4976754456
 21
52.0612169223
  0
LINE
  5
45C
100
AcDbEntity
  8
606446690-000-00-ED1_FORMAT
100
AcDbLine
 62
2
  6
CONTINUOUS
 10
306.5876624558
 20
52.0612169223
 11
306.7254159642
 21
52.0612169223
  0
LINE
  5
45D
100
AcDbEntity
  8
606446690-000-00-ED1_FORMAT
100
AcDbLine
 62
2
  6
CONTINUOUS
 10
307.4288088992
 20
52.0612169223
 11
308.1737564759
 21
52.0612169223
  0
LINE
  5
45E
100
AcDbEntity
  8
606446690-000-00-ED1_FORMAT
100
AcDbLine
 62
2
  6
CONTINUOUS
 10
308.326562177
 20
52.0612169223
 11
316.9400481234
 21
52.0612169223
  0
LINE
  5
45F
100
AcDbEntity
  8
606446690-000-00-ED1_FORMAT
100
AcDbLine
 62
2
  6
CONTINUOUS
 10
317.5858212353
 20
52.0612169223
 11
318.1654360589
 21
52.0612169223
  0
LINE
  5
460
100
AcDbEntity
  8
606446690-000-00-ED1_FORMAT
100
AcDbLine
 62
2
  6
CONTINUOUS
 10
319.8719349704
 20
52.0612169223
 11
320.5409560601
 21
52.0612169223
  0
LINE
  5
461
100
AcDbEntity
  8
606446690-000-00-ED1_FORMAT
100
AcDbLine
 62
2
  6
CONTINUOUS
 10
305.0850031937
 20
52.1612169223
 11
305.4976754456
 21
52.1612169223
  0
LINE
  5
462
100
AcDbEntity
  8
606446690-000-00-ED1_FORMAT
100
AcDbLine
 62
2
  6
CONTINUOUS
 10
306.5876624558
 20
52.1612169223
 11
306.7252811651
 21
52.1612169223
  0
LINE
  5
463
100
AcDbEntity
  8
606446690-000-00-ED1_FORMAT
100
AcDbLine
 62
2
  6
CONTINUOUS
 10
307.2343142672
 20
52.1612169223
 11
307.3763373641
 21
52.1612169223
  0
LINE
  5
464
100
AcDbEntity
  8
606446690-000-00-ED1_FORMAT
100
AcDbLine
 62
2
  6
CONTINUOUS
 10
307.4487604473
 20
52.1612169223
 11
308.1737564759
 21
52.1612169223
  0
LINE
  5
465
100
AcDbEntity
  8
606446690-000-00-ED1_FORMAT
100
AcDbLine
 62
2
  6
CONTINUOUS
 10
308.7697562103
 20
52.1612169223
 11
316.510623604
 21
52.1612169223
  0
LINE
  5
466
100
AcDbEntity
  8
606446690-000-00-ED1_FORMAT
100
AcDbLine
 62
2
  6
CONTINUOUS
 10
317.5678293079
 20
52.1612169223
 11
318.1654360589
 21
52.1612169223
  0
LINE
  5
467
100
AcDbEntity
  8
606446690-000-00-ED1_FORMAT
100
AcDbLine
 62
2
  6
CONTINUOUS
 10
319.6320700897
 20
52.1612169223
 11
320.2983439148
 21
52.1612169223
  0
LINE
  5
468
100
AcDbEntity
  8
606446690-000-00-ED1_FORMAT
100
AcDbLine
 62
2
  6
CONTINUOUS
 10
305.0850031937
 20
52.2612169223
 11
305.4976754456
 21
52.2612169223
  0
LINE
  5
469
100
AcDbEntity
  8
606446690-000-00-ED1_FORMAT
100
AcDbLine
 62
2
  6
CONTINUOUS
 10
306.5876624558
 20
52.2612169223
 11
306.7251463659
 21
52.2612169223
  0
LINE
  5
46A
100
AcDbEntity
  8
606446690-000-00-ED1_FORMAT
100
AcDbLine
 62
2
  6
CONTINUOUS
 10
307.0339179266
 20
52.2612169223
 11
307.3358574011
 21
52.2612169223
  0
LINE
  5
46B
100
AcDbEntity
  8
606446690-000-00-ED1_FORMAT
100
AcDbLine
 62
2
  6
CONTINUOUS
 10
307.4899857745
 20
52.2612169223
 11
308.1737564759
 21
52.2612169223
  0
LINE
  5
46C
100
AcDbEntity
  8
606446690-000-00-ED1_FORMAT
100
AcDbLine
 62
2
  6
CONTINUOUS
 10
309.1516114228
 20
52.2612169223
 11
316.5030757086
 21
52.2612169223
  0
LINE
  5
46D
100
AcDbEntity
  8
606446690-000-00-ED1_FORMAT
100
AcDbLine
 62
2
  6
CONTINUOUS
 10
317.5498373805
 20
52.2612169223
 11
318.1654360589
 21
52.2612169223
  0
LINE
  5
46E
100
AcDbEntity
  8
606446690-000-00-ED1_FORMAT
100
AcDbLine
 62
2
  6
CONTINUOUS
 10
319.392205209
 20
52.2612169223
 11
320.0495911282
 21
52.2612169223
  0
LINE
  5
46F
100
AcDbEntity
  8
606446690-000-00-ED1_FORMAT
100
AcDbLine
 62
2
  6
CONTINUOUS
 10
305.0850031937
 20
52.3612169223
 11
305.4976754456
 21
52.3612169223
  0
LINE
  5
470
100
AcDbEntity
  8
606446690-000-00-ED1_FORMAT
100
AcDbLine
 62
2
  6
CONTINUOUS
 10
306.5876624558
 20
52.3612169223
 11
306.7250115668
 21
52.3612169223
  0
LINE
  5
471
100
AcDbEntity
  8
606446690-000-00-ED1_FORMAT
100
AcDbLine
 62
2
  6
CONTINUOUS
 10
306.833521586
 20
52.3612169223
 11
307.2953774381
 21
52.3612169223
  0
LINE
  5
472
100
AcDbEntity
  8
606446690-000-00-ED1_FORMAT
100
AcDbLine
 62
2
  6
CONTINUOUS
 10
307.5312111018
 20
52.3612169223
 11
308.1737564759
 21
52.3612169223
  0
LINE
  5
473
100
AcDbEntity
  8
606446690-000-00-ED1_FORMAT
100
AcDbLine
 62
2
  6
CONTINUOUS
 10
309.1516114228
 20
52.3612169223
 11
309.4866702568
 21
52.3612169223
  0
LINE
  5
474
100
AcDbEntity
  8
606446690-000-00-ED1_FORMAT
100
AcDbLine
 62
2
  6
CONTINUOUS
 10
309.7733400551
 20
52.3612169223
 11
315.1266453693
 21
52.3612169223
  0
LINE
  5
475
100
AcDbEntity
  8
606446690-000-00-ED1_FORMAT
100
AcDbLine
 62
2
  6
CONTINUOUS
 10
315.8559823799
 20
52.3612169223
 11
316.4955278133
 21
52.3612169223
  0
LINE
  5
476
100
AcDbEntity
  8
606446690-000-00-ED1_FORMAT
100
AcDbLine
 62
2
  6
CONTINUOUS
 10
317.5318454531
 20
52.3612169223
 11
318.1654360589
 21
52.3612169223
  0
LINE
  5
477
100
AcDbEntity
  8
606446690-000-00-ED1_FORMAT
100
AcDbLine
 62
2
  6
CONTINUOUS
 10
319.2068127099
 20
52.3612169223
 11
319.8008383416
 21
52.3612169223
  0
LINE
  5
478
100
AcDbEntity
  8
606446690-000-00-ED1_FORMAT
100
AcDbLine
 62
2
  6
CONTINUOUS
 10
305.0850031937
 20
52.4612169223
 11
305.4976754456
 21
52.4612169223
  0
LINE
  5
479
100
AcDbEntity
  8
606446690-000-00-ED1_FORMAT
100
AcDbLine
 62
2
  6
CONTINUOUS
 10
306.5876624558
 20
52.4612169223
 11
307.2548974752
 21
52.4612169223
  0
LINE
  5
47A
100
AcDbEntity
  8
606446690-000-00-ED1_FORMAT
100
AcDbLine
 62
2
  6
CONTINUOUS
 10
307.5724364291
 20
52.4612169223
 11
308.1737564759
 21
52.4612169223
  0
LINE
  5
47B
100
AcDbEntity
  8
606446690-000-00-ED1_FORMAT
100
AcDbLine
 62
2
  6
CONTINUOUS
 10
309.1516114228
 20
52.4612169223
 11
309.5134919565
 21
52.4612169223
  0
LINE
  5
47C
100
AcDbEntity
  8
606446690-000-00-ED1_FORMAT
100
AcDbLine
 62
2
  6
CONTINUOUS
 10
310.5298759797
 20
52.4612169223
 11
314.8545938863
 21
52.4612169223
  0
LINE
  5
47D
100
AcDbEntity
  8
606446690-000-00-ED1_FORMAT
100
AcDbLine
 62
2
  6
CONTINUOUS
 10
315.8741814988
 20
52.4612169223
 11
316.487979918
 21
52.4612169223
  0
LINE
  5
47E
100
AcDbEntity
  8
606446690-000-00-ED1_FORMAT
100
AcDbLine
 62
2
  6
CONTINUOUS
 10
317.5138535256
 20
52.4612169223
 11
318.1654360589
 21
52.4612169223
  0
LINE
  5
47F
100
AcDbEntity
  8
606446690-000-00-ED1_FORMAT
100
AcDbLine
 62
2
  6
CONTINUOUS
 10
319.2068127099
 20
52.4612169223
 11
319.559328991
 21
52.4612169223
  0
LINE
  5
480
100
AcDbEntity
  8
606446690-000-00-ED1_FORMAT
100
AcDbLine
 62
2
  6
CONTINUOUS
 10
305.0850031937
 20
52.5612169223
 11
305.4976754456
 21
52.5612169223
  0
LINE
  5
481
100
AcDbEntity
  8
606446690-000-00-ED1_FORMAT
100
AcDbLine
 62
2
  6
CONTINUOUS
 10
306.5876624558
 20
52.5612169223
 11
307.2144175122
 21
52.5612169223
  0
LINE
  5
482
100
AcDbEntity
  8
606446690-000-00-ED1_FORMAT
100
AcDbLine
 62
2
  6
CONTINUOUS
 10
307.6136617564
 20
52.5612169223
 11
308.1737564759
 21
52.5612169223
  0
LINE
  5
483
100
AcDbEntity
  8
606446690-000-00-ED1_FORMAT
100
AcDbLine
 62
2
  6
CONTINUOUS
 10
309.1516114228
 20
52.5612169223
 11
309.5403136563
 21
52.5612169223
  0
LINE
  5
484
100
AcDbEntity
  8
606446690-000-00-ED1_FORMAT
100
AcDbLine
 62
2
  6
CONTINUOUS
 10
310.5516753979
 20
52.5612169223
 11
311.515468729
 21
52.5612169223
  0
LINE
  5
485
100
AcDbEntity
  8
606446690-000-00-ED1_FORMAT
100
AcDbLine
 62
2
  6
CONTINUOUS
 10
312.3546934437
 20
52.5612169223
 11
312.7687535783
 21
52.5612169223
  0
LINE
  5
486
100
AcDbEntity
  8
606446690-000-00-ED1_FORMAT
100
AcDbLine
 62
2
  6
CONTINUOUS
 10
313.6490428391
 20
52.5612169223
 11
314.8766440871
 21
52.5612169223
  0
LINE
  5
487
100
AcDbEntity
  8
606446690-000-00-ED1_FORMAT
100
AcDbLine
 62
2
  6
CONTINUOUS
 10
315.8923806178
 20
52.5612169223
 11
316.4804320227
 21
52.5612169223
  0
LINE
  5
488
100
AcDbEntity
  8
606446690-000-00-ED1_FORMAT
100
AcDbLine
 62
2
  6
CONTINUOUS
 10
317.4958615982
 20
52.5612169223
 11
318.1654360589
 21
52.5612169223
  0
LINE
  5
489
100
AcDbEntity
  8
606446690-000-00-ED1_FORMAT
100
AcDbLine
 62
2
  6
CONTINUOUS
 10
319.2068127099
 20
52.5612169223
 11
319.559328991
 21
52.5612169223
  0
LINE
  5
48A
100
AcDbEntity
  8
606446690-000-00-ED1_FORMAT
100
AcDbLine
 62
2
  6
CONTINUOUS
 10
312.3943235597
 20
52.5618121345
 11
312.5391021943
 21
52.5618121345
  0
LINE
  5
48B
100
AcDbEntity
  8
606446690-000-00-ED1_FORMAT
100
AcDbLine
 62
2
  6
CONTINUOUS
 10
305.0850031937
 20
52.6612169223
 11
305.4976754456
 21
52.6612169223
  0
LINE
  5
48C
100
AcDbEntity
  8
606446690-000-00-ED1_FORMAT
100
AcDbLine
 62
2
  6
CONTINUOUS
 10
306.5876624558
 20
52.6612169223
 11
307.1739375492
 21
52.6612169223
  0
LINE
  5
48D
100
AcDbEntity
  8
606446690-000-00-ED1_FORMAT
100
AcDbLine
 62
2
  6
CONTINUOUS
 10
307.6548870837
 20
52.6612169223
 11
308.1737564759
 21
52.6612169223
  0
LINE
  5
48E
100
AcDbEntity
  8
606446690-000-00-ED1_FORMAT
100
AcDbLine
 62
2
  6
CONTINUOUS
 10
309.1516114228
 20
52.6612169223
 11
309.567135356
 21
52.6612169223
  0
LINE
  5
48F
100
AcDbEntity
  8
606446690-000-00-ED1_FORMAT
100
AcDbLine
 62
2
  6
CONTINUOUS
 10
310.5734748161
 20
52.6612169223
 11
311.4943348842
 21
52.6612169223
  0
LINE
  5
490
100
AcDbEntity
  8
606446690-000-00-ED1_FORMAT
100
AcDbLine
 62
2
  6
CONTINUOUS
 10
312.514745064
 20
52.6612169223
 11
312.7687535783
 21
52.6612169223
  0
LINE
  5
491
100
AcDbEntity
  8
606446690-000-00-ED1_FORMAT
100
AcDbLine
 62
2
  6
CONTINUOUS
 10
313.6488696546
 20
52.6612169223
 11
314.8986942879
 21
52.6612169223
  0
LINE
  5
492
100
AcDbEntity
  8
606446690-000-00-ED1_FORMAT
100
AcDbLine
 62
2
  6
CONTINUOUS
 10
315.9105797367
 20
52.6612169223
 11
316.0647338538
 21
52.6612169223
  0
LINE
  5
493
100
AcDbEntity
  8
606446690-000-00-ED1_FORMAT
100
AcDbLine
 62
2
  6
CONTINUOUS
 10
317.4778696708
 20
52.6612169223
 11
318.1654360589
 21
52.6612169223
  0
LINE
  5
494
100
AcDbEntity
  8
606446690-000-00-ED1_FORMAT
100
AcDbLine
 62
2
  6
CONTINUOUS
 10
319.2068127099
 20
52.6612169223
 11
319.559328991
 21
52.6612169223
  0
LINE
  5
495
100
AcDbEntity
  8
606446690-000-00-ED1_FORMAT
100
AcDbLine
 62
2
  6
CONTINUOUS
 10
305.0850031937
 20
52.7612169223
 11
305.4976754456
 21
52.7612169223
  0
LINE
  5
496
100
AcDbEntity
  8
606446690-000-00-ED1_FORMAT
100
AcDbLine
 62
2
  6
CONTINUOUS
 10
306.5876624558
 20
52.7612169223
 11
307.1334575862
 21
52.7612169223
  0
LINE
  5
497
100
AcDbEntity
  8
606446690-000-00-ED1_FORMAT
100
AcDbLine
 62
2
  6
CONTINUOUS
 10
307.696112411
 20
52.7612169223
 11
308.1737564759
 21
52.7612169223
  0
LINE
  5
498
100
AcDbEntity
  8
606446690-000-00-ED1_FORMAT
100
AcDbLine
 62
2
  6
CONTINUOUS
 10
309.1516114228
 20
52.7612169223
 11
309.5939570558
 21
52.7612169223
  0
LINE
  5
499
100
AcDbEntity
  8
606446690-000-00-ED1_FORMAT
100
AcDbLine
 62
2
  6
CONTINUOUS
 10
310.5952742343
 20
52.7612169223
 11
311.4732010394
 21
52.7612169223
  0
LINE
  5
49A
100
AcDbEntity
  8
606446690-000-00-ED1_FORMAT
100
AcDbLine
 62
2
  6
CONTINUOUS
 10
312.490242089
 20
52.7612169223
 11
312.7687535783
 21
52.7612169223
  0
LINE
  5
49B
100
AcDbEntity
  8
606446690-000-00-ED1_FORMAT
100
AcDbLine
 62
2
  6
CONTINUOUS
 10
313.6486964701
 20
52.7612169223
 11
314.9207444887
 21
52.7612169223
  0
LINE
  5
49C
100
AcDbEntity
  8
606446690-000-00-ED1_FORMAT
100
AcDbLine
 62
2
  6
CONTINUOUS
 10
317.4598777433
 20
52.7612169223
 11
318.1654360589
 21
52.7612169223
  0
LINE
  5
49D
100
AcDbEntity
  8
606446690-000-00-ED1_FORMAT
100
AcDbLine
 62
2
  6
CONTINUOUS
 10
319.2068127099
 20
52.7612169223
 11
319.559328991
 21
52.7612169223
  0
LINE
  5
49E
100
AcDbEntity
  8
606446690-000-00-ED1_FORMAT
100
AcDbLine
 62
2
  6
CONTINUOUS
 10
305.0850031937
 20
52.8612169223
 11
305.4976754456
 21
52.8612169223
  0
LINE
  5
49F
100
AcDbEntity
  8
606446690-000-00-ED1_FORMAT
100
AcDbLine
 62
2
  6
CONTINUOUS
 10
306.5876624558
 20
52.8612169223
 11
307.0929776233
 21
52.8612169223
  0
LINE
  5
4A0
100
AcDbEntity
  8
606446690-000-00-ED1_FORMAT
100
AcDbLine
 62
2
  6
CONTINUOUS
 10
307.7373377383
 20
52.8612169223
 11
308.1737564759
 21
52.8612169223
  0
LINE
  5
4A1
100
AcDbEntity
  8
606446690-000-00-ED1_FORMAT
100
AcDbLine
 62
2
  6
CONTINUOUS
 10
309.1516114228
 20
52.8612169223
 11
309.6207787556
 21
52.8612169223
  0
LINE
  5
4A2
100
AcDbEntity
  8
606446690-000-00-ED1_FORMAT
100
AcDbLine
 62
2
  6
CONTINUOUS
 10
310.6170736525
 20
52.8612169223
 11
311.4520671946
 21
52.8612169223
  0
LINE
  5
4A3
100
AcDbEntity
  8
606446690-000-00-ED1_FORMAT
100
AcDbLine
 62
2
  6
CONTINUOUS
 10
312.465739114
 20
52.8612169223
 11
312.7687535783
 21
52.8612169223
  0
LINE
  5
4A4
100
AcDbEntity
  8
606446690-000-00-ED1_FORMAT
100
AcDbLine
 62
2
  6
CONTINUOUS
 10
313.6485232857
 20
52.8612169223
 11
314.9427946895
 21
52.8612169223
  0
LINE
  5
4A5
100
AcDbEntity
  8
606446690-000-00-ED1_FORMAT
100
AcDbLine
 62
2
  6
CONTINUOUS
 10
317.4418858159
 20
52.8612169223
 11
318.1654360589
 21
52.8612169223
  0
LINE
  5
4A6
100
AcDbEntity
  8
606446690-000-00-ED1_FORMAT
100
AcDbLine
 62
2
  6
CONTINUOUS
 10
319.2068127099
 20
52.8612169223
 11
319.6369745096
 21
52.8612169223
  0
LINE
  5
4A7
100
AcDbEntity
  8
606446690-000-00-ED1_FORMAT
100
AcDbLine
 62
7
  6
CONTINUOUS
 10
410.0
 20
52.9546823745
 11
365.999998592
 21
52.9546823745
  0
LINE
  5
4A8
100
AcDbEntity
  8
606446690-000-00-ED1_FORMAT
100
AcDbLine
 62
2
  6
CONTINUOUS
 10
305.0850031937
 20
52.9612169223
 11
305.4976754456
 21
52.9612169223
  0
LINE
  5
4A9
100
AcDbEntity
  8
606446690-000-00-ED1_FORMAT
100
AcDbLine
 62
2
  6
CONTINUOUS
 10
306.5876624558
 20
52.9612169223
 11
307.0524976603
 21
52.9612169223
  0
LINE
  5
4AA
100
AcDbEntity
  8
606446690-000-00-ED1_FORMAT
100
AcDbLine
 62
2
  6
CONTINUOUS
 10
307.7785630656
 20
52.9612169223
 11
308.1737564759
 21
52.9612169223
  0
LINE
  5
4AB
100
AcDbEntity
  8
606446690-000-00-ED1_FORMAT
100
AcDbLine
 62
2
  6
CONTINUOUS
 10
309.1516114228
 20
52.9612169223
 11
309.6476004553
 21
52.9612169223
  0
LINE
  5
4AC
100
AcDbEntity
  8
606446690-000-00-ED1_FORMAT
100
AcDbLine
 62
2
  6
CONTINUOUS
 10
310.6388730707
 20
52.9612169223
 11
311.4309333498
 21
52.9612169223
  0
LINE
  5
4AD
100
AcDbEntity
  8
606446690-000-00-ED1_FORMAT
100
AcDbLine
 62
2
  6
CONTINUOUS
 10
312.441236139
 20
52.9612169223
 11
312.7687535783
 21
52.9612169223
  0
LINE
  5
4AE
100
AcDbEntity
  8
606446690-000-00-ED1_FORMAT
100
AcDbLine
 62
2
  6
CONTINUOUS
 10
313.6483501012
 20
52.9612169223
 11
314.9648448903
 21
52.9612169223
  0
LINE
  5
4AF
100
AcDbEntity
  8
606446690-000-00-ED1_FORMAT
100
AcDbLine
 62
2
  6
CONTINUOUS
 10
317.4238938885
 20
52.9612169223
 11
318.1654360589
 21
52.9612169223
  0
LINE
  5
4B0
100
AcDbEntity
  8
606446690-000-00-ED1_FORMAT
100
AcDbLine
 62
2
  6
CONTINUOUS
 10
319.2068127099
 20
52.9612169223
 11
319.8430403031
 21
52.9612169223
  0
LINE
  5
4B1
100
AcDbEntity
  8
606446690-000-00-ED1_FORMAT
100
AcDbLine
 62
2
  6
CONTINUOUS
 10
305.0850031937
 20
53.0612169223
 11
305.4976754456
 21
53.0612169223
  0
LINE
  5
4B2
100
AcDbEntity
  8
606446690-000-00-ED1_FORMAT
100
AcDbLine
 62
2
  6
CONTINUOUS
 10
306.5876624558
 20
53.0612169223
 11
307.0120176973
 21
53.0612169223
  0
LINE
  5
4B3
100
AcDbEntity
  8
606446690-000-00-ED1_FORMAT
100
AcDbLine
 62
2
  6
CONTINUOUS
 10
307.8197883929
 20
53.0612169223
 11
308.1737564759
 21
53.0612169223
  0
LINE
  5
4B4
100
AcDbEntity
  8
606446690-000-00-ED1_FORMAT
100
AcDbLine
 62
2
  6
CONTINUOUS
 10
309.1516114228
 20
53.0612169223
 11
309.6744221551
 21
53.0612169223
  0
LINE
  5
4B5
100
AcDbEntity
  8
606446690-000-00-ED1_FORMAT
100
AcDbLine
 62
2
  6
CONTINUOUS
 10
310.6606724889
 20
53.0612169223
 11
311.409799505
 21
53.0612169223
  0
LINE
  5
4B6
100
AcDbEntity
  8
606446690-000-00-ED1_FORMAT
100
AcDbLine
 62
2
  6
CONTINUOUS
 10
312.416733164
 20
53.0612169223
 11
312.7687535783
 21
53.0612169223
  0
LINE
  5
4B7
100
AcDbEntity
  8
606446690-000-00-ED1_FORMAT
100
AcDbLine
 62
2
  6
CONTINUOUS
 10
313.6481769167
 20
53.0612169223
 11
314.9868950911
 21
53.0612169223
  0
LINE
  5
4B8
100
AcDbEntity
  8
606446690-000-00-ED1_FORMAT
100
AcDbLine
 62
2
  6
CONTINUOUS
 10
317.405901961
 20
53.0612169223
 11
318.1654360589
 21
53.0612169223
  0
LINE
  5
4B9
100
AcDbEntity
  8
606446690-000-00-ED1_FORMAT
100
AcDbLine
 62
2
  6
CONTINUOUS
 10
319.2068127099
 20
53.0612169223
 11
320.0491060967
 21
53.0612169223
  0
LINE
  5
4BA
100
AcDbEntity
  8
606446690-000-00-ED1_FORMAT
100
AcDbLine
 62
2
  6
CONTINUOUS
 10
305.0850031937
 20
53.1612169223
 11
305.4976754456
 21
53.1612169223
  0
LINE
  5
4BB
100
AcDbEntity
  8
606446690-000-00-ED1_FORMAT
100
AcDbLine
 62
2
  6
CONTINUOUS
 10
306.5876624558
 20
53.1612169223
 11
306.9715377343
 21
53.1612169223
  0
LINE
  5
4BC
100
AcDbEntity
  8
606446690-000-00-ED1_FORMAT
100
AcDbLine
 62
2
  6
CONTINUOUS
 10
307.8610137202
 20
53.1612169223
 11
308.1737564759
 21
53.1612169223
  0
LINE
  5
4BD
100
AcDbEntity
  8
606446690-000-00-ED1_FORMAT
100
AcDbLine
 62
2
  6
CONTINUOUS
 10
309.1516114228
 20
53.1612169223
 11
309.7012438548
 21
53.1612169223
  0
LINE
  5
4BE
100
AcDbEntity
  8
606446690-000-00-ED1_FORMAT
100
AcDbLine
 62
2
  6
CONTINUOUS
 10
310.7347689956
 20
53.1612169223
 11
311.3886656602
 21
53.1612169223
  0
LINE
  5
4BF
100
AcDbEntity
  8
606446690-000-00-ED1_FORMAT
100
AcDbLine
 62
2
  6
CONTINUOUS
 10
312.3922301889
 20
53.1612169223
 11
312.7687535783
 21
53.1612169223
  0
LINE
  5
4C0
100
AcDbEntity
  8
606446690-000-00-ED1_FORMAT
100
AcDbLine
 62
2
  6
CONTINUOUS
 10
313.6480037323
 20
53.1612169223
 11
315.0089452919
 21
53.1612169223
  0
LINE
  5
4C1
100
AcDbEntity
  8
606446690-000-00-ED1_FORMAT
100
AcDbLine
 62
2
  6
CONTINUOUS
 10
317.3879100336
 20
53.1612169223
 11
318.1654360589
 21
53.1612169223
  0
LINE
  5
4C2
100
AcDbEntity
  8
606446690-000-00-ED1_FORMAT
100
AcDbLine
 62
2
  6
CONTINUOUS
 10
319.2068127099
 20
53.1612169223
 11
320.2551718903
 21
53.1612169223
  0
LINE
  5
4C3
100
AcDbEntity
  8
606446690-000-00-ED1_FORMAT
100
AcDbLine
 62
2
  6
CONTINUOUS
 10
305.0440585598
 20
53.2612169223
 11
305.4976754456
 21
53.2612169223
  0
LINE
  5
4C4
100
AcDbEntity
  8
606446690-000-00-ED1_FORMAT
100
AcDbLine
 62
2
  6
CONTINUOUS
 10
306.5876624558
 20
53.2612169223
 11
306.9310577713
 21
53.2612169223
  0
LINE
  5
4C5
100
AcDbEntity
  8
606446690-000-00-ED1_FORMAT
100
AcDbLine
 62
2
  6
CONTINUOUS
 10
307.9022390474
 20
53.2612169223
 11
308.1737564759
 21
53.2612169223
  0
LINE
  5
4C6
100
AcDbEntity
  8
606446690-000-00-ED1_FORMAT
100
AcDbLine
 62
2
  6
CONTINUOUS
 10
309.1516114228
 20
53.2612169223
 11
309.7280655546
 21
53.2612169223
  0
LINE
  5
4C7
100
AcDbEntity
  8
606446690-000-00-ED1_FORMAT
100
AcDbLine
 62
2
  6
CONTINUOUS
 10
312.3677272139
 20
53.2612169223
 11
312.7687535783
 21
53.2612169223
  0
LINE
  5
4C8
100
AcDbEntity
  8
606446690-000-00-ED1_FORMAT
100
AcDbLine
 62
2
  6
CONTINUOUS
 10
313.8898374299
 20
53.2612169223
 11
315.0309954927
 21
53.2612169223
  0
LINE
  5
4C9
100
AcDbEntity
  8
606446690-000-00-ED1_FORMAT
100
AcDbLine
 62
2
  6
CONTINUOUS
 10
317.3699181062
 20
53.2612169223
 11
318.1654360589
 21
53.2612169223
  0
LINE
  5
4CA
100
AcDbEntity
  8
606446690-000-00-ED1_FORMAT
100
AcDbLine
 62
2
  6
CONTINUOUS
 10
319.2068127099
 20
53.2612169223
 11
320.4612376839
 21
53.2612169223
  0
LINE
  5
4CB
100
AcDbEntity
  8
606446690-000-00-ED1_FORMAT
100
AcDbLine
 62
2
  6
CONTINUOUS
 10
304.8453278365
 20
53.3612169223
 11
305.4976754456
 21
53.3612169223
  0
LINE
  5
4CC
100
AcDbEntity
  8
606446690-000-00-ED1_FORMAT
100
AcDbLine
 62
2
  6
CONTINUOUS
 10
306.5876624558
 20
53.3612169223
 11
306.8905778084
 21
53.3612169223
  0
LINE
  5
4CD
100
AcDbEntity
  8
606446690-000-00-ED1_FORMAT
100
AcDbLine
 62
2
  6
CONTINUOUS
 10
307.9434643747
 20
53.3612169223
 11
308.1737564759
 21
53.3612169223
  0
LINE
  5
4CE
100
AcDbEntity
  8
606446690-000-00-ED1_FORMAT
100
AcDbLine
 62
2
  6
CONTINUOUS
 10
309.1516114228
 20
53.3612169223
 11
309.7548872544
 21
53.3612169223
  0
LINE
  5
4CF
100
AcDbEntity
  8
606446690-000-00-ED1_FORMAT
100
AcDbLine
 62
2
  6
CONTINUOUS
 10
312.3432242389
 20
53.3612169223
 11
312.7687535783
 21
53.3612169223
  0
LINE
  5
4D0
100
AcDbEntity
  8
606446690-000-00-ED1_FORMAT
100
AcDbLine
 62
2
  6
CONTINUOUS
 10
314.3042703099
 20
53.3612169223
 11
315.0530456934
 21
53.3612169223
  0
LINE
  5
4D1
100
AcDbEntity
  8
606446690-000-00-ED1_FORMAT
100
AcDbLine
 62
2
  6
CONTINUOUS
 10
317.3519261787
 20
53.3612169223
 11
318.1654360589
 21
53.3612169223
  0
LINE
  5
4D2
100
AcDbEntity
  8
606446690-000-00-ED1_FORMAT
100
AcDbLine
 62
2
  6
CONTINUOUS
 10
319.2068127099
 20
53.3612169223
 11
320.6673034775
 21
53.3612169223
  0
LINE
  5
4D3
100
AcDbEntity
  8
606446690-000-00-ED1_FORMAT
100
AcDbLine
 62
2
  6
CONTINUOUS
 10
304.6465971132
 20
53.4612169223
 11
305.4976754456
 21
53.4612169223
  0
LINE
  5
4D4
100
AcDbEntity
  8
606446690-000-00-ED1_FORMAT
100
AcDbLine
 62
2
  6
CONTINUOUS
 10
306.5876624558
 20
53.4612169223
 11
306.8500978454
 21
53.4612169223
  0
LINE
  5
4D5
100
AcDbEntity
  8
606446690-000-00-ED1_FORMAT
100
AcDbLine
 62
2
  6
CONTINUOUS
 10
307.984689702
 20
53.4612169223
 11
308.1737564759
 21
53.4612169223
  0
LINE
  5
4D6
100
AcDbEntity
  8
606446690-000-00-ED1_FORMAT
100
AcDbLine
 62
2
  6
CONTINUOUS
 10
309.1516114228
 20
53.4612169223
 11
309.7817089541
 21
53.4612169223
  0
LINE
  5
4D7
100
AcDbEntity
  8
606446690-000-00-ED1_FORMAT
100
AcDbLine
 62
2
  6
CONTINUOUS
 10
312.3187212639
 20
53.4612169223
 11
312.7687535783
 21
53.4612169223
  0
LINE
  5
4D8
100
AcDbEntity
  8
606446690-000-00-ED1_FORMAT
100
AcDbLine
 62
2
  6
CONTINUOUS
 10
314.4961822423
 20
53.4612169223
 11
315.0750958942
 21
53.4612169223
  0
LINE
  5
4D9
100
AcDbEntity
  8
606446690-000-00-ED1_FORMAT
100
AcDbLine
 62
2
  6
CONTINUOUS
 10
317.3339342513
 20
53.4612169223
 11
318.1654360589
 21
53.4612169223
  0
LINE
  5
4DA
100
AcDbEntity
  8
606446690-000-00-ED1_FORMAT
100
AcDbLine
 62
2
  6
CONTINUOUS
 10
319.2068127099
 20
53.4612169223
 11
320.873369271
 21
53.4612169223
  0
LINE
  5
4DB
100
AcDbEntity
  8
606446690-000-00-ED1_FORMAT
100
AcDbLine
 62
2
  6
CONTINUOUS
 10
304.4478663899
 20
53.5612169223
 11
305.4976754456
 21
53.5612169223
  0
LINE
  5
4DC
100
AcDbEntity
  8
606446690-000-00-ED1_FORMAT
100
AcDbLine
 62
2
  6
CONTINUOUS
 10
306.5876624558
 20
53.5612169223
 11
306.8096178824
 21
53.5612169223
  0
LINE
  5
4DD
100
AcDbEntity
  8
606446690-000-00-ED1_FORMAT
100
AcDbLine
 62
2
  6
CONTINUOUS
 10
308.0259150293
 20
53.5612169223
 11
308.1737564759
 21
53.5612169223
  0
LINE
  5
4DE
100
AcDbEntity
  8
606446690-000-00-ED1_FORMAT
100
AcDbLine
 62
2
  6
CONTINUOUS
 10
309.1516114228
 20
53.5612169223
 11
309.8085306539
 21
53.5612169223
  0
LINE
  5
4DF
100
AcDbEntity
  8
606446690-000-00-ED1_FORMAT
100
AcDbLine
 62
2
  6
CONTINUOUS
 10
312.2942182889
 20
53.5612169223
 11
312.7687535783
 21
53.5612169223
  0
LINE
  5
4E0
100
AcDbEntity
  8
606446690-000-00-ED1_FORMAT
100
AcDbLine
 62
2
  6
CONTINUOUS
 10
314.6285894584
 20
53.5612169223
 11
315.097146095
 21
53.5612169223
  0
LINE
  5
4E1
100
AcDbEntity
  8
606446690-000-00-ED1_FORMAT
100
AcDbLine
 62
2
  6
CONTINUOUS
 10
317.3159423239
 20
53.5612169223
 11
318.1654360589
 21
53.5612169223
  0
LINE
  5
4E2
100
AcDbEntity
  8
606446690-000-00-ED1_FORMAT
100
AcDbLine
 62
2
  6
CONTINUOUS
 10
319.2068127099
 20
53.5612169223
 11
321.0794350646
 21
53.5612169223
  0
LINE
  5
4E3
100
AcDbEntity
  8
606446690-000-00-ED1_FORMAT
100
AcDbLine
 62
2
  6
CONTINUOUS
 10
304.2491356666
 20
53.6612169223
 11
305.4976754456
 21
53.6612169223
  0
LINE
  5
4E4
100
AcDbEntity
  8
606446690-000-00-ED1_FORMAT
100
AcDbLine
 62
2
  6
CONTINUOUS
 10
306.5876624558
 20
53.6612169223
 11
306.7691379194
 21
53.6612169223
  0
LINE
  5
4E5
100
AcDbEntity
  8
606446690-000-00-ED1_FORMAT
100
AcDbLine
 62
2
  6
CONTINUOUS
 10
308.0671403566
 20
53.6612169223
 11
308.1737564759
 21
53.6612169223
  0
LINE
  5
4E6
100
AcDbEntity
  8
606446690-000-00-ED1_FORMAT
100
AcDbLine
 62
2
  6
CONTINUOUS
 10
309.1516114228
 20
53.6612169223
 11
309.8353523536
 21
53.6612169223
  0
LINE
  5
4E7
100
AcDbEntity
  8
606446690-000-00-ED1_FORMAT
100
AcDbLine
 62
2
  6
CONTINUOUS
 10
312.2697153139
 20
53.6612169223
 11
312.7687535783
 21
53.6612169223
  0
LINE
  5
4E8
100
AcDbEntity
  8
606446690-000-00-ED1_FORMAT
100
AcDbLine
 62
2
  6
CONTINUOUS
 10
314.7313458744
 20
53.6612169223
 11
315.1191962958
 21
53.6612169223
  0
LINE
  5
4E9
100
AcDbEntity
  8
606446690-000-00-ED1_FORMAT
100
AcDbLine
 62
2
  6
CONTINUOUS
 10
316.0266224027
 20
53.6612169223
 11
316.4071912766
 21
53.6612169223
  0
LINE
  5
4EA
100
AcDbEntity
  8
606446690-000-00-ED1_FORMAT
100
AcDbLine
 62
2
  6
CONTINUOUS
 10
317.2979503964
 20
53.6612169223
 11
318.1654360589
 21
53.6612169223
  0
LINE
  5
4EB
100
AcDbEntity
  8
606446690-000-00-ED1_FORMAT
100
AcDbLine
 62
2
  6
CONTINUOUS
 10
319.2068127099
 20
53.6612169223
 11
321.2855008582
 21
53.6612169223
  0
LINE
  5
4EC
100
AcDbEntity
  8
606446690-000-00-ED1_FORMAT
100
AcDbLine
 62
2
  6
CONTINUOUS
 10
304.0504049433
 20
53.7612169223
 11
305.4976754456
 21
53.7612169223
  0
LINE
  5
4ED
100
AcDbEntity
  8
606446690-000-00-ED1_FORMAT
100
AcDbLine
 62
2
  6
CONTINUOUS
 10
306.5876624558
 20
53.7612169223
 11
306.7286579565
 21
53.7612169223
  0
LINE
  5
4EE
100
AcDbEntity
  8
606446690-000-00-ED1_FORMAT
100
AcDbLine
 62
2
  6
CONTINUOUS
 10
308.1083656839
 20
53.7612169223
 11
308.1737564759
 21
53.7612169223
  0
LINE
  5
4EF
100
AcDbEntity
  8
606446690-000-00-ED1_FORMAT
100
AcDbLine
 62
2
  6
CONTINUOUS
 10
309.1516114228
 20
53.7612169223
 11
309.8621740534
 21
53.7612169223
  0
LINE
  5
4F0
100
AcDbEntity
  8
606446690-000-00-ED1_FORMAT
100
AcDbLine
 62
2
  6
CONTINUOUS
 10
312.2452123389
 20
53.7612169223
 11
312.7687535783
 21
53.7612169223
  0
LINE
  5
4F1
100
AcDbEntity
  8
606446690-000-00-ED1_FORMAT
100
AcDbLine
 62
2
  6
CONTINUOUS
 10
314.8062069384
 20
53.7612169223
 11
315.1412464966
 21
53.7612169223
  0
LINE
  5
4F2
100
AcDbEntity
  8
606446690-000-00-ED1_FORMAT
100
AcDbLine
 62
2
  6
CONTINUOUS
 10
316.0181043406
 20
53.7612169223
 11
316.3923233886
 21
53.7612169223
  0
LINE
  5
4F3
100
AcDbEntity
  8
606446690-000-00-ED1_FORMAT
100
AcDbLine
 62
2
  6
CONTINUOUS
 10
317.279958469
 20
53.7612169223
 11
318.1654360589
 21
53.7612169223
  0
LINE
  5
4F4
100
AcDbEntity
  8
606446690-000-00-ED1_FORMAT
100
AcDbLine
 62
2
  6
CONTINUOUS
 10
319.2068127099
 20
53.7612169223
 11
321.4915666518
 21
53.7612169223
  0
LINE
  5
4F5
100
AcDbEntity
  8
606446690-000-00-ED1_FORMAT
100
AcDbLine
 62
2
  6
CONTINUOUS
 10
303.85167422
 20
53.8612169223
 11
305.4976754456
 21
53.8612169223
  0
LINE
  5
4F6
100
AcDbEntity
  8
606446690-000-00-ED1_FORMAT
100
AcDbLine
 62
2
  6
CONTINUOUS
 10
306.5876624558
 20
53.8612169223
 11
306.6881779935
 21
53.8612169223
  0
LINE
  5
4F7
100
AcDbEntity
  8
606446690-000-00-ED1_FORMAT
100
AcDbLine
 62
2
  6
CONTINUOUS
 10
308.1495910112
 20
53.8612169223
 11
308.1737564759
 21
53.8612169223
  0
LINE
  5
4F8
100
AcDbEntity
  8
606446690-000-00-ED1_FORMAT
100
AcDbLine
 62
2
  6
CONTINUOUS
 10
309.1516114228
 20
53.8612169223
 11
309.8889957532
 21
53.8612169223
  0
LINE
  5
4F9
100
AcDbEntity
  8
606446690-000-00-ED1_FORMAT
100
AcDbLine
 62
2
  6
CONTINUOUS
 10
312.2207093639
 20
53.8612169223
 11
312.7687535783
 21
53.8612169223
  0
LINE
  5
4FA
100
AcDbEntity
  8
606446690-000-00-ED1_FORMAT
100
AcDbLine
 62
2
  6
CONTINUOUS
 10
314.8663911181
 20
53.8612169223
 11
315.1632966974
 21
53.8612169223
  0
LINE
  5
4FB
100
AcDbEntity
  8
606446690-000-00-ED1_FORMAT
100
AcDbLine
 62
2
  6
CONTINUOUS
 10
316.0320994653
 20
53.8612169223
 11
316.3774555006
 21
53.8612169223
  0
LINE
  5
4FC
100
AcDbEntity
  8
606446690-000-00-ED1_FORMAT
100
AcDbLine
 62
2
  6
CONTINUOUS
 10
317.2619665416
 20
53.8612169223
 11
318.1654360589
 21
53.8612169223
  0
LINE
  5
4FD
100
AcDbEntity
  8
606446690-000-00-ED1_FORMAT
100
AcDbLine
 62
2
  6
CONTINUOUS
 10
319.2068127099
 20
53.8612169223
 11
321.6976324454
 21
53.8612169223
  0
LINE
  5
4FE
100
AcDbEntity
  8
606446690-000-00-ED1_FORMAT
100
AcDbLine
 62
2
  6
CONTINUOUS
 10
303.6529434967
 20
53.9612169223
 11
305.4976754456
 21
53.9612169223
  0
LINE
  5
4FF
100
AcDbEntity
  8
606446690-000-00-ED1_FORMAT
100
AcDbLine
 62
2
  6
CONTINUOUS
 10
306.5876624558
 20
53.9612169223
 11
306.6476980305
 21
53.9612169223
  0
LINE
  5
500
100
AcDbEntity
  8
606446690-000-00-ED1_FORMAT
100
AcDbLine
 62
2
  6
CONTINUOUS
 10
309.1516114228
 20
53.9612169223
 11
309.9158174529
 21
53.9612169223
  0
LINE
  5
501
100
AcDbEntity
  8
606446690-000-00-ED1_FORMAT
100
AcDbLine
 62
2
  6
CONTINUOUS
 10
310.768326453
 20
53.9612169223
 11
311.2820181671
 21
53.9612169223
  0
LINE
  5
502
100
AcDbEntity
  8
606446690-000-00-ED1_FORMAT
100
AcDbLine
 62
2
  6
CONTINUOUS
 10
312.1962063889
 20
53.9612169223
 11
312.7687535783
 21
53.9612169223
  0
LINE
  5
503
100
AcDbEntity
  8
606446690-000-00-ED1_FORMAT
100
AcDbLine
 62
2
  6
CONTINUOUS
 10
314.9130254495
 20
53.9612169223
 11
315.1853468982
 21
53.9612169223
  0
LINE
  5
504
100
AcDbEntity
  8
606446690-000-00-ED1_FORMAT
100
AcDbLine
 62
2
  6
CONTINUOUS
 10
316.0460945899
 20
53.9612169223
 11
316.3625876126
 21
53.9612169223
  0
LINE
  5
505
100
AcDbEntity
  8
606446690-000-00-ED1_FORMAT
100
AcDbLine
 62
2
  6
CONTINUOUS
 10
317.2439746141
 20
53.9612169223
 11
318.1654360589
 21
53.9612169223
  0
LINE
  5
506
100
AcDbEntity
  8
606446690-000-00-ED1_FORMAT
100
AcDbLine
 62
2
  6
CONTINUOUS
 10
319.2068127099
 20
53.9612169223
 11
321.9036982389
 21
53.9612169223
  0
LINE
  5
507
100
AcDbEntity
  8
606446690-000-00-ED1_FORMAT
100
AcDbLine
 62
2
  6
CONTINUOUS
 10
303.4542127734
 20
54.0612169223
 11
305.4976754456
 21
54.0612169223
  0
LINE
  5
508
100
AcDbEntity
  8
606446690-000-00-ED1_FORMAT
100
AcDbLine
 62
2
  6
CONTINUOUS
 10
306.5876624558
 20
54.0612169223
 11
306.6072180675
 21
54.0612169223
  0
LINE
  5
509
100
AcDbEntity
  8
606446690-000-00-ED1_FORMAT
100
AcDbLine
 62
2
  6
CONTINUOUS
 10
309.1516114228
 20
54.0612169223
 11
309.9426391527
 21
54.0612169223
  0
LINE
  5
50A
100
AcDbEntity
  8
606446690-000-00-ED1_FORMAT
100
AcDbLine
 62
2
  6
CONTINUOUS
 10
310.7902723221
 20
54.0612169223
 11
311.2610721888
 21
54.0612169223
  0
LINE
  5
50B
100
AcDbEntity
  8
606446690-000-00-ED1_FORMAT
100
AcDbLine
 62
2
  6
CONTINUOUS
 10
312.1717034139
 20
54.0612169223
 11
312.7687535783
 21
54.0612169223
  0
LINE
  5
50C
100
AcDbEntity
  8
606446690-000-00-ED1_FORMAT
100
AcDbLine
 62
2
  6
CONTINUOUS
 10
313.625958211
 20
54.0612169223
 11
313.8935627257
 21
54.0612169223
  0
LINE
  5
50D
100
AcDbEntity
  8
606446690-000-00-ED1_FORMAT
100
AcDbLine
 62
2
  6
CONTINUOUS
 10
314.9511286237
 20
54.0612169223
 11
315.207397099
 21
54.0612169223
  0
LINE
  5
50E
100
AcDbEntity
  8
606446690-000-00-ED1_FORMAT
100
AcDbLine
 62
2
  6
CONTINUOUS
 10
316.0600897146
 20
54.0612169223
 11
316.3477197245
 21
54.0612169223
  0
LINE
  5
50F
100
AcDbEntity
  8
606446690-000-00-ED1_FORMAT
100
AcDbLine
 62
2
  6
CONTINUOUS
 10
317.2259826867
 20
54.0612169223
 11
318.1654360589
 21
54.0612169223
  0
LINE
  5
510
100
AcDbEntity
  8
606446690-000-00-ED1_FORMAT
100
AcDbLine
 62
2
  6
CONTINUOUS
 10
319.2068127099
 20
54.0612169223
 11
322.1097640325
 21
54.0612169223
  0
LINE
  5
511
100
AcDbEntity
  8
606446690-000-00-ED1_FORMAT
100
AcDbLine
 62
2
  6
CONTINUOUS
 10
303.2554820501
 20
54.1612169223
 11
305.4976754456
 21
54.1612169223
  0
LINE
  5
512
100
AcDbEntity
  8
606446690-000-00-ED1_FORMAT
100
AcDbLine
 62
2
  6
CONTINUOUS
 10
309.1516114228
 20
54.1612169223
 11
309.9694608525
 21
54.1612169223
  0
LINE
  5
513
100
AcDbEntity
  8
606446690-000-00-ED1_FORMAT
100
AcDbLine
 62
2
  6
CONTINUOUS
 10
310.8122181913
 20
54.1612169223
 11
311.2401262105
 21
54.1612169223
  0
LINE
  5
514
100
AcDbEntity
  8
606446690-000-00-ED1_FORMAT
100
AcDbLine
 62
2
  6
CONTINUOUS
 10
312.1472004389
 20
54.1612169223
 11
312.7687535783
 21
54.1612169223
  0
LINE
  5
515
100
AcDbEntity
  8
606446690-000-00-ED1_FORMAT
100
AcDbLine
 62
2
  6
CONTINUOUS
 10
313.6255064219
 20
54.1612169223
 11
314.0790479951
 21
54.1612169223
  0
LINE
  5
516
100
AcDbEntity
  8
606446690-000-00-ED1_FORMAT
100
AcDbLine
 62
2
  6
CONTINUOUS
 10
314.9838524179
 20
54.1612169223
 11
315.2294472997
 21
54.1612169223
  0
LINE
  5
517
100
AcDbEntity
  8
606446690-000-00-ED1_FORMAT
100
AcDbLine
 62
2
  6
CONTINUOUS
 10
316.0740848392
 20
54.1612169223
 11
316.3328518365
 21
54.1612169223
  0
LINE
  5
518
100
AcDbEntity
  8
606446690-000-00-ED1_FORMAT
100
AcDbLine
 62
2
  6
CONTINUOUS
 10
317.2079907593
 20
54.1612169223
 11
318.1654360589
 21
54.1612169223
  0
LINE
  5
519
100
AcDbEntity
  8
606446690-000-00-ED1_FORMAT
100
AcDbLine
 62
2
  6
CONTINUOUS
 10
319.2068127099
 20
54.1612169223
 11
322.3158298261
 21
54.1612169223
  0
LINE
  5
51A
100
AcDbEntity
  8
606446690-000-00-ED1_FORMAT
100
AcDbLine
 62
2
  6
CONTINUOUS
 10
303.1527285403
 20
54.2612169223
 11
305.4976754456
 21
54.2612169223
  0
LINE
  5
51B
100
AcDbEntity
  8
606446690-000-00-ED1_FORMAT
100
AcDbLine
 62
2
  6
CONTINUOUS
 10
309.1516114228
 20
54.2612169223
 11
309.9962825522
 21
54.2612169223
  0
LINE
  5
51C
100
AcDbEntity
  8
606446690-000-00-ED1_FORMAT
100
AcDbLine
 62
2
  6
CONTINUOUS
 10
310.8341640604
 20
54.2612169223
 11
311.2191802322
 21
54.2612169223
  0
LINE
  5
51D
100
AcDbEntity
  8
606446690-000-00-ED1_FORMAT
100
AcDbLine
 62
2
  6
CONTINUOUS
 10
312.1226974639
 20
54.2612169223
 11
312.7687535783
 21
54.2612169223
  0
LINE
  5
51E
100
AcDbEntity
  8
606446690-000-00-ED1_FORMAT
100
AcDbLine
 62
2
  6
CONTINUOUS
 10
313.6250546327
 20
54.2612169223
 11
314.1633385198
 21
54.2612169223
  0
LINE
  5
51F
100
AcDbEntity
  8
606446690-000-00-ED1_FORMAT
100
AcDbLine
 62
2
  6
CONTINUOUS
 10
315.0064005294
 20
54.2612169223
 11
315.2514975005
 21
54.2612169223
  0
LINE
  5
520
100
AcDbEntity
  8
606446690-000-00-ED1_FORMAT
100
AcDbLine
 62
2
  6
CONTINUOUS
 10
316.0880799638
 20
54.2612169223
 11
316.3179839485
 21
54.2612169223
  0
LINE
  5
521
100
AcDbEntity
  8
606446690-000-00-ED1_FORMAT
100
AcDbLine
 62
2
  6
CONTINUOUS
 10
317.1899988319
 20
54.2612169223
 11
318.1654360589
 21
54.2612169223
  0
LINE
  5
522
100
AcDbEntity
  8
606446690-000-00-ED1_FORMAT
100
AcDbLine
 62
2
  6
CONTINUOUS
 10
319.2068127099
 20
54.2612169223
 11
322.4223775784
 21
54.2612169223
  0
LINE
  5
523
100
AcDbEntity
  8
606446690-000-00-ED1_FORMAT
100
AcDbLine
 62
2
  6
CONTINUOUS
 10
303.3670363022
 20
54.3612169223
 11
305.4976754456
 21
54.3612169223
  0
LINE
  5
524
100
AcDbEntity
  8
606446690-000-00-ED1_FORMAT
100
AcDbLine
 62
2
  6
CONTINUOUS
 10
309.1516114228
 20
54.3612169223
 11
310.023104252
 21
54.3612169223
  0
LINE
  5
525
100
AcDbEntity
  8
606446690-000-00-ED1_FORMAT
100
AcDbLine
 62
2
  6
CONTINUOUS
 10
310.8561099295
 20
54.3612169223
 11
311.1982342538
 21
54.3612169223
  0
LINE
  5
526
100
AcDbEntity
  8
606446690-000-00-ED1_FORMAT
100
AcDbLine
 62
2
  6
CONTINUOUS
 10
312.0981944889
 20
54.3612169223
 11
312.7687535783
 21
54.3612169223
  0
LINE
  5
527
100
AcDbEntity
  8
606446690-000-00-ED1_FORMAT
100
AcDbLine
 62
2
  6
CONTINUOUS
 10
313.6246028436
 20
54.3612169223
 11
314.2089542591
 21
54.3612169223
  0
LINE
  5
528
100
AcDbEntity
  8
606446690-000-00-ED1_FORMAT
100
AcDbLine
 62
2
  6
CONTINUOUS
 10
315.0288327876
 20
54.3612169223
 11
315.2735477013
 21
54.3612169223
  0
LINE
  5
529
100
AcDbEntity
  8
606446690-000-00-ED1_FORMAT
100
AcDbLine
 62
2
  6
CONTINUOUS
 10
316.1020750885
 20
54.3612169223
 11
316.3031160605
 21
54.3612169223
  0
LINE
  5
52A
100
AcDbEntity
  8
606446690-000-00-ED1_FORMAT
100
AcDbLine
 62
2
  6
CONTINUOUS
 10
317.1720069044
 20
54.3612169223
 11
318.1654360589
 21
54.3612169223
  0
LINE
  5
52B
100
AcDbEntity
  8
606446690-000-00-ED1_FORMAT
100
AcDbLine
 62
2
  6
CONTINUOUS
 10
319.2068127099
 20
54.3612169223
 11
322.2001669143
 21
54.3612169223
  0
LINE
  5
52C
100
AcDbEntity
  8
606446690-000-00-ED1_FORMAT
100
AcDbLine
 62
2
  6
CONTINUOUS
 10
303.581344064
 20
54.4612169223
 11
305.4976754456
 21
54.4612169223
  0
LINE
  5
52D
100
AcDbEntity
  8
606446690-000-00-ED1_FORMAT
100
AcDbLine
 62
2
  6
CONTINUOUS
 10
309.1516114228
 20
54.4612169223
 11
310.0499259517
 21
54.4612169223
  0
LINE
  5
52E
100
AcDbEntity
  8
606446690-000-00-ED1_FORMAT
100
AcDbLine
 62
2
  6
CONTINUOUS
 10
310.8780557987
 20
54.4612169223
 11
311.1772882755
 21
54.4612169223
  0
LINE
  5
52F
100
AcDbEntity
  8
606446690-000-00-ED1_FORMAT
100
AcDbLine
 62
2
  6
CONTINUOUS
 10
312.0736915139
 20
54.4612169223
 11
312.7687535783
 21
54.4612169223
  0
LINE
  5
530
100
AcDbEntity
  8
606446690-000-00-ED1_FORMAT
100
AcDbLine
 62
2
  6
CONTINUOUS
 10
313.6241510544
 20
54.4612169223
 11
314.2323556081
 21
54.4612169223
  0
LINE
  5
531
100
AcDbEntity
  8
606446690-000-00-ED1_FORMAT
100
AcDbLine
 62
2
  6
CONTINUOUS
 10
315.0389016175
 20
54.4612169223
 11
315.2955979021
 21
54.4612169223
  0
LINE
  5
532
100
AcDbEntity
  8
606446690-000-00-ED1_FORMAT
100
AcDbLine
 62
2
  6
CONTINUOUS
 10
316.1160702131
 20
54.4612169223
 11
316.2882481725
 21
54.4612169223
  0
LINE
  5
533
100
AcDbEntity
  8
606446690-000-00-ED1_FORMAT
100
AcDbLine
 62
2
  6
CONTINUOUS
 10
317.154014977
 20
54.4612169223
 11
318.1654360589
 21
54.4612169223
  0
LINE
  5
534
100
AcDbEntity
  8
606446690-000-00-ED1_FORMAT
100
AcDbLine
 62
2
  6
CONTINUOUS
 10
319.2068127099
 20
54.4612169223
 11
321.9779562502
 21
54.4612169223
  0
LINE
  5
535
100
AcDbEntity
  8
606446690-000-00-ED1_FORMAT
100
AcDbLine
 62
2
  6
CONTINUOUS
 10
303.7956518259
 20
54.5612169223
 11
305.4976754456
 21
54.5612169223
  0
LINE
  5
536
100
AcDbEntity
  8
606446690-000-00-ED1_FORMAT
100
AcDbLine
 62
2
  6
CONTINUOUS
 10
309.1516114228
 20
54.5612169223
 11
310.0767476515
 21
54.5612169223
  0
LINE
  5
537
100
AcDbEntity
  8
606446690-000-00-ED1_FORMAT
100
AcDbLine
 62
2
  6
CONTINUOUS
 10
310.9000016678
 20
54.5612169223
 11
311.1563422972
 21
54.5612169223
  0
LINE
  5
538
100
AcDbEntity
  8
606446690-000-00-ED1_FORMAT
100
AcDbLine
 62
2
  6
CONTINUOUS
 10
312.0491885388
 20
54.5612169223
 11
312.7687535783
 21
54.5612169223
  0
LINE
  5
539
100
AcDbEntity
  8
606446690-000-00-ED1_FORMAT
100
AcDbLine
 62
2
  6
CONTINUOUS
 10
313.6236992653
 20
54.5612169223
 11
314.2449481092
 21
54.5612169223
  0
LINE
  5
53A
100
AcDbEntity
  8
606446690-000-00-ED1_FORMAT
100
AcDbLine
 62
2
  6
CONTINUOUS
 10
315.0489704474
 20
54.5612169223
 11
315.3176481029
 21
54.5612169223
  0
LINE
  5
53B
100
AcDbEntity
  8
606446690-000-00-ED1_FORMAT
100
AcDbLine
 62
2
  6
CONTINUOUS
 10
316.1300653377
 20
54.5612169223
 11
316.2733802845
 21
54.5612169223
  0
LINE
  5
53C
100
AcDbEntity
  8
606446690-000-00-ED1_FORMAT
100
AcDbLine
 62
2
  6
CONTINUOUS
 10
317.1360230496
 20
54.5612169223
 11
318.1654360589
 21
54.5612169223
  0
LINE
  5
53D
100
AcDbEntity
  8
606446690-000-00-ED1_FORMAT
100
AcDbLine
 62
2
  6
CONTINUOUS
 10
319.2068127099
 20
54.5612169223
 11
321.755745586
 21
54.5612169223
  0
LINE
  5
53E
100
AcDbEntity
  8
606446690-000-00-ED1_FORMAT
100
AcDbLine
 62
2
  6
CONTINUOUS
 10
304.0099595877
 20
54.6612169223
 11
305.4976754456
 21
54.6612169223
  0
LINE
  5
53F
100
AcDbEntity
  8
606446690-000-00-ED1_FORMAT
100
AcDbLine
 62
2
  6
CONTINUOUS
 10
309.1516114228
 20
54.6612169223
 11
310.1035693513
 21
54.6612169223
  0
LINE
  5
540
100
AcDbEntity
  8
606446690-000-00-ED1_FORMAT
100
AcDbLine
 62
2
  6
CONTINUOUS
 10
310.9219475369
 20
54.6612169223
 11
311.1353963189
 21
54.6612169223
  0
LINE
  5
541
100
AcDbEntity
  8
606446690-000-00-ED1_FORMAT
100
AcDbLine
 62
2
  6
CONTINUOUS
 10
312.0246855638
 20
54.6612169223
 11
312.7687535783
 21
54.6612169223
  0
LINE
  5
542
100
AcDbEntity
  8
606446690-000-00-ED1_FORMAT
100
AcDbLine
 62
2
  6
CONTINUOUS
 10
313.6232474762
 20
54.6612169223
 11
314.2513308978
 21
54.6612169223
  0
LINE
  5
543
100
AcDbEntity
  8
606446690-000-00-ED1_FORMAT
100
AcDbLine
 62
2
  6
CONTINUOUS
 10
315.0549566033
 20
54.6612169223
 11
315.3396983037
 21
54.6612169223
  0
LINE
  5
544
100
AcDbEntity
  8
606446690-000-00-ED1_FORMAT
100
AcDbLine
 62
2
  6
CONTINUOUS
 10
316.1440604624
 20
54.6612169223
 11
316.2585123965
 21
54.6612169223
  0
LINE
  5
545
100
AcDbEntity
  8
606446690-000-00-ED1_FORMAT
100
AcDbLine
 62
2
  6
CONTINUOUS
 10
317.1180311221
 20
54.6612169223
 11
318.1654360589
 21
54.6612169223
  0
LINE
  5
546
100
AcDbEntity
  8
606446690-000-00-ED1_FORMAT
100
AcDbLine
 62
2
  6
CONTINUOUS
 10
319.2068127099
 20
54.6612169223
 11
321.5335349219
 21
54.6612169223
  0
LINE
  5
547
100
AcDbEntity
  8
606446690-000-00-ED1_FORMAT
100
AcDbLine
 62
2
  6
CONTINUOUS
 10
304.2242673496
 20
54.7612169223
 11
305.4976754456
 21
54.7612169223
  0
LINE
  5
548
100
AcDbEntity
  8
606446690-000-00-ED1_FORMAT
100
AcDbLine
 62
2
  6
CONTINUOUS
 10
309.1516114228
 20
54.7612169223
 11
310.130391051
 21
54.7612169223
  0
LINE
  5
549
100
AcDbEntity
  8
606446690-000-00-ED1_FORMAT
100
AcDbLine
 62
2
  6
CONTINUOUS
 10
310.9438934061
 20
54.7612169223
 11
311.1144503405
 21
54.7612169223
  0
LINE
  5
54A
100
AcDbEntity
  8
606446690-000-00-ED1_FORMAT
100
AcDbLine
 62
2
  6
CONTINUOUS
 10
312.0001825888
 20
54.7612169223
 11
312.7687535783
 21
54.7612169223
  0
LINE
  5
54B
100
AcDbEntity
  8
606446690-000-00-ED1_FORMAT
100
AcDbLine
 62
2
  6
CONTINUOUS
 10
313.622795687
 20
54.7612169223
 11
314.243276854
 21
54.7612169223
  0
LINE
  5
54C
100
AcDbEntity
  8
606446690-000-00-ED1_FORMAT
100
AcDbLine
 62
2
  6
CONTINUOUS
 10
315.0549566033
 20
54.7612169223
 11
315.3617485045
 21
54.7612169223
  0
LINE
  5
54D
100
AcDbEntity
  8
606446690-000-00-ED1_FORMAT
100
AcDbLine
 62
2
  6
CONTINUOUS
 10
316.158055587
 20
54.7612169223
 11
316.2436445084
 21
54.7612169223
  0
LINE
  5
54E
100
AcDbEntity
  8
606446690-000-00-ED1_FORMAT
100
AcDbLine
 62
2
  6
CONTINUOUS
 10
317.1000391947
 20
54.7612169223
 11
318.1654360589
 21
54.7612169223
  0
LINE
  5
54F
100
AcDbEntity
  8
606446690-000-00-ED1_FORMAT
100
AcDbLine
 62
2
  6
CONTINUOUS
 10
319.2068127099
 20
54.7612169223
 11
321.3113242578
 21
54.7612169223
  0
LINE
  5
550
100
AcDbEntity
  8
606446690-000-00-ED1_FORMAT
100
AcDbLine
 62
2
  6
CONTINUOUS
 10
304.4385751114
 20
54.8612169223
 11
305.4976754456
 21
54.8612169223
  0
LINE
  5
551
100
AcDbEntity
  8
606446690-000-00-ED1_FORMAT
100
AcDbLine
 62
2
  6
CONTINUOUS
 10
307.3074853576
 20
54.8612169223
 11
307.3805938489
 21
54.8612169223
  0
LINE
  5
552
100
AcDbEntity
  8
606446690-000-00-ED1_FORMAT
100
AcDbLine
 62
2
  6
CONTINUOUS
 10
309.1516114228
 20
54.8612169223
 11
310.1572127508
 21
54.8612169223
  0
LINE
  5
553
100
AcDbEntity
  8
606446690-000-00-ED1_FORMAT
100
AcDbLine
 62
2
  6
CONTINUOUS
 10
310.9658392752
 20
54.8612169223
 11
311.0935043622
 21
54.8612169223
  0
LINE
  5
554
100
AcDbEntity
  8
606446690-000-00-ED1_FORMAT
100
AcDbLine
 62
2
  6
CONTINUOUS
 10
311.9756796138
 20
54.8612169223
 11
312.7687535783
 21
54.8612169223
  0
LINE
  5
555
100
AcDbEntity
  8
606446690-000-00-ED1_FORMAT
100
AcDbLine
 62
2
  6
CONTINUOUS
 10
313.6223438979
 20
54.8612169223
 11
314.2224299404
 21
54.8612169223
  0
LINE
  5
556
100
AcDbEntity
  8
606446690-000-00-ED1_FORMAT
100
AcDbLine
 62
2
  6
CONTINUOUS
 10
315.0544618239
 20
54.8612169223
 11
315.3837987053
 21
54.8612169223
  0
LINE
  5
557
100
AcDbEntity
  8
606446690-000-00-ED1_FORMAT
100
AcDbLine
 62
2
  6
CONTINUOUS
 10
316.1720507117
 20
54.8612169223
 11
316.2287766204
 21
54.8612169223
  0
LINE
  5
558
100
AcDbEntity
  8
606446690-000-00-ED1_FORMAT
100
AcDbLine
 62
2
  6
CONTINUOUS
 10
317.0820472673
 20
54.8612169223
 11
318.1654360589
 21
54.8612169223
  0
LINE
  5
559
100
AcDbEntity
  8
606446690-000-00-ED1_FORMAT
100
AcDbLine
 62
2
  6
CONTINUOUS
 10
319.2068127099
 20
54.8612169223
 11
321.0891135937
 21
54.8612169223
  0
LINE
  5
55A
100
AcDbEntity
  8
606446690-000-00-ED1_FORMAT
100
AcDbLine
 62
2
  6
CONTINUOUS
 10
304.6528828733
 20
54.9612169223
 11
305.4976754456
 21
54.9612169223
  0
LINE
  5
55B
100
AcDbEntity
  8
606446690-000-00-ED1_FORMAT
100
AcDbLine
 62
2
  6
CONTINUOUS
 10
307.2747904084
 20
54.9612169223
 11
307.4465769883
 21
54.9612169223
  0
LINE
  5
55C
100
AcDbEntity
  8
606446690-000-00-ED1_FORMAT
100
AcDbLine
 62
2
  6
CONTINUOUS
 10
309.1516114228
 20
54.9612169223
 11
310.1840344505
 21
54.9612169223
  0
LINE
  5
55D
100
AcDbEntity
  8
606446690-000-00-ED1_FORMAT
100
AcDbLine
 62
2
  6
CONTINUOUS
 10
310.9877851444
 20
54.9612169223
 11
311.0725583839
 21
54.9612169223
  0
LINE
  5
55E
100
AcDbEntity
  8
606446690-000-00-ED1_FORMAT
100
AcDbLine
 62
2
  6
CONTINUOUS
 10
311.9511766388
 20
54.9612169223
 11
312.7687535783
 21
54.9612169223
  0
LINE
  5
55F
100
AcDbEntity
  8
606446690-000-00-ED1_FORMAT
100
AcDbLine
 62
2
  6
CONTINUOUS
 10
313.6218921087
 20
54.9612169223
 11
314.1772743447
 21
54.9612169223
  0
LINE
  5
560
100
AcDbEntity
  8
606446690-000-00-ED1_FORMAT
100
AcDbLine
 62
2
  6
CONTINUOUS
 10
315.0419741551
 20
54.9612169223
 11
315.4058489061
 21
54.9612169223
  0
LINE
  5
561
100
AcDbEntity
  8
606446690-000-00-ED1_FORMAT
100
AcDbLine
 62
2
  6
CONTINUOUS
 10
316.1860458363
 20
54.9612169223
 11
316.2139087324
 21
54.9612169223
  0
LINE
  5
562
100
AcDbEntity
  8
606446690-000-00-ED1_FORMAT
100
AcDbLine
 62
2
  6
CONTINUOUS
 10
317.0640553398
 20
54.9612169223
 11
318.1654360589
 21
54.9612169223
  0
LINE
  5
563
100
AcDbEntity
  8
606446690-000-00-ED1_FORMAT
100
AcDbLine
 62
2
  6
CONTINUOUS
 10
319.2068127099
 20
54.9612169223
 11
320.8669029295
 21
54.9612169223
  0
LINE
  5
564
100
AcDbEntity
  8
606446690-000-00-ED1_FORMAT
100
AcDbLine
 62
2
  6
CONTINUOUS
 10
304.8671906351
 20
55.0612169223
 11
305.4976754456
 21
55.0612169223
  0
LINE
  5
565
100
AcDbEntity
  8
606446690-000-00-ED1_FORMAT
100
AcDbLine
 62
2
  6
CONTINUOUS
 10
307.2420954592
 20
55.0612169223
 11
307.5125601276
 21
55.0612169223
  0
LINE
  5
566
100
AcDbEntity
  8
606446690-000-00-ED1_FORMAT
100
AcDbLine
 62
2
  6
CONTINUOUS
 10
309.1516114228
 20
55.0612169223
 11
310.2108561503
 21
55.0612169223
  0
LINE
  5
567
100
AcDbEntity
  8
606446690-000-00-ED1_FORMAT
100
AcDbLine
 62
2
  6
CONTINUOUS
 10
311.0097310135
 20
55.0612169223
 11
311.0516124055
 21
55.0612169223
  0
LINE
  5
568
100
AcDbEntity
  8
606446690-000-00-ED1_FORMAT
100
AcDbLine
 62
2
  6
CONTINUOUS
 10
311.9266736638
 20
55.0612169223
 11
312.7687535783
 21
55.0612169223
  0
LINE
  5
569
100
AcDbEntity
  8
606446690-000-00-ED1_FORMAT
100
AcDbLine
 62
2
  6
CONTINUOUS
 10
313.6214403196
 20
55.0612169223
 11
314.0823675722
 21
55.0612169223
  0
LINE
  5
56A
100
AcDbEntity
  8
606446690-000-00-ED1_FORMAT
100
AcDbLine
 62
2
  6
CONTINUOUS
 10
315.0186315978
 20
55.0612169223
 11
315.4278991068
 21
55.0612169223
  0
LINE
  5
56B
100
AcDbEntity
  8
606446690-000-00-ED1_FORMAT
100
AcDbLine
 62
2
  6
CONTINUOUS
 10
317.0460634124
 20
55.0612169223
 11
318.1654360589
 21
55.0612169223
  0
LINE
  5
56C
100
AcDbEntity
  8
606446690-000-00-ED1_FORMAT
100
AcDbLine
 62
2
  6
CONTINUOUS
 10
319.2068127099
 20
55.0612169223
 11
320.6446922654
 21
55.0612169223
  0
LINE
  5
56D
100
AcDbEntity
  8
606446690-000-00-ED1_FORMAT
100
AcDbLine
 62
2
  6
CONTINUOUS
 10
305.081498397
 20
55.1612169223
 11
305.4976754456
 21
55.1612169223
  0
LINE
  5
56E
100
AcDbEntity
  8
606446690-000-00-ED1_FORMAT
100
AcDbLine
 62
2
  6
CONTINUOUS
 10
307.20940051
 20
55.1612169223
 11
307.578543267
 21
55.1612169223
  0
LINE
  5
56F
100
AcDbEntity
  8
606446690-000-00-ED1_FORMAT
100
AcDbLine
 62
2
  6
CONTINUOUS
 10
309.1516114228
 20
55.1612169223
 11
310.2376778501
 21
55.1612169223
  0
LINE
  5
570
100
AcDbEntity
  8
606446690-000-00-ED1_FORMAT
100
AcDbLine
 62
2
  6
CONTINUOUS
 10
311.9021706888
 20
55.1612169223
 11
312.7687535783
 21
55.1612169223
  0
LINE
  5
571
100
AcDbEntity
  8
606446690-000-00-ED1_FORMAT
100
AcDbLine
 62
2
  6
CONTINUOUS
 10
313.6209885304
 20
55.1612169223
 11
313.648597506
 21
55.1612169223
  0
LINE
  5
572
100
AcDbEntity
  8
606446690-000-00-ED1_FORMAT
100
AcDbLine
 62
2
  6
CONTINUOUS
 10
314.9929590246
 20
55.1612169223
 11
315.4499493076
 21
55.1612169223
  0
LINE
  5
573
100
AcDbEntity
  8
606446690-000-00-ED1_FORMAT
100
AcDbLine
 62
2
  6
CONTINUOUS
 10
317.028071485
 20
55.1612169223
 11
318.1654360589
 21
55.1612169223
  0
LINE
  5
574
100
AcDbEntity
  8
606446690-000-00-ED1_FORMAT
100
AcDbLine
 62
2
  6
CONTINUOUS
 10
319.2068127099
 20
55.1612169223
 11
320.4224816013
 21
55.1612169223
  0
LINE
  5
575
100
AcDbEntity
  8
606446690-000-00-ED1_FORMAT
100
AcDbLine
 62
2
  6
CONTINUOUS
 10
305.0855867265
 20
55.2612169223
 11
305.4976754456
 21
55.2612169223
  0
LINE
  5
576
100
AcDbEntity
  8
606446690-000-00-ED1_FORMAT
100
AcDbLine
 62
2
  6
CONTINUOUS
 10
307.1767055608
 20
55.2612169223
 11
307.6445264063
 21
55.2612169223
  0
LINE
  5
577
100
AcDbEntity
  8
606446690-000-00-ED1_FORMAT
100
AcDbLine
 62
2
  6
CONTINUOUS
 10
309.1516114228
 20
55.2612169223
 11
310.2644995498
 21
55.2612169223
  0
LINE
  5
578
100
AcDbEntity
  8
606446690-000-00-ED1_FORMAT
100
AcDbLine
 62
2
  6
CONTINUOUS
 10
311.8776677138
 20
55.2612169223
 11
312.7687535783
 21
55.2612169223
  0
LINE
  5
579
100
AcDbEntity
  8
606446690-000-00-ED1_FORMAT
100
AcDbLine
 62
2
  6
CONTINUOUS
 10
314.952943952
 20
55.2612169223
 11
315.4719995084
 21
55.2612169223
  0
LINE
  5
57A
100
AcDbEntity
  8
606446690-000-00-ED1_FORMAT
100
AcDbLine
 62
2
  6
CONTINUOUS
 10
317.0100795575
 20
55.2612169223
 11
318.1654360589
 21
55.2612169223
  0
LINE
  5
57B
100
AcDbEntity
  8
606446690-000-00-ED1_FORMAT
100
AcDbLine
 62
2
  6
CONTINUOUS
 10
319.2068127099
 20
55.2612169223
 11
320.2002709371
 21
55.2612169223
  0
LINE
  5
57C
100
AcDbEntity
  8
606446690-000-00-ED1_FORMAT
100
AcDbLine
 62
2
  6
CONTINUOUS
 10
305.0855867265
 20
55.3612169223
 11
305.4976754456
 21
55.3612169223
  0
LINE
  5
57D
100
AcDbEntity
  8
606446690-000-00-ED1_FORMAT
100
AcDbLine
 62
2
  6
CONTINUOUS
 10
307.1440106116
 20
55.3612169223
 11
307.7105095457
 21
55.3612169223
  0
LINE
  5
57E
100
AcDbEntity
  8
606446690-000-00-ED1_FORMAT
100
AcDbLine
 62
2
  6
CONTINUOUS
 10
309.1516114228
 20
55.3612169223
 11
310.2913212496
 21
55.3612169223
  0
LINE
  5
57F
100
AcDbEntity
  8
606446690-000-00-ED1_FORMAT
100
AcDbLine
 62
2
  6
CONTINUOUS
 10
311.8531647388
 20
55.3612169223
 11
312.7687535783
 21
55.3612169223
  0
LINE
  5
580
100
AcDbEntity
  8
606446690-000-00-ED1_FORMAT
100
AcDbLine
 62
2
  6
CONTINUOUS
 10
314.8979235488
 20
55.3612169223
 11
315.4940497092
 21
55.3612169223
  0
LINE
  5
581
100
AcDbEntity
  8
606446690-000-00-ED1_FORMAT
100
AcDbLine
 62
2
  6
CONTINUOUS
 10
316.9920876301
 20
55.3612169223
 11
318.1654360589
 21
55.3612169223
  0
LINE
  5
582
100
AcDbEntity
  8
606446690-000-00-ED1_FORMAT
100
AcDbLine
 62
2
  6
CONTINUOUS
 10
319.2068127099
 20
55.3612169223
 11
319.978060273
 21
55.3612169223
  0
LINE
  5
583
100
AcDbEntity
  8
606446690-000-00-ED1_FORMAT
100
AcDbLine
 62
2
  6
CONTINUOUS
 10
305.0855867265
 20
55.4612169223
 11
305.4976754456
 21
55.4612169223
  0
LINE
  5
584
100
AcDbEntity
  8
606446690-000-00-ED1_FORMAT
100
AcDbLine
 62
2
  6
CONTINUOUS
 10
307.1113156624
 20
55.4612169223
 11
307.776492685
 21
55.4612169223
  0
LINE
  5
585
100
AcDbEntity
  8
606446690-000-00-ED1_FORMAT
100
AcDbLine
 62
2
  6
CONTINUOUS
 10
309.1516114228
 20
55.4612169223
 11
310.3181429493
 21
55.4612169223
  0
LINE
  5
586
100
AcDbEntity
  8
606446690-000-00-ED1_FORMAT
100
AcDbLine
 62
2
  6
CONTINUOUS
 10
311.8286617638
 20
55.4612169223
 11
312.7687535783
 21
55.4612169223
  0
LINE
  5
587
100
AcDbEntity
  8
606446690-000-00-ED1_FORMAT
100
AcDbLine
 62
2
  6
CONTINUOUS
 10
314.8293698291
 20
55.4612169223
 11
315.51609991
 21
55.4612169223
  0
LINE
  5
588
100
AcDbEntity
  8
606446690-000-00-ED1_FORMAT
100
AcDbLine
 62
2
  6
CONTINUOUS
 10
316.9740957027
 20
55.4612169223
 11
318.1654360589
 21
55.4612169223
  0
LINE
  5
589
100
AcDbEntity
  8
606446690-000-00-ED1_FORMAT
100
AcDbLine
 62
2
  6
CONTINUOUS
 10
319.2068127099
 20
55.4612169223
 11
319.7558496089
 21
55.4612169223
  0
LINE
  5
58A
100
AcDbEntity
  8
606446690-000-00-ED1_FORMAT
100
AcDbLine
 62
2
  6
CONTINUOUS
 10
305.0855867265
 20
55.5612169223
 11
305.4976754456
 21
55.5612169223
  0
LINE
  5
58B
100
AcDbEntity
  8
606446690-000-00-ED1_FORMAT
100
AcDbLine
 62
2
  6
CONTINUOUS
 10
307.0786207132
 20
55.5612169223
 11
307.8424758243
 21
55.5612169223
  0
LINE
  5
58C
100
AcDbEntity
  8
606446690-000-00-ED1_FORMAT
100
AcDbLine
 62
2
  6
CONTINUOUS
 10
309.1516114228
 20
55.5612169223
 11
310.3449646491
 21
55.5612169223
  0
LINE
  5
58D
100
AcDbEntity
  8
606446690-000-00-ED1_FORMAT
100
AcDbLine
 62
2
  6
CONTINUOUS
 10
311.8041587888
 20
55.5612169223
 11
312.7687535783
 21
55.5612169223
  0
LINE
  5
58E
100
AcDbEntity
  8
606446690-000-00-ED1_FORMAT
100
AcDbLine
 62
2
  6
CONTINUOUS
 10
314.7385066587
 20
55.5612169223
 11
315.5381501108
 21
55.5612169223
  0
LINE
  5
58F
100
AcDbEntity
  8
606446690-000-00-ED1_FORMAT
100
AcDbLine
 62
2
  6
CONTINUOUS
 10
316.9561037752
 20
55.5612169223
 11
318.1654360589
 21
55.5612169223
  0
LINE
  5
590
100
AcDbEntity
  8
606446690-000-00-ED1_FORMAT
100
AcDbLine
 62
2
  6
CONTINUOUS
 10
319.2068127099
 20
55.5612169223
 11
319.6064909387
 21
55.5612169223
  0
LINE
  5
591
100
AcDbEntity
  8
606446690-000-00-ED1_FORMAT
100
AcDbLine
 62
2
  6
CONTINUOUS
 10
305.0855867265
 20
55.6612169223
 11
305.4976754456
 21
55.6612169223
  0
LINE
  5
592
100
AcDbEntity
  8
606446690-000-00-ED1_FORMAT
100
AcDbLine
 62
2
  6
CONTINUOUS
 10
307.045925764
 20
55.6612169223
 11
307.9084589637
 21
55.6612169223
  0
LINE
  5
593
100
AcDbEntity
  8
606446690-000-00-ED1_FORMAT
100
AcDbLine
 62
2
  6
CONTINUOUS
 10
309.1516114228
 20
55.6612169223
 11
310.3717863489
 21
55.6612169223
  0
LINE
  5
594
100
AcDbEntity
  8
606446690-000-00-ED1_FORMAT
100
AcDbLine
 62
2
  6
CONTINUOUS
 10
311.7796558138
 20
55.6612169223
 11
312.7687535783
 21
55.6612169223
  0
LINE
  5
595
100
AcDbEntity
  8
606446690-000-00-ED1_FORMAT
100
AcDbLine
 62
2
  6
CONTINUOUS
 10
314.6299847361
 20
55.6612169223
 11
315.5602003116
 21
55.6612169223
  0
LINE
  5
596
100
AcDbEntity
  8
606446690-000-00-ED1_FORMAT
100
AcDbLine
 62
2
  6
CONTINUOUS
 10
316.9381118478
 20
55.6612169223
 11
318.1654360589
 21
55.6612169223
  0
LINE
  5
597
100
AcDbEntity
  8
606446690-000-00-ED1_FORMAT
100
AcDbLine
 62
2
  6
CONTINUOUS
 10
319.2068127099
 20
55.6612169223
 11
319.6064909387
 21
55.6612169223
  0
LINE
  5
598
100
AcDbEntity
  8
606446690-000-00-ED1_FORMAT
100
AcDbLine
 62
2
  6
CONTINUOUS
 10
305.0855867265
 20
55.7612169223
 11
305.4976754456
 21
55.7612169223
  0
LINE
  5
599
100
AcDbEntity
  8
606446690-000-00-ED1_FORMAT
100
AcDbLine
 62
2
  6
CONTINUOUS
 10
307.0132308148
 20
55.7612169223
 11
307.974442103
 21
55.7612169223
  0
LINE
  5
59A
100
AcDbEntity
  8
606446690-000-00-ED1_FORMAT
100
AcDbLine
 62
2
  6
CONTINUOUS
 10
309.1516114228
 20
55.7612169223
 11
310.3986080486
 21
55.7612169223
  0
LINE
  5
59B
100
AcDbEntity
  8
606446690-000-00-ED1_FORMAT
100
AcDbLine
 62
2
  6
CONTINUOUS
 10
311.7551528388
 20
55.7612169223
 11
312.7687535783
 21
55.7612169223
  0
LINE
  5
59C
100
AcDbEntity
  8
606446690-000-00-ED1_FORMAT
100
AcDbLine
 62
2
  6
CONTINUOUS
 10
314.4704308002
 20
55.7612169223
 11
315.5822505124
 21
55.7612169223
  0
LINE
  5
59D
100
AcDbEntity
  8
606446690-000-00-ED1_FORMAT
100
AcDbLine
 62
2
  6
CONTINUOUS
 10
316.9201199204
 20
55.7612169223
 11
318.1654360589
 21
55.7612169223
  0
LINE
  5
59E
100
AcDbEntity
  8
606446690-000-00-ED1_FORMAT
100
AcDbLine
 62
2
  6
CONTINUOUS
 10
319.2068127099
 20
55.7612169223
 11
319.6064909387
 21
55.7612169223
  0
LINE
  5
59F
100
AcDbEntity
  8
606446690-000-00-ED1_FORMAT
100
AcDbLine
 62
2
  6
CONTINUOUS
 10
305.0855867265
 20
55.8612169223
 11
305.4976754456
 21
55.8612169223
  0
LINE
  5
5A0
100
AcDbEntity
  8
606446690-000-00-ED1_FORMAT
100
AcDbLine
 62
2
  6
CONTINUOUS
 10
306.9805358656
 20
55.8612169223
 11
308.0404252424
 21
55.8612169223
  0
LINE
  5
5A1
100
AcDbEntity
  8
606446690-000-00-ED1_FORMAT
100
AcDbLine
 62
2
  6
CONTINUOUS
 10
309.1516114228
 20
55.8612169223
 11
310.4254297484
 21
55.8612169223
  0
LINE
  5
5A2
100
AcDbEntity
  8
606446690-000-00-ED1_FORMAT
100
AcDbLine
 62
2
  6
CONTINUOUS
 10
311.7306498637
 20
55.8612169223
 11
312.7687535783
 21
55.8612169223
  0
LINE
  5
5A3
100
AcDbEntity
  8
606446690-000-00-ED1_FORMAT
100
AcDbLine
 62
2
  6
CONTINUOUS
 10
314.2272767393
 20
55.8612169223
 11
315.6043007131
 21
55.8612169223
  0
LINE
  5
5A4
100
AcDbEntity
  8
606446690-000-00-ED1_FORMAT
100
AcDbLine
 62
2
  6
CONTINUOUS
 10
316.9021279929
 20
55.8612169223
 11
318.1654360589
 21
55.8612169223
  0
LINE
  5
5A5
100
AcDbEntity
  8
606446690-000-00-ED1_FORMAT
100
AcDbLine
 62
2
  6
CONTINUOUS
 10
319.2068127099
 20
55.8612169223
 11
319.6064909387
 21
55.8612169223
  0
LINE
  5
5A6
100
AcDbEntity
  8
606446690-000-00-ED1_FORMAT
100
AcDbLine
 62
2
  6
CONTINUOUS
 10
305.0855867265
 20
55.9612169223
 11
305.4976754456
 21
55.9612169223
  0
LINE
  5
5A7
100
AcDbEntity
  8
606446690-000-00-ED1_FORMAT
100
AcDbLine
 62
2
  6
CONTINUOUS
 10
306.9478409164
 20
55.9612169223
 11
308.1064083817
 21
55.9612169223
  0
LINE
  5
5A8
100
AcDbEntity
  8
606446690-000-00-ED1_FORMAT
100
AcDbLine
 62
2
  6
CONTINUOUS
 10
309.1516114228
 20
55.9612169223
 11
310.4522514481
 21
55.9612169223
  0
LINE
  5
5A9
100
AcDbEntity
  8
606446690-000-00-ED1_FORMAT
100
AcDbLine
 62
2
  6
CONTINUOUS
 10
310.5444356071
 20
55.9612169223
 11
315.6263509139
 21
55.9612169223
  0
LINE
  5
5AA
100
AcDbEntity
  8
606446690-000-00-ED1_FORMAT
100
AcDbLine
 62
2
  6
CONTINUOUS
 10
316.8841360655
 20
55.9612169223
 11
318.1654360589
 21
55.9612169223
  0
LINE
  5
5AB
100
AcDbEntity
  8
606446690-000-00-ED1_FORMAT
100
AcDbLine
 62
2
  6
CONTINUOUS
 10
319.2068127099
 20
55.9612169223
 11
319.6064909387
 21
55.9612169223
  0
LINE
  5
5AC
100
AcDbEntity
  8
606446690-000-00-ED1_FORMAT
100
AcDbLine
 62
2
  6
CONTINUOUS
 10
305.0855867265
 20
56.0612169223
 11
305.4976754456
 21
56.0612169223
  0
LINE
  5
5AD
100
AcDbEntity
  8
606446690-000-00-ED1_FORMAT
100
AcDbLine
 62
2
  6
CONTINUOUS
 10
306.9151459672
 20
56.0612169223
 11
308.1723915211
 21
56.0612169223
  0
LINE
  5
5AE
100
AcDbEntity
  8
606446690-000-00-ED1_FORMAT
100
AcDbLine
 62
2
  6
CONTINUOUS
 10
309.1516114228
 20
56.0612169223
 11
315.6484011147
 21
56.0612169223
  0
LINE
  5
5AF
100
AcDbEntity
  8
606446690-000-00-ED1_FORMAT
100
AcDbLine
 62
2
  6
CONTINUOUS
 10
316.8661441381
 20
56.0612169223
 11
318.1654360589
 21
56.0612169223
  0
LINE
  5
5B0
100
AcDbEntity
  8
606446690-000-00-ED1_FORMAT
100
AcDbLine
 62
2
  6
CONTINUOUS
 10
319.2068127099
 20
56.0612169223
 11
319.6064909387
 21
56.0612169223
  0
LINE
  5
5B1
100
AcDbEntity
  8
606446690-000-00-ED1_FORMAT
100
AcDbLine
 62
2
  6
CONTINUOUS
 10
305.0855867265
 20
56.1612169223
 11
305.4976754456
 21
56.1612169223
  0
LINE
  5
5B2
100
AcDbEntity
  8
606446690-000-00-ED1_FORMAT
100
AcDbLine
 62
2
  6
CONTINUOUS
 10
306.882451018
 20
56.1612169223
 11
307.0650673072
 21
56.1612169223
  0
LINE
  5
5B3
100
AcDbEntity
  8
606446690-000-00-ED1_FORMAT
100
AcDbLine
 62
2
  6
CONTINUOUS
 10
307.2244391185
 20
56.1612169223
 11
308.2383746604
 21
56.1612169223
  0
LINE
  5
5B4
100
AcDbEntity
  8
606446690-000-00-ED1_FORMAT
100
AcDbLine
 62
2
  6
CONTINUOUS
 10
308.9936781125
 20
56.1612169223
 11
315.9049870492
 21
56.1612169223
  0
LINE
  5
5B5
100
AcDbEntity
  8
606446690-000-00-ED1_FORMAT
100
AcDbLine
 62
2
  6
CONTINUOUS
 10
316.8481522107
 20
56.1612169223
 11
318.1654360589
 21
56.1612169223
  0
LINE
  5
5B6
100
AcDbEntity
  8
606446690-000-00-ED1_FORMAT
100
AcDbLine
 62
2
  6
CONTINUOUS
 10
319.2068127099
 20
56.1612169223
 11
319.6064909387
 21
56.1612169223
  0
LINE
  5
5B7
100
AcDbEntity
  8
606446690-000-00-ED1_FORMAT
100
AcDbLine
 62
2
  6
CONTINUOUS
 10
305.0855867265
 20
56.2612169223
 11
305.4976754456
 21
56.2612169223
  0
LINE
  5
5B8
100
AcDbEntity
  8
606446690-000-00-ED1_FORMAT
100
AcDbLine
 62
2
  6
CONTINUOUS
 10
306.8497560688
 20
56.2612169223
 11
307.0311892349
 21
56.2612169223
  0
LINE
  5
5B9
100
AcDbEntity
  8
606446690-000-00-ED1_FORMAT
100
AcDbLine
 62
2
  6
CONTINUOUS
 10
307.4387402694
 20
56.2612169223
 11
308.3043577998
 21
56.2612169223
  0
LINE
  5
5BA
100
AcDbEntity
  8
606446690-000-00-ED1_FORMAT
100
AcDbLine
 62
2
  6
CONTINUOUS
 10
308.5068560725
 20
56.2612169223
 11
316.3485939609
 21
56.2612169223
  0
LINE
  5
5BB
100
AcDbEntity
  8
606446690-000-00-ED1_FORMAT
100
AcDbLine
 62
2
  6
CONTINUOUS
 10
316.8301602832
 20
56.2612169223
 11
318.1654360589
 21
56.2612169223
  0
LINE
  5
5BC
100
AcDbEntity
  8
606446690-000-00-ED1_FORMAT
100
AcDbLine
 62
2
  6
CONTINUOUS
 10
319.2068127099
 20
56.2612169223
 11
319.6064909387
 21
56.2612169223
  0
LINE
  5
5BD
100
AcDbEntity
  8
606446690-000-00-ED1_FORMAT
100
AcDbLine
 62
2
  6
CONTINUOUS
 10
305.0855867265
 20
56.3612169223
 11
305.4976754456
 21
56.3612169223
  0
LINE
  5
5BE
100
AcDbEntity
  8
606446690-000-00-ED1_FORMAT
100
AcDbLine
 62
2
  6
CONTINUOUS
 10
306.8170611196
 20
56.3612169223
 11
306.9973111626
 21
56.3612169223
  0
LINE
  5
5BF
100
AcDbEntity
  8
606446690-000-00-ED1_FORMAT
100
AcDbLine
 62
2
  6
CONTINUOUS
 10
307.6530414203
 20
56.3612169223
 11
316.7922008727
 21
56.3612169223
  0
LINE
  5
5C0
100
AcDbEntity
  8
606446690-000-00-ED1_FORMAT
100
AcDbLine
 62
2
  6
CONTINUOUS
 10
316.8121683558
 20
56.3612169223
 11
317.7559843721
 21
56.3612169223
  0
LINE
  5
5C1
100
AcDbEntity
  8
606446690-000-00-ED1_FORMAT
100
AcDbLine
 62
2
  6
CONTINUOUS
 10
317.9768299493
 20
56.3612169223
 11
318.1654360589
 21
56.3612169223
  0
LINE
  5
5C2
100
AcDbEntity
  8
606446690-000-00-ED1_FORMAT
100
AcDbLine
 62
2
  6
CONTINUOUS
 10
319.2068127099
 20
56.3612169223
 11
319.6064909387
 21
56.3612169223
  0
LINE
  5
5C3
100
AcDbEntity
  8
606446690-000-00-ED1_FORMAT
100
AcDbLine
 62
2
  6
CONTINUOUS
 10
305.0855867265
 20
56.4612169223
 11
305.4976754456
 21
56.4612169223
  0
LINE
  5
5C4
100
AcDbEntity
  8
606446690-000-00-ED1_FORMAT
100
AcDbLine
 62
2
  6
CONTINUOUS
 10
306.7843661705
 20
56.4612169223
 11
306.9634330903
 21
56.4612169223
  0
LINE
  5
5C5
100
AcDbEntity
  8
606446690-000-00-ED1_FORMAT
100
AcDbLine
 62
2
  6
CONTINUOUS
 10
307.8673425713
 20
56.4612169223
 11
317.5337737463
 21
56.4612169223
  0
LINE
  5
5C6
100
AcDbEntity
  8
606446690-000-00-ED1_FORMAT
100
AcDbLine
 62
2
  6
CONTINUOUS
 10
317.9768299493
 20
56.4612169223
 11
318.1654360589
 21
56.4612169223
  0
LINE
  5
5C7
100
AcDbEntity
  8
606446690-000-00-ED1_FORMAT
100
AcDbLine
 62
2
  6
CONTINUOUS
 10
319.2068127099
 20
56.4612169223
 11
319.6064909387
 21
56.4612169223
  0
LINE
  5
5C8
100
AcDbEntity
  8
606446690-000-00-ED1_FORMAT
100
AcDbLine
 62
2
  6
CONTINUOUS
 10
305.0855867265
 20
56.5612169223
 11
305.4976754456
 21
56.5612169223
  0
LINE
  5
5C9
100
AcDbEntity
  8
606446690-000-00-ED1_FORMAT
100
AcDbLine
 62
2
  6
CONTINUOUS
 10
306.7516712213
 20
56.5612169223
 11
306.929555018
 21
56.5612169223
  0
LINE
  5
5CA
100
AcDbEntity
  8
606446690-000-00-ED1_FORMAT
100
AcDbLine
 62
2
  6
CONTINUOUS
 10
308.0816437222
 20
56.5612169223
 11
317.3115631205
 21
56.5612169223
  0
LINE
  5
5CB
100
AcDbEntity
  8
606446690-000-00-ED1_FORMAT
100
AcDbLine
 62
2
  6
CONTINUOUS
 10
317.9768299493
 20
56.5612169223
 11
318.1654360589
 21
56.5612169223
  0
LINE
  5
5CC
100
AcDbEntity
  8
606446690-000-00-ED1_FORMAT
100
AcDbLine
 62
2
  6
CONTINUOUS
 10
319.2068127099
 20
56.5612169223
 11
319.6064909387
 21
56.5612169223
  0
LINE
  5
5CD
100
AcDbEntity
  8
606446690-000-00-ED1_FORMAT
100
AcDbLine
 62
2
  6
CONTINUOUS
 10
305.0855867265
 20
56.6612169223
 11
305.4976754456
 21
56.6612169223
  0
LINE
  5
5CE
100
AcDbEntity
  8
606446690-000-00-ED1_FORMAT
100
AcDbLine
 62
2
  6
CONTINUOUS
 10
306.7189762721
 20
56.6612169223
 11
306.8956769457
 21
56.6612169223
  0
LINE
  5
5CF
100
AcDbEntity
  8
606446690-000-00-ED1_FORMAT
100
AcDbLine
 62
2
  6
CONTINUOUS
 10
308.2959448731
 20
56.6612169223
 11
317.0893524946
 21
56.6612169223
  0
LINE
  5
5D0
100
AcDbEntity
  8
606446690-000-00-ED1_FORMAT
100
AcDbLine
 62
2
  6
CONTINUOUS
 10
317.9768299493
 20
56.6612169223
 11
318.1654360589
 21
56.6612169223
  0
LINE
  5
5D1
100
AcDbEntity
  8
606446690-000-00-ED1_FORMAT
100
AcDbLine
 62
2
  6
CONTINUOUS
 10
319.2068127099
 20
56.6612169223
 11
319.6064909387
 21
56.6612169223
  0
LINE
  5
5D2
100
AcDbEntity
  8
606446690-000-00-ED1_FORMAT
100
AcDbLine
 62
2
  6
CONTINUOUS
 10
305.0855867265
 20
56.7612169223
 11
305.4976754456
 21
56.7612169223
  0
LINE
  5
5D3
100
AcDbEntity
  8
606446690-000-00-ED1_FORMAT
100
AcDbLine
 62
2
  6
CONTINUOUS
 10
306.6862813229
 20
56.7612169223
 11
306.8617988734
 21
56.7612169223
  0
LINE
  5
5D4
100
AcDbEntity
  8
606446690-000-00-ED1_FORMAT
100
AcDbLine
 62
2
  6
CONTINUOUS
 10
308.510246024
 20
56.7612169223
 11
316.8671418688
 21
56.7612169223
  0
LINE
  5
5D5
100
AcDbEntity
  8
606446690-000-00-ED1_FORMAT
100
AcDbLine
 62
2
  6
CONTINUOUS
 10
317.9768299493
 20
56.7612169223
 11
318.1654360589
 21
56.7612169223
  0
LINE
  5
5D6
100
AcDbEntity
  8
606446690-000-00-ED1_FORMAT
100
AcDbLine
 62
2
  6
CONTINUOUS
 10
319.2068127099
 20
56.7612169223
 11
319.6064909387
 21
56.7612169223
  0
LINE
  5
5D7
100
AcDbEntity
  8
606446690-000-00-ED1_FORMAT
100
AcDbLine
 62
2
  6
CONTINUOUS
 10
305.0855867265
 20
56.8612169223
 11
305.4976754456
 21
56.8612169223
  0
LINE
  5
5D8
100
AcDbEntity
  8
606446690-000-00-ED1_FORMAT
100
AcDbLine
 62
2
  6
CONTINUOUS
 10
306.6535863737
 20
56.8612169223
 11
306.8279208011
 21
56.8612169223
  0
LINE
  5
5D9
100
AcDbEntity
  8
606446690-000-00-ED1_FORMAT
100
AcDbLine
 62
2
  6
CONTINUOUS
 10
308.7245471749
 20
56.8612169223
 11
316.6449312429
 21
56.8612169223
  0
LINE
  5
5DA
100
AcDbEntity
  8
606446690-000-00-ED1_FORMAT
100
AcDbLine
 62
2
  6
CONTINUOUS
 10
317.9768299493
 20
56.8612169223
 11
318.1654360589
 21
56.8612169223
  0
LINE
  5
5DB
100
AcDbEntity
  8
606446690-000-00-ED1_FORMAT
100
AcDbLine
 62
2
  6
CONTINUOUS
 10
319.2068127099
 20
56.8612169223
 11
319.6064909387
 21
56.8612169223
  0
LINE
  5
5DC
100
AcDbEntity
  8
606446690-000-00-ED1_FORMAT
100
AcDbLine
 62
2
  6
CONTINUOUS
 10
305.0855867265
 20
56.9612169223
 11
305.4976754456
 21
56.9612169223
  0
LINE
  5
5DD
100
AcDbEntity
  8
606446690-000-00-ED1_FORMAT
100
AcDbLine
 62
2
  6
CONTINUOUS
 10
306.6208914245
 20
56.9612169223
 11
306.7940427288
 21
56.9612169223
  0
LINE
  5
5DE
100
AcDbEntity
  8
606446690-000-00-ED1_FORMAT
100
AcDbLine
 62
2
  6
CONTINUOUS
 10
308.9388483258
 20
56.9612169223
 11
316.4227206171
 21
56.9612169223
  0
LINE
  5
5DF
100
AcDbEntity
  8
606446690-000-00-ED1_FORMAT
100
AcDbLine
 62
2
  6
CONTINUOUS
 10
317.9768299493
 20
56.9612169223
 11
318.1654360589
 21
56.9612169223
  0
LINE
  5
5E0
100
AcDbEntity
  8
606446690-000-00-ED1_FORMAT
100
AcDbLine
 62
2
  6
CONTINUOUS
 10
319.2068127099
 20
56.9612169223
 11
319.6064909387
 21
56.9612169223
  0
LINE
  5
5E1
100
AcDbEntity
  8
606446690-000-00-ED1_FORMAT
100
AcDbLine
 62
2
  6
CONTINUOUS
 10
305.0855867265
 20
57.0612169223
 11
305.4976754456
 21
57.0612169223
  0
LINE
  5
5E2
100
AcDbEntity
  8
606446690-000-00-ED1_FORMAT
100
AcDbLine
 62
2
  6
CONTINUOUS
 10
306.5881964753
 20
57.0612169223
 11
306.7601646565
 21
57.0612169223
  0
LINE
  5
5E3
100
AcDbEntity
  8
606446690-000-00-ED1_FORMAT
100
AcDbLine
 62
2
  6
CONTINUOUS
 10
309.1531494768
 20
57.0612169223
 11
316.2005099913
 21
57.0612169223
  0
LINE
  5
5E4
100
AcDbEntity
  8
606446690-000-00-ED1_FORMAT
100
AcDbLine
 62
2
  6
CONTINUOUS
 10
317.9768299493
 20
57.0612169223
 11
318.3455606316
 21
57.0612169223
  0
LINE
  5
5E5
100
AcDbEntity
  8
606446690-000-00-ED1_FORMAT
100
AcDbLine
 62
2
  6
CONTINUOUS
 10
319.2068127099
 20
57.0612169223
 11
319.6064909387
 21
57.0612169223
  0
LINE
  5
5E6
100
AcDbEntity
  8
606446690-000-00-ED1_FORMAT
100
AcDbLine
 62
2
  6
CONTINUOUS
 10
305.0855867265
 20
57.1612169223
 11
305.4976754456
 21
57.1612169223
  0
LINE
  5
5E7
100
AcDbEntity
  8
606446690-000-00-ED1_FORMAT
100
AcDbLine
 62
2
  6
CONTINUOUS
 10
306.4555411246
 20
57.1612169223
 11
306.7262865842
 21
57.1612169223
  0
LINE
  5
5E8
100
AcDbEntity
  8
606446690-000-00-ED1_FORMAT
100
AcDbLine
 62
2
  6
CONTINUOUS
 10
309.3674506277
 20
57.1612169223
 11
315.9782993654
 21
57.1612169223
  0
LINE
  5
5E9
100
AcDbEntity
  8
606446690-000-00-ED1_FORMAT
100
AcDbLine
 62
2
  6
CONTINUOUS
 10
318.1329117395
 20
57.1612169223
 11
318.5860115167
 21
57.1612169223
  0
LINE
  5
5EA
100
AcDbEntity
  8
606446690-000-00-ED1_FORMAT
100
AcDbLine
 62
2
  6
CONTINUOUS
 10
319.2068127099
 20
57.1612169223
 11
319.5794487609
 21
57.1612169223
  0
LINE
  5
5EB
100
AcDbEntity
  8
606446690-000-00-ED1_FORMAT
100
AcDbLine
 62
2
  6
CONTINUOUS
 10
305.0855867265
 20
57.2612169223
 11
305.4976754456
 21
57.2612169223
  0
LINE
  5
5EC
100
AcDbEntity
  8
606446690-000-00-ED1_FORMAT
100
AcDbLine
 62
2
  6
CONTINUOUS
 10
306.2508372927
 20
57.2612169223
 11
306.6290258773
 21
57.2612169223
  0
LINE
  5
5ED
100
AcDbEntity
  8
606446690-000-00-ED1_FORMAT
100
AcDbLine
 62
2
  6
CONTINUOUS
 10
309.5817517786
 20
57.2612169223
 11
315.7560887396
 21
57.2612169223
  0
LINE
  5
5EE
100
AcDbEntity
  8
606446690-000-00-ED1_FORMAT
100
AcDbLine
 62
2
  6
CONTINUOUS
 10
318.3681701388
 20
57.2612169223
 11
318.8264624019
 21
57.2612169223
  0
LINE
  5
5EF
100
AcDbEntity
  8
606446690-000-00-ED1_FORMAT
100
AcDbLine
 62
2
  6
CONTINUOUS
 10
319.2068127099
 20
57.2612169223
 11
319.511321886
 21
57.2612169223
  0
LINE
  5
5F0
100
AcDbEntity
  8
606446690-000-00-ED1_FORMAT
100
AcDbLine
 62
2
  6
CONTINUOUS
 10
305.0855867265
 20
57.3612169223
 11
305.4976754456
 21
57.3612169223
  0
LINE
  5
5F1
100
AcDbEntity
  8
606446690-000-00-ED1_FORMAT
100
AcDbLine
 62
2
  6
CONTINUOUS
 10
306.0461334607
 20
57.3612169223
 11
306.4241101874
 21
57.3612169223
  0
LINE
  5
5F2
100
AcDbEntity
  8
606446690-000-00-ED1_FORMAT
100
AcDbLine
 62
2
  6
CONTINUOUS
 10
309.7960529295
 20
57.3612169223
 11
315.5338781138
 21
57.3612169223
  0
LINE
  5
5F3
100
AcDbEntity
  8
606446690-000-00-ED1_FORMAT
100
AcDbLine
 62
2
  6
CONTINUOUS
 10
318.603428538
 20
57.3612169223
 11
319.066913287
 21
57.3612169223
  0
LINE
  5
5F4
100
AcDbEntity
  8
606446690-000-00-ED1_FORMAT
100
AcDbLine
 62
2
  6
CONTINUOUS
 10
319.2068127099
 20
57.3612169223
 11
319.443195011
 21
57.3612169223
  0
LINE
  5
5F5
100
AcDbEntity
  8
606446690-000-00-ED1_FORMAT
100
AcDbLine
 62
2
  6
CONTINUOUS
 10
305.0855867265
 20
57.4612169223
 11
305.4976754456
 21
57.4612169223
  0
LINE
  5
5F6
100
AcDbEntity
  8
606446690-000-00-ED1_FORMAT
100
AcDbLine
 62
2
  6
CONTINUOUS
 10
305.8414296288
 20
57.4612169223
 11
306.2191944974
 21
57.4612169223
  0
LINE
  5
5F7
100
AcDbEntity
  8
606446690-000-00-ED1_FORMAT
100
AcDbLine
 62
2
  6
CONTINUOUS
 10
310.0103540804
 20
57.4612169223
 11
315.3116674879
 21
57.4612169223
  0
LINE
  5
5F8
100
AcDbEntity
  8
606446690-000-00-ED1_FORMAT
100
AcDbLine
 62
2
  6
CONTINUOUS
 10
318.8386869373
 20
57.4612169223
 11
319.375068136
 21
57.4612169223
  0
LINE
  5
5F9
100
AcDbEntity
  8
606446690-000-00-ED1_FORMAT
100
AcDbLine
 62
2
  6
CONTINUOUS
 10
305.0855867265
 20
57.5612169223
 11
305.4976754456
 21
57.5612169223
  0
LINE
  5
5FA
100
AcDbEntity
  8
606446690-000-00-ED1_FORMAT
100
AcDbLine
 62
2
  6
CONTINUOUS
 10
305.6367257968
 20
57.5612169223
 11
306.0142788074
 21
57.5612169223
  0
LINE
  5
5FB
100
AcDbEntity
  8
606446690-000-00-ED1_FORMAT
100
AcDbLine
 62
2
  6
CONTINUOUS
 10
310.2246552313
 20
57.5612169223
 11
315.0894568621
 21
57.5612169223
  0
LINE
  5
5FC
100
AcDbEntity
  8
606446690-000-00-ED1_FORMAT
100
AcDbLine
 62
2
  6
CONTINUOUS
 10
319.0739453365
 20
57.5612169223
 11
319.306941261
 21
57.5612169223
  0
LINE
  5
5FD
100
AcDbEntity
  8
606446690-000-00-ED1_FORMAT
100
AcDbLine
 62
2
  6
CONTINUOUS
 10
305.154016136
 20
57.6612169223
 11
305.8093631174
 21
57.6612169223
  0
LINE
  5
5FE
100
AcDbEntity
  8
606446690-000-00-ED1_FORMAT
100
AcDbLine
 62
2
  6
CONTINUOUS
 10
310.4389563822
 20
57.6612169223
 11
314.8672462362
 21
57.6612169223
  0
LINE
  5
5FF
100
AcDbEntity
  8
606446690-000-00-ED1_FORMAT
100
AcDbLine
 62
2
  6
CONTINUOUS
 10
305.3624826996
 20
57.7612169223
 11
305.6044474274
 21
57.7612169223
  0
LINE
  5
600
100
AcDbEntity
  8
606446690-000-00-ED1_FORMAT
100
AcDbLine
 62
2
  6
CONTINUOUS
 10
310.6532575332
 20
57.7612169223
 11
314.6450356104
 21
57.7612169223
  0
LINE
  5
601
100
AcDbEntity
  8
606446690-000-00-ED1_FORMAT
100
AcDbLine
 62
2
  6
CONTINUOUS
 10
310.8675586841
 20
57.8612169223
 11
314.4228249846
 21
57.8612169223
  0
LINE
  5
602
100
AcDbEntity
  8
606446690-000-00-ED1_FORMAT
100
AcDbLine
 62
2
  6
CONTINUOUS
 10
311.081859835
 20
57.9612169223
 11
314.2006143587
 21
57.9612169223
  0
LINE
  5
603
100
AcDbEntity
  8
606446690-000-00-ED1_FORMAT
100
AcDbLine
 62
2
  6
CONTINUOUS
 10
311.2961609859
 20
58.0612169223
 11
313.9784037329
 21
58.0612169223
  0
LINE
  5
604
100
AcDbEntity
  8
606446690-000-00-ED1_FORMAT
100
AcDbLine
 62
2
  6
CONTINUOUS
 10
311.5104621368
 20
58.1612169223
 11
313.756193107
 21
58.1612169223
  0
LINE
  5
605
100
AcDbEntity
  8
606446690-000-00-ED1_FORMAT
100
AcDbLine
 62
2
  6
CONTINUOUS
 10
311.7247632877
 20
58.2612169223
 11
313.5339824812
 21
58.2612169223
  0
LINE
  5
606
100
AcDbEntity
  8
606446690-000-00-ED1_FORMAT
100
AcDbLine
 62
2
  6
CONTINUOUS
 10
311.9390644386
 20
58.3612169223
 11
313.3117718554
 21
58.3612169223
  0
LINE
  5
607
100
AcDbEntity
  8
606446690-000-00-ED1_FORMAT
100
AcDbLine
 62
2
  6
CONTINUOUS
 10
312.1533655896
 20
58.4612169223
 11
313.0895612295
 21
58.4612169223
  0
LINE
  5
608
100
AcDbEntity
  8
606446690-000-00-ED1_FORMAT
100
AcDbLine
 62
2
  6
CONTINUOUS
 10
312.3676667405
 20
58.5612169223
 11
312.8673506037
 21
58.5612169223
  0
LINE
  5
609
100
AcDbEntity
  8
606446690-000-00-ED1_FORMAT
100
AcDbLine
 62
2
  6
CONTINUOUS
 10
312.5819678914
 20
58.6612169223
 11
312.6451399778
 21
58.6612169223
  0
LINE
  5
60A
100
AcDbEntity
  8
606446690-000-00-ED1_FORMAT
100
AcDbLine
 62
7
  6
CONTINUOUS
 10
410.0
 20
58.9546825665
 11
365.999998592
 21
58.9546825665
  0
LINE
  5
60B
100
AcDbEntity
  8
606446690-000-00-ED1_FORMAT
100
AcDbLine
 62
2
  6
CONTINUOUS
 10
311.7224794206
 20
55.894561621
 11
311.4496882966
 21
55.9014380805
  0
LINE
  5
60C
100
AcDbEntity
  8
606446690-000-00-ED1_FORMAT
100
AcDbLine
 62
2
  6
CONTINUOUS
 10
311.7224794206
 20
55.894561621
 11
311.1712806703
 21
55.9102124213
  0
LINE
  5
60D
100
AcDbEntity
  8
606446690-000-00-ED1_FORMAT
100
AcDbLine
 62
2
  6
CONTINUOUS
 10
311.4496882966
 20
55.9014380805
 11
311.1712806703
 21
55.9102124213
  0
LINE
  5
60E
100
AcDbEntity
  8
606446690-000-00-ED1_FORMAT
100
AcDbLine
 62
2
  6
CONTINUOUS
 10
312.7687535783
 20
52.5591239173
 11
312.9504198167
 21
52.5526130553
  0
LINE
  5
60F
100
AcDbEntity
  8
606446690-000-00-ED1_FORMAT
100
AcDbLine
 62
2
  6
CONTINUOUS
 10
313.7515477128
 20
55.1560492255
 11
313.6209822678
 21
55.162603099
  0
LINE
  5
610
100
AcDbEntity
  8
606446690-000-00-ED1_FORMAT
100
AcDbLine
 62
2
  6
CONTINUOUS
 10
311.1712806703
 20
55.9102124213
 11
310.8879963776
 21
55.9259116095
  0
LINE
  5
611
100
AcDbEntity
  8
606446690-000-00-ED1_FORMAT
100
AcDbLine
 62
2
  6
CONTINUOUS
 10
312.9504198167
 20
52.5526130553
 11
313.2565348267
 21
52.5334030555
  0
LINE
  5
612
100
AcDbEntity
  8
606446690-000-00-ED1_FORMAT
100
AcDbLine
 62
2
  6
CONTINUOUS
 10
313.5203541352
 20
52.5109618186
 11
313.6491481416
 21
52.5004132544
  0
LINE
  5
613
100
AcDbEntity
  8
606446690-000-00-ED1_FORMAT
100
AcDbLine
 62
2
  6
CONTINUOUS
 10
313.2565348267
 20
52.5334030555
 11
313.3911850007
 21
52.5222093192
  0
LINE
  5
614
100
AcDbEntity
  8
606446690-000-00-ED1_FORMAT
100
AcDbLine
 62
2
  6
CONTINUOUS
 10
313.2565348267
 20
52.5334030555
 11
313.6491481416
 21
52.5004132544
  0
LINE
  5
615
100
AcDbEntity
  8
606446690-000-00-ED1_FORMAT
100
AcDbLine
 62
2
  6
CONTINUOUS
 10
313.3911850007
 20
52.5222093192
 11
313.5203541352
 21
52.5109618186
  0
LINE
  5
616
100
AcDbEntity
  8
606446690-000-00-ED1_FORMAT
100
AcDbLine
 62
7
  6
CONTINUOUS
 10
135.000019298
 20
287.0000045341
 11
135.000019298
 21
259.0000098321
  0
LINE
  5
617
100
AcDbEntity
  8
606446690-000-00-ED1_FORMAT
100
AcDbLine
 62
7
  6
CONTINUOUS
 10
146.999991584
 20
65.00000176
 11
410.0
 21
65.00000176
  0
LINE
  5
618
100
AcDbEntity
  8
606446690-000-00-ED1_FORMAT
100
AcDbLine
 62
7
  6
CONTINUOUS
 10
146.999993584
 20
72.500002
 11
410.0
 21
72.500002
  0
LINE
  5
619
100
AcDbEntity
  8
606446690-000-00-ED1_FORMAT
100
AcDbLine
 62
2
  6
CONTINUOUS
 10
310.8879963776
 20
55.9259116095
 11
310.6005648347
 21
55.9535357291
  0
LINE
  5
61A
100
AcDbEntity
  8
606446690-000-00-ED1_FORMAT
100
AcDbLine
 62
2
  6
CONTINUOUS
 10
316.4130664758
 20
53.6217008918
 11
316.0044268517
 21
53.6634865394
  0
LINE
  5
61B
100
AcDbEntity
  8
606446690-000-00-ED1_FORMAT
100
AcDbLine
 62
2
  6
CONTINUOUS
 10
314.8399247979
 20
52.3946910499
 11
315.8408084466
 21
52.2778396262
  0
LINE
  5
61C
100
AcDbEntity
  8
606446690-000-00-ED1_FORMAT
100
AcDbLine
 62
2
  6
CONTINUOUS
 10
313.8717033509
 20
55.14090381
 11
313.7515477128
 21
55.1560492255
  0
LINE
  5
61D
100
AcDbEntity
  8
606446690-000-00-ED1_FORMAT
100
AcDbLine
 62
2
  6
CONTINUOUS
 10
310.6005648347
 20
55.9535357291
 11
310.4555152741
 21
55.9733855246
  0
LINE
  5
61E
100
AcDbEntity
  8
606446690-000-00-ED1_FORMAT
100
AcDbLine
 62
2
  6
CONTINUOUS
 10
314.0345193986
 20
55.9111586738
 11
313.8726828523
 21
55.9364870559
  0
LINE
  5
61F
100
AcDbEntity
  8
606446690-000-00-ED1_FORMAT
100
AcDbLine
 62
2
  6
CONTINUOUS
 10
315.9152088677
 20
52.6866529395
 11
316.4781928948
 21
52.5908825149
  0
LINE
  5
620
100
AcDbEntity
  8
606446690-000-00-ED1_FORMAT
100
AcDbLine
 62
2
  6
CONTINUOUS
 10
316.5117251855
 20
52.14662237
 11
317.609850393
 21
51.9276617057
  0
LINE
  5
621
100
AcDbEntity
  8
606446690-000-00-ED1_FORMAT
100
AcDbLine
 62
7
  6
CONTINUOUS
 10
146.999991584
 20
10.0
 11
146.999993584
 21
72.500002
  0
LINE
  5
622
100
AcDbEntity
  8
606446690-000-00-ED1_FORMAT
100
AcDbLine
 62
2
  6
CONTINUOUS
 10
309.1516114228
 20
56.1287752295
 11
308.3285281083
 21
56.2978479598
  0
LINE
  5
623
100
AcDbEntity
  8
606446690-000-00-ED1_FORMAT
100
AcDbLine
 62
2
  6
CONTINUOUS
 10
314.1823667901
 20
55.8760075461
 11
314.0345193986
 21
55.9111586738
  0
LINE
  5
624
100
AcDbEntity
  8
606446690-000-00-ED1_FORMAT
100
AcDbLine
 62
2
  6
CONTINUOUS
 10
313.9792609345
 20
55.1134248542
 11
313.8717033509
 21
55.14090381
  0
LINE
  5
625
100
AcDbEntity
  8
606446690-000-00-ED1_FORMAT
100
AcDbLine
 62
7
  6
CONTINUOUS
 10
154.499993824
 20
65.00000176
 11
154.499993824
 21
72.500002
  0
LINE
  5
626
100
AcDbEntity
  8
606446690-000-00-ED1_FORMAT
100
AcDbLine
 62
3
  6
CONTINUOUS
 10
160.0
 20
10.0
 11
160.0
 21
5.0
  0
LINE
  5
627
100
AcDbEntity
  8
606446690-000-00-ED1_FORMAT
100
AcDbLine
 62
3
  6
CONTINUOUS
 10
160.0
 20
287.0
 11
160.0
 21
292.0
  0
LINE
  5
628
100
AcDbEntity
  8
606446690-000-00-ED1_FORMAT
100
AcDbLine
 62
7
  6
CONTINUOUS
 10
161.999994064
 20
65.00000176
 11
161.999994064
 21
72.500002
  0
LINE
  5
629
100
AcDbEntity
  8
606446690-000-00-ED1_FORMAT
100
AcDbLine
 62
3
  6
CONTINUOUS
 10
22.9999999122
 20
93.4999984459
 11
28.9999998068
 21
93.4999984459
  0
LINE
  5
62A
100
AcDbEntity
  8
606446690-000-00-ED1_FORMAT
100
AcDbLine
 62
3
  6
CONTINUOUS
 10
23.0
 20
98.5
 11
18.0
 21
98.5
  0
LINE
  5
62B
100
AcDbEntity
  8
606446690-000-00-ED1_FORMAT
100
AcDbLine
 62
3
  6
CONTINUOUS
 10
410.0
 20
98.5
 11
415.0
 21
98.5
  0
LINE
  5
62C
100
AcDbEntity
  8
606446690-000-00-ED1_FORMAT
100
AcDbLine
 62
2
  6
CONTINUOUS
 10
314.3167043572
 20
55.8317648681
 11
314.1823667901
 21
55.8760075461
  0
LINE
  5
62D
100
AcDbEntity
  8
606446690-000-00-ED1_FORMAT
100
AcDbLine
 62
2
  6
CONTINUOUS
 10
319.559328991
 20
52.4583050208
 11
320.5409560601
 21
52.0636854941
  0
LINE
  5
62E
100
AcDbEntity
  8
606446690-000-00-ED1_FORMAT
100
AcDbLine
 62
2
  6
CONTINUOUS
 10
320.1383810082
 20
51.9501352012
 11
319.2068127099
 21
52.3385073111
  0
LINE
  5
62F
100
AcDbEntity
  8
606446690-000-00-ED1_FORMAT
100
AcDbLine
 62
2
  6
CONTINUOUS
 10
314.4380166406
 20
55.7791618346
 11
314.3167043572
 21
55.8317648681
  0
LINE
  5
630
100
AcDbEntity
  8
606446690-000-00-ED1_FORMAT
100
AcDbLine
 62
2
  6
CONTINUOUS
 10
307.412287964
 20
52.0724060706
 11
306.724938527
 21
52.4154010749
  0
LINE
  5
631
100
AcDbEntity
  8
606446690-000-00-ED1_FORMAT
100
AcDbLine
 62
2
  6
CONTINUOUS
 10
302.29999432
 20
54.25000176
 11
305.0850031937
 21
52.8486018943
  0
LINE
  5
632
100
AcDbEntity
  8
606446690-000-00-ED1_FORMAT
100
AcDbLine
 62
2
  6
CONTINUOUS
 10
306.7254647485
 20
52.0231256736
 11
312.6103036057
 21
49.0619039283
  0
LINE
  5
633
100
AcDbEntity
  8
606446690-000-00-ED1_FORMAT
100
AcDbLine
 62
2
  6
CONTINUOUS
 10
305.0850031937
 20
53.2406138503
 11
303.1029301255
 21
54.2379800528
  0
LINE
  5
634
100
AcDbEntity
  8
606446690-000-00-ED1_FORMAT
100
AcDbLine
 62
2
  6
CONTINUOUS
 10
312.6129816041
 20
49.4525663993
 11
306.724938527
 21
52.4154010749
  0
LINE
  5
635
100
AcDbEntity
  8
606446690-000-00-ED1_FORMAT
100
AcDbLine
 62
2
  6
CONTINUOUS
 10
305.491402469
 20
50.7036949256
 11
305.0850031937
 21
50.9150103003
  0
LINE
  5
636
100
AcDbEntity
  8
606446690-000-00-ED1_FORMAT
100
AcDbLine
 62
7
  6
CONTINUOUS
 10
171.3988033648
 20
65.00000176
 11
171.3988033648
 21
72.500002
  0
LINE
  5
637
100
AcDbEntity
  8
606446690-000-00-ED1_FORMAT
100
AcDbLine
 62
7
  6
CONTINUOUS
 10
176.3988035248
 20
65.00000176
 11
176.3988035248
 21
72.500002
  0
LINE
  5
638
100
AcDbEntity
  8
606446690-000-00-ED1_FORMAT
100
AcDbLine
 62
2
  6
CONTINUOUS
 10
319.6064909387
 20
55.5284318198
 11
322.4740123803
 21
54.2379800528
  0
LINE
  5
639
100
AcDbEntity
  8
606446690-000-00-ED1_FORMAT
100
AcDbLine
 62
2
  6
CONTINUOUS
 10
312.6129816041
 20
58.6756889457
 11
317.9768299493
 21
56.2618312262
  0
LINE
  5
63A
100
AcDbEntity
  8
606446690-000-00-ED1_FORMAT
100
AcDbLine
 62
2
  6
CONTINUOUS
 10
323.3012846261
 20
54.2500824065
 11
319.6064909387
 21
55.9128307448
  0
LINE
  5
63B
100
AcDbEntity
  8
606446690-000-00-ED1_FORMAT
100
AcDbLine
 62
2
  6
CONTINUOUS
 10
317.9768299493
 20
56.6462193984
 11
312.6104703294
 21
59.0612169219
  0
LINE
  5
63C
100
AcDbEntity
  8
606446690-000-00-ED1_FORMAT
100
AcDbLine
 62
2
  6
CONTINUOUS
 10
314.0720426362
 20
55.0698542304
 11
313.9792609345
 21
55.1134248542
  0
LINE
  5
63D
100
AcDbEntity
  8
606446690-000-00-ED1_FORMAT
100
AcDbLine
 62
2
  6
CONTINUOUS
 10
305.4845042786
 20
57.8197498481
 11
306.7049629517
 21
57.2241592063
  0
LINE
  5
63E
100
AcDbEntity
  8
606446690-000-00-ED1_FORMAT
100
AcDbLine
 62
2
  6
CONTINUOUS
 10
306.5745017091
 20
57.103103411
 11
305.4976754456
 21
57.6291444983
  0
LINE
  5
63F
100
AcDbEntity
  8
606446690-000-00-ED1_FORMAT
100
AcDbLine
 62
2
  6
CONTINUOUS
 10
318.1654360589
 20
51.7783204894
 11
320.1383810082
 21
50.7511580878
  0
LINE
  5
640
100
AcDbEntity
  8
606446690-000-00-ED1_FORMAT
100
AcDbLine
 62
2
  6
CONTINUOUS
 10
320.1637855218
 20
50.5303156714
 11
317.9768299493
 21
51.6789962417
  0
LINE
  5
641
100
AcDbEntity
  8
606446690-000-00-ED1_FORMAT
100
AcDbLine
 62
2
  6
CONTINUOUS
 10
314.5468246514
 20
55.7189242644
 11
314.4380166406
 21
55.7791618346
  0
LINE
  5
642
100
AcDbEntity
  8
606446690-000-00-ED1_FORMAT
100
AcDbLine
 62
2
  6
CONTINUOUS
 10
314.6435868798
 20
55.6517779761
 11
314.5468246514
 21
55.7189242644
  0
LINE
  5
643
100
AcDbEntity
  8
606446690-000-00-ED1_FORMAT
100
AcDbLine
 62
7
  6
CONTINUOUS
 10
207.999993536
 20
65.00000176
 11
207.999993536
 21
72.500002
  0
LINE
  5
644
100
AcDbEntity
  8
606446690-000-00-ED1_FORMAT
100
AcDbLine
 62
7
  6
CONTINUOUS
 10
210.0
 20
292.0
 11
210.0
 21
277.0
  0
LINE
  5
645
100
AcDbEntity
  8
606446690-000-00-ED1_FORMAT
100
AcDbLine
 62
3
  6
CONTINUOUS
 10
210.0
 20
10.0
 11
210.0
 21
5.0
  0
LINE
  5
646
100
AcDbEntity
  8
606446690-000-00-ED1_FORMAT
100
AcDbLine
 62
7
  6
CONTINUOUS
 10
415.0
 20
148.5
 11
400.0
 21
148.5
  0
LINE
  5
647
100
AcDbEntity
  8
606446690-000-00-ED1_FORMAT
100
AcDbLine
 62
7
  6
CONTINUOUS
 10
18.0
 20
148.5
 11
33.0
 21
148.5
  0
LINE
  5
648
100
AcDbEntity
  8
606446690-000-00-ED1_FORMAT
100
AcDbLine
 62
3
  6
CONTINUOUS
 10
23.0
 20
148.515014696
 11
29.000000192
 21
148.515014696
  0
LINE
  5
649
100
AcDbEntity
  8
606446690-000-00-ED1_FORMAT
100
AcDbLine
 62
2
  6
CONTINUOUS
 10
314.1478289475
 20
55.0064553168
 11
314.0720426362
 21
55.0698542304
  0
LINE
  5
64A
100
AcDbEntity
  8
606446690-000-00-ED1_FORMAT
100
AcDbLine
 62
7
  6
CONTINUOUS
 10
223.999992048
 20
10.0
 11
223.999992048
 21
65.00000176
  0
LINE
  5
64B
100
AcDbEntity
  8
606446690-000-00-ED1_FORMAT
100
AcDbLine
 62
2
  6
CONTINUOUS
 10
314.8029955132
 20
55.4996894019
 11
314.6435868798
 21
55.6517779761
  0
LINE
  5
64C
100
AcDbEntity
  8
606446690-000-00-ED1_FORMAT
100
AcDbLine
 62
2
  6
CONTINUOUS
 10
314.9202022271
 20
55.3287187903
 11
314.8029955132
 21
55.4996894019
  0
LINE
  5
64D
100
AcDbEntity
  8
606446690-000-00-ED1_FORMAT
100
AcDbLine
 62
2
  6
CONTINUOUS
 10
319.2546207116
 20
57.638015615
 11
319.6064909387
 21
57.121523075
  0
LINE
  5
64E
100
AcDbEntity
  8
606446690-000-00-ED1_FORMAT
100
AcDbLine
 62
2
  6
CONTINUOUS
 10
314.2044576714
 20
54.9194538566
 11
314.1478289475
 21
55.0064553168
  0
LINE
  5
64F
100
AcDbEntity
  8
606446690-000-00-ED1_FORMAT
100
AcDbLine
 62
3
  6
CONTINUOUS
 10
260.0
 20
10.0
 11
260.0
 21
5.0
  0
LINE
  5
650
100
AcDbEntity
  8
606446690-000-00-ED1_FORMAT
100
AcDbLine
 62
3
  6
CONTINUOUS
 10
260.0
 20
287.0
 11
260.0
 21
292.0
  0
LINE
  5
651
100
AcDbEntity
  8
606446690-000-00-ED1_FORMAT
100
AcDbLine
 62
7
  6
CONTINUOUS
 10
260.999993232
 20
43.500001072
 11
260.999993232
 21
35.0000008
  0
LINE
  5
652
100
AcDbEntity
  8
606446690-000-00-ED1_FORMAT
100
AcDbLine
 62
7
  6
CONTINUOUS
 10
264.9013593819
 20
287.0
 11
264.9013593819
 21
225.000007
  0
LINE
  5
653
100
AcDbEntity
  8
606446690-000-00-ED1_FORMAT
100
AcDbLine
 62
3
  6
CONTINUOUS
 10
23.0
 20
198.5
 11
18.0
 21
198.5
  0
LINE
  5
654
100
AcDbEntity
  8
606446690-000-00-ED1_FORMAT
100
AcDbLine
 62
3
  6
CONTINUOUS
 10
410.0
 20
198.5
 11
415.0
 21
198.5
  0
LINE
  5
655
100
AcDbEntity
  8
606446690-000-00-ED1_FORMAT
100
AcDbLine
 62
2
  6
CONTINUOUS
 10
314.9642172662
 20
55.2379753318
 11
314.9202022271
 21
55.3287187903
  0
LINE
  5
656
100
AcDbEntity
  8
606446690-000-00-ED1_FORMAT
100
AcDbLine
 62
2
  6
CONTINUOUS
 10
306.5876624558
 20
54.1095262839
 11
307.412287964
 21
52.0724060706
  0
LINE
  5
657
100
AcDbEntity
  8
606446690-000-00-ED1_FORMAT
100
AcDbLine
 62
7
  6
CONTINUOUS
 10
274.9014193732
 20
225.000007
 11
274.9014193732
 21
287.0000007463
  0
LINE
  5
658
100
AcDbEntity
  8
606446690-000-00-ED1_FORMAT
100
AcDbLine
 62
3
  6
CONTINUOUS
 10
28.9999998068
 20
209.9999964
 11
22.9999999122
 21
209.9999964
  0
LINE
  5
659
100
AcDbEntity
  8
606446690-000-00-ED1_FORMAT
100
AcDbLine
 62
2
  6
CONTINUOUS
 10
314.9991458672
 20
55.1446941962
 11
314.9642172662
 21
55.2379753318
  0
LINE
  5
65A
100
AcDbEntity
  8
606446690-000-00-ED1_FORMAT
100
AcDbLine
 62
2
  6
CONTINUOUS
 10
306.7049629517
 20
57.2241592063
 11
307.0868225922
 21
56.0970005027
  0
LINE
  5
65B
100
AcDbEntity
  8
606446690-000-00-ED1_FORMAT
100
AcDbLine
 62
2
  6
CONTINUOUS
 10
307.3317083482
 20
54.7871290549
 11
306.5745017091
 21
57.103103411
  0
LINE
  5
65C
100
AcDbEntity
  8
606446690-000-00-ED1_FORMAT
100
AcDbLine
 62
2
  6
CONTINUOUS
 10
314.2397405602
 20
54.8051239806
 11
314.2044576714
 21
54.9194538566
  0
LINE
  5
65D
100
AcDbEntity
  8
606446690-000-00-ED1_FORMAT
100
AcDbLine
 62
7
  6
CONTINUOUS
 10
294.99999432
 20
65.00000176
 11
294.99999432
 21
35.0000008
  0
LINE
  5
65E
100
AcDbEntity
  8
606446690-000-00-ED1_FORMAT
100
AcDbLine
 62
7
  6
CONTINUOUS
 10
264.9013593819
 20
225.000007
 11
410.0000007463
 21
225.000007
  0
LINE
  5
65F
100
AcDbEntity
  8
606446690-000-00-ED1_FORMAT
100
AcDbLine
 62
7
  6
CONTINUOUS
 10
274.9014193732
 20
229.5500015411
 11
376.900004085
 21
229.5500015411
  0
LINE
  5
660
100
AcDbEntity
  8
606446690-000-00-ED1_FORMAT
100
AcDbLine
 62
7
  6
CONTINUOUS
 10
264.9013593819
 20
234.0999960821
 11
410.0000007463
 21
234.0999960821
  0
LINE
  5
661
100
AcDbEntity
  8
606446690-000-00-ED1_FORMAT
100
AcDbLine
 62
2
  6
CONTINUOUS
 10
312.5391021943
 20
52.5618121345
 11
311.7224794206
 21
55.894561621
  0
LINE
  5
662
100
AcDbEntity
  8
606446690-000-00-ED1_FORMAT
100
AcDbLine
 62
2
  6
CONTINUOUS
 10
315.0437861199
 20
54.9534544272
 11
314.9991458672
 21
55.1446941962
  0
LINE
  5
663
100
AcDbEntity
  8
606446690-000-00-ED1_FORMAT
100
AcDbLine
 62
2
  6
CONTINUOUS
 10
311.3784660447
 20
53.2094789191
 11
311.5221922364
 21
52.5294029883
  0
LINE
  5
664
100
AcDbEntity
  8
606446690-000-00-ED1_FORMAT
100
AcDbLine
 62
2
  6
CONTINUOUS
 10
311.0311598771
 20
55.1588611007
 11
311.2880080537
 21
53.9326200889
  0
LINE
  5
665
100
AcDbEntity
  8
606446690-000-00-ED1_FORMAT
100
AcDbLine
 62
2
  6
CONTINUOUS
 10
317.609850393
 20
51.9276617057
 11
316.811390075
 21
56.3655426444
  0
LINE
  5
666
100
AcDbEntity
  8
606446690-000-00-ED1_FORMAT
100
AcDbLine
 62
2
  6
CONTINUOUS
 10
314.2397405602
 20
54.8051239806
 11
314.2514528954
 21
54.659702185
  0
LINE
  5
667
100
AcDbEntity
  8
606446690-000-00-ED1_FORMAT
100
AcDbLine
 62
2
  6
CONTINUOUS
 10
316.4781928948
 20
52.5908825149
 11
316.5117251855
 21
52.14662237
  0
LINE
  5
668
100
AcDbEntity
  8
606446690-000-00-ED1_FORMAT
100
AcDbLine
 62
2
  6
CONTINUOUS
 10
313.6209822678
 20
55.162603099
 11
313.62612986
 21
54.0232237601
  0
LINE
  5
669
100
AcDbEntity
  8
606446690-000-00-ED1_FORMAT
100
AcDbLine
 62
2
  6
CONTINUOUS
 10
313.6491481416
 20
52.5004132544
 11
313.6478560334
 21
53.2465010459
  0
LINE
  5
66A
100
AcDbEntity
  8
606446690-000-00-ED1_FORMAT
100
AcDbLine
 62
2
  6
CONTINUOUS
 10
306.724938527
 20
52.4154010749
 11
306.7262827363
 21
51.4182069182
  0
LINE
  5
66B
100
AcDbEntity
  8
606446690-000-00-ED1_FORMAT
100
AcDbLine
 62
7
  6
CONTINUOUS
 10
299.9999903875
 20
10.0
 11
299.999990634
 21
24.250000456
  0
LINE
  5
66C
100
AcDbEntity
  8
606446690-000-00-ED1_FORMAT
100
AcDbLine
 62
2
  6
CONTINUOUS
 10
305.0850031937
 20
50.9150103003
 11
305.0850031937
 21
53.2406138503
  0
LINE
  5
66D
100
AcDbEntity
  8
606446690-000-00-ED1_FORMAT
100
AcDbLine
 62
2
  6
CONTINUOUS
 10
305.0855867265
 20
55.1631246131
 11
305.0855867265
 21
57.6283917975
  0
LINE
  5
66E
100
AcDbEntity
  8
606446690-000-00-ED1_FORMAT
100
AcDbLine
 62
2
  6
CONTINUOUS
 10
305.4976754456
 20
57.6291444983
 11
305.4976754456
 21
50.923187857
  0
LINE
  5
66F
100
AcDbEntity
  8
606446690-000-00-ED1_FORMAT
100
AcDbLine
 62
2
  6
CONTINUOUS
 10
306.5876624558
 20
51.5376981711
 11
306.5876624558
 21
54.1095262839
  0
LINE
  5
670
100
AcDbEntity
  8
606446690-000-00-ED1_FORMAT
100
AcDbLine
 62
2
  6
CONTINUOUS
 10
308.1737564759
 20
53.919834928
 11
308.1737564759
 21
52.0267386374
  0
LINE
  5
671
100
AcDbEntity
  8
606446690-000-00-ED1_FORMAT
100
AcDbLine
 62
2
  6
CONTINUOUS
 10
309.1516114228
 20
52.2473767493
 11
309.1516114228
 21
56.1287752295
  0
LINE
  5
672
100
AcDbEntity
  8
606446690-000-00-ED1_FORMAT
100
AcDbLine
 62
3
  6
CONTINUOUS
 10
310.0
 20
10.0
 11
310.0
 21
5.0
  0
LINE
  5
673
100
AcDbEntity
  8
606446690-000-00-ED1_FORMAT
100
AcDbLine
 62
3
  6
CONTINUOUS
 10
310.0
 20
287.0
 11
310.0
 21
292.0
  0
LINE
  5
674
100
AcDbEntity
  8
606446690-000-00-ED1_FORMAT
100
AcDbLine
 62
2
  6
CONTINUOUS
 10
312.7687535783
 20
55.9176103949
 11
312.7687535783
 21
52.5591239173
  0
LINE
  5
675
100
AcDbEntity
  8
606446690-000-00-ED1_FORMAT
100
AcDbLine
 62
7
  6
CONTINUOUS
 10
314.0000008808
 20
65.00000176
 11
314.0000008808
 21
72.500002
  0
LINE
  5
676
100
AcDbEntity
  8
606446690-000-00-ED1_FORMAT
100
AcDbLine
 62
7
  6
CONTINUOUS
 10
274.9014193732
 20
238.6499906232
 11
376.900004085
 21
238.6499906232
  0
LINE
  5
677
100
AcDbEntity
  8
606446690-000-00-ED1_FORMAT
100
AcDbLine
 62
7
  6
CONTINUOUS
 10
264.9013593819
 20
243.1999851642
 11
410.0000007463
 21
243.1999851642
  0
LINE
  5
678
100
AcDbEntity
  8
606446690-000-00-ED1_FORMAT
100
AcDbLine
 62
7
  6
CONTINUOUS
 10
274.9014193732
 20
247.7499797053
 11
376.900004085
 21
247.7499797053
  0
LINE
  5
679
100
AcDbEntity
  8
606446690-000-00-ED1_FORMAT
100
AcDbLine
 62
3
  6
CONTINUOUS
 10
23.0
 20
248.5
 11
18.0
 21
248.5
  0
LINE
  5
67A
100
AcDbEntity
  8
606446690-000-00-ED1_FORMAT
100
AcDbLine
 62
3
  6
CONTINUOUS
 10
410.0
 20
248.5
 11
415.0
 21
248.5
  0
LINE
  5
67B
100
AcDbEntity
  8
606446690-000-00-ED1_FORMAT
100
AcDbLine
 62
7
  6
CONTINUOUS
 10
264.9013593819
 20
252.2999732463
 11
410.0000007463
 21
252.2999732463
  0
LINE
  5
67C
100
AcDbEntity
  8
606446690-000-00-ED1_FORMAT
100
AcDbLine
 62
2
  6
CONTINUOUS
 10
316.1995560235
 20
55.0577518767
 11
316.4130664758
 21
53.6217008918
  0
LINE
  5
67D
100
AcDbEntity
  8
606446690-000-00-ED1_FORMAT
100
AcDbLine
 62
2
  6
CONTINUOUS
 10
315.0549566033
 20
54.8569420546
 11
315.0437861199
 21
54.9534544272
  0
LINE
  5
67E
100
AcDbEntity
  8
606446690-000-00-ED1_FORMAT
100
AcDbLine
 62
2
  6
CONTINUOUS
 10
315.0549566033
 20
54.6206692717
 11
315.0549566033
 21
54.8569420546
  0
LINE
  5
67F
100
AcDbEntity
  8
606446690-000-00-ED1_FORMAT
100
AcDbLine
 62
2
  6
CONTINUOUS
 10
317.9768299493
 20
51.6789962417
 11
317.9768299493
 21
52.0552391158
  0
LINE
  5
680
100
AcDbEntity
  8
606446690-000-00-ED1_FORMAT
100
AcDbLine
 62
2
  6
CONTINUOUS
 10
317.9768299493
 20
56.2618312262
 11
317.9768299493
 21
57.09487209
  0
LINE
  5
681
100
AcDbEntity
  8
606446690-000-00-ED1_FORMAT
100
AcDbLine
 62
2
  6
CONTINUOUS
 10
318.1654360589
 20
56.9863057517
 11
318.1654360589
 21
51.7783204894
  0
LINE
  5
682
100
AcDbEntity
  8
606446690-000-00-ED1_FORMAT
100
AcDbLine
 62
2
  6
CONTINUOUS
 10
319.2068127099
 20
52.3385073111
 11
319.2068127099
 21
57.4193990424
  0
LINE
  5
683
100
AcDbEntity
  8
606446690-000-00-ED1_FORMAT
100
AcDbLine
 62
2
  6
CONTINUOUS
 10
319.559328991
 20
52.8235369574
 11
319.559328991
 21
52.4583050208
  0
LINE
  5
684
100
AcDbEntity
  8
606446690-000-00-ED1_FORMAT
100
AcDbLine
 62
2
  6
CONTINUOUS
 10
319.6064909387
 20
57.121523075
 11
319.6064909387
 21
55.5284318198
  0
LINE
  5
685
100
AcDbEntity
  8
606446690-000-00-ED1_FORMAT
100
AcDbLine
 62
2
  6
CONTINUOUS
 10
320.1383810082
 20
50.7511580878
 11
320.1383810082
 21
51.9501352012
  0
LINE
  5
686
100
AcDbEntity
  8
606446690-000-00-ED1_FORMAT
100
AcDbLine
 62
2
  6
CONTINUOUS
 10
320.5409560601
 20
52.0636854941
 11
320.5409560601
 21
50.825024919
  0
LINE
  5
687
100
AcDbEntity
  8
606446690-000-00-ED1_FORMAT
100
AcDbLine
 62
2
  6
CONTINUOUS
 10
314.2514528954
 20
54.659702185
 11
314.2408242638
 21
54.4987801291
  0
LINE
  5
688
100
AcDbEntity
  8
606446690-000-00-ED1_FORMAT
100
AcDbLine
 62
2
  6
CONTINUOUS
 10
315.0287393121
 20
54.3602885573
 11
315.0549566033
 21
54.6206692717
  0
LINE
  5
689
100
AcDbEntity
  8
606446690-000-00-ED1_FORMAT
100
AcDbLine
 62
2
  6
CONTINUOUS
 10
316.1995560235
 20
55.0577518767
 11
316.0044268517
 21
53.6634865394
  0
LINE
  5
68A
100
AcDbEntity
  8
606446690-000-00-ED1_FORMAT
100
AcDbLine
 62
2
  6
CONTINUOUS
 10
310.5265291215
 20
52.4458639518
 11
310.6816029405
 21
53.1572307303
  0
LINE
  5
68B
100
AcDbEntity
  8
606446690-000-00-ED1_FORMAT
100
AcDbLine
 62
2
  6
CONTINUOUS
 10
311.0311598771
 20
55.1588611007
 11
310.7557428559
 21
53.9038776709
  0
LINE
  5
68C
100
AcDbEntity
  8
606446690-000-00-ED1_FORMAT
100
AcDbLine
 62
7
  6
CONTINUOUS
 10
274.9014193732
 20
256.8499677874
 11
376.900004085
 21
256.8499677874
  0
LINE
  5
68D
100
AcDbEntity
  8
606446690-000-00-ED1_FORMAT
100
AcDbLine
 62
7
  6
CONTINUOUS
 10
135.0000610636
 20
259.0000097341
 11
23.0001
 21
259.0000097341
  0
LINE
  5
68E
100
AcDbEntity
  8
606446690-000-00-ED1_FORMAT
100
AcDbLine
 62
7
  6
CONTINUOUS
 10
264.9013593819
 20
261.3999623285
 11
410.0000007463
 21
261.3999623285
  0
LINE
  5
68F
100
AcDbEntity
  8
606446690-000-00-ED1_FORMAT
100
AcDbLine
 62
7
  6
CONTINUOUS
 10
135.0000610636
 20
265.0000076482
 11
23.0001
 21
265.0000076482
  0
LINE
  5
690
100
AcDbEntity
  8
606446690-000-00-ED1_FORMAT
100
AcDbLine
 62
7
  6
CONTINUOUS
 10
274.9014193732
 20
265.9499568695
 11
376.900004085
 21
265.9499568695
  0
LINE
  5
691
100
AcDbEntity
  8
606446690-000-00-ED1_FORMAT
100
AcDbLine
 62
2
  6
CONTINUOUS
 10
315.8408084466
 20
52.2778396262
 11
315.9152088677
 21
52.6866529395
  0
LINE
  5
692
100
AcDbEntity
  8
606446690-000-00-ED1_FORMAT
100
AcDbLine
 62
2
  6
CONTINUOUS
 10
315.6581835473
 20
56.1055812919
 11
314.8399247979
 21
52.3946910499
  0
LINE
  5
693
100
AcDbEntity
  8
606446690-000-00-ED1_FORMAT
100
AcDbLine
 62
2
  6
CONTINUOUS
 10
314.2408242638
 20
54.4987801291
 11
314.2106472863
 21
54.3649284202
  0
LINE
  5
694
100
AcDbEntity
  8
606446690-000-00-ED1_FORMAT
100
AcDbLine
 62
2
  6
CONTINUOUS
 10
314.9760546441
 20
54.126634098
 11
315.0287393121
 21
54.3602885573
  0
LINE
  5
695
100
AcDbEntity
  8
606446690-000-00-ED1_FORMAT
100
AcDbLine
 62
2
  6
CONTINUOUS
 10
310.4555152741
 20
55.9733855246
 11
309.4726377778
 21
52.3088992873
  0
LINE
  5
696
100
AcDbEntity
  8
606446690-000-00-ED1_FORMAT
100
AcDbLine
 62
2
  6
CONTINUOUS
 10
314.897298568
 20
53.9199424567
 11
314.9760546441
 21
54.126634098
  0
LINE
  5
697
100
AcDbEntity
  8
606446690-000-00-ED1_FORMAT
100
AcDbLine
 62
2
  6
CONTINUOUS
 10
307.412287964
 20
52.0724060706
 11
308.1737564759
 21
53.919834928
  0
LINE
  5
698
100
AcDbEntity
  8
606446690-000-00-ED1_FORMAT
100
AcDbLine
 62
2
  6
CONTINUOUS
 10
307.4111900432
 20
52.070082645
 11
308.1737564759
 21
53.919834928
  0
LINE
  5
699
100
AcDbEntity
  8
606446690-000-00-ED1_FORMAT
100
AcDbLine
 62
2
  6
CONTINUOUS
 10
308.3285281083
 20
56.2978479598
 11
307.3317083482
 21
54.7871290549
  0
LINE
  5
69A
100
AcDbEntity
  8
606446690-000-00-ED1_FORMAT
100
AcDbLine
 62
2
  6
CONTINUOUS
 10
306.7262827363
 20
51.4182069182
 11
305.491402469
 21
50.7036949256
  0
LINE
  5
69B
100
AcDbEntity
  8
606446690-000-00-ED1_FORMAT
100
AcDbLine
 62
2
  6
CONTINUOUS
 10
305.4976754456
 20
50.923187857
 11
306.5876624558
 21
51.5376981711
  0
LINE
  5
69C
100
AcDbEntity
  8
606446690-000-00-ED1_FORMAT
100
AcDbLine
 62
2
  6
CONTINUOUS
 10
305.0855867265
 20
57.6283917975
 11
305.4845042786
 21
57.8197498481
  0
LINE
  5
69D
100
AcDbEntity
  8
606446690-000-00-ED1_FORMAT
100
AcDbLine
 62
2
  6
CONTINUOUS
 10
305.0855867265
 20
55.5498515342
 11
302.29999432
 21
54.25000176
  0
LINE
  5
69E
100
AcDbEntity
  8
606446690-000-00-ED1_FORMAT
100
AcDbLine
 62
2
  6
CONTINUOUS
 10
312.6104703294
 20
59.0612169219
 11
306.9737006074
 21
56.4309093329
  0
LINE
  5
69F
100
AcDbEntity
  8
606446690-000-00-ED1_FORMAT
100
AcDbLine
 62
2
  6
CONTINUOUS
 10
303.1029301255
 20
54.2379800528
 11
305.0855867265
 21
55.1631246131
  0
LINE
  5
6A0
100
AcDbEntity
  8
606446690-000-00-ED1_FORMAT
100
AcDbLine
 62
2
  6
CONTINUOUS
 10
307.0868225922
 20
56.0970005027
 11
312.6129816041
 21
58.6756889457
  0
LINE
  5
6A1
100
AcDbEntity
  8
606446690-000-00-ED1_FORMAT
100
AcDbLine
 62
2
  6
CONTINUOUS
 10
314.2304457177
 20
53.3293357696
 11
314.4218236077
 21
53.411982318
  0
LINE
  5
6A2
100
AcDbEntity
  8
606446690-000-00-ED1_FORMAT
100
AcDbLine
 62
2
  6
CONTINUOUS
 10
317.9768299493
 20
57.09487209
 11
319.2546207116
 21
57.638015615
  0
LINE
  5
6A3
100
AcDbEntity
  8
606446690-000-00-ED1_FORMAT
100
AcDbLine
 62
2
  6
CONTINUOUS
 10
314.004113176
 20
54.106655268
 11
313.8970140824
 21
54.0619609694
  0
LINE
  5
6A4
100
AcDbEntity
  8
606446690-000-00-ED1_FORMAT
100
AcDbLine
 62
2
  6
CONTINUOUS
 10
319.2068127099
 20
57.4193990424
 11
318.1654360589
 21
56.9863057517
  0
LINE
  5
6A5
100
AcDbEntity
  8
606446690-000-00-ED1_FORMAT
100
AcDbLine
 62
2
  6
CONTINUOUS
 10
314.125727646
 20
53.2985664359
 11
314.2304457177
 21
53.3293357696
  0
LINE
  5
6A6
100
AcDbEntity
  8
606446690-000-00-ED1_FORMAT
100
AcDbLine
 62
7
  6
CONTINUOUS
 10
264.9013593819
 20
270.4999514106
 11
410.0000007463
 21
270.4999514106
  0
LINE
  5
6A7
100
AcDbEntity
  8
606446690-000-00-ED1_FORMAT
100
AcDbLine
 62
7
  6
CONTINUOUS
 10
274.9014193732
 20
275.0499459516
 11
376.900004085
 21
275.0499459516
  0
LINE
  5
6A8
100
AcDbEntity
  8
606446690-000-00-ED1_FORMAT
100
AcDbLine
 62
7
  6
CONTINUOUS
 10
264.9013593819
 20
279.5999404927
 11
410.0000007463
 21
279.5999404927
  0
LINE
  5
6A9
100
AcDbEntity
  8
606446690-000-00-ED1_FORMAT
100
AcDbLine
 62
7
  6
CONTINUOUS
 10
135.0000610636
 20
281.0000010853
 11
23.0001
 21
281.0000010853
  0
LINE
  5
6AA
100
AcDbEntity
  8
606446690-000-00-ED1_FORMAT
100
AcDbLine
 62
7
  6
CONTINUOUS
 10
344.9999968815
 20
13.500000112
 11
344.9999968815
 21
24.250000456
  0
LINE
  5
6AB
100
AcDbEntity
  8
606446690-000-00-ED1_FORMAT
100
AcDbLine
 62
2
  6
CONTINUOUS
 10
314.2106472863
 20
54.3649284202
 11
314.1610626359
 21
54.2562276709
  0
LINE
  5
6AC
100
AcDbEntity
  8
606446690-000-00-ED1_FORMAT
100
AcDbLine
 62
2
  6
CONTINUOUS
 10
314.8482609795
 20
53.8267688498
 11
314.897298568
 21
53.9199424567
  0
LINE
  5
6AD
100
AcDbEntity
  8
606446690-000-00-ED1_FORMAT
100
AcDbLine
 62
2
  6
CONTINUOUS
 10
314.7928670525
 20
53.7404233146
 11
314.8482609795
 21
53.8267688498
  0
LINE
  5
6AE
100
AcDbEntity
  8
606446690-000-00-ED1_FORMAT
100
AcDbLine
 62
2
  6
CONTINUOUS
 10
314.731116787
 20
53.6609219802
 11
314.7928670525
 21
53.7404233146
  0
LINE
  5
6AF
100
AcDbEntity
  8
606446690-000-00-ED1_FORMAT
100
AcDbLine
 62
2
  6
CONTINUOUS
 10
314.1610626359
 20
54.2562276709
 11
314.0921745149
 21
54.1707746238
  0
LINE
  5
6B0
100
AcDbEntity
  8
606446690-000-00-ED1_FORMAT
100
AcDbLine
 62
2
  6
CONTINUOUS
 10
314.5888598473
 20
53.5225809485
 11
314.731116787
 21
53.6609219802
  0
LINE
  5
6B1
100
AcDbEntity
  8
606446690-000-00-ED1_FORMAT
100
AcDbLine
 62
2
  6
CONTINUOUS
 10
320.5409560601
 20
50.825024919
 11
320.1637855218
 21
50.5303156714
  0
LINE
  5
6B2
100
AcDbEntity
  8
606446690-000-00-ED1_FORMAT
100
AcDbLine
 62
2
  6
CONTINUOUS
 10
314.0921745149
 20
54.1707746238
 11
314.004113176
 21
54.106655268
  0
LINE
  5
6B3
100
AcDbEntity
  8
606446690-000-00-ED1_FORMAT
100
AcDbLine
 62
2
  6
CONTINUOUS
 10
314.4218236077
 20
53.411982318
 11
314.5888598473
 21
53.5225809485
  0
LINE
  5
6B4
100
AcDbEntity
  8
606446690-000-00-ED1_FORMAT
100
AcDbLine
 62
2
  6
CONTINUOUS
 10
317.9768299493
 20
52.0552391158
 11
312.6129816041
 21
49.4525663993
  0
LINE
  5
6B5
100
AcDbEntity
  8
606446690-000-00-ED1_FORMAT
100
AcDbLine
 62
2
  6
CONTINUOUS
 10
322.4740123803
 20
54.2379800528
 11
319.559328991
 21
52.8235369574
  0
LINE
  5
6B6
100
AcDbEntity
  8
606446690-000-00-ED1_FORMAT
100
AcDbLine
 62
2
  6
CONTINUOUS
 10
312.6103036057
 20
49.0619039283
 11
317.9894905251
 21
51.6723455924
  0
LINE
  5
6B7
100
AcDbEntity
  8
606446690-000-00-ED1_FORMAT
100
AcDbLine
 62
2
  6
CONTINUOUS
 10
319.5865362039
 20
52.4473693534
 11
323.3012846261
 21
54.2500824065
  0
LINE
  5
6B8
100
AcDbEntity
  8
606446690-000-00-ED1_FORMAT
100
AcDbLine
 62
7
  6
CONTINUOUS
 10
410.0
 20
287.0
 11
264.9013593819
 21
287.0
  0
LINE
  5
6B9
100
AcDbEntity
  8
606446690-000-00-ED1_FORMAT
100
AcDbLine
 62
3
  6
CONTINUOUS
 10
23.0
 20
287.0
 11
23.0001
 21
287.0
  0
LINE
  5
6BA
100
AcDbEntity
  8
606446690-000-00-ED1_FORMAT
100
AcDbLine
 62
7
  6
CONTINUOUS
 10
23.0001
 20
287.0
 11
135.0000610636
 21
287.0
  0
LINE
  5
6BB
100
AcDbEntity
  8
606446690-000-00-ED1_FORMAT
100
AcDbLine
 62
3
  6
CONTINUOUS
 10
135.0000610636
 20
287.0
 11
264.9013593819
 21
287.0
  0
LINE
  5
6BC
100
AcDbEntity
  8
606446690-000-00-ED1_FORMAT
100
AcDbLine
 62
7
  6
CONTINUOUS
 10
415.0
 20
292.0
 11
18.0
 21
292.0
  0
LINE
  5
6BD
100
AcDbEntity
  8
606446690-000-00-ED1_FORMAT
100
AcDbLine
 62
6
  6
HIDDEN
 10
420.0
 20
297.0
 11
0.0
 21
297.0
  0
LINE
  5
6BE
100
AcDbEntity
  8
606446690-000-00-ED1_FORMAT
100
AcDbLine
 62
3
  6
CONTINUOUS
 10
360.0
 20
10.0
 11
360.0
 21
5.0
  0
LINE
  5
6BF
100
AcDbEntity
  8
606446690-000-00-ED1_FORMAT
100
AcDbLine
 62
3
  6
CONTINUOUS
 10
360.0
 20
287.0
 11
360.0
 21
292.0
  0
LINE
  5
6C0
100
AcDbEntity
  8
606446690-000-00-ED1_FORMAT
100
AcDbLine
 62
7
  6
CONTINUOUS
 10
365.999998592
 20
35.0000008
 11
366.0000025448
 21
72.500002
  0
LINE
  5
6C1
100
AcDbEntity
  8
606446690-000-00-ED1_FORMAT
100
AcDbLine
 62
7
  6
CONTINUOUS
 10
376.8994429408
 20
40.9546819905
 11
376.8994429408
 21
65.00000176
  0
LINE
  5
6C2
100
AcDbEntity
  8
606446690-000-00-ED1_FORMAT
100
AcDbLine
 62
7
  6
CONTINUOUS
 10
376.900004085
 20
225.000007
 11
376.900004085
 21
287.0000007463
  0
LINE
  5
6C3
100
AcDbEntity
  8
606446690-000-00-ED1_FORMAT
100
AcDbLine
 62
7
  6
CONTINUOUS
 10
377.7325379674
 20
13.500000112
 11
377.7325379674
 21
10.0
  0
LINE
  5
6C4
100
AcDbEntity
  8
606446690-000-00-ED1_FORMAT
100
AcDbLine
 62
7
  6
CONTINUOUS
 10
391.8994434208
 20
65.00000176
 11
391.8994434208
 21
35.0000008
  0
LINE
  5
6C5
100
AcDbEntity
  8
606446690-000-00-ED1_FORMAT
100
AcDbLine
 62
7
  6
CONTINUOUS
 10
391.900002572
 20
225.000007
 11
391.900002572
 21
287.0000007463
  0
LINE
  5
6C6
100
AcDbEntity
  8
606446690-000-00-ED1_FORMAT
100
AcDbLine
 62
7
  6
CONTINUOUS
 10
399.9999602137
 20
13.500000112
 11
399.9999602137
 21
35.0000008
  0
LINE
  5
6C7
100
AcDbEntity
  8
606446690-000-00-ED1_FORMAT
100
AcDbLine
 62
7
  6
CONTINUOUS
 10
410.0
 20
10.0
 11
410.0
 21
78.4999970131
  0
LINE
  5
6C8
100
AcDbEntity
  8
606446690-000-00-ED1_FORMAT
100
AcDbLine
 62
3
  6
CONTINUOUS
 10
410.0
 20
78.4999970131
 11
410.0000007463
 21
225.000007
  0
LINE
  5
6C9
100
AcDbEntity
  8
606446690-000-00-ED1_FORMAT
100
AcDbLine
 62
7
  6
CONTINUOUS
 10
410.0000007463
 20
225.000007
 11
410.0000007463
 21
287.0000007463
  0
LINE
  5
6CA
100
AcDbEntity
  8
606446690-000-00-ED1_FORMAT
100
AcDbLine
 62
7
  6
CONTINUOUS
 10
415.0
 20
5.0
 11
415.0
 21
292.0
  0
LINE
  5
6CB
100
AcDbEntity
  8
606446690-000-00-ED1_FORMAT
100
AcDbLine
 62
6
  6
HIDDEN
 10
420.0
 20
0.0
 11
420.0
 21
297.0
  0
LINE
  5
6CC
100
AcDbEntity
  8
30338420_CL
100
AcDbLine
 62
7
  6
CONTINUOUS
 10
121.0761844836
 20
154.1212044809
 11
121.0761844836
 21
132.0260177846
  0
LINE
  5
6CD
100
AcDbEntity
  8
30338420_CL
100
AcDbLine
 62
7
  6
CONTINUOUS
 10
121.0761844836
 20
177.1412044809
 11
121.0761844836
 21
199.2363984285
  0
LINE
  5
6CE
100
AcDbEntity
  8
30338420_CL
100
AcDbLine
 62
7
  6
CONTINUOUS
 10
122.5761844836
 20
155.6212044809
 11
122.5761844836
 21
150.6925101945
  0
LINE
  5
6CF
100
AcDbEntity
  8
30338420_HL
100
AcDbLine
 62
6
  6
HIDDEN
 10
122.5761844836
 20
139.1312044809
 11
122.5761844836
 21
150.6925101945
  0
LINE
  5
6D0
100
AcDbEntity
  8
30338420_CL
100
AcDbLine
 62
7
  6
CONTINUOUS
 10
122.5761844836
 20
175.6412044809
 11
122.5761844836
 21
180.5698987672
  0
LINE
  5
6D1
100
AcDbEntity
  8
30338420_HL
100
AcDbLine
 62
6
  6
HIDDEN
 10
122.5761844836
 20
180.5698987672
 11
122.5761844836
 21
192.1312044809
  0
LINE
  5
6D2
100
AcDbEntity
  8
30338420_CL
100
AcDbLine
 62
9
  6
CONTINUOUS
 10
122.9761095995
 20
201.2338931137
 11
122.9761095995
 21
180.7228493761
  0
LINE
  5
6D3
100
AcDbEntity
  8
30338420_CL
100
AcDbLine
 62
9
  6
CONTINUOUS
 10
122.9761095995
 20
150.5395595857
 11
122.9761095995
 21
130.028515848
  0
LINE
  5
6D4
100
AcDbEntity
  8
30338420_CL
100
AcDbLine
 62
9
  6
CONTINUOUS
 10
129.0761844836
 20
155.6212044809
 11
129.0761844836
 21
149.5350241454
  0
LINE
  5
6D5
100
AcDbEntity
  8
30338420_CL
100
AcDbLine
 62
9
  6
CONTINUOUS
 10
129.0761844836
 20
175.6412044809
 11
129.0761844836
 21
181.7273848163
  0
LINE
  5
6D6
100
AcDbEntity
  8
30338420_CL
100
AcDbLine
 62
7
  6
CONTINUOUS
 10
131.0761844836
 20
178.061086143
 11
131.0761844836
 21
153.2013228187
  0
LINE
  5
6D7
100
AcDbEntity
  8
30338420_HL
100
AcDbLine
 62
6
  6
HIDDEN
 10
140.9728088106
 20
192.1312044809
 11
143.570885022
 21
196.6312044809
  0
LINE
  5
6D8
100
AcDbEntity
  8
30338420_CL
100
AcDbLine
 62
7
  6
CONTINUOUS
 10
171.1761844836
 20
115.6312044809
 11
175.8661830136
 21
115.6312044809
  0
LINE
  5
6D9
100
AcDbEntity
  8
30338420_HL
100
AcDbLine
 62
6
  6
HIDDEN
 10
175.8661830136
 20
115.6312044809
 11
175.868110922
 21
115.6312044809
  0
LINE
  5
6DA
100
AcDbEntity
  8
30338420_HL
100
AcDbLine
 62
6
  6
HIDDEN
 10
183.0842580324
 20
115.6312044809
 11
183.0861859535
 21
115.6312044809
  0
LINE
  5
6DB
100
AcDbEntity
  8
30338420_CL
100
AcDbLine
 62
7
  6
CONTINUOUS
 10
183.0861859535
 20
115.6312044809
 11
187.7285892194
 21
115.6312044809
  0
LINE
  5
6DC
100
AcDbEntity
  8
30338420_CL
100
AcDbLine
 62
7
  6
CONTINUOUS
 10
194.2237797478
 20
115.6312044809
 11
199.9261844836
 21
115.6312044809
  0
LINE
  5
6DD
100
AcDbEntity
  8
30338420_HL
100
AcDbLine
 62
6
  6
HIDDEN
 10
140.9728088106
 20
139.1312044809
 11
143.570885022
 21
134.6312044809
  0
LINE
  5
6DE
100
AcDbEntity
  8
30338420_HL
100
AcDbLine
 62
6
  6
HIDDEN
 10
140.9728088106
 20
192.1312044809
 11
140.9728088106
 21
139.1312044809
  0
LINE
  5
6DF
100
AcDbEntity
  8
30338420_CL
100
AcDbLine
 62
9
  6
CONTINUOUS
 10
143.570885022
 20
134.6312044809
 11
143.570885022
 21
196.6312044809
  0
LINE
  5
6E0
100
AcDbEntity
  8
30338420_CL
100
AcDbLine
 62
9
  6
CONTINUOUS
 10
144.4369104257
 20
134.1312044809
 11
144.4369104257
 21
197.1312044809
  0
LINE
  5
6E1
100
AcDbEntity
  8
30338420_CL
100
AcDbLine
 62
7
  6
CONTINUOUS
 10
170.9761844836
 20
215.4312044809
 11
171.1761844836
 21
215.6312044809
  0
LINE
  5
6E2
100
AcDbEntity
  8
30338420_HL
100
AcDbLine
 62
6
  6
HIDDEN
 10
179.4661844836
 20
119.2312044809
 11
179.4861844836
 21
119.2312044809
  0
LINE
  5
6E3
100
AcDbEntity
  8
30338420_CL
100
AcDbLine
 62
7
  6
CONTINUOUS
 10
192.1011844836
 20
119.6312044809
 11
189.8511844836
 21
119.6312044809
  0
LINE
  5
6E4
100
AcDbEntity
  8
30338420_CL
100
AcDbLine
 62
7
  6
CONTINUOUS
 10
170.9761844836
 20
115.8312044809
 11
171.1761844836
 21
115.6312044809
  0
LINE
  5
6E5
100
AcDbEntity
  8
30338420_CL
100
AcDbLine
 62
7
  6
CONTINUOUS
 10
121.0761844836
 20
154.1212044809
 11
122.5761844836
 21
155.6212044809
  0
LINE
  5
6E6
100
AcDbEntity
  8
30338420_HL
100
AcDbLine
 62
6
  6
HIDDEN
 10
183.4761844836
 20
215.6312044809
 11
182.9761844836
 21
215.1312044809
  0
LINE
  5
6E7
100
AcDbEntity
  8
30338420_HL
100
AcDbLine
 62
6
  6
HIDDEN
 10
178.5761844836
 20
210.7312044809
 11
177.9761844836
 21
210.1312044809
  0
LINE
  5
6E8
100
AcDbEntity
  8
30338420_CL
100
AcDbLine
 62
7
  6
CONTINUOUS
 10
176.2892866244
 20
126.8014478502
 11
187.7285892194
 21
126.8014478502
  0
LINE
  5
6E9
100
AcDbEntity
  8
30338420_CL
100
AcDbLine
 62
7
  6
CONTINUOUS
 10
194.2237797478
 20
126.8014478502
 11
199.9261844836
 21
126.8014478502
  0
LINE
  5
6EA
100
AcDbEntity
  8
30338420_CL
100
AcDbLine
 62
7
  6
CONTINUOUS
 10
122.9761095995
 20
130.028515848
 11
168.4761844836
 21
127.7489529778
  0
LINE
  5
6EB
100
AcDbEntity
  8
30338420_CL
100
AcDbLine
 62
7
  6
CONTINUOUS
 10
122.5761844836
 20
175.6412044809
 11
121.0761844836
 21
177.1412044809
  0
LINE
  5
6EC
100
AcDbEntity
  8
30338420_HL
100
AcDbLine
 62
6
  6
HIDDEN
 10
183.0860547941
 20
115.6313341703
 11
179.4861844836
 21
119.2312044809
  0
LINE
  5
6ED
100
AcDbEntity
  8
30338420_HL
100
AcDbLine
 62
6
  6
HIDDEN
 10
182.9761844836
 20
211.0312044809
 11
182.6761844836
 21
210.7312044809
  0
LINE
  5
6EE
100
AcDbEntity
  8
30338420_CL
100
AcDbLine
 62
7
  6
CONTINUOUS
 10
169.3542471427
 20
127.9489529778
 11
170.0761844836
 21
127.9489529778
  0
LINE
  5
6EF
100
AcDbEntity
  8
30338420_CL
100
AcDbLine
 62
7
  6
CONTINUOUS
 10
192.1011844836
 20
132.1088238972
 11
189.8511844836
 21
132.1088238972
  0
LINE
  5
6F0
100
AcDbEntity
  8
30338420_AXIS
100
AcDbLine
 62
3
  6
CENTER
 10
155.9761844836
 20
165.6312044809
 11
155.9761844836
 21
156.6312044809
  0
LINE
  5
6F1
100
AcDbEntity
  8
30338420_AXIS
100
AcDbLine
 62
3
  6
CENTER
 10
155.9761844836
 20
165.6312044809
 11
155.9761844836
 21
174.6312044809
  0
LINE
  5
6F2
100
AcDbEntity
  8
30338420_CL
100
AcDbLine
 62
9
  6
CONTINUOUS
 10
161.2293901388
 20
162.7322684098
 11
161.2293901388
 21
134.1312044809
  0
LINE
  5
6F3
100
AcDbEntity
  8
30338420_CL
100
AcDbLine
 62
9
  6
CONTINUOUS
 10
161.2293901388
 20
168.530140552
 11
161.2293901388
 21
197.1312044809
  0
LINE
  5
6F4
100
AcDbEntity
  8
30338420_CL
100
AcDbLine
 62
7
  6
CONTINUOUS
 10
168.4761844836
 20
127.7489529778
 11
169.0954280976
 21
127.9148788041
  0
LINE
  5
6F5
100
AcDbEntity
  8
30338420_HL
100
AcDbLine
 62
6
  6
HIDDEN
 10
144.4369104257
 20
134.1312044809
 11
161.2293901388
 21
134.1312044809
  0
LINE
  5
6F6
100
AcDbEntity
  8
30338420_CL
100
AcDbLine
 62
7
  6
CONTINUOUS
 10
185.9261844836
 20
134.1312044809
 11
199.9261844836
 21
134.1312044809
  0
LINE
  5
6F7
100
AcDbEntity
  8
30338420_HL
100
AcDbLine
 62
6
  6
HIDDEN
 10
122.5761844836
 20
139.1312044809
 11
140.9728088106
 21
139.1312044809
  0
LINE
  5
6F8
100
AcDbEntity
  8
30338420_HL
100
AcDbLine
 62
6
  6
HIDDEN
 10
170.9761844836
 20
139.1312044809
 11
180.2761844836
 21
139.1312044809
  0
LINE
  5
6F9
100
AcDbEntity
  8
30338420_CL
100
AcDbLine
 62
7
  6
CONTINUOUS
 10
168.4761844836
 20
127.7489529778
 11
168.4761844836
 21
203.5134559839
  0
LINE
  5
6FA
100
AcDbEntity
  8
30338420_CL
100
AcDbLine
 62
9
  6
CONTINUOUS
 10
169.0954280976
 20
203.3475301576
 11
169.0954280976
 21
127.9148788041
  0
LINE
  5
6FB
100
AcDbEntity
  8
30338420_CL
100
AcDbLine
 62
9
  6
CONTINUOUS
 10
169.3542471427
 20
203.3134559839
 11
169.3542471427
 21
127.9489529778
  0
LINE
  5
6FC
100
AcDbEntity
  8
30338420_CL
100
AcDbLine
 62
9
  6
CONTINUOUS
 10
170.0761844836
 20
203.3134559839
 11
170.0761844836
 21
127.9489529778
  0
LINE
  5
6FD
100
AcDbEntity
  8
30338420_CL
100
AcDbLine
 62
7
  6
CONTINUOUS
 10
170.9761844836
 20
115.8312062928
 11
170.9761844836
 21
215.431202669
  0
LINE
  5
6FE
100
AcDbEntity
  8
30338420_CL
100
AcDbLine
 62
9
  6
CONTINUOUS
 10
171.0664525523
 20
126.8097798769
 11
171.0664525523
 21
204.4526290849
  0
LINE
  5
6FF
100
AcDbEntity
  8
30338420_HL
100
AcDbLine
 62
6
  6
HIDDEN
 10
171.0761844836
 20
204.3074313562
 11
171.0761844836
 21
126.9549776056
  0
LINE
  5
700
100
AcDbEntity
  8
30338420_CL
100
AcDbLine
 62
7
  6
CONTINUOUS
 10
171.1761844836
 20
115.6312044809
 11
171.1761844836
 21
215.6312044809
  0
LINE
  5
701
100
AcDbEntity
  8
30338420_CL
100
AcDbLine
 62
7
  6
CONTINUOUS
 10
194.2237797478
 20
215.6312044809
 11
192.8511844836
 21
213.2537997451
  0
LINE
  5
702
100
AcDbEntity
  8
30338420_CL
100
AcDbLine
 62
7
  6
CONTINUOUS
 10
194.2237797478
 20
115.6312044809
 11
192.8511844836
 21
118.0086092167
  0
LINE
  5
703
100
AcDbEntity
  8
30338420_HL
100
AcDbLine
 62
6
  6
HIDDEN
 10
172.9761844836
 20
215.1312044809
 11
172.9761844836
 21
211.0312044809
  0
LINE
  5
704
100
AcDbEntity
  8
30338420_HL
100
AcDbLine
 62
6
  6
HIDDEN
 10
175.9261844836
 20
166.6312044809
 11
175.9261844836
 21
164.6312044809
  0
LINE
  5
705
100
AcDbEntity
  8
30338420_AXIS
100
AcDbLine
 62
3
  6
CENTER
 10
177.9761844836
 20
207.1312044809
 11
177.9761844836
 21
220.1312044809
  0
LINE
  5
706
100
AcDbEntity
  8
30338420_HL
100
AcDbLine
 62
6
  6
HIDDEN
 10
170.9761844836
 20
126.1674891937
 11
171.0664525523
 21
126.8097798769
  0
LINE
  5
707
100
AcDbEntity
  8
30338420_CL
100
AcDbLine
 62
7
  6
CONTINUOUS
 10
217.857570275
 20
152.1312044809
 11
255.0546435793
 21
155.0586776388
  0
LINE
  5
708
100
AcDbEntity
  8
30338420_CL
100
AcDbLine
 62
7
  6
CONTINUOUS
 10
207.4261844836
 20
152.1312044809
 11
209.4761844836
 21
152.1312044809
  0
LINE
  5
709
100
AcDbEntity
  8
30338420_CL
100
AcDbLine
 62
7
  6
CONTINUOUS
 10
217.4761844836
 20
152.1312044809
 11
217.857570275
 21
152.1312044809
  0
LINE
  5
70A
100
AcDbEntity
  8
30338420_CL
100
AcDbLine
 62
7
  6
CONTINUOUS
 10
209.4761844836
 20
152.2812044809
 11
210.9761844836
 21
152.2812044809
  0
LINE
  5
70B
100
AcDbEntity
  8
30338420_CL
100
AcDbLine
 62
7
  6
CONTINUOUS
 10
215.9761844836
 20
152.2812044809
 11
217.4761844836
 21
152.2812044809
  0
LINE
  5
70C
100
AcDbEntity
  8
30338420_HL
100
AcDbLine
 62
6
  6
HIDDEN
 10
199.4761844836
 20
152.6312044809
 11
193.8761844836
 21
152.6312044809
  0
LINE
  5
70D
100
AcDbEntity
  8
30338420_HL
100
AcDbLine
 62
6
  6
HIDDEN
 10
193.8761844836
 20
153.6312044809
 11
183.4761844836
 21
153.6312044809
  0
LINE
  5
70E
100
AcDbEntity
  8
30338420_HL
100
AcDbLine
 62
6
  6
HIDDEN
 10
193.8761844836
 20
154.3812044809
 11
183.4761844836
 21
154.3812044809
  0
LINE
  5
70F
100
AcDbEntity
  8
30338420_HL
100
AcDbLine
 62
6
  6
HIDDEN
 10
185.9261844836
 20
154.6312044809
 11
199.9261844836
 21
154.6312044809
  0
LINE
  5
710
100
AcDbEntity
  8
30338420_HL
100
AcDbLine
 62
6
  6
HIDDEN
 10
170.9761844836
 20
205.0949197681
 11
171.0664525523
 21
204.4526290849
  0
LINE
  5
711
100
AcDbEntity
  8
30338420_AXIS
100
AcDbLine
 62
3
  6
CENTER
 10
179.4761844836
 20
122.2312044809
 11
179.4761844836
 21
112.1412044809
  0
LINE
  5
712
100
AcDbEntity
  8
30338420_HL
100
AcDbLine
 62
6
  6
HIDDEN
 10
180.2761844836
 20
192.1312044809
 11
180.2761844836
 21
139.1312044809
  0
LINE
  5
713
100
AcDbEntity
  8
30338420_HL
100
AcDbLine
 62
6
  6
HIDDEN
 10
182.9761844836
 20
215.1312044809
 11
182.9761844836
 21
211.0312044809
  0
LINE
  5
714
100
AcDbEntity
  8
30338420_HL
100
AcDbLine
 62
6
  6
HIDDEN
 10
183.4761844836
 20
190.5312044809
 11
183.4761844836
 21
140.7312044809
  0
LINE
  5
715
100
AcDbEntity
  8
30338420_HL
100
AcDbLine
 62
6
  6
HIDDEN
 10
122.5761844836
 20
139.1312044809
 11
121.0761844836
 21
138.2651790771
  0
LINE
  5
716
100
AcDbEntity
  8
30338420_CL
100
AcDbLine
 62
7
  6
CONTINUOUS
 10
122.5761844836
 20
155.6212044809
 11
129.0761844836
 21
155.6212044809
  0
LINE
  5
717
100
AcDbEntity
  8
30338420_CL
100
AcDbLine
 62
7
  6
CONTINUOUS
 10
185.9261844836
 20
155.6312044809
 11
199.9261844836
 21
155.6312044809
  0
LINE
  5
718
100
AcDbEntity
  8
30338420_HL
100
AcDbLine
 62
6
  6
HIDDEN
 10
216.4761844836
 20
158.7812044809
 11
210.4761844836
 21
158.7812044809
  0
LINE
  5
719
100
AcDbEntity
  8
30338420_HL
100
AcDbLine
 62
6
  6
HIDDEN
 10
215.9761844836
 20
160.7812044809
 11
210.9761844836
 21
160.7812044809
  0
LINE
  5
71A
100
AcDbEntity
  8
30338420_HL
100
AcDbLine
 62
6
  6
HIDDEN
 10
122.5761844836
 20
192.1312044809
 11
121.0761844836
 21
192.9972298847
  0
LINE
  5
71B
100
AcDbEntity
  8
30338420_AXIS
100
AcDbLine
 62
3
  6
CENTER
 10
185.9761844836
 20
165.6312044809
 11
185.9761844836
 21
156.4312044809
  0
LINE
  5
71C
100
AcDbEntity
  8
30338420_AXIS
100
AcDbLine
 62
3
  6
CENTER
 10
185.9761844836
 20
165.6312044809
 11
185.9761844836
 21
174.8312044809
  0
LINE
  5
71D
100
AcDbEntity
  8
30338420_CL
100
AcDbLine
 62
7
  6
CONTINUOUS
 10
187.7285892194
 20
215.6312044809
 11
187.7285892194
 21
175.6312044809
  0
LINE
  5
71E
100
AcDbEntity
  8
30338420_CL
100
AcDbLine
 62
7
  6
CONTINUOUS
 10
187.7285892194
 20
155.6312044809
 11
187.7285892194
 21
134.1312044809
  0
LINE
  5
71F
100
AcDbEntity
  8
30338420_CL
100
AcDbLine
 62
7
  6
CONTINUOUS
 10
187.7285892194
 20
126.8014478502
 11
187.7285892194
 21
115.6312044809
  0
LINE
  5
720
100
AcDbEntity
  8
30338420_HL
100
AcDbLine
 62
6
  6
HIDDEN
 10
187.7285892194
 20
126.8014478502
 11
187.7285892194
 21
134.1312044809
  0
LINE
  5
721
100
AcDbEntity
  8
30338420_CL
100
AcDbLine
 62
7
  6
CONTINUOUS
 10
189.1011844836
 20
213.253799095
 11
189.1011844836
 21
175.6312044809
  0
LINE
  5
722
100
AcDbEntity
  8
30338420_CL
100
AcDbLine
 62
7
  6
CONTINUOUS
 10
189.1011844836
 20
155.6312044809
 11
189.1011844836
 21
134.1312044809
  0
LINE
  5
723
100
AcDbEntity
  8
30338420_HL
100
AcDbLine
 62
6
  6
HIDDEN
 10
189.1011844836
 20
131.0868489362
 11
189.1011844836
 21
134.1312044809
  0
LINE
  5
724
100
AcDbEntity
  8
30338420_CL
100
AcDbLine
 62
7
  6
CONTINUOUS
 10
189.1011844836
 20
118.0086104081
 11
189.1011844836
 21
131.0868489362
  0
LINE
  5
725
100
AcDbEntity
  8
30338420_HL
100
AcDbLine
 62
6
  6
HIDDEN
 10
253.9761844836
 20
168.6312044809
 11
255.0633402263
 21
168.7263182839
  0
LINE
  5
726
100
AcDbEntity
  8
30338420_HL
100
AcDbLine
 62
6
  6
HIDDEN
 10
219.4761844836
 20
162.4812044809
 11
229.9761844836
 21
162.4812044809
  0
LINE
  5
727
100
AcDbEntity
  8
30338420_HL
100
AcDbLine
 62
6
  6
HIDDEN
 10
229.9761844836
 20
162.6312044809
 11
253.9761844836
 21
162.6312044809
  0
LINE
  5
728
100
AcDbEntity
  8
30252539_HP_HL
100
AcDbLine
 62
6
  6
HIDDEN
 10
219.4761844836
 20
162.8812044809
 11
219.9761844836
 21
162.8812044809
  0
LINE
  5
729
100
AcDbEntity
  8
30338420_HL
100
AcDbLine
 62
6
  6
HIDDEN
 10
219.4761844836
 20
163.1312044809
 11
204.4761844836
 21
163.1312044809
  0
LINE
  5
72A
100
AcDbEntity
  8
30252539_HP_HL
100
AcDbLine
 62
6
  6
HIDDEN
 10
207.9661844836
 20
163.1312044809
 11
216.6761844836
 21
163.1312044809
  0
LINE
  5
72B
100
AcDbEntity
  8
30338420_HL
100
AcDbLine
 62
6
  6
HIDDEN
 10
203.3761844836
 20
163.5312044809
 11
219.0761844836
 21
163.5312044809
  0
LINE
  5
72C
100
AcDbEntity
  8
30252539_HP_HL
100
AcDbLine
 62
6
  6
HIDDEN
 10
207.4761844836
 20
163.6212044809
 11
217.5248893793
 21
163.6212044809
  0
LINE
  5
72D
100
AcDbEntity
  8
30252539_HP_HL
100
AcDbLine
 62
6
  6
HIDDEN
 10
217.9091971855
 20
163.7812044809
 11
218.7256291336
 21
163.7812044809
  0
LINE
  5
72E
100
AcDbEntity
  8
30252539_HP_HL
100
AcDbLine
 62
6
  6
HIDDEN
 10
207.7111844836
 20
164.2812044809
 11
219.7411844836
 21
164.2812044809
  0
LINE
  5
72F
100
AcDbEntity
  8
30252539_HP_HL
100
AcDbLine
 62
6
  6
HIDDEN
 10
219.8345601565
 20
164.3812044809
 11
215.9761844836
 21
164.3812044809
  0
LINE
  5
730
100
AcDbEntity
  8
30252539_HP_HL
100
AcDbLine
 62
6
  6
HIDDEN
 10
207.6178088106
 20
164.3812044809
 11
211.4761844836
 21
164.3812044809
  0
LINE
  5
731
100
AcDbEntity
  8
30252539_HP_HL
100
AcDbLine
 62
6
  6
HIDDEN
 10
207.7111844836
 20
164.5646164376
 11
211.4761844836
 21
164.5646164376
  0
LINE
  5
732
100
AcDbEntity
  8
30252539_HP_HL
100
AcDbLine
 62
6
  6
HIDDEN
 10
215.9761844836
 20
164.5646164376
 11
219.7411844836
 21
164.5646164376
  0
LINE
  5
733
100
AcDbEntity
  8
30252539_HP_HL
100
AcDbLine
 62
6
  6
HIDDEN
 10
207.7111844836
 20
165.4477925242
 11
211.4761844836
 21
165.4477925242
  0
LINE
  5
734
100
AcDbEntity
  8
30252539_HP_HL
100
AcDbLine
 62
6
  6
HIDDEN
 10
215.9761844836
 20
165.4477925242
 11
219.7411844836
 21
165.4477925242
  0
LINE
  5
735
100
AcDbEntity
  8
30252539_HP_HL
100
AcDbLine
 62
6
  6
HIDDEN
 10
219.8345601565
 20
165.6312044809
 11
215.9761844836
 21
165.6312044809
  0
LINE
  5
736
100
AcDbEntity
  8
30338420_AXIS
100
AcDbLine
 62
3
  6
CENTER
 10
185.9761844836
 20
165.6312044809
 11
176.7761844836
 21
165.6312044809
  0
LINE
  5
737
100
AcDbEntity
  8
30338420_AXIS
100
AcDbLine
 62
3
  6
CENTER
 10
155.9761844836
 20
165.6312044809
 11
146.9761844836
 21
165.6312044809
  0
LINE
  5
738
100
AcDbEntity
  8
30338420_AXIS
100
AcDbLine
 62
3
  6
CENTER
 10
260.9761844836
 20
165.6312044809
 11
116.0761844836
 21
165.6312044809
  0
LINE
  5
739
100
AcDbEntity
  8
30338420_AXIS
100
AcDbLine
 62
3
  6
CENTER
 10
155.9761844836
 20
165.6312044809
 11
164.9761844836
 21
165.6312044809
  0
LINE
  5
73A
100
AcDbEntity
  8
30338420_AXIS
100
AcDbLine
 62
3
  6
CENTER
 10
185.9761844836
 20
165.6312044809
 11
195.1761844836
 21
165.6312044809
  0
LINE
  5
73B
100
AcDbEntity
  8
30252539_HP_HL
100
AcDbLine
 62
6
  6
HIDDEN
 10
207.6178088106
 20
165.6312044809
 11
211.4761844836
 21
165.6312044809
  0
LINE
  5
73C
100
AcDbEntity
  8
30252539_HP_HL
100
AcDbLine
 62
6
  6
HIDDEN
 10
207.7111844836
 20
165.8146164376
 11
211.4761844836
 21
165.8146164376
  0
LINE
  5
73D
100
AcDbEntity
  8
30252539_HP_HL
100
AcDbLine
 62
6
  6
HIDDEN
 10
215.9761844836
 20
165.8146164376
 11
219.7411844836
 21
165.8146164376
  0
LINE
  5
73E
100
AcDbEntity
  8
30338420_CL
100
AcDbLine
 62
9
  6
CONTINUOUS
 10
189.8511844836
 20
119.6312044809
 11
189.8511844836
 21
155.6312044809
  0
LINE
  5
73F
100
AcDbEntity
  8
30338420_CL
100
AcDbLine
 62
9
  6
CONTINUOUS
 10
189.8511844836
 20
175.6312044809
 11
189.8511844836
 21
211.6312044809
  0
LINE
  5
740
100
AcDbEntity
  8
30338420_CL
100
AcDbLine
 62
9
  6
CONTINUOUS
 10
192.1011844836
 20
119.6312044809
 11
192.1011844836
 21
155.6312044809
  0
LINE
  5
741
100
AcDbEntity
  8
30338420_CL
100
AcDbLine
 62
9
  6
CONTINUOUS
 10
192.1011844836
 20
175.6312044809
 11
192.1011844836
 21
211.6312044809
  0
LINE
  5
742
100
AcDbEntity
  8
30338420_HL
100
AcDbLine
 62
6
  6
HIDDEN
 10
192.8511844836
 20
131.0868489362
 11
192.8511844836
 21
134.1312044809
  0
LINE
  5
743
100
AcDbEntity
  8
30338420_CL
100
AcDbLine
 62
7
  6
CONTINUOUS
 10
192.8511844836
 20
118.0086104081
 11
192.8511844836
 21
131.0868489362
  0
LINE
  5
744
100
AcDbEntity
  8
30338420_CL
100
AcDbLine
 62
7
  6
CONTINUOUS
 10
192.8511844836
 20
134.1312044809
 11
192.8511844836
 21
155.6312044809
  0
LINE
  5
745
100
AcDbEntity
  8
30338420_CL
100
AcDbLine
 62
7
  6
CONTINUOUS
 10
192.8511844836
 20
175.6312044809
 11
192.8511844836
 21
213.253799095
  0
LINE
  5
746
100
AcDbEntity
  8
30338420_HL
100
AcDbLine
 62
6
  6
HIDDEN
 10
193.8761844836
 20
152.6312044809
 11
193.8761844836
 21
178.6312044809
  0
LINE
  5
747
100
AcDbEntity
  8
30338420_CL
100
AcDbLine
 62
7
  6
CONTINUOUS
 10
194.2237797478
 20
215.6312044809
 11
194.2237797478
 21
175.6312044809
  0
LINE
  5
748
100
AcDbEntity
  8
30338420_CL
100
AcDbLine
 62
7
  6
CONTINUOUS
 10
194.2237797478
 20
155.6312044809
 11
194.2237797478
 21
134.1312044809
  0
LINE
  5
749
100
AcDbEntity
  8
30338420_CL
100
AcDbLine
 62
7
  6
CONTINUOUS
 10
194.2237797478
 20
126.8014478502
 11
194.2237797478
 21
115.6312044809
  0
LINE
  5
74A
100
AcDbEntity
  8
30338420_HL
100
AcDbLine
 62
6
  6
HIDDEN
 10
194.2237797478
 20
126.8014478502
 11
194.2237797478
 21
134.1312044809
  0
LINE
  5
74B
100
AcDbEntity
  8
30252539_HP_HL
100
AcDbLine
 62
6
  6
HIDDEN
 10
207.7111844836
 20
166.6977925242
 11
211.4761844836
 21
166.6977925242
  0
LINE
  5
74C
100
AcDbEntity
  8
30252539_HP_HL
100
AcDbLine
 62
6
  6
HIDDEN
 10
215.9761844836
 20
166.6977925242
 11
219.7411844836
 21
166.6977925242
  0
LINE
  5
74D
100
AcDbEntity
  8
30252539_HP_HL
100
AcDbLine
 62
6
  6
HIDDEN
 10
219.8345601565
 20
166.8812044809
 11
215.9761844836
 21
166.8812044809
  0
LINE
  5
74E
100
AcDbEntity
  8
30252539_HP_HL
100
AcDbLine
 62
6
  6
HIDDEN
 10
207.6178088106
 20
166.8812044809
 11
211.4761844836
 21
166.8812044809
  0
LINE
  5
74F
100
AcDbEntity
  8
30252539_HP_HL
100
AcDbLine
 62
6
  6
HIDDEN
 10
207.7111844836
 20
166.9812044809
 11
219.7411844836
 21
166.9812044809
  0
LINE
  5
750
100
AcDbEntity
  8
30252539_HP_HL
100
AcDbLine
 62
6
  6
HIDDEN
 10
217.9091971855
 20
167.4812044809
 11
218.7256291336
 21
167.4812044809
  0
LINE
  5
751
100
AcDbEntity
  8
30252539_HP_HL
100
AcDbLine
 62
6
  6
HIDDEN
 10
207.4761844836
 20
167.6412044809
 11
217.5248893793
 21
167.6412044809
  0
LINE
  5
752
100
AcDbEntity
  8
30338420_HL
100
AcDbLine
 62
6
  6
HIDDEN
 10
203.3761844836
 20
167.7312044809
 11
219.0761844836
 21
167.7312044809
  0
LINE
  5
753
100
AcDbEntity
  8
30338420_HL
100
AcDbLine
 62
6
  6
HIDDEN
 10
219.4761844836
 20
168.1312044809
 11
204.4761844836
 21
168.1312044809
  0
LINE
  5
754
100
AcDbEntity
  8
30252539_HP_HL
100
AcDbLine
 62
6
  6
HIDDEN
 10
207.9661844836
 20
168.1312044809
 11
216.6761844836
 21
168.1312044809
  0
LINE
  5
755
100
AcDbEntity
  8
30252539_HP_HL
100
AcDbLine
 62
6
  6
HIDDEN
 10
219.4761844836
 20
168.3812044809
 11
219.9761844836
 21
168.3812044809
  0
LINE
  5
756
100
AcDbEntity
  8
30338420_HL
100
AcDbLine
 62
6
  6
HIDDEN
 10
229.9761844836
 20
168.6312044809
 11
253.9761844836
 21
168.6312044809
  0
LINE
  5
757
100
AcDbEntity
  8
30338420_HL
100
AcDbLine
 62
6
  6
HIDDEN
 10
219.4761844836
 20
168.7812044809
 11
229.9761844836
 21
168.7812044809
  0
LINE
  5
758
100
AcDbEntity
  8
30338420_HL
100
AcDbLine
 62
6
  6
HIDDEN
 10
215.9761844836
 20
170.4812044809
 11
210.9761844836
 21
170.4812044809
  0
LINE
  5
759
100
AcDbEntity
  8
30338420_HL
100
AcDbLine
 62
6
  6
HIDDEN
 10
253.9761844836
 20
162.6312044809
 11
255.0633402263
 21
162.5360906779
  0
LINE
  5
75A
100
AcDbEntity
  8
30338420_HL
100
AcDbLine
 62
6
  6
HIDDEN
 10
199.4761844836
 20
152.6312044809
 11
199.4761844836
 21
178.6312044809
  0
LINE
  5
75B
100
AcDbEntity
  8
30338420_CL
100
AcDbLine
 62
7
  6
CONTINUOUS
 10
199.9261844836
 20
115.6312051371
 11
199.9261844836
 21
215.6312037943
  0
LINE
  5
75C
100
AcDbEntity
  8
30338420_HL
100
AcDbLine
 62
6
  6
HIDDEN
 10
215.9761844836
 20
170.4812044809
 11
213.4761844836
 21
168.9790529333
  0
LINE
  5
75D
100
AcDbEntity
  8
30338420_HL
100
AcDbLine
 62
6
  6
HIDDEN
 10
216.4761844836
 20
172.4812044809
 11
210.4761844836
 21
172.4812044809
  0
LINE
  5
75E
100
AcDbEntity
  8
30338420_CL
100
AcDbLine
 62
7
  6
CONTINUOUS
 10
185.9261844836
 20
175.6312044809
 11
199.9261844836
 21
175.6312044809
  0
LINE
  5
75F
100
AcDbEntity
  8
30338420_CL
100
AcDbLine
 62
7
  6
CONTINUOUS
 10
129.0761844836
 20
175.6412044809
 11
122.5761844836
 21
175.6412044809
  0
LINE
  5
760
100
AcDbEntity
  8
30338420_HL
100
AcDbLine
 62
6
  6
HIDDEN
 10
199.9261844836
 20
176.6312044809
 11
185.9261844836
 21
176.6312044809
  0
LINE
  5
761
100
AcDbEntity
  8
30338420_HL
100
AcDbLine
 62
6
  6
HIDDEN
 10
193.8761844836
 20
176.8812044809
 11
183.4761844836
 21
176.8812044809
  0
LINE
  5
762
100
AcDbEntity
  8
30338420_HL
100
AcDbLine
 62
6
  6
HIDDEN
 10
215.9761844836
 20
160.7812044809
 11
213.4761844836
 21
162.2833560285
  0
LINE
  5
763
100
AcDbEntity
  8
30338420_HL
100
AcDbLine
 62
6
  6
HIDDEN
 10
203.3761844836
 20
167.7312044809
 11
203.3761844836
 21
163.5312044809
  0
LINE
  5
764
100
AcDbEntity
  8
30338420_HL
100
AcDbLine
 62
6
  6
HIDDEN
 10
204.4761844836
 20
168.1312044809
 11
204.4761844836
 21
163.1312044809
  0
LINE
  5
765
100
AcDbEntity
  8
30252539_HP_HL
100
AcDbLine
 62
6
  6
HIDDEN
 10
207.4761844836
 20
167.6412044809
 11
207.9661844836
 21
168.1312044809
  0
LINE
  5
766
100
AcDbEntity
  8
30338420_HL
100
AcDbLine
 62
6
  6
HIDDEN
 10
203.3761844836
 20
163.5312044809
 11
199.4761844836
 21
159.6312044809
  0
LINE
  5
767
100
AcDbEntity
  8
30252539_HP_HL
100
AcDbLine
 62
6
  6
HIDDEN
 10
207.4761844836
 20
164.0462044809
 11
207.7111844836
 21
164.2812044809
  0
LINE
  5
768
100
AcDbEntity
  8
30338420_HL
100
AcDbLine
 62
6
  6
HIDDEN
 10
210.9761844836
 20
160.7812044809
 11
213.4761844836
 21
162.2833560285
  0
LINE
  5
769
100
AcDbEntity
  8
30252539_HP_HL
100
AcDbLine
 62
6
  6
HIDDEN
 10
216.6761844836
 20
163.1312044809
 11
217.7091971855
 21
163.7276146424
  0
LINE
  5
76A
100
AcDbEntity
  8
30338420_HL
100
AcDbLine
 62
6
  6
HIDDEN
 10
193.8761844836
 20
177.6312044809
 11
183.4761844836
 21
177.6312044809
  0
LINE
  5
76B
100
AcDbEntity
  8
30338420_HL
100
AcDbLine
 62
6
  6
HIDDEN
 10
199.4761844836
 20
178.6312044809
 11
193.8761844836
 21
178.6312044809
  0
LINE
  5
76C
100
AcDbEntity
  8
30338420_CL
100
AcDbLine
 62
7
  6
CONTINUOUS
 10
209.4761844836
 20
178.9812044809
 11
210.9761844836
 21
178.9812044809
  0
LINE
  5
76D
100
AcDbEntity
  8
30338420_CL
100
AcDbLine
 62
7
  6
CONTINUOUS
 10
215.9761844836
 20
178.9812044809
 11
217.4761844836
 21
178.9812044809
  0
LINE
  5
76E
100
AcDbEntity
  8
30338420_CL
100
AcDbLine
 62
7
  6
CONTINUOUS
 10
207.4261844836
 20
179.1312044809
 11
209.4761844836
 21
179.1312044809
  0
LINE
  5
76F
100
AcDbEntity
  8
30338420_CL
100
AcDbLine
 62
7
  6
CONTINUOUS
 10
217.4761844836
 20
179.1312044809
 11
217.857570275
 21
179.1312044809
  0
LINE
  5
770
100
AcDbEntity
  8
30338420_CL
100
AcDbLine
 62
7
  6
CONTINUOUS
 10
217.857570275
 20
179.1312044809
 11
255.0546435793
 21
176.203731323
  0
LINE
  5
771
100
AcDbEntity
  8
30252539_HP_HL
100
AcDbLine
 62
6
  6
HIDDEN
 10
216.6761844836
 20
168.1312044809
 11
217.7091971855
 21
167.5347943194
  0
LINE
  5
772
100
AcDbEntity
  8
30338420_HL
100
AcDbLine
 62
6
  6
HIDDEN
 10
210.9761844836
 20
170.4812044809
 11
213.4761844836
 21
168.9790529333
  0
LINE
  5
773
100
AcDbEntity
  8
30252539_HP_HL
100
AcDbLine
 62
6
  6
HIDDEN
 10
207.4761844836
 20
163.6212044809
 11
207.9661844836
 21
163.1312044809
  0
LINE
  5
774
100
AcDbEntity
  8
30338420_HL
100
AcDbLine
 62
6
  6
HIDDEN
 10
203.3761844836
 20
167.7312044809
 11
199.4761844836
 21
171.6312044809
  0
LINE
  5
775
100
AcDbEntity
  8
30252539_HP_HL
100
AcDbLine
 62
6
  6
HIDDEN
 10
207.4761844836
 20
167.2162044809
 11
207.7111844836
 21
166.9812044809
  0
LINE
  5
776
100
AcDbEntity
  8
30338420_CL
100
AcDbLine
 62
9
  6
CONTINUOUS
 10
207.4261844836
 20
179.1312044809
 11
207.4261844836
 21
152.1312044809
  0
LINE
  5
777
100
AcDbEntity
  8
30252539_HP_HL
100
AcDbLine
 62
6
  6
HIDDEN
 10
207.4761844836
 20
167.6412044809
 11
207.4761844836
 21
163.6212044809
  0
LINE
  5
778
100
AcDbEntity
  8
30252539_HP_HL
100
AcDbLine
 62
6
  6
HIDDEN
 10
207.7111844836
 20
166.9812044809
 11
207.7111844836
 21
166.8812044809
  0
LINE
  5
779
100
AcDbEntity
  8
30252539_HP_HL
100
AcDbLine
 62
6
  6
HIDDEN
 10
207.7111844836
 20
166.6977925242
 11
207.7111844836
 21
165.8146164376
  0
LINE
  5
77A
100
AcDbEntity
  8
30252539_HP_HL
100
AcDbLine
 62
6
  6
HIDDEN
 10
207.7111844836
 20
165.4477925242
 11
207.7111844836
 21
164.5646164376
  0
LINE
  5
77B
100
AcDbEntity
  8
30252539_HP_HL
100
AcDbLine
 62
6
  6
HIDDEN
 10
207.7111844836
 20
164.3812044809
 11
207.7111844836
 21
164.2812044809
  0
LINE
  5
77C
100
AcDbEntity
  8
30252539_HP_HL
100
AcDbLine
 62
6
  6
HIDDEN
 10
207.9661844836
 20
168.1312044809
 11
207.9661844836
 21
163.1312044809
  0
LINE
  5
77D
100
AcDbEntity
  8
30338420_CL
100
AcDbLine
 62
7
  6
CONTINUOUS
 10
209.4761844836
 20
179.1312044809
 11
209.4761844836
 21
152.1312044809
  0
LINE
  5
77E
100
AcDbEntity
  8
30338420_HL
100
AcDbLine
 62
6
  6
HIDDEN
 10
210.4761844836
 20
158.7812044809
 11
210.4761844836
 21
152.2815735497
  0
LINE
  5
77F
100
AcDbEntity
  8
30338420_HL
100
AcDbLine
 62
6
  6
HIDDEN
 10
210.4761844836
 20
172.4812044809
 11
210.4761844836
 21
178.9808354121
  0
LINE
  5
780
100
AcDbEntity
  8
30338420_HL
100
AcDbLine
 62
6
  6
HIDDEN
 10
210.9761844836
 20
178.9812044809
 11
210.9761844836
 21
170.4812044809
  0
LINE
  5
781
100
AcDbEntity
  8
30338420_HL
100
AcDbLine
 62
6
  6
HIDDEN
 10
210.9761844836
 20
152.2812044809
 11
210.9761844836
 21
160.7812044809
  0
LINE
  5
782
100
AcDbEntity
  8
30252539_HP_HL
100
AcDbLine
 62
6
  6
HIDDEN
 10
211.4761844836
 20
164.3812044809
 11
211.4761844836
 21
164.5646164376
  0
LINE
  5
783
100
AcDbEntity
  8
30252539_HP_HL
100
AcDbLine
 62
6
  6
HIDDEN
 10
211.4761844836
 20
165.4477925242
 11
211.4761844836
 21
165.8146164376
  0
LINE
  5
784
100
AcDbEntity
  8
30252539_HP_HL
100
AcDbLine
 62
6
  6
HIDDEN
 10
211.4761844836
 20
166.6977925242
 11
211.4761844836
 21
166.8812044809
  0
LINE
  5
785
100
AcDbEntity
  8
30252539_HP_HL
100
AcDbLine
 62
6
  6
HIDDEN
 10
219.9761844836
 20
167.2162044809
 11
219.7411844836
 21
166.9812044809
  0
LINE
  5
786
100
AcDbEntity
  8
30338420_HL
100
AcDbLine
 62
6
  6
HIDDEN
 10
172.9761844836
 20
211.0312044809
 11
173.2761844836
 21
210.7312044809
  0
LINE
  5
787
100
AcDbEntity
  8
30252539_HP_HL
100
AcDbLine
 62
6
  6
HIDDEN
 10
219.9761844836
 20
164.0462044809
 11
219.7411844836
 21
164.2812044809
  0
LINE
  5
788
100
AcDbEntity
  8
30338420_CL
100
AcDbLine
 62
30
  6
CONTINUOUS
 10
213.4761844836
 20
152.5168993924
 11
213.4761844836
 21
153.25087838
  0
LINE
  5
789
100
AcDbEntity
  8
30338420_CL
100
AcDbLine
 62
30
  6
CONTINUOUS
 10
213.4761844836
 20
160.6362044809
 11
213.4761844836
 21
170.626204444
  0
LINE
  5
78A
100
AcDbEntity
  8
30338420_CL
100
AcDbLine
 62
30
  6
CONTINUOUS
 10
213.4761844836
 20
178.0115306074
 11
213.4761844836
 21
178.7455095695
  0
LINE
  5
78B
100
AcDbEntity
  8
30338420_AXIS
100
AcDbLine
 62
3
  6
CENTER
 10
213.4761844836
 20
150.4826503848
 11
213.4761844836
 21
183.9712044809
  0
LINE
  5
78C
100
AcDbEntity
  8
30338420_HL
100
AcDbLine
 62
6
  6
HIDDEN
 10
215.9761844836
 20
178.9812044809
 11
215.9761844836
 21
170.4812044809
  0
LINE
  5
78D
100
AcDbEntity
  8
30252539_HP_HL
100
AcDbLine
 62
6
  6
HIDDEN
 10
215.9761844836
 20
166.8812044809
 11
215.9761844836
 21
166.6977925242
  0
LINE
  5
78E
100
AcDbEntity
  8
30252539_HP_HL
100
AcDbLine
 62
6
  6
HIDDEN
 10
215.9761844836
 20
165.8146164376
 11
215.9761844836
 21
165.4477925242
  0
LINE
  5
78F
100
AcDbEntity
  8
30252539_HP_HL
100
AcDbLine
 62
6
  6
HIDDEN
 10
215.9761844836
 20
164.5646164376
 11
215.9761844836
 21
164.3812044809
  0
LINE
  5
790
100
AcDbEntity
  8
30338420_HL
100
AcDbLine
 62
6
  6
HIDDEN
 10
215.9761844836
 20
152.2812044809
 11
215.9761844836
 21
160.7812044809
  0
LINE
  5
791
100
AcDbEntity
  8
30338420_HL
100
AcDbLine
 62
6
  6
HIDDEN
 10
216.4761844836
 20
158.7812044809
 11
216.4761844836
 21
152.2815735497
  0
LINE
  5
792
100
AcDbEntity
  8
30338420_HL
100
AcDbLine
 62
6
  6
HIDDEN
 10
216.4761844836
 20
172.4812044809
 11
216.4761844836
 21
178.9808354121
  0
LINE
  5
793
100
AcDbEntity
  8
30252539_HP_HL
100
AcDbLine
 62
6
  6
HIDDEN
 10
216.6761844836
 20
168.1312044809
 11
216.6761844836
 21
163.1312044809
  0
LINE
  5
794
100
AcDbEntity
  8
30338420_CL
100
AcDbLine
 62
7
  6
CONTINUOUS
 10
189.1011844836
 20
118.0086092167
 11
187.7285892194
 21
115.6312044809
  0
LINE
  5
795
100
AcDbEntity
  8
30338420_HL
100
AcDbLine
 62
6
  6
HIDDEN
 10
219.0761844836
 20
167.7312044809
 11
219.4761844836
 21
168.4240248039
  0
LINE
  5
796
100
AcDbEntity
  8
30252539_HP_HL
100
AcDbLine
 62
6
  6
HIDDEN
 10
219.0720392951
 20
167.6812044809
 11
219.4761844836
 21
168.3812044809
  0
LINE
  5
797
100
AcDbEntity
  8
30338420_HL
100
AcDbLine
 62
6
  6
HIDDEN
 10
175.8663141721
 20
115.6313341694
 11
179.4661844836
 21
119.2312044809
  0
LINE
  5
798
100
AcDbEntity
  8
30338420_HL
100
AcDbLine
 62
6
  6
HIDDEN
 10
122.5761844836
 20
192.1312044809
 11
140.9728088106
 21
192.1312044809
  0
LINE
  5
799
100
AcDbEntity
  8
30338420_HL
100
AcDbLine
 62
6
  6
HIDDEN
 10
170.9761844836
 20
192.1312044809
 11
180.2761844836
 21
192.1312044809
  0
LINE
  5
79A
100
AcDbEntity
  8
30338420_HL
100
AcDbLine
 62
6
  6
HIDDEN
 10
172.4761844836
 20
215.6312044809
 11
172.9761844836
 21
215.1312044809
  0
LINE
  5
79B
100
AcDbEntity
  8
30338420_HL
100
AcDbLine
 62
6
  6
HIDDEN
 10
177.3761844836
 20
210.7312044809
 11
177.9761844836
 21
210.1312044809
  0
LINE
  5
79C
100
AcDbEntity
  8
30338420_CL
100
AcDbLine
 62
7
  6
CONTINUOUS
 10
189.1011844836
 20
213.2537997451
 11
187.7285892194
 21
215.6312044809
  0
LINE
  5
79D
100
AcDbEntity
  8
30338420_HL
100
AcDbLine
 62
6
  6
HIDDEN
 10
219.0761844836
 20
163.5312044809
 11
219.4761844836
 21
162.8383841579
  0
LINE
  5
79E
100
AcDbEntity
  8
30252539_HP_HL
100
AcDbLine
 62
6
  6
HIDDEN
 10
219.0720392951
 20
163.5812044809
 11
219.4761844836
 21
162.8812044809
  0
LINE
  5
79F
100
AcDbEntity
  8
30338420_CL
100
AcDbLine
 62
7
  6
CONTINUOUS
 10
217.4761844836
 20
179.1312044809
 11
217.4761844836
 21
152.1312044809
  0
LINE
  5
7A0
100
AcDbEntity
  8
30252539_HP_HL
100
AcDbLine
 62
6
  6
HIDDEN
 10
217.5248893793
 20
167.6412044809
 11
217.5248893793
 21
163.6212044809
  0
LINE
  5
7A1
100
AcDbEntity
  8
30252539_HP_CL
100
AcDbLine
 62
9
  6
CONTINUOUS
 10
217.7091971855
 20
163.7276146424
 11
217.7091971855
 21
167.5347943194
  0
LINE
  5
7A2
100
AcDbEntity
  8
30338420_CL
100
AcDbLine
 62
7
  6
CONTINUOUS
 10
217.857570275
 20
179.1312044809
 11
217.857570275
 21
152.1312044809
  0
LINE
  5
7A3
100
AcDbEntity
  8
30252539_HP_CL
100
AcDbLine
 62
9
  6
CONTINUOUS
 10
217.9091971855
 20
163.7812044809
 11
217.9091971855
 21
167.4812044809
  0
LINE
  5
7A4
100
AcDbEntity
  8
30252539_HP_CL
100
AcDbLine
 62
9
  6
CONTINUOUS
 10
218.7256291336
 20
163.7812044809
 11
218.7256291336
 21
167.4812044809
  0
LINE
  5
7A5
100
AcDbEntity
  8
30252539_HP_CL
100
AcDbLine
 62
9
  6
CONTINUOUS
 10
219.0720392951
 20
163.5812044809
 11
219.0720392951
 21
167.6812044809
  0
LINE
  5
7A6
100
AcDbEntity
  8
30338420_HL
100
AcDbLine
 62
6
  6
HIDDEN
 10
219.0761844836
 20
163.5312044809
 11
219.0761844836
 21
167.7312044809
  0
LINE
  5
7A7
100
AcDbEntity
  8
30338420_HL
100
AcDbLine
 62
6
  6
HIDDEN
 10
219.4761844836
 20
168.7812044809
 11
219.4761844836
 21
162.4812044809
  0
LINE
  5
7A8
100
AcDbEntity
  8
30252539_HP_HL
100
AcDbLine
 62
6
  6
HIDDEN
 10
219.4761844836
 20
168.3812044809
 11
219.4761844836
 21
162.8812044809
  0
LINE
  5
7A9
100
AcDbEntity
  8
30252539_HP_HL
100
AcDbLine
 62
6
  6
HIDDEN
 10
219.7411844836
 20
166.9812044809
 11
219.7411844836
 21
166.8812044809
  0
LINE
  5
7AA
100
AcDbEntity
  8
30252539_HP_HL
100
AcDbLine
 62
6
  6
HIDDEN
 10
219.7411844836
 20
166.6977925242
 11
219.7411844836
 21
165.8146164376
  0
LINE
  5
7AB
100
AcDbEntity
  8
30252539_HP_HL
100
AcDbLine
 62
6
  6
HIDDEN
 10
219.7411844836
 20
165.4477925242
 11
219.7411844836
 21
164.5646164376
  0
LINE
  5
7AC
100
AcDbEntity
  8
30252539_HP_HL
100
AcDbLine
 62
6
  6
HIDDEN
 10
219.7411844836
 20
164.3812044809
 11
219.7411844836
 21
164.2812044809
  0
LINE
  5
7AD
100
AcDbEntity
  8
30252539_HP_HL
100
AcDbLine
 62
6
  6
HIDDEN
 10
219.9761844836
 20
162.8812268813
 11
219.9761844836
 21
168.3811820804
  0
LINE
  5
7AE
100
AcDbEntity
  8
30338420_HL
100
AcDbLine
 62
6
  6
HIDDEN
 10
144.4369104257
 20
197.1312044809
 11
161.2293901388
 21
197.1312044809
  0
LINE
  5
7AF
100
AcDbEntity
  8
30338420_CL
100
AcDbLine
 62
7
  6
CONTINUOUS
 10
168.4761844836
 20
203.5134559839
 11
169.0954280976
 21
203.3475301576
  0
LINE
  5
7B0
100
AcDbEntity
  8
30338420_CL
100
AcDbLine
 62
7
  6
CONTINUOUS
 10
122.9761095995
 20
201.2338931137
 11
168.4761844836
 21
203.5134559839
  0
LINE
  5
7B1
100
AcDbEntity
  8
30338420_CL
100
AcDbLine
 62
7
  6
CONTINUOUS
 10
169.3542471427
 20
203.3134559839
 11
170.0761844836
 21
203.3134559839
  0
LINE
  5
7B2
100
AcDbEntity
  8
30338420_HL
100
AcDbLine
 62
6
  6
HIDDEN
 10
229.9761844836
 20
168.7812044809
 11
229.9761844836
 21
162.4812044809
  0
LINE
  5
7B3
100
AcDbEntity
  8
30338420_HL
100
AcDbLine
 62
6
  6
HIDDEN
 10
173.2761844836
 20
210.7312044809
 11
182.6761844836
 21
210.7312044809
  0
LINE
  5
7B4
100
AcDbEntity
  8
30338420_HL
100
AcDbLine
 62
6
  6
HIDDEN
 10
172.9761844836
 20
211.0312044809
 11
182.9761844836
 21
211.0312044809
  0
LINE
  5
7B5
100
AcDbEntity
  8
30338420_CL
100
AcDbLine
 62
7
  6
CONTINUOUS
 10
192.1011844836
 20
211.6312044809
 11
189.8511844836
 21
211.6312044809
  0
LINE
  5
7B6
100
AcDbEntity
  8
30338420_HL
100
AcDbLine
 62
6
  6
HIDDEN
 10
172.9761844836
 20
215.1312044809
 11
182.9761844836
 21
215.1312044809
  0
LINE
  5
7B7
100
AcDbEntity
  8
30338420_CL
100
AcDbLine
 62
7
  6
CONTINUOUS
 10
171.1761844836
 20
215.6312044809
 11
172.4761844836
 21
215.6312044809
  0
LINE
  5
7B8
100
AcDbEntity
  8
30338420_CL
100
AcDbLine
 62
7
  6
CONTINUOUS
 10
183.4761844836
 20
215.6312044809
 11
187.7285892194
 21
215.6312044809
  0
LINE
  5
7B9
100
AcDbEntity
  8
30338420_CL
100
AcDbLine
 62
7
  6
CONTINUOUS
 10
194.2237797478
 20
215.6312044809
 11
199.9261844836
 21
215.6312044809
  0
LINE
  5
7BA
100
AcDbEntity
  8
30338420_HL
100
AcDbLine
 62
6
  6
HIDDEN
 10
253.9761844836
 20
168.6312044809
 11
253.9761844836
 21
162.6312044809
  0
LINE
  5
7BB
100
AcDbEntity
  8
30338420_CL
100
AcDbLine
 62
9
  6
CONTINUOUS
 10
255.0546435793
 20
176.203731323
 11
255.0546435793
 21
155.0586776388
  0
LINE
  5
7BC
100
AcDbEntity
  8
30338420_CL
100
AcDbLine
 62
9
  6
CONTINUOUS
 10
255.0633402263
 20
168.7263182839
 11
255.0633402263
 21
162.5360906779
  0
LINE
  5
7BD
100
AcDbEntity
  8
30338420_CL
100
AcDbLine
 62
7
  6
CONTINUOUS
 10
255.9761844836
 20
175.2068139892
 11
255.9761844836
 21
156.0555949725
  0
CIRCLE
  5
7BE
100
AcDbEntity
  8
30338420_CL
100
AcDbCircle
 62
7
  6
CONTINUOUS
 10
155.9761844836
 20
165.6312044809
 40
6.0
  0
ARC
  5
7BF
100
AcDbEntity
  8
30338420_HL
100
AcDbCircle
 62
6
  6
HIDDEN
 10
129.0761844836
 20
157.6212044809
 40
2.0
100
AcDbArc
 50
358.5347950774
 51
360.0
  0
ARC
  5
7C0
100
AcDbEntity
  8
30338420_CL
100
AcDbCircle
 62
7
  6
CONTINUOUS
 10
129.0761844836
 20
157.6212044809
 40
2.0
100
AcDbArc
 50
270.0
 51
358.5347950774
  0
ARC
  5
7C1
100
AcDbEntity
  8
30338420_CL
100
AcDbCircle
 62
7
  6
CONTINUOUS
 10
123.0761844836
 20
132.0260105333
 40
2.0
100
AcDbArc
 50
180.0
 51
267.131868059
  0
ARC
  5
7C2
100
AcDbEntity
  8
30338420_HL
100
AcDbCircle
 62
6
  6
HIDDEN
 10
144.4369104257
 20
135.1312044809
 40
1.0
100
AcDbArc
 50
210.0
 51
270.0
  0
ARC
  5
7C3
100
AcDbEntity
  8
30338420_HL
100
AcDbCircle
 62
6
  6
HIDDEN
 10
179.4659939252
 20
61.9237269226
 40
53.8293424305
100
AcDbArc
 50
86.2996935355
 51
89.7276167153
  0
ARC
  5
7C4
100
AcDbEntity
  8
30338420_HL
100
AcDbCircle
 62
6
  6
HIDDEN
 10
179.4802264118
 20
62.0890978073
 40
53.6639399695
100
AcDbArc
 50
90.179351922
 51
93.8594969029
  0
ARC
  5
7C5
100
AcDbEntity
  8
30338420_HL
100
AcDbCircle
 62
6
  6
HIDDEN
 10
179.4761328094
 20
62.3633760718
 40
53.389650656
100
AcDbArc
 50
89.7362542711
 51
89.9999445452
  0
ARC
  5
7C6
100
AcDbEntity
  8
30338420_HL
100
AcDbCircle
 62
6
  6
HIDDEN
 10
179.4762193517
 20
62.3756088331
 40
53.3774178947
100
AcDbArc
 50
90.0000374278
 51
90.1760134262
  0
ARC
  5
7C7
100
AcDbEntity
  8
30338420_HL
100
AcDbCircle
 62
6
  6
HIDDEN
 10
161.2293901388
 20
146.1312044809
 40
12.0
100
AcDbArc
 50
270.0
 51
324.3146652873
  0
ARC
  5
7C8
100
AcDbEntity
  8
30338420_HL
100
AcDbCircle
 62
6
  6
HIDDEN
 10
185.9261844836
 20
166.6312044809
 40
10.0
100
AcDbArc
 50
90.0
 51
180.0
  0
ARC
  5
7C9
100
AcDbEntity
  8
30338420_HL
100
AcDbCircle
 62
6
  6
HIDDEN
 10
185.9261844836
 20
164.6312044809
 40
10.0
100
AcDbArc
 50
180.0
 51
270.0
  0
ARC
  5
7CA
100
AcDbEntity
  8
30338420_CL
100
AcDbCircle
 62
7
  6
CONTINUOUS
 10
185.9261844836
 20
165.6312044809
 40
10.0
100
AcDbArc
 50
90.0
 51
270.0
  0
ARC
  5
7CB
100
AcDbEntity
  8
30338420_CL
100
AcDbCircle
 62
7
  6
CONTINUOUS
 10
185.9261844836
 20
124.1312044809
 40
10.0
100
AcDbArc
 50
90.0
 51
164.5127260012
  0
CIRCLE
  5
7CC
100
AcDbEntity
  8
30338420_CL
100
AcDbCircle
 62
7
  6
CONTINUOUS
 10
185.9761844836
 20
165.6312044809
 40
6.2
  0
CIRCLE
  5
7CD
100
AcDbEntity
  8
30338420_CL
100
AcDbCircle
 62
7
  6
CONTINUOUS
 10
185.9761844836
 20
165.6312044809
 40
6.0
  0
ARC
  5
7CE
100
AcDbEntity
  8
30338420_HL
100
AcDbCircle
 62
6
  6
HIDDEN
 10
181.4761844836
 20
140.7312044809
 40
2.0
100
AcDbArc
 50
233.1301023542
 51
360.0
  0
ARC
  5
7CF
100
AcDbEntity
  8
30338420_HL
100
AcDbCircle
 62
6
  6
HIDDEN
 10
170.0761844836
 20
126.9489529778
 40
1.0
100
AcDbArc
 50
352.0
 51
25.8320854947
  0
ARC
  5
7D0
100
AcDbEntity
  8
30338420_CL
100
AcDbCircle
 62
7
  6
CONTINUOUS
 10
169.3542471427
 20
126.9489529778
 40
1.0
100
AcDbArc
 50
90.0
 51
105.0
  0
ARC
  5
7D1
100
AcDbEntity
  8
30338420_CL
100
AcDbCircle
 62
7
  6
CONTINUOUS
 10
170.0761844836
 20
126.9489529778
 40
1.0
100
AcDbArc
 50
25.8320854947
 51
90.0
  0
ARC
  5
7D2
100
AcDbEntity
  8
30338420_CL
100
AcDbCircle
 62
7
  6
CONTINUOUS
 10
189.8511844836
 20
118.8812044809
 40
0.75
100
AcDbArc
 50
90.0
 51
180.0
  0
CIRCLE
  5
7D3
100
AcDbEntity
  8
30338420_CL
100
AcDbCircle
 62
7
  6
CONTINUOUS
 10
185.9761844836
 20
165.6312044809
 40
0.1
  0
ARC
  5
7D4
100
AcDbEntity
  8
30338420_CL
100
AcDbCircle
 62
7
  6
CONTINUOUS
 10
-53.6215953996
 20
235.0656720716
 40
264.520422391
100
AcDbArc
 50
335.8400764706
 51
336.5770705491
  0
ARC
  5
7D5
100
AcDbEntity
  8
30338420_HL
100
AcDbCircle
 62
6
  6
HIDDEN
 10
178.1075168799
 20
272.4542050208
 40
57.1013598342
100
AcDbArc
 50
264.3402942584
 51
265.4673246233
  0
ARC
  5
7D6
100
AcDbEntity
  8
30338420_HL
100
AcDbCircle
 62
6
  6
HIDDEN
 10
177.8721386004
 20
272.1506394148
 40
56.7965831324
100
AcDbArc
 50
274.1695522364
 51
275.6625143361
  0
ARC
  5
7D7
100
AcDbEntity
  8
30338420_HL
100
AcDbCircle
 62
6
  6
HIDDEN
 10
161.2293901388
 20
185.1312044809
 40
12.0
100
AcDbArc
 50
35.6853347127
 51
90.0
  0
ARC
  5
7D8
100
AcDbEntity
  8
30338420_HL
100
AcDbCircle
 62
6
  6
HIDDEN
 10
181.4761844836
 20
190.5312044809
 40
2.0
100
AcDbArc
 50
0.0
 51
126.8698976458
  0
ARC
  5
7D9
100
AcDbEntity
  8
30338420_HL
100
AcDbCircle
 62
6
  6
HIDDEN
 10
129.0761844836
 20
173.6412044809
 40
2.0
100
AcDbArc
 50
0.0
 51
1.465205071
  0
ARC
  5
7DA
100
AcDbEntity
  8
30338420_CL
100
AcDbCircle
 62
7
  6
CONTINUOUS
 10
129.0761844836
 20
173.6412044809
 40
2.0
100
AcDbArc
 50
1.465205071
 51
90.0
  0
ARC
  5
7DB
100
AcDbEntity
  8
30338420_CL
100
AcDbCircle
 62
7
  6
CONTINUOUS
 10
123.0761844836
 20
199.2363984285
 40
2.0
100
AcDbArc
 50
92.868131941
 51
180.0
  0
ARC
  5
7DC
100
AcDbEntity
  8
30338420_HL
100
AcDbCircle
 62
6
  6
HIDDEN
 10
144.4369104257
 20
196.1312044809
 40
1.0
100
AcDbArc
 50
90.0
 51
150.0
  0
ARC
  5
7DD
100
AcDbEntity
  8
30338420_HL
100
AcDbCircle
 62
6
  6
HIDDEN
 10
170.0761844836
 20
204.3134559839
 40
1.0
100
AcDbArc
 50
334.1679145053
 51
8.0
  0
ARC
  5
7DE
100
AcDbEntity
  8
30338420_CL
100
AcDbCircle
 62
7
  6
CONTINUOUS
 10
169.3542471427
 20
204.3134559839
 40
1.0
100
AcDbArc
 50
255.0
 51
270.0
  0
ARC
  5
7DF
100
AcDbEntity
  8
30338420_CL
100
AcDbCircle
 62
7
  6
CONTINUOUS
 10
170.0761844836
 20
204.3134559839
 40
1.0
100
AcDbArc
 50
270.0
 51
334.1679145053
  0
ARC
  5
7E0
100
AcDbEntity
  8
30338420_CL
100
AcDbCircle
 62
7
  6
CONTINUOUS
 10
189.8511844836
 20
212.3812044809
 40
0.75
100
AcDbArc
 50
180.0
 51
270.0
  0
ARC
  5
7E1
100
AcDbEntity
  8
30338420_HL
100
AcDbCircle
 62
6
  6
HIDDEN
 10
213.4761844836
 20
165.6312044809
 40
3.0
100
AcDbArc
 50
194.8736183216
 51
195.0
  0
ARC
  5
7E2
100
AcDbEntity
  8
30338420_HL
100
AcDbCircle
 62
6
  6
HIDDEN
 10
213.5748797833
 20
138.4236271696
 40
14.0991370728
100
AcDbArc
 50
96.2623777993
 51
100.6212511643
  0
ARC
  5
7E3
100
AcDbEntity
  8
30338420_HL
100
AcDbCircle
 62
6
  6
HIDDEN
 10
213.4786652078
 20
139.2822526293
 40
13.2351401125
100
AcDbArc
 50
90.4996271489
 51
96.2538054457
  0
ARC
  5
7E4
100
AcDbEntity
  8
30338420_HL
100
AcDbCircle
 62
6
  6
HIDDEN
 10
213.4762129543
 20
139.3997191191
 40
13.1176567828
100
AcDbArc
 50
90.0001243556
 51
90.4933905377
  0
ARC
  5
7E5
100
AcDbEntity
  8
30338420_HL
100
AcDbCircle
 62
6
  6
HIDDEN
 10
213.4761716495
 20
139.4095778903
 40
13.1077980116
100
AcDbArc
 50
89.7529852746
 51
89.9999439008
  0
ARC
  5
7E6
100
AcDbEntity
  8
30338420_CL
100
AcDbCircle
 62
7
  6
CONTINUOUS
 10
207.4261844836
 20
144.6312044809
 40
7.5
100
AcDbArc
 50
90.0
 51
180.0
  0
ARC
  5
7E7
100
AcDbEntity
  8
30338420_HL
100
AcDbCircle
 62
6
  6
HIDDEN
 10
213.4761844836
 20
165.6312044809
 40
3.0
100
AcDbArc
 50
255.0
 51
255.1375442717
  0
ARC
  5
7E8
100
AcDbEntity
  8
30338420_CL
100
AcDbCircle
 62
3
  6
CONTINUOUS
 10
213.4761837914
 20
165.6311940301
 40
2.9999895492
100
AcDbArc
 50
255.1375442717
 51
194.8736183216
  0
CIRCLE
  5
7E9
100
AcDbEntity
  8
30338420_CL
100
AcDbCircle
 62
7
  6
CONTINUOUS
 10
213.4761844836
 20
165.6312044809
 40
2.5
  0
ARC
  5
7EA
100
AcDbEntity
  8
30338420_HL
100
AcDbCircle
 62
6
  6
HIDDEN
 10
254.9761844836
 20
161.5398959798
 40
1.0
100
AcDbArc
 50
0.0
 51
85.0
  0
ARC
  5
7EB
100
AcDbEntity
  8
30338420_CL
100
AcDbCircle
 62
7
  6
CONTINUOUS
 10
254.9761844836
 20
156.0555949725
 40
1.0
100
AcDbArc
 50
274.5
 51
360.0
  0
ARC
  5
7EC
100
AcDbEntity
  8
30338420_CL
100
AcDbCircle
 62
7
  6
CONTINUOUS
 10
192.1011844836
 20
118.8812044809
 40
0.75
100
AcDbArc
 50
0.0
 51
90.0
  0
ARC
  5
7ED
100
AcDbEntity
  8
30252539_HP_HL
100
AcDbCircle
 62
6
  6
HIDDEN
 10
218.7256291336
 20
163.3812044809
 40
0.4
100
AcDbArc
 50
30.0
 51
90.0
  0
ARC
  5
7EE
100
AcDbEntity
  8
30252539_HP_HL
100
AcDbCircle
 62
6
  6
HIDDEN
 10
217.9091971855
 20
163.3812044809
 40
0.4
100
AcDbArc
 50
90.0
 51
120.0
  0
ARC
  5
7EF
100
AcDbEntity
  8
30338420_CL
100
AcDbCircle
 62
7
  6
CONTINUOUS
 10
435.5739643668
 20
235.0656720716
 40
264.520422391
100
AcDbArc
 50
203.4229294509
 51
204.1599235294
  0
ARC
  5
7F0
100
AcDbEntity
  8
30338420_HL
100
AcDbCircle
 62
6
  6
HIDDEN
 10
213.3774891881
 20
192.8387817674
 40
14.0991370477
100
AcDbArc
 50
276.2623775325
 51
280.621251166
  0
ARC
  5
7F1
100
AcDbEntity
  8
30338420_HL
100
AcDbCircle
 62
6
  6
HIDDEN
 10
213.4737037597
 20
191.9801563214
 40
13.2351401014
100
AcDbArc
 50
270.4996271311
 51
276.2538051716
  0
ARC
  5
7F2
100
AcDbEntity
  8
30338420_HL
100
AcDbCircle
 62
6
  6
HIDDEN
 10
213.4761560129
 20
191.8626898413
 40
13.1176567814
100
AcDbArc
 50
270.0001243554
 51
270.4933905206
  0
ARC
  5
7F3
100
AcDbEntity
  8
30338420_HL
100
AcDbCircle
 62
6
  6
HIDDEN
 10
213.4761973176
 20
191.8528310785
 40
13.1077980186
100
AcDbArc
 50
269.7529852876
 51
269.9999439008
  0
ARC
  5
7F4
100
AcDbEntity
  8
30338420_CL
100
AcDbCircle
 62
7
  6
CONTINUOUS
 10
207.4261844836
 20
186.6312044809
 40
7.5
100
AcDbArc
 50
180.0
 51
270.0
  0
ARC
  5
7F5
100
AcDbEntity
  8
30338420_HL
100
AcDbCircle
 62
6
  6
HIDDEN
 10
254.9761844836
 20
169.722512982
 40
1.0
100
AcDbArc
 50
275.0
 51
360.0
  0
ARC
  5
7F6
100
AcDbEntity
  8
30338420_CL
100
AcDbCircle
 62
7
  6
CONTINUOUS
 10
254.9761844836
 20
175.2068139892
 40
1.0
100
AcDbArc
 50
0.0
 51
85.5
  0
ARC
  5
7F7
100
AcDbEntity
  8
30338420_CL
100
AcDbCircle
 62
7
  6
CONTINUOUS
 10
192.1011844836
 20
212.3812044809
 40
0.75
100
AcDbArc
 50
270.0
 51
360.0
  0
ARC
  5
7F8
100
AcDbEntity
  8
30252539_HP_HL
100
AcDbCircle
 62
6
  6
HIDDEN
 10
218.7256291336
 20
167.8812044809
 40
0.4
100
AcDbArc
 50
270.0
 51
330.0
  0
ARC
  5
7F9
100
AcDbEntity
  8
30252539_HP_HL
100
AcDbCircle
 62
6
  6
HIDDEN
 10
217.9091971855
 20
167.8812044809
 40
0.4
100
AcDbArc
 50
240.0
 51
270.0
  0
SPLINE
  5
7FA
100
AcDbEntity
  8
30252539_HP_HL
100
AcDbSpline
 62
6
  6
HIDDEN
 70
0
 71
3
 72
9
 73
5
 74
0
 42
0.0000001
 43
0.0000001
 44
0.0000000001
 40
0.0
 40
0.0
 40
0.0
 40
0.0
 40
0.2489023413
 40
1.0
 40
1.0
 40
1.0
 40
1.0
 10
219.7411844836
 20
164.5646164376
 30
0.0
 10
219.7480129884
 20
164.5489596251
 30
0.0
 10
219.7764988567
 20
164.4865153615
 30
0.0
 10
219.8087878391
 20
164.4258434442
 30
0.0
 10
219.8345601565
 20
164.3812044809
 30
0.0
  0
SPLINE
  5
7FB
100
AcDbEntity
  8
30252539_HP_HL
100
AcDbSpline
 62
6
  6
HIDDEN
 70
0
 71
3
 72
9
 73
5
 74
0
 42
0.0000001
 43
0.0000001
 44
0.0000000001
 40
0.0
 40
0.0
 40
0.0
 40
0.0
 40
0.2511456015
 40
1.0
 40
1.0
 40
1.0
 40
1.0
 10
219.8345601565
 20
165.6312044809
 30
0.0
 10
219.8259429286
 20
165.6162790043
 30
0.0
 10
219.7923252497
 20
165.5564565024
 30
0.0
 10
219.7617281979
 20
165.4948964054
 30
0.0
 10
219.7411844836
 20
165.4477925242
 30
0.0
  0
SPLINE
  5
7FC
100
AcDbEntity
  8
30252539_HP_HL
100
AcDbSpline
 62
6
  6
HIDDEN
 70
0
 71
3
 72
9
 73
5
 74
0
 42
0.0000001
 43
0.0000001
 44
0.0000000001
 40
0.0
 40
0.0
 40
0.0
 40
0.0
 40
0.2489023339
 40
1.0
 40
1.0
 40
1.0
 40
1.0
 10
219.7411844836
 20
165.8146164376
 30
0.0
 10
219.7480129882
 20
165.7989596256
 30
0.0
 10
219.7764988572
 20
165.7365153623
 30
0.0
 10
219.8087878388
 20
165.6758434446
 30
0.0
 10
219.8345601565
 20
165.6312044809
 30
0.0
  0
SPLINE
  5
7FD
100
AcDbEntity
  8
30252539_HP_HL
100
AcDbSpline
 62
6
  6
HIDDEN
 70
0
 71
3
 72
9
 73
5
 74
0
 42
0.0000001
 43
0.0000001
 44
0.0000000001
 40
0.0
 40
0.0
 40
0.0
 40
0.0
 40
0.2511455931
 40
1.0
 40
1.0
 40
1.0
 40
1.0
 10
219.8345601565
 20
166.8812044809
 30
0.0
 10
219.8259429289
 20
166.8662790048
 30
0.0
 10
219.7923252505
 20
166.8064565026
 30
0.0
 10
219.7617281981
 20
166.7448964059
 30
0.0
 10
219.7411844836
 20
166.6977925242
 30
0.0
  0
SPLINE
  5
7FE
100
AcDbEntity
  8
30252539_HP_HL
100
AcDbSpline
 62
6
  6
HIDDEN
 70
0
 71
3
 72
9
 73
5
 74
0
 42
0.0000001
 43
0.0000001
 44
0.0000000001
 40
0.0
 40
0.0
 40
0.0
 40
0.0
 40
0.2511455931
 40
1.0
 40
1.0
 40
1.0
 40
1.0
 10
207.6178088106
 20
164.3812044809
 30
0.0
 10
207.6264260383
 20
164.396129957
 30
0.0
 10
207.6600437166
 20
164.4559524592
 30
0.0
 10
207.690640769
 20
164.5175125558
 30
0.0
 10
207.7111844836
 20
164.5646164376
 30
0.0
  0
SPLINE
  5
7FF
100
AcDbEntity
  8
30252539_HP_HL
100
AcDbSpline
 62
6
  6
HIDDEN
 70
0
 71
3
 72
9
 73
5
 74
0
 42
0.0000001
 43
0.0000001
 44
0.0000000001
 40
0.0
 40
0.0
 40
0.0
 40
0.0
 40
0.2489023339
 40
1.0
 40
1.0
 40
1.0
 40
1.0
 10
207.7111844836
 20
165.4477925242
 30
0.0
 10
207.7043559789
 20
165.4634493362
 30
0.0
 10
207.6758701099
 20
165.5258935995
 30
0.0
 10
207.6435811283
 20
165.5865655172
 30
0.0
 10
207.6178088106
 20
165.6312044809
 30
0.0
  0
SPLINE
  5
800
100
AcDbEntity
  8
30252539_HP_HL
100
AcDbSpline
 62
6
  6
HIDDEN
 70
0
 71
3
 72
9
 73
5
 74
0
 42
0.0000001
 43
0.0000001
 44
0.0000000001
 40
0.0
 40
0.0
 40
0.0
 40
0.0
 40
0.2511456015
 40
1.0
 40
1.0
 40
1.0
 40
1.0
 10
207.6178088106
 20
165.6312044809
 30
0.0
 10
207.6264260385
 20
165.6461299575
 30
0.0
 10
207.6600437175
 20
165.7059524594
 30
0.0
 10
207.6906407693
 20
165.7675125564
 30
0.0
 10
207.7111844836
 20
165.8146164376
 30
0.0
  0
SPLINE
  5
801
100
AcDbEntity
  8
30252539_HP_HL
100
AcDbSpline
 62
6
  6
HIDDEN
 70
0
 71
3
 72
9
 73
5
 74
0
 42
0.0000001
 43
0.0000001
 44
0.0000000001
 40
0.0
 40
0.0
 40
0.0
 40
0.0
 40
0.2489023413
 40
1.0
 40
1.0
 40
1.0
 40
1.0
 10
207.7111844836
 20
166.6977925242
 30
0.0
 10
207.7043559787
 20
166.7134493366
 30
0.0
 10
207.6758701104
 20
166.7758936003
 30
0.0
 10
207.6435811281
 20
166.8365655176
 30
0.0
 10
207.6178088106
 20
166.8812044809
 30
0.0
  0
SPLINE
  5
802
100
AcDbEntity
  8
30338420_HL
100
AcDbSpline
 62
6
  6
HIDDEN
 70
0
 71
3
 72
31
 73
27
 74
0
 42
0.0000001
 43
0.0000001
 44
0.0000000001
 40
0.0
 40
0.0
 40
0.0
 40
0.0
 40
0.0425531775
 40
0.085106355
 40
0.1276595325
 40
0.17021271
 40
0.2127658875
 40
0.255319065
 40
0.2978722424
 40
0.3404254199
 40
0.3829785974
 40
0.4255317749
 40
0.4680849524
 40
0.5106381299
 40
0.5531913074
 40
0.5957444849
 40
0.6382976624
 40
0.6808508399
 40
0.7234040174
 40
0.7659571949
 40
0.8085103724
 40
0.8510635499
 40
0.8936167273
 40
0.9361699048
 40
0.9787230823
 40
1.0
 40
1.0
 40
1.0
 40
1.0
 10
213.4761844836
 20
152.6226496034
 30
0.0
 10
213.5422589521
 20
152.6226459825
 30
0.0
 10
213.6744731447
 20
152.6216428724
 30
0.0
 10
213.8721000245
 20
152.6171221921
 30
0.0
 10
214.0682319144
 20
152.6096707272
 30
0.0
 10
214.2622387819
 20
152.5993948497
 30
0.0
 10
214.4531875518
 20
152.5864674869
 30
0.0
 10
214.6404539173
 20
152.5710856348
 30
0.0
 10
214.8229454082
 20
152.5535292706
 30
0.0
 10
215.0000228909
 20
152.5340812079
 30
0.0
 10
215.1705118996
 20
152.5131213591
 30
0.0
 10
215.3337757379
 20
152.4910040057
 30
0.0
 10
215.4886446261
 20
152.46818334
 30
0.0
 10
215.6345490041
 20
152.4450529597
 30
0.0
 10
215.7704270905
 20
152.4220966733
 30
0.0
 10
215.895848292
 20
152.3997022225
 30
0.0
 10
216.0099350785
 20
152.3783319986
 30
0.0
 10
216.1124358956
 20
152.3583241804
 30
0.0
 10
216.2026864888
 20
152.3400772696
 30
0.0
 10
216.2806018588
 20
152.3238518395
 30
0.0
 10
216.3457185826
 20
152.3099568556
 30
0.0
 10
216.3980609418
 20
152.2985676763
 30
0.0
 10
216.43733805
 20
152.2898927251
 30
0.0
 10
216.4636074234
 20
152.2840294332
 30
0.0
 10
216.4745416689
 20
152.2815735568
 30
0.0
 10
216.4761818129
 20
152.2812051736
 30
0.0
 10
216.4761818124
 20
152.2812051738
 30
0.0
  0
SPLINE
  5
803
100
AcDbEntity
  8
30338420_HL
100
AcDbSpline
 62
6
  6
HIDDEN
 70
0
 71
3
 72
31
 73
27
 74
0
 42
0.0000001
 43
0.0000001
 44
0.0000000001
 40
0.0
 40
0.0
 40
0.0
 40
0.0
 40
0.0212762738
 40
0.0638294793
 40
0.1063826848
 40
0.1489358903
 40
0.1914890958
 40
0.2340423013
 40
0.2765955067
 40
0.3191487122
 40
0.3617019177
 40
0.4042551232
 40
0.4468083287
 40
0.4893615342
 40
0.5319147397
 40
0.5744679451
 40
0.6170211506
 40
0.6595743561
 40
0.7021275616
 40
0.7446807671
 40
0.7872339726
 40
0.8297871781
 40
0.8723403835
 40
0.914893589
 40
0.9574467945
 40
1.0
 40
1.0
 40
1.0
 40
1.0
 10
210.4761871548
 20
152.2812051738
 30
0.0
 10
210.4761871554
 20
152.2812051739
 30
0.0
 10
210.4778272354
 20
152.2815735426
 30
0.0
 10
210.4887611502
 20
152.2840293452
 30
0.0
 10
210.5150305461
 20
152.2898926422
 30
0.0
 10
210.5543069979
 20
152.2985674515
 30
0.0
 10
210.606649861
 20
152.3099567416
 30
0.0
 10
210.6717653553
 20
152.3238514709
 30
0.0
 10
210.7496818822
 20
152.3400771455
 30
0.0
 10
210.8399305969
 20
152.3583236901
 30
0.0
 10
210.9424332457
 20
152.3783318735
 30
0.0
 10
211.0565175673
 20
152.3997016555
 30
0.0
 10
211.1819411798
 20
152.4220965501
 30
0.0
 10
211.3178163655
 20
152.4450523719
 30
0.0
 10
211.4637235763
 20
152.4681832214
 30
0.0
 10
211.6185893249
 20
152.4910034545
 30
0.0
 10
211.7818562458
 20
152.5131212521
 30
0.0
 10
211.9523420924
 20
152.5340807447
 30
0.0
 10
212.1294227315
 20
152.553529186
 30
0.0
 10
212.3119113101
 20
152.5710853012
 30
0.0
 10
212.4991807042
 20
152.5864674362
 30
0.0
 10
212.6901270991
 20
152.5993946623
 30
0.0
 10
212.8841365169
 20
152.6096707082
 30
0.0
 10
213.0802671334
 20
152.6171221358
 30
0.0
 10
213.2778957394
 20
152.621642878
 30
0.0
 10
213.4101099986
 20
152.6226459856
 30
0.0
 10
213.4761844836
 20
152.6226496034
 30
0.0
  0
LINE
  5
804
100
AcDbEntity
  8
30338420_HL
100
AcDbLine
 62
6
  6
HIDDEN
 10
175.8681067015
 20
115.6313338854
 11
175.8663973555
 21
115.6312188421
  0
SPLINE
  5
805
100
AcDbEntity
  8
30338420_HL
100
AcDbSpline
 62
6
  6
HIDDEN
 70
0
 71
3
 72
31
 73
27
 74
0
 42
0.0000001
 43
0.0000001
 44
0.0000000001
 40
0.0
 40
0.0
 40
0.0
 40
0.0
 40
0.0212762738
 40
0.0638294793
 40
0.1063826848
 40
0.1489358903
 40
0.1914890958
 40
0.2340423013
 40
0.2765955067
 40
0.3191487122
 40
0.3617019177
 40
0.4042551232
 40
0.4468083287
 40
0.4893615342
 40
0.5319147397
 40
0.5744679451
 40
0.6170211506
 40
0.6595743561
 40
0.7021275616
 40
0.7446807671
 40
0.7872339726
 40
0.8297871781
 40
0.8723403835
 40
0.914893589
 40
0.9574467945
 40
1.0
 40
1.0
 40
1.0
 40
1.0
 10
216.4761818124
 20
178.981203788
 30
0.0
 10
216.4761818118
 20
178.9812037879
 30
0.0
 10
216.4745417317
 20
178.9808354192
 30
0.0
 10
216.463607817
 20
178.9783796166
 30
0.0
 10
216.437338421
 20
178.9725163196
 30
0.0
 10
216.3980619692
 20
178.9638415103
 30
0.0
 10
216.3457191062
 20
178.9524522201
 30
0.0
 10
216.2806036118
 20
178.9385574908
 30
0.0
 10
216.2026870849
 20
178.9223318163
 30
0.0
 10
216.1124383703
 20
178.9040852717
 30
0.0
 10
216.0099357215
 20
178.8840770883
 30
0.0
 10
215.8958513999
 20
178.8627073063
 30
0.0
 10
215.7704277874
 20
178.8403124117
 30
0.0
 10
215.6345526016
 20
178.8173565898
 30
0.0
 10
215.4886453908
 20
178.7942257404
 30
0.0
 10
215.3337796422
 20
178.7714055072
 30
0.0
 10
215.1705127214
 20
178.7492877097
 30
0.0
 10
215.0000268748
 20
178.7283282171
 30
0.0
 10
214.8229462356
 20
178.7088797758
 30
0.0
 10
214.640457657
 20
178.6913236606
 30
0.0
 10
214.4531882629
 20
178.6759415256
 30
0.0
 10
214.262241868
 20
178.6630142995
 30
0.0
 10
214.0682324502
 20
178.6527382536
 30
0.0
 10
213.8721018337
 20
178.645286826
 30
0.0
 10
213.6744732277
 20
178.6407660838
 30
0.0
 10
213.5422589685
 20
178.6397629762
 30
0.0
 10
213.4761844836
 20
178.6397593584
 30
0.0
  0
SPLINE
  5
806
100
AcDbEntity
  8
30338420_HL
100
AcDbSpline
 62
6
  6
HIDDEN
 70
0
 71
3
 72
31
 73
27
 74
0
 42
0.0000001
 43
0.0000001
 44
0.0000000001
 40
0.0
 40
0.0
 40
0.0
 40
0.0
 40
0.0425531775
 40
0.085106355
 40
0.1276595325
 40
0.17021271
 40
0.2127658875
 40
0.255319065
 40
0.2978722424
 40
0.3404254199
 40
0.3829785974
 40
0.4255317749
 40
0.4680849524
 40
0.5106381299
 40
0.5531913074
 40
0.5957444849
 40
0.6382976624
 40
0.6808508399
 40
0.7234040174
 40
0.7659571949
 40
0.8085103724
 40
0.8510635499
 40
0.8936167273
 40
0.9361699048
 40
0.9787230823
 40
1.0
 40
1.0
 40
1.0
 40
1.0
 10
213.4761844836
 20
178.6397593584
 30
0.0
 10
213.410110015
 20
178.6397629792
 30
0.0
 10
213.2778958224
 20
178.6407660894
 30
0.0
 10
213.0802689427
 20
178.6452867696
 30
0.0
 10
212.8841370528
 20
178.6527382346
 30
0.0
 10
212.6901301853
 20
178.6630141121
 30
0.0
 10
212.4991814154
 20
178.6759414749
 30
0.0
 10
212.3119150498
 20
178.691323327
 30
0.0
 10
212.1294235589
 20
178.7088796911
 30
0.0
 10
211.9523460763
 20
178.7283277539
 30
0.0
 10
211.7818570676
 20
178.7492876027
 30
0.0
 10
211.6185932292
 20
178.7714049561
 30
0.0
 10
211.4637243411
 20
178.7942256217
 30
0.0
 10
211.3178199631
 20
178.8173560021
 30
0.0
 10
211.1819418767
 20
178.8403122885
 30
0.0
 10
211.0565206751
 20
178.8627067393
 30
0.0
 10
210.9424338886
 20
178.8840769632
 30
0.0
 10
210.8399330715
 20
178.9040847814
 30
0.0
 10
210.7496824783
 20
178.9223316922
 30
0.0
 10
210.6717671083
 20
178.9385571223
 30
0.0
 10
210.6066503845
 20
178.9524521061
 30
0.0
 10
210.5543080253
 20
178.9638412855
 30
0.0
 10
210.5150309171
 20
178.9725162367
 30
0.0
 10
210.4887615437
 20
178.9783795286
 30
0.0
 10
210.4778272982
 20
178.980835405
 30
0.0
 10
210.4761871542
 20
178.9812037881
 30
0.0
 10
210.4761871548
 20
178.981203788
 30
0.0
  0
LINE
  5
807
100
AcDbEntity
  8
30338420_HL
100
AcDbLine
 62
6
  6
HIDDEN
 10
210.9761844836
 20
178.9812044809
 11
210.9768699063
 21
178.9810760806
  0
SPLINE
  5
808
100
AcDbEntity
  8
30338420_HL
100
AcDbSpline
 62
6
  6
HIDDEN
 70
0
 71
3
 72
10
 73
6
 74
0
 42
0.0000001
 43
0.0000001
 44
0.0000000001
 40
0.0
 40
0.0
 40
0.0
 40
0.0
 40
0.301834857
 40
0.6224423278
 40
1.0
 40
1.0
 40
1.0
 40
1.0
 10
210.9768699063
 20
178.9810760806
 30
0.0
 10
211.2198652018
 20
178.9355731511
 30
0.0
 10
211.7234786973
 20
178.8545268274
 30
0.0
 10
212.5384843702
 20
178.7692482528
 30
0.0
 10
213.1104497104
 20
178.7464877711
 30
0.0
 10
213.4196868913
 20
178.7451548745
 30
0.0
  0
LINE
  5
809
100
AcDbEntity
  8
30338420_HL
100
AcDbLine
 62
6
  6
HIDDEN
 10
215.9761844836
 20
152.2812044809
 11
215.9754742375
 21
152.2813375296
  0
SPLINE
  5
80A
100
AcDbEntity
  8
30338420_HL
100
AcDbSpline
 62
6
  6
HIDDEN
 70
0
 71
3
 72
10
 73
6
 74
0
 42
0.0000001
 43
0.0000001
 44
0.0000000001
 40
0.0
 40
0.0
 40
0.0
 40
0.0
 40
0.3019795555
 40
0.6225367301
 40
1.0
 40
1.0
 40
1.0
 40
1.0
 10
215.9754742375
 20
152.2813375296
 30
0.0
 10
215.7323647721
 20
152.326860899
 30
0.0
 10
215.2286787764
 20
152.4079125133
 30
0.0
 10
214.41367961
 20
152.4931712399
 30
0.0
 10
213.8418387719
 20
152.5159215375
 30
0.0
 10
213.5326820788
 20
152.5172540872
 30
0.0
  0
LINE
  5
80B
100
AcDbEntity
  8
30338420_HL
100
AcDbLine
 62
6
  6
HIDDEN
 10
183.0861842583
 20
115.6312045305
 11
183.0756943686
 21
115.6319098764
  0
LINE
  5
80C
100
AcDbEntity
  8
30338420_HL
100
AcDbLine
 62
6
  6
HIDDEN
 10
183.0756943686
 20
115.6319098764
 11
182.9400129669
 21
115.6408498741
  0
SPLINE
  5
80D
100
AcDbEntity
  8
30338420_CL
100
AcDbSpline
 62
3
  6
CONTINUOUS
 70
0
 71
3
 72
31
 73
27
 74
0
 42
0.0000001
 43
0.0000001
 44
0.0000000001
 40
0.0
 40
0.0
 40
0.0
 40
0.0
 40
0.0212762738
 40
0.0638294793
 40
0.1063826848
 40
0.1489358903
 40
0.1914890958
 40
0.2340423013
 40
0.2765955067
 40
0.3191487122
 40
0.3617019177
 40
0.4042551232
 40
0.4468083287
 40
0.4893615342
 40
0.5319147397
 40
0.5744679451
 40
0.6170211506
 40
0.6595743561
 40
0.7021275616
 40
0.7446807671
 40
0.7872339726
 40
0.8297871781
 40
0.8723403835
 40
0.914893589
 40
0.9574467945
 40
1.0
 40
1.0
 40
1.0
 40
1.0
 10
216.4761818124
 20
152.2812051738
 30
0.0
 10
216.4761818118
 20
152.2812051739
 30
0.0
 10
216.4745417317
 20
152.2815735426
 30
0.0
 10
216.463607817
 20
152.2840293452
 30
0.0
 10
216.437338421
 20
152.2898926422
 30
0.0
 10
216.3980619692
 20
152.2985674515
 30
0.0
 10
216.3457191062
 20
152.3099567416
 30
0.0
 10
216.2806036118
 20
152.3238514709
 30
0.0
 10
216.2026870849
 20
152.3400771455
 30
0.0
 10
216.1124383703
 20
152.3583236901
 30
0.0
 10
216.0099357215
 20
152.3783318735
 30
0.0
 10
215.8958513999
 20
152.3997016555
 30
0.0
 10
215.7704277874
 20
152.4220965501
 30
0.0
 10
215.6345526016
 20
152.4450523719
 30
0.0
 10
215.4886453908
 20
152.4681832214
 30
0.0
 10
215.3337796422
 20
152.4910034545
 30
0.0
 10
215.1705127214
 20
152.5131212521
 30
0.0
 10
215.0000268748
 20
152.5340807447
 30
0.0
 10
214.8229462356
 20
152.553529186
 30
0.0
 10
214.640457657
 20
152.5710853012
 30
0.0
 10
214.4531882629
 20
152.5864674362
 30
0.0
 10
214.262241868
 20
152.5993946623
 30
0.0
 10
214.0682324502
 20
152.6096707082
 30
0.0
 10
213.8721018337
 20
152.6171221358
 30
0.0
 10
213.6744732277
 20
152.621642878
 30
0.0
 10
213.5422589685
 20
152.6226459856
 30
0.0
 10
213.4761844836
 20
152.6226496034
 30
0.0
  0
SPLINE
  5
80E
100
AcDbEntity
  8
30338420_CL
100
AcDbSpline
 62
3
  6
CONTINUOUS
 70
0
 71
3
 72
31
 73
27
 74
0
 42
0.0000001
 43
0.0000001
 44
0.0000000001
 40
0.0
 40
0.0
 40
0.0
 40
0.0
 40
0.0425531775
 40
0.085106355
 40
0.1276595325
 40
0.17021271
 40
0.2127658875
 40
0.255319065
 40
0.2978722424
 40
0.3404254199
 40
0.3829785974
 40
0.4255317749
 40
0.4680849524
 40
0.5106381299
 40
0.5531913074
 40
0.5957444849
 40
0.6382976624
 40
0.6808508399
 40
0.7234040174
 40
0.7659571949
 40
0.8085103724
 40
0.8510635499
 40
0.8936167273
 40
0.9361699048
 40
0.9787230823
 40
1.0
 40
1.0
 40
1.0
 40
1.0
 10
213.4761844836
 20
152.6226496034
 30
0.0
 10
213.410110015
 20
152.6226459825
 30
0.0
 10
213.2778958224
 20
152.6216428724
 30
0.0
 10
213.0802689427
 20
152.6171221921
 30
0.0
 10
212.8841370528
 20
152.6096707272
 30
0.0
 10
212.6901301853
 20
152.5993948497
 30
0.0
 10
212.4991814154
 20
152.5864674869
 30
0.0
 10
212.3119150498
 20
152.5710856348
 30
0.0
 10
212.1294235589
 20
152.5535292706
 30
0.0
 10
211.9523460763
 20
152.5340812079
 30
0.0
 10
211.7818570676
 20
152.5131213591
 30
0.0
 10
211.6185932292
 20
152.4910040057
 30
0.0
 10
211.4637243411
 20
152.46818334
 30
0.0
 10
211.3178199631
 20
152.4450529597
 30
0.0
 10
211.1819418767
 20
152.4220966733
 30
0.0
 10
211.0565206751
 20
152.3997022225
 30
0.0
 10
210.9424338886
 20
152.3783319986
 30
0.0
 10
210.8399330715
 20
152.3583241804
 30
0.0
 10
210.7496824783
 20
152.3400772696
 30
0.0
 10
210.6717671083
 20
152.3238518395
 30
0.0
 10
210.6066503845
 20
152.3099568556
 30
0.0
 10
210.5543080253
 20
152.2985676763
 30
0.0
 10
210.5150309171
 20
152.2898927251
 30
0.0
 10
210.4887615437
 20
152.2840294332
 30
0.0
 10
210.4778272982
 20
152.2815735568
 30
0.0
 10
210.4761871542
 20
152.2812051736
 30
0.0
 10
210.4761871548
 20
152.2812051738
 30
0.0
  0
SPLINE
  5
80F
100
AcDbEntity
  8
30338420_CL
100
AcDbSpline
 62
3
  6
CONTINUOUS
 70
0
 71
3
 72
31
 73
27
 74
0
 42
0.0000001
 43
0.0000001
 44
0.0000000001
 40
0.0
 40
0.0
 40
0.0
 40
0.0
 40
0.0425531775
 40
0.085106355
 40
0.1276595325
 40
0.17021271
 40
0.2127658875
 40
0.255319065
 40
0.2978722424
 40
0.3404254199
 40
0.3829785974
 40
0.4255317749
 40
0.4680849524
 40
0.5106381299
 40
0.5531913074
 40
0.5957444849
 40
0.6382976624
 40
0.6808508399
 40
0.7234040174
 40
0.7659571949
 40
0.8085103724
 40
0.8510635499
 40
0.8936167273
 40
0.9361699048
 40
0.9787230823
 40
1.0
 40
1.0
 40
1.0
 40
1.0
 10
213.4761844836
 20
178.6397593584
 30
0.0
 10
213.5422589521
 20
178.6397629792
 30
0.0
 10
213.6744731447
 20
178.6407660894
 30
0.0
 10
213.8721000245
 20
178.6452867696
 30
0.0
 10
214.0682319144
 20
178.6527382346
 30
0.0
 10
214.2622387819
 20
178.6630141121
 30
0.0
 10
214.4531875518
 20
178.6759414749
 30
0.0
 10
214.6404539173
 20
178.691323327
 30
0.0
 10
214.8229454082
 20
178.7088796911
 30
0.0
 10
215.0000228909
 20
178.7283277539
 30
0.0
 10
215.1705118996
 20
178.7492876027
 30
0.0
 10
215.3337757379
 20
178.7714049561
 30
0.0
 10
215.4886446261
 20
178.7942256217
 30
0.0
 10
215.6345490041
 20
178.8173560021
 30
0.0
 10
215.7704270905
 20
178.8403122885
 30
0.0
 10
215.895848292
 20
178.8627067393
 30
0.0
 10
216.0099350785
 20
178.8840769632
 30
0.0
 10
216.1124358956
 20
178.9040847814
 30
0.0
 10
216.2026864888
 20
178.9223316922
 30
0.0
 10
216.2806018588
 20
178.9385571223
 30
0.0
 10
216.3457185826
 20
178.9524521061
 30
0.0
 10
216.3980609418
 20
178.9638412855
 30
0.0
 10
216.43733805
 20
178.9725162367
 30
0.0
 10
216.4636074234
 20
178.9783795286
 30
0.0
 10
216.4745416689
 20
178.980835405
 30
0.0
 10
216.4761818129
 20
178.9812037881
 30
0.0
 10
216.4761818124
 20
178.981203788
 30
0.0
  0
SPLINE
  5
810
100
AcDbEntity
  8
30338420_CL
100
AcDbSpline
 62
3
  6
CONTINUOUS
 70
0
 71
3
 72
31
 73
27
 74
0
 42
0.0000001
 43
0.0000001
 44
0.0000000001
 40
0.0
 40
0.0
 40
0.0
 40
0.0
 40
0.0212762738
 40
0.0638294793
 40
0.1063826848
 40
0.1489358903
 40
0.1914890958
 40
0.2340423013
 40
0.2765955067
 40
0.3191487122
 40
0.3617019177
 40
0.4042551232
 40
0.4468083287
 40
0.4893615342
 40
0.5319147397
 40
0.5744679451
 40
0.6170211506
 40
0.6595743561
 40
0.7021275616
 40
0.7446807671
 40
0.7872339726
 40
0.8297871781
 40
0.8723403835
 40
0.914893589
 40
0.9574467945
 40
1.0
 40
1.0
 40
1.0
 40
1.0
 10
210.4761871548
 20
178.981203788
 30
0.0
 10
210.4761871554
 20
178.9812037879
 30
0.0
 10
210.4778272354
 20
178.9808354192
 30
0.0
 10
210.4887611502
 20
178.9783796166
 30
0.0
 10
210.5150305461
 20
178.9725163196
 30
0.0
 10
210.5543069979
 20
178.9638415103
 30
0.0
 10
210.606649861
 20
178.9524522201
 30
0.0
 10
210.6717653553
 20
178.9385574908
 30
0.0
 10
210.7496818822
 20
178.9223318163
 30
0.0
 10
210.8399305969
 20
178.9040852717
 30
0.0
 10
210.9424332457
 20
178.8840770883
 30
0.0
 10
211.0565175673
 20
178.8627073063
 30
0.0
 10
211.1819411798
 20
178.8403124117
 30
0.0
 10
211.3178163655
 20
178.8173565898
 30
0.0
 10
211.4637235763
 20
178.7942257404
 30
0.0
 10
211.6185893249
 20
178.7714055072
 30
0.0
 10
211.7818562458
 20
178.7492877097
 30
0.0
 10
211.9523420924
 20
178.7283282171
 30
0.0
 10
212.1294227315
 20
178.7088797758
 30
0.0
 10
212.3119113101
 20
178.6913236606
 30
0.0
 10
212.4991807042
 20
178.6759415256
 30
0.0
 10
212.6901270991
 20
178.6630142995
 30
0.0
 10
212.8841365169
 20
178.6527382536
 30
0.0
 10
213.0802671334
 20
178.645286826
 30
0.0
 10
213.2778957394
 20
178.6407660838
 30
0.0
 10
213.4101099986
 20
178.6397629762
 30
0.0
 10
213.4761844836
 20
178.6397593584
 30
0.0
  0
SPLINE
  5
811
100
AcDbEntity
  8
30338420_CL
100
AcDbSpline
 62
7
  6
CONTINUOUS
 70
0
 71
3
 72
25
 73
21
 74
0
 42
0.0000001
 43
0.0000001
 44
0.0000000001
 40
0.0
 40
0.0
 40
0.0
 40
0.0
 40
0.1918259322
 40
0.3769388938
 40
0.5487018041
 40
0.700656462
 40
0.767275612
 40
0.8266908569
 40
0.8782377752
 40
0.921315296
 40
0.9395114783
 40
0.9554016053
 40
0.9689353284
 40
0.9800692728
 40
0.9887672955
 40
0.9950008131
 40
0.9971865665
 40
0.9987491719
 40
0.9996872743
 40
1.0
 40
1.0
 40
1.0
 40
1.0
 10
179.4761844836
 20
115.7530267279
 30
0.0
 10
179.7071889763
 20
115.7530267279
 30
0.0
 10
180.1611195161
 20
115.7500789216
 30
0.0
 10
180.8217823653
 20
115.7373631337
 30
0.0
 10
181.4342502738
 20
115.7181925795
 30
0.0
 10
181.9039001326
 20
115.6983705333
 30
0.0
 10
182.2382563218
 20
115.6818045162
 30
0.0
 10
182.451799317
 20
115.6703218881
 30
0.0
 10
182.6369936402
 20
115.6596755172
 30
0.0
 10
182.7726103628
 20
115.6514503676
 30
0.0
 10
182.865347747
 20
115.6456358473
 30
0.0
 10
182.922587442
 20
115.6419823204
 30
0.0
 10
182.9712963531
 20
115.6388241252
 30
0.0
 10
183.0114744146
 20
115.6361900343
 30
0.0
 10
183.0425779713
 20
115.634119642
 30
0.0
 10
183.0635966339
 20
115.6327329517
 30
0.0
 10
183.0749824695
 20
115.6319457106
 30
0.0
 10
183.0816140788
 20
115.6315389764
 30
0.0
 10
183.0832261076
 20
115.6313615333
 30
0.0
 10
183.0865608341
 20
115.6312085177
 30
0.0
 10
183.0861842583
 20
115.6312045305
 30
0.0
  0
SPLINE
  5
812
100
AcDbEntity
  8
30338420_CL
100
AcDbSpline
 62
7
  6
CONTINUOUS
 70
0
 71
3
 72
11
 73
7
 74
0
 42
0.0000001
 43
0.0000001
 44
0.0000000001
 40
0.0
 40
0.0
 40
0.0
 40
0.0
 40
0.0771231593
 40
0.2949769115
 40
0.618744796
 40
1.0
 40
1.0
 40
1.0
 40
1.0
 10
210.9761844836
 20
152.2812044809
 30
0.0
 10
211.0397177284
 20
152.2931026354
 30
0.0
 10
211.28302668
 20
152.3369912032
 30
0.0
 10
211.7957167789
 20
152.4158528173
 30
0.0
 10
212.5655100784
 20
152.4956968676
 30
0.0
 10
213.156645153
 20
152.5173759019
 30
0.0
 10
213.4761844836
 20
152.5173759019
 30
0.0
  0
SPLINE
  5
813
100
AcDbEntity
  8
30338420_CL
100
AcDbSpline
 62
7
  6
CONTINUOUS
 70
0
 71
3
 72
11
 73
7
 74
0
 42
0.0000001
 43
0.0000001
 44
0.0000000001
 40
0.0
 40
0.0
 40
0.0
 40
0.0
 40
0.0771231592
 40
0.2949769113
 40
0.6187447959
 40
1.0
 40
1.0
 40
1.0
 40
1.0
 10
215.9761844836
 20
178.9812044809
 30
0.0
 10
215.9126512389
 20
178.9693063264
 30
0.0
 10
215.6693422874
 20
178.9254177586
 30
0.0
 10
215.1566521886
 20
178.8465561445
 30
0.0
 10
214.3868588889
 20
178.7667120942
 30
0.0
 10
213.7957238143
 20
178.7450330599
 30
0.0
 10
213.4761844836
 20
178.7450330599
 30
0.0
  0
SPLINE
  5
814
100
AcDbEntity
  8
30338420_CL
100
AcDbSpline
 62
7
  6
CONTINUOUS
 70
0
 71
3
 72
13
 73
9
 74
0
 42
0.0000001
 43
0.0000001
 44
0.0000000001
 40
0.0
 40
0.0
 40
0.0
 40
0.0
 40
0.1513672505
 40
0.3129717935
 40
0.5000000002
 40
0.6870282068
 40
0.8486327496
 40
1.0
 40
1.0
 40
1.0
 40
1.0
 10
183.4761844836
 20
215.6312044809
 30
0.0
 10
182.9229791673
 20
215.576356518
 30
0.0
 10
181.7774828306
 20
215.4796547763
 30
0.0
 10
179.9435412596
 20
215.3813648234
 30
0.0
 10
177.9761844817
 20
215.3444369714
 30
0.0
 10
176.0088277045
 20
215.3813648235
 30
0.0
 10
174.1748861347
 20
215.4796547765
 30
0.0
 10
173.0293897992
 20
215.5763565181
 30
0.0
 10
172.4761844836
 20
215.6312044809
 30
0.0
  0
SPLINE
  5
815
100
AcDbEntity
  8
30338420_CL
100
AcDbSpline
 62
7
  6
CONTINUOUS
 70
0
 71
3
 72
22
 73
18
 74
0
 42
0.0000001
 43
0.0000001
 44
0.0000000001
 40
0.0
 40
0.0
 40
0.0
 40
0.0
 40
0.0012508303
 40
0.0049991912
 40
0.0112327109
 40
0.0199307353
 40
0.0310646815
 40
0.0445984062
 40
0.0786847126
 40
0.1217622353
 40
0.1733091551
 40
0.2327244006
 40
0.2993435509
 40
0.4512982079
 40
0.6230611158
 40
0.8081740735
 40
1.0
 40
1.0
 40
1.0
 40
1.0
 10
175.8661847089
 20
115.6312045305
 30
0.0
 10
175.8676832253
 20
115.6313574635
 30
0.0
 10
175.8737005272
 20
115.6316357719
 30
0.0
 10
175.8871867499
 20
115.6326632321
 30
0.0
 10
175.90963767
 20
115.63409347
 30
0.0
 10
175.940955446
 20
115.6362004121
 30
0.0
 10
175.9810504736
 20
115.6388204134
 30
0.0
 10
176.0516557583
 20
115.6434022905
 30
0.0
 10
176.1606601253
 20
115.6502908508
 30
0.0
 10
176.3153745646
 20
115.6596758969
 30
0.0
 10
176.5005699825
 20
115.6703217652
 30
0.0
 10
176.7141126195
 20
115.681804559
 30
0.0
 10
177.0484689528
 20
115.6983705084
 30
0.0
 10
177.5181187216
 20
115.7181925924
 30
0.0
 10
178.1305866493
 20
115.7373631312
 30
0.0
 10
178.791249471
 20
115.7500789228
 30
0.0
 10
179.245179999
 20
115.7530267279
 30
0.0
 10
179.4761844836
 20
115.7530267279
 30
0.0
  0
SPLINE
  5
816
100
AcDbEntity
  8
30338420_CL
100
AcDbSpline
 62
7
  6
CONTINUOUS
 70
0
 71
3
 72
11
 73
7
 74
0
 42
0.0000001
 43
0.0000001
 44
0.0000000001
 40
0.0
 40
0.0
 40
0.0
 40
0.0
 40
0.3812552044
 40
0.7050230887
 40
0.9228768403
 40
1.0
 40
1.0
 40
1.0
 40
1.0
 10
213.4761844836
 20
152.5173759019
 30
0.0
 10
213.7957238145
 20
152.5173759019
 30
0.0
 10
214.3868588892
 20
152.4956968676
 30
0.0
 10
215.1566521884
 20
152.4158528173
 30
0.0
 10
215.6693422869
 20
152.3369912033
 30
0.0
 10
215.9126512384
 20
152.2931026354
 30
0.0
 10
215.9761844836
 20
152.2812044809
 30
0.0
  0
SPLINE
  5
817
100
AcDbEntity
  8
30338420_CL
100
AcDbSpline
 62
7
  6
CONTINUOUS
 70
0
 71
3
 72
11
 73
7
 74
0
 42
0.0000001
 43
0.0000001
 44
0.0000000001
 40
0.0
 40
0.0
 40
0.0
 40
0.0
 40
0.3812552045
 40
0.7050230889
 40
0.9228768404
 40
1.0
 40
1.0
 40
1.0
 40
1.0
 10
213.4761844836
 20
178.7450330599
 30
0.0
 10
213.1566451525
 20
178.7450330599
 30
0.0
 10
212.5655100777
 20
178.7667120942
 30
0.0
 10
211.7957167784
 20
178.8465561446
 30
0.0
 10
211.28302668
 20
178.9254177586
 30
0.0
 10
211.0397177286
 20
178.9693063264
 30
0.0
 10
210.9761844836
 20
178.9812044809
 30
0.0
  0
SPLINE
  5
818
100
AcDbEntity
  8
30338420_CL
100
AcDbSpline
 62
7
  6
CONTINUOUS
 70
0
 71
3
 72
21
 73
17
 74
0
 42
0.0000001
 43
0.0000001
 44
0.0000000001
 40
0.0
 40
0.0
 40
0.0
 40
0.0
 40
0.0627012962
 40
0.1253451328
 40
0.1879220963
 40
0.2504282583
 40
0.3751141303
 40
0.4996328927
 40
0.5619631373
 40
0.6243282261
 40
0.6867523801
 40
0.7492534724
 40
0.8118394914
 40
0.8745060235
 40
0.9372356674
 40
1.0
 40
1.0
 40
1.0
 40
1.0
 10
155.9761844836
 20
172.1312044809
 30
0.0
 10
156.2062962917
 20
172.1411504186
 30
0.0
 10
156.6674754395
 20
172.1403052944
 30
0.0
 10
157.3557555948
 20
172.0770103801
 30
0.0
 10
158.0349780004
 20
171.9522536331
 30
0.0
 10
158.9197485591
 20
171.7055045822
 30
0.0
 10
159.9769104468
 20
171.2479913674
 30
0.0
 10
160.9299260339
 20
170.6008398332
 30
0.0
 10
161.6044862914
 20
169.9800164543
 30
0.0
 10
162.0615361558
 20
169.4649493518
 30
0.0
 10
162.4629214989
 20
168.9046166545
 30
0.0
 10
162.802445764
 20
168.3037374025
 30
0.0
 10
163.0741023228
 20
167.6682390648
 30
0.0
 10
163.2725391125
 20
167.0052387444
 30
0.0
 10
163.3934676293
 20
166.323206448
 30
0.0
 10
163.4205535302
 20
165.8617626892
 30
0.0
 10
163.4205535302
 20
165.6312044809
 30
0.0
  0
SPLINE
  5
819
100
AcDbEntity
  8
30338420_CL
100
AcDbSpline
 62
7
  6
CONTINUOUS
 70
0
 71
3
 72
21
 73
17
 74
0
 42
0.0000001
 43
0.0000001
 44
0.0000000001
 40
0.0
 40
0.0
 40
0.0
 40
0.0
 40
0.0625435103
 40
0.125078605
 40
0.1875991205
 40
0.250102116
 40
0.3125886874
 40
0.3750636069
 40
0.4375342774
 40
0.5000091643
 40
0.5624960101
 40
0.6250003343
 40
0.6875241945
 40
0.7500654856
 40
0.8750548612
 40
1.0
 40
1.0
 40
1.0
 40
1.0
 10
149.2421559949
 20
165.6312044809
 30
0.0
 10
149.2421559949
 20
165.8464715458
 30
0.0
 10
149.2654561899
 20
166.2773378605
 30
0.0
 10
149.3696847569
 20
166.9157608903
 30
0.0
 10
149.5413672499
 20
167.5393432347
 30
0.0
 10
149.7776274873
 20
168.1411900483
 30
0.0
 10
150.0747404832
 20
168.7152175881
 30
0.0
 10
150.4283586428
 20
169.2560774445
 30
0.0
 10
150.8337226775
 20
169.7592078338
 30
0.0
 10
151.285834837
 20
170.22077648
 30
0.0
 10
151.7795928752
 20
170.637610057
 30
0.0
 10
152.3098516602
 20
171.0071051582
 30
0.0
 10
152.871549421
 20
171.3271731528
 30
0.0
 10
153.6550827037
 20
171.6855902452
 30
0.0
 10
154.6885612291
 20
172.0029415021
 30
0.0
 10
155.546539828
 20
172.1126342952
 30
0.0
 10
155.9761844836
 20
172.1312044809
 30
0.0
  0
SPLINE
  5
81A
100
AcDbEntity
  8
30338420_CL
100
AcDbSpline
 62
7
  6
CONTINUOUS
 70
0
 71
3
 72
26
 73
22
 74
0
 42
0.0000001
 43
0.0000001
 44
0.0000000001
 40
0.0
 40
0.0
 40
0.0
 40
0.0
 40
0.0167534364
 40
0.0334785667
 40
0.0500830523
 40
0.0665121926
 40
0.0988045723
 40
0.1305849684
 40
0.1620363751
 40
0.1932803517
 40
0.2243906235
 40
0.255412414
 40
0.3172894975
 40
0.3790595589
 40
0.4407933289
 40
0.5025351609
 40
0.5643173844
 40
0.6261670857
 40
0.7501298243
 40
0.8746651062
 40
1.0
 40
1.0
 40
1.0
 40
1.0
 10
129.0761844836
 20
181.7273848163
 30
0.0
 10
129.1005078081
 20
181.7329179266
 30
0.0
 10
129.1500027084
 20
181.740498428
 30
0.0
 10
129.2248813527
 20
181.7400273384
 30
0.0
 10
129.2982611959
 20
181.7278950063
 30
0.0
 10
129.3912810208
 20
181.6985811688
 30
0.0
 10
129.4982976464
 20
181.6427368582
 30
0.0
 10
129.6131908635
 20
181.5584110601
 30
0.0
 10
129.7178361897
 20
181.4641522051
 30
0.0
 10
129.8147910623
 20
181.3635037315
 30
0.0
 10
129.9058173919
 20
181.2583453556
 30
0.0
 10
130.020644202
 20
181.1136996143
 30
0.0
 10
130.1542053195
 20
180.9258888882
 30
0.0
 10
130.3015364234
 20
180.6923460857
 30
0.0
 10
130.4371095936
 20
180.4520246353
 30
0.0
 10
130.561311739
 20
180.2056255452
 30
0.0
 10
130.6740116674
 20
179.9535554992
 30
0.0
 10
130.8083922112
 20
179.6101538541
 30
0.0
 10
130.9448604413
 20
179.1677390144
 30
0.0
 10
131.0505586087
 20
178.6201218604
 30
0.0
 10
131.0761844836
 20
178.2477012758
 30
0.0
 10
131.0761844836
 20
178.061086143
 30
0.0
  0
SPLINE
  5
81B
100
AcDbEntity
  8
30338420_CL
100
AcDbSpline
 62
7
  6
CONTINUOUS
 70
0
 71
3
 72
10
 73
6
 74
0
 42
0.0000001
 43
0.0000001
 44
0.0000000001
 40
0.0
 40
0.0
 40
0.0
 40
0.0
 40
0.4997944526
 40
0.7499121152
 40
1.0
 40
1.0
 40
1.0
 40
1.0
 10
122.5761844836
 20
180.5698987672
 30
0.0
 10
122.6370114409
 20
180.6080873748
 30
0.0
 10
122.7331551527
 20
180.6585862979
 30
0.0
 10
122.8697338432
 20
180.7040967414
 30
0.0
 10
122.9404698654
 20
180.7182287728
 30
0.0
 10
122.9761095995
 20
180.7228493761
 30
0.0
  0
SPLINE
  5
81C
100
AcDbEntity
  8
30338420_CL
100
AcDbSpline
 62
7
  6
CONTINUOUS
 70
0
 71
3
 72
13
 73
9
 74
0
 42
0.0000001
 43
0.0000001
 44
0.0000000001
 40
0.0
 40
0.0
 40
0.0
 40
0.0
 40
0.2500860425
 40
0.5001475588
 40
0.6251609675
 40
0.7501523058
 40
0.8751074508
 40
1.0
 40
1.0
 40
1.0
 40
1.0
 10
122.9761095995
 20
180.7228493761
 30
0.0
 10
123.4873605485
 20
180.7891317958
 30
0.0
 10
124.509122714
 20
180.927087156
 30
0.0
 10
125.783824878
 20
181.1170386371
 30
0.0
 10
126.8011231823
 20
181.283696386
 30
0.0
 10
127.5623818548
 20
181.4177420579
 30
0.0
 10
128.3212942689
 20
181.5632076422
 30
0.0
 10
128.8251433108
 20
181.6702775536
 30
0.0
 10
129.0761844836
 20
181.7273848163
 30
0.0
  0
SPLINE
  5
81D
100
AcDbEntity
  8
30338420_CL
100
AcDbSpline
 62
7
  6
CONTINUOUS
 70
0
 71
3
 72
13
 73
9
 74
0
 42
0.0000001
 43
0.0000001
 44
0.0000000001
 40
0.0
 40
0.0
 40
0.0
 40
0.0
 40
0.2500860425
 40
0.5001475588
 40
0.6251609675
 40
0.7501523058
 40
0.8751074508
 40
1.0
 40
1.0
 40
1.0
 40
1.0
 10
122.9761095995
 20
150.5395595857
 30
0.0
 10
123.4873605485
 20
150.473277166
 30
0.0
 10
124.509122714
 20
150.3353218058
 30
0.0
 10
125.783824878
 20
150.1453703247
 30
0.0
 10
126.8011231823
 20
149.9787125758
 30
0.0
 10
127.5623818548
 20
149.8446669039
 30
0.0
 10
128.3212942689
 20
149.6992013196
 30
0.0
 10
128.8251433108
 20
149.5921314081
 30
0.0
 10
129.0761844836
 20
149.5350241454
 30
0.0
  0
SPLINE
  5
81E
100
AcDbEntity
  8
30338420_CL
100
AcDbSpline
 62
7
  6
CONTINUOUS
 70
0
 71
3
 72
21
 73
17
 74
0
 42
0.0000001
 43
0.0000001
 44
0.0000000001
 40
0.0
 40
0.0
 40
0.0
 40
0.0
 40
0.1249451374
 40
0.24993452
 40
0.312475815
 40
0.3749996787
 40
0.4375040047
 40
0.4999908515
 40
0.5624657378
 40
0.6249364063
 40
0.6874113226
 40
0.749897891
 40
0.8124008844
 40
0.8749213982
 40
0.9374564911
 40
1.0
 40
1.0
 40
1.0
 40
1.0
 10
155.9761844836
 20
159.1312044809
 30
0.0
 10
155.5465398329
 20
159.1497746663
 30
0.0
 10
154.688561215
 20
159.2594674614
 30
0.0
 10
153.6550826582
 20
159.5768187301
 30
0.0
 10
152.8715493346
 20
159.9352358525
 30
0.0
 10
152.309851551
 20
160.2553038717
 30
0.0
 10
151.7795927549
 20
160.6247989951
 30
0.0
 10
151.2858347218
 20
161.0416325905
 30
0.0
 10
150.833722576
 20
161.5032012423
 30
0.0
 10
150.4283585642
 20
162.0063316246
 30
0.0
 10
150.0747404323
 20
162.5471914646
 30
0.0
 10
149.7776274571
 20
163.1212189827
 30
0.0
 10
149.5413672339
 20
163.7230657767
 30
0.0
 10
149.3696847502
 20
164.3466481036
 30
0.0
 10
149.2654561888
 20
164.9850711169
 30
0.0
 10
149.2421559949
 20
165.4159374206
 30
0.0
 10
149.2421559949
 20
165.6312044809
 30
0.0
  0
SPLINE
  5
81F
100
AcDbEntity
  8
30338420_CL
100
AcDbSpline
 62
7
  6
CONTINUOUS
 70
0
 71
3
 72
21
 73
17
 74
0
 42
0.0000001
 43
0.0000001
 44
0.0000000001
 40
0.0
 40
0.0
 40
0.0
 40
0.0
 40
0.062764332
 40
0.125493976
 40
0.1881605081
 40
0.250746527
 40
0.3132476194
 40
0.3756717735
 40
0.4380368624
 40
0.5003671069
 40
0.6248858695
 40
0.7495717416
 40
0.8120779037
 40
0.8746548671
 40
0.9372987043
 40
1.0
 40
1.0
 40
1.0
 40
1.0
 10
163.4205535302
 20
165.6312044809
 30
0.0
 10
163.4205535302
 20
165.4006462747
 30
0.0
 10
163.3934676296
 20
164.9392025178
 30
0.0
 10
163.2725391139
 20
164.2571702231
 30
0.0
 10
163.0741023248
 20
163.5941699026
 30
0.0
 10
162.8024457666
 20
162.9586715644
 30
0.0
 10
162.4629215018
 20
162.3577923117
 30
0.0
 10
162.0615361587
 20
161.7974596134
 30
0.0
 10
161.6044862942
 20
161.2823925104
 30
0.0
 10
160.9299260367
 20
160.6615691307
 30
0.0
 10
159.9769104493
 20
160.0144175957
 30
0.0
 10
158.9197485607
 20
159.5569043801
 30
0.0
 10
158.0349780012
 20
159.3101553288
 30
0.0
 10
157.3557555935
 20
159.1853985814
 30
0.0
 10
156.667475438
 20
159.1221036674
 30
0.0
 10
156.2062962901
 20
159.1212585432
 30
0.0
 10
155.9761844836
 20
159.1312044809
 30
0.0
  0
SPLINE
  5
820
100
AcDbEntity
  8
30338420_CL
100
AcDbSpline
 62
7
  6
CONTINUOUS
 70
0
 71
3
 72
34
 73
30
 74
0
 42
0.0000001
 43
0.0000001
 44
0.0000000001
 40
0.0
 40
0.0
 40
0.0
 40
0.0
 40
0.0614460994
 40
0.1215860203
 40
0.1802164097
 40
0.2088756237
 40
0.2370260726
 40
0.2645914777
 40
0.2914671298
 40
0.317513533
 40
0.3425862532
 40
0.3547934748
 40
0.3668911691
 40
0.3791381235
 40
0.3919508206
 40
0.4057103318
 40
0.4205004756
 40
0.4361295079
 40
0.4523400437
 40
0.4857491676
 40
0.5198353653
 40
0.5542218104
 40
0.5887435957
 40
0.6578912895
 40
0.7269529333
 40
0.7957694461
 40
0.8642462183
 40
0.9323283973
 40
1.0
 40
1.0
 40
1.0
 40
1.0
 10
122.5761844836
 20
150.6925101945
 30
0.0
 10
122.5376996531
 20
150.6317571638
 30
0.0
 10
122.4606942711
 20
150.5120783372
 30
0.0
 10
122.3432480665
 20
150.3368599224
 30
0.0
 10
122.2434433599
 20
150.1960550891
 30
0.0
 10
122.1619184227
 20
150.0882965007
 30
0.0
 10
122.1001963308
 20
150.011186794
 30
0.0
 10
122.0370164083
 20
149.9379914676
 30
0.0
 10
121.9717160867
 20
149.8699878614
 30
0.0
 10
121.9033239193
 20
149.8093792011
 30
0.0
 10
121.8414676827
 20
149.7676641002
 30
0.0
 10
121.7883088987
 20
149.7445091485
 30
0.0
 10
121.7465323176
 20
149.7341378844
 30
0.0
 10
121.7026243994
 20
149.7331089511
 30
0.0
 10
121.6579366788
 20
149.7438167041
 30
0.0
 10
121.6147173775
 20
149.7665374409
 30
0.0
 10
121.5743929602
 20
149.7992921432
 30
0.0
 10
121.5373059308
 20
149.8395096304
 30
0.0
 10
121.49153797
 20
149.9007587882
 30
0.0
 10
121.4418584607
 20
149.9854899861
 30
0.0
 10
121.3905099796
 20
150.0931854824
 30
0.0
 10
121.3450675769
 20
150.2048983253
 30
0.0
 10
121.2908014444
 20
150.3571315213
 30
0.0
 10
121.2330568786
 20
150.5510280804
 30
0.0
 10
121.1767758971
 20
150.7868074611
 30
0.0
 10
121.1326157588
 20
151.0243575437
 30
0.0
 10
121.1004895778
 20
151.2626764436
 30
0.0
 10
121.0807417164
 20
151.5009954668
 30
0.0
 10
121.0761844836
 20
151.6599142683
 30
0.0
 10
121.0761844836
 20
151.7391173252
 30
0.0
  0
SPLINE
  5
821
100
AcDbEntity
  8
30338420_CL
100
AcDbSpline
 62
7
  6
CONTINUOUS
 70
0
 71
3
 72
26
 73
22
 74
0
 42
0.0000001
 43
0.0000001
 44
0.0000000001
 40
0.0
 40
0.0
 40
0.0
 40
0.0
 40
0.1253352375
 40
0.2498707536
 40
0.3738335216
 40
0.4356831862
 40
0.4974653407
 40
0.5592070976
 40
0.6209407941
 40
0.682710778
 40
0.7445877707
 40
0.7756095086
 40
0.8067197168
 40
0.8379636093
 40
0.8694148968
 40
0.9011950433
 40
0.9334870111
 40
0.949915912
 40
0.9665206331
 40
0.9832462382
 40
1.0
 40
1.0
 40
1.0
 40
1.0
 10
131.0761844836
 20
153.2013228187
 30
0.0
 10
131.0761844836
 20
153.0147071748
 30
0.0
 10
131.0505584748
 20
152.6422857295
 30
0.0
 10
130.9448599392
 20
152.0946677251
 30
0.0
 10
130.8083914431
 20
151.6522526142
 30
0.0
 10
130.6740107613
 20
151.308851145
 30
0.0
 10
130.5613108007
 20
151.0567814118
 30
0.0
 10
130.4371088012
 20
150.8103826121
 30
0.0
 10
130.3015356656
 20
150.5700615282
 30
0.0
 10
130.1542046313
 20
150.3365191082
 30
0.0
 10
130.0206435788
 20
150.1487087426
 30
0.0
 10
129.9058169464
 20
150.0040632565
 30
0.0
 10
129.8147908265
 20
149.8989050934
 30
0.0
 10
129.7178362556
 20
149.7982568877
 30
0.0
 10
129.6131915288
 20
149.7039983663
 30
0.0
 10
129.4982991639
 20
149.6196733826
 30
0.0
 10
129.3912840115
 20
149.5638292872
 30
0.0
 10
129.2982650547
 20
149.5345148178
 30
0.0
 10
129.2248846028
 20
149.5223817066
 30
0.0
 10
129.1500044031
 20
149.5219105007
 30
0.0
 10
129.1005082804
 20
149.5294909277
 30
0.0
 10
129.0761844836
 20
149.5350241454
 30
0.0
  0
SPLINE
  5
822
100
AcDbEntity
  8
30338420_CL
100
AcDbSpline
 62
7
  6
CONTINUOUS
 70
0
 71
3
 72
10
 73
6
 74
0
 42
0.0000001
 43
0.0000001
 44
0.0000000001
 40
0.0
 40
0.0
 40
0.0
 40
0.0
 40
0.2500909485
 40
0.5002094871
 40
1.0
 40
1.0
 40
1.0
 40
1.0
 10
122.9761095995
 20
150.5395595857
 30
0.0
 10
122.9404694342
 20
150.5441802449
 30
0.0
 10
122.8697329168
 20
150.5583127108
 30
0.0
 10
122.7331543793
 20
150.6038234482
 30
0.0
 10
122.6370109521
 20
150.6543218938
 30
0.0
 10
122.5761844836
 20
150.6925101945
 30
0.0
  0
SPLINE
  5
823
100
AcDbEntity
  8
30338420_CL
100
AcDbSpline
 62
7
  6
CONTINUOUS
 70
0
 71
3
 72
15
 73
11
 74
0
 42
0.0000001
 43
0.0000001
 44
0.0000000001
 40
0.0
 40
0.0
 40
0.0
 40
0.0
 40
0.0625620363
 40
0.1251265436
 40
0.2499780371
 40
0.3749500898
 40
0.5000039912
 40
0.6251057005
 40
0.7502342696
 40
1.0
 40
1.0
 40
1.0
 40
1.0
 10
189.8511844836
 20
132.1088238972
 30
0.0
 10
189.8220610761
 20
132.1088238972
 30
0.0
 10
189.7637020566
 20
132.104125882
 30
0.0
 10
189.6502202301
 20
132.0766437773
 30
0.0
 10
189.5181925038
 20
132.010852669
 30
0.0
 10
189.3853752513
 20
131.8954433136
 30
0.0
 10
189.2791046445
 20
131.7555941384
 30
0.0
 10
189.1984842015
 20
131.5997360626
 30
0.0
 10
189.1233332239
 20
131.3788428994
 30
0.0
 10
189.1011844836
 20
131.2031179958
 30
0.0
 10
189.1011844836
 20
131.0868489362
 30
0.0
  0
SPLINE
  5
824
100
AcDbEntity
  8
30338420_CL
100
AcDbSpline
 62
7
  6
CONTINUOUS
 70
0
 71
3
 72
34
 73
30
 74
0
 42
0.0000001
 43
0.0000001
 44
0.0000000001
 40
0.0
 40
0.0
 40
0.0
 40
0.0
 40
0.0676716408
 40
0.135753831
 40
0.2042305973
 40
0.2730471009
 40
0.3421087359
 40
0.4112564189
 40
0.4457782007
 40
0.480164643
 40
0.5142507497
 40
0.5476596414
 40
0.5638701086
 40
0.5794991429
 40
0.5942893713
 40
0.6080486971
 40
0.6208609333
 40
0.6331076469
 40
0.6452056292
 40
0.6574130619
 40
0.6824859075
 40
0.7085324926
 40
0.7354081631
 40
0.7629736429
 40
0.7911241388
 40
0.8197833864
 40
0.8784138377
 40
0.9385538301
 40
1.0
 40
1.0
 40
1.0
 40
1.0
 10
121.0761844836
 20
179.5232916366
 30
0.0
 10
121.0761844836
 20
179.6024947397
 30
0.0
 10
121.0807417226
 20
179.7614136022
 30
0.0
 10
121.1004895913
 20
179.9997326813
 30
0.0
 10
121.1326158087
 20
180.238051576
 30
0.0
 10
121.1767759035
 20
180.4756016441
 30
0.0
 10
121.2330569568
 20
180.7113809788
 30
0.0
 10
121.2908015472
 20
180.9052775081
 30
0.0
 10
121.3450676941
 20
181.0575106767
 30
0.0
 10
121.3905097994
 20
181.1692235211
 30
0.0
 10
121.4418584007
 20
181.2769185622
 30
0.0
 10
121.4915378049
 20
181.3616492411
 30
0.0
 10
121.5373052353
 20
181.4228983866
 30
0.0
 10
121.5743921886
 20
181.4631158975
 30
0.0
 10
121.6147160667
 20
181.495871258
 30
0.0
 10
121.6579350571
 20
181.5185908511
 30
0.0
 10
121.7026212014
 20
181.5293006508
 30
0.0
 10
121.7465287138
 20
181.5282712422
 30
0.0
 10
121.7883057828
 20
181.517900929
 30
0.0
 10
121.8414653066
 20
181.494745739
 30
0.0
 10
121.9033228883
 20
181.4530315788
 30
0.0
 10
121.9717146862
 20
181.3924218247
 30
0.0
 10
122.0370159142
 20
181.3244186997
 30
0.0
 10
122.1001956071
 20
181.2512229195
 30
0.0
 10
122.1619178804
 20
181.1741131384
 30
0.0
 10
122.2434429439
 20
181.0663544272
 30
0.0
 10
122.3432478552
 20
180.925549497
 30
0.0
 10
122.4606941085
 20
180.7503308202
 30
0.0
 10
122.5376996081
 20
180.630651869
 30
0.0
 10
122.5761844836
 20
180.5698987672
 30
0.0
  0
SPLINE
  5
825
100
AcDbEntity
  8
30338420_CL
100
AcDbSpline
 62
7
  6
CONTINUOUS
 70
0
 71
3
 72
15
 73
11
 74
0
 42
0.0000001
 43
0.0000001
 44
0.0000000001
 40
0.0
 40
0.0
 40
0.0
 40
0.0
 40
0.2497657348
 40
0.3748943018
 40
0.499996009
 40
0.6250499133
 40
0.7500219648
 40
0.8748734576
 40
0.9374379647
 40
1.0
 40
1.0
 40
1.0
 40
1.0
 10
192.8511844836
 20
131.0868489362
 30
0.0
 10
192.8511844836
 20
131.2031179979
 30
0.0
 10
192.8290357425
 20
131.3788429025
 30
0.0
 10
192.7538847643
 20
131.5997360656
 30
0.0
 10
192.6732643213
 20
131.7555941406
 30
0.0
 10
192.5669937142
 20
131.8954433155
 30
0.0
 10
192.4341764608
 20
132.0108526706
 30
0.0
 10
192.3021487352
 20
132.0766437781
 30
0.0
 10
192.1886669094
 20
132.1041258818
 30
0.0
 10
192.1303078905
 20
132.1088238972
 30
0.0
 10
192.1011844836
 20
132.1088238972
 30
0.0
  0
ENDSEC
  0
SECTION
  2
OBJECTS
  0
DICTIONARY
  5
C
100
AcDbDictionary
280
0
281
1
  3
ACAD_GROUP
350
D
  3
ACAD_MLINESTYLE
350
17
  3
ACAD_LAYOUT
350
1A
  3
ACAD_PLOTSETTINGS
350
19
  3
ACAD_PLOTSTYLENAME
350
E
  0
DICTIONARY
  5
D
102
{ACAD_REACTORS
330
C
102
}
100
AcDbDictionary
280
0
281
1
  0
ACDBDICTIONARYWDFLT
  5
E
102
{ACAD_REACTORS
330
C
102
}
100
AcDbDictionary
281
1
  3
Normal
350
F
100
AcDbDictionaryWithDefault
340
F
  0
DICTIONARY
  5
17
102
{ACAD_REACTORS
330
C
102
}
100
AcDbDictionary
280
0
281
1
  3
Standard
350
18
  0
DICTIONARY
  5
19
102
{ACAD_REACTORS
330
C
102
}
100
AcDbDictionary
281
1
  0
DICTIONARY
  5
1A
102
{ACAD_REACTORS
330
C
102
}
100
AcDbDictionary
281
1
  3
Model
350
826
  3
Layout1
350
827
  0
ACDBPLACEHOLDER
  5
F
102
{ACAD_REACTORS
330
E
102
}
  0
MLINESTYLE
  5
18
102
{ACAD_REACTORS
330
17
102
}
100
AcDbMlineStyle
  2
STANDARD
 70
0
  3

 62
256
 51
90.0
 52
90.0
 71
2
 49
0.5
 62
256
  6
BYLAYER
 49
-0.5
 62
256
  6
BYLAYER
  0
LAYOUT
  5
826
102
{ACAD_REACTORS
330
1A
102
}
100
AcDbPlotSettings
  1

  2
none_device
  4
ISO_A3_(420.00_x_297.00_MM)
  6

 40
0.0
 41
0.0
 42
0.0
 43
0.0
 44
420.0
 45
297.0
 46
0.0
 47
0.0
 48
0.0
 49
0.0
140
0.0
141
0.0
142
1.0
143
1.0
 70
1024
 72
1
 73
0
 74
0
  7

 75
0
147
1.0
148
0.0
149
0.0
100
AcDbLayout
  1
Model
 70
0
 71
0
 10
0.0
 20
0.0
 11
420.0
 21
297.0
 12
0.0
 22
0.0
 32
0.0
 14
0.0
 24
0.0
 34
0.0
 15
0.0
 25
0.0
 35
0.0
146
0.0
 13
0.0
 23
0.0
 33
0.0
 16
1.0
 26
0.0
 36
0.0
 17
0.0
 27
1.0
 37
0.0
 76
0
330
218
345
0
346
0
  0
LAYOUT
  5
827
102
{ACAD_REACTORS
330
1A
102
}
100
AcDbPlotSettings
  1

  2
none_device
  4
ISO_A3_(420.00_x_297.00_MM)
  6

 40
0.0
 41
0.0
 42
0.0
 43
0.0
 44
420.0
 45
297.0
 46
0.0
 47
0.0
 48
0.0
 49
0.0
140
0.0
141
0.0
142
1.0
143
1.0
 70
0
 72
1
 73
0
 74
0
  7

 75
0
147
1.0
148
0.0
149
0.0
100
AcDbLayout
  1
Layout1
 70
0
 71
1
 10
0.0
 20
0.0
 11
420.0
 21
297.0
 12
0.0
 22
0.0
 32
0.0
 14
0.0
 24
0.0
 34
0.0
 15
0.0
 25
0.0
 35
0.0
146
0.0
 13
0.0
 23
0.0
 33
0.0
 16
1.0
 26
0.0
 36
0.0
 17
0.0
 27
1.0
 37
0.0
 76
0
330
219
345
0
346
0
  0
ENDSEC
  0
EOF
