999
DXF file: 606446769-000-00-ed1.dxf
999
Pro/ENGINEER 2011220 by Parametric Technology Corporation
  0
SECTION
  2
HEADER
  9
$ACADVER
  1
AC1015
  9
$DWGCODEPAGE
  3
ANSI_1252
  9
$EXTMAX
 10
420.0
 20
297.0
 30
0.0
  9
$EXTMIN
 10
0.0
 20
0.0
 30
0.0
  9
$LIMMIN
 10
0.0
 20
0.0
  9
$LIMMAX
 10
420.0
 20
297.0
  9
$VIEWCTR
 10
210.0
 20
148.5
  9
$VIEWSIZE
 40
297.0
  9
$CLAYER
  8
0
  9
$LTSCALE
 40
23.1
  9
$CELTYPE
  6
BYLAYER
  9
$DIMSCALE
 40
1.0
  9
$DIMASZ
 40
3.5
  9
$DIMEXO
 40
2.625
  9
$DIMDLI
 40
15.96
  9
$DIMEXE
 40
7.56
  9
$DIMCEN
 40
3.78
  9
$DIMLFAC
 40
1.0
  9
$DIMBLK
  1
_FILLED
  9
$DIMTXT
 40
3.5
  9
$DIMTOL
 70
1
  9
$DIMLIM
 70
0
  9
$DIMTFAC
 40
1.0
  9
$DIMTP
 40
0.005
  9
$DIMTM
 40
0.005
  9
$PDMODE
 70
3
  9
$PDSIZE
 40
0.3125
  9
$HANDSEED
  5
810
  9
$TILEMODE
 70
1
  9
$MEASUREMENT
 70
1
  9
$INSUNITS
 70
4
  0
ENDSEC
  0
SECTION
  2
CLASSES
  0
CLASS
  1
ACDBDICTIONARYWDFLT
  2
AcDbDictionaryWithDefault
  3
AutoCAD 2000
 90
0
280
0
281
0
  0
CLASS
  1
ACDBPLACEHOLDER
  2
AcDbPlaceHolder
  3
AutoCAD 2000
 90
0
280
0
281
0
  0
CLASS
  1
LAYOUT
  2
AcDbLayout
  3
AutoCAD 2000
 90
0
280
0
281
0
  0
ENDSEC
  0
SECTION
  2
TABLES
  0
TABLE
  2
VPORT
  5
8
100
AcDbSymbolTable
 70
2
  0
VPORT
  5
1F4
100
AcDbSymbolTableRecord
100
AcDbViewportTableRecord
  2
*ACTIVE
 70
0
 10
0.0
 20
0.0
 11
1.0
 21
1.0
 12
210.0
 22
148.5
 13
0.0
 23
0.0
 14
1.0
 24
1.0
 15
0.0
 25
0.0
 16
0.0
 26
0.0
 36
1.0
 17
0.0
 27
0.0
 37
0.0
 40
297.0
 41
1.4141414141
 42
50.0
 43
0.0
 44
0.0
 50
0.0
 51
0.0
 71
0
 72
100
 73
1
 74
1
 75
0
 76
0
 77
0
 78
0
  0
ENDTAB
  0
TABLE
  2
LTYPE
  5
5
100
AcDbSymbolTable
 70
6
  0
LTYPE
  5
14
100
AcDbSymbolTableRecord
100
AcDbLinetypeTableRecord
  2
BYBLOCK
 70
0
  3

 72
65
 73
0
 40
0.0
  0
LTYPE
  5
15
100
AcDbSymbolTableRecord
100
AcDbLinetypeTableRecord
  2
BYLAYER
 70
0
  3

 72
65
 73
0
 40
0.0
  0
LTYPE
  5
16
100
AcDbSymbolTableRecord
100
AcDbLinetypeTableRecord
  2
CONTINUOUS
 70
64
  3
Solid line
 72
65
 73
0
 40
0.0
  0
LTYPE
  5
1F5
100
AcDbSymbolTableRecord
100
AcDbLinetypeTableRecord
  2
CENTER
 70
64
  3
____ _ ____ _ ____ _ ____ _ ____ _ ____ _ ____
 72
65
 73
4
 40
0.6
 49
0.375
 74
0
 49
-0.075
 74
0
 49
0.075
 74
0
 49
-0.075
 74
0
  0
LTYPE
  5
1F6
100
AcDbSymbolTableRecord
100
AcDbLinetypeTableRecord
  2
HIDDEN
 70
64
  3
- - - - - - - - - - - - - - - - - - - -
 72
65
 73
2
 40
0.2
 49
0.1
 74
0
 49
-0.1
 74
0
  0
LTYPE
  5
1F7
100
AcDbSymbolTableRecord
100
AcDbLinetypeTableRecord
  2
PHANTOM
 70
64
  3
_____ _ _ _____ _ _ _____ _ _ _____
 72
65
 73
6
 40
0.8
 49
0.45
 74
0
 49
-0.05
 74
0
 49
0.1
 74
0
 49
-0.05
 74
0
 49
0.1
 74
0
 49
-0.05
 74
0
  0
LTYPE
  5
1F8
100
AcDbSymbolTableRecord
100
AcDbLinetypeTableRecord
  2
DOT
 70
64
  3
. . . . . . . . . . . . . . . . . . . .
 72
65
 73
2
 40
0.2
 49
0.1
 74
0
 49
-0.1
 74
0
  0
LTYPE
  5
1F9
100
AcDbSymbolTableRecord
100
AcDbLinetypeTableRecord
  2
DASHED
 70
64
  3
- - - - - - - - - - - - - - - - - - - -
 72
65
 73
2
 40
0.2
 49
0.1
 74
0
 49
-0.1
 74
0
  0
ENDTAB
  0
TABLE
  2
LAYER
  5
2
100
AcDbSymbolTable
 70
36
  0
LAYER
  5
10
100
AcDbSymbolTableRecord
100
AcDbLayerTableRecord
  2
0
 70
0
 62
7
  6
CONTINUOUS
370
-3
390
F
  0
LAYER
  5
1FA
100
AcDbSymbolTableRecord
100
AcDbLayerTableRecord
  2
DEFAULT_1
 70
0
 62
7
  6
CENTER
370
-3
390
F
  0
LAYER
  5
1FB
100
AcDbSymbolTableRecord
100
AcDbLayerTableRecord
  2
DEFAULT_2
 70
0
 62
6
  6
HIDDEN
370
-3
390
F
  0
LAYER
  5
1FC
100
AcDbSymbolTableRecord
100
AcDbLayerTableRecord
  2
DEFAULT_3
 70
0
 62
7
  6
PHANTOM
370
-3
390
F
  0
LAYER
  5
1FD
100
AcDbSymbolTableRecord
100
AcDbLayerTableRecord
  2
COLLECTION01
 70
0
 62
7
  6
CONTINUOUS
370
-3
390
F
  0
LAYER
  5
1FE
100
AcDbSymbolTableRecord
100
AcDbLayerTableRecord
  2
COLLECTION02
 70
0
 62
7
  6
CONTINUOUS
370
-3
390
F
  0
LAYER
  5
1FF
100
AcDbSymbolTableRecord
100
AcDbLayerTableRecord
  2
COLLECTION03
 70
0
 62
7
  6
CONTINUOUS
370
-3
390
F
  0
LAYER
  5
200
100
AcDbSymbolTableRecord
100
AcDbLayerTableRecord
  2
COLLECTION12
 70
0
 62
7
  6
CONTINUOUS
370
-3
390
F
  0
LAYER
  5
201
100
AcDbSymbolTableRecord
100
AcDbLayerTableRecord
  2
COLLECTION04
 70
0
 62
7
  6
CONTINUOUS
370
-3
390
F
  0
LAYER
  5
202
100
AcDbSymbolTableRecord
100
AcDbLayerTableRecord
  2
COLLECTION06
 70
0
 62
7
  6
CONTINUOUS
370
-3
390
F
  0
LAYER
  5
203
100
AcDbSymbolTableRecord
100
AcDbLayerTableRecord
  2
COLLECTION07
 70
0
 62
7
  6
CONTINUOUS
370
-3
390
F
  0
LAYER
  5
204
100
AcDbSymbolTableRecord
100
AcDbLayerTableRecord
  2
COLLECTION09
 70
0
 62
7
  6
CONTINUOUS
370
-3
390
F
  0
LAYER
  5
205
100
AcDbSymbolTableRecord
100
AcDbLayerTableRecord
  2
COLLECTION10
 70
0
 62
7
  6
CONTINUOUS
370
-3
390
F
  0
LAYER
  5
206
100
AcDbSymbolTableRecord
100
AcDbLayerTableRecord
  2
COLLECTION13
 70
0
 62
7
  6
CONTINUOUS
370
-3
390
F
  0
LAYER
  5
207
100
AcDbSymbolTableRecord
100
AcDbLayerTableRecord
  2
COLLECTION15
 70
0
 62
7
  6
CONTINUOUS
370
-3
390
F
  0
LAYER
  5
208
100
AcDbSymbolTableRecord
100
AcDbLayerTableRecord
  2
COLLECTION16
 70
0
 62
7
  6
CONTINUOUS
370
-3
390
F
  0
LAYER
  5
209
100
AcDbSymbolTableRecord
100
AcDbLayerTableRecord
  2
606446769-000-00-ED1_FORMAT
 70
0
 62
7
  6
CONTINUOUS
370
-3
390
F
  0
LAYER
  5
20A
100
AcDbSymbolTableRecord
100
AcDbLayerTableRecord
  2
606446769-000-00-ED1_DIM
 70
0
 62
7
  6
CONTINUOUS
370
-3
390
F
  0
LAYER
  5
20B
100
AcDbSymbolTableRecord
100
AcDbLayerTableRecord
  2
30261798_DIM
 70
0
 62
7
  6
CONTINUOUS
370
-3
390
F
  0
LAYER
  5
20C
100
AcDbSymbolTableRecord
100
AcDbLayerTableRecord
  2
30338430_DIM
 70
0
 62
7
  6
CONTINUOUS
370
-3
390
F
  0
LAYER
  5
20D
100
AcDbSymbolTableRecord
100
AcDbLayerTableRecord
  2
606446769-000-00-ED1_CL
 70
0
 62
7
  6
CONTINUOUS
370
-3
390
F
  0
LAYER
  5
20E
100
AcDbSymbolTableRecord
100
AcDbLayerTableRecord
  2
606446769-000-00-ED1_TEXT
 70
0
 62
7
  6
CONTINUOUS
370
-3
390
F
  0
LAYER
  5
20F
100
AcDbSymbolTableRecord
100
AcDbLayerTableRecord
  2
30338430_CL
 70
0
 62
7
  6
CONTINUOUS
370
-3
390
F
  0
LAYER
  5
210
100
AcDbSymbolTableRecord
100
AcDbLayerTableRecord
  2
30338430_HL
 70
0
 62
7
  6
CONTINUOUS
370
-3
390
F
  0
LAYER
  5
211
100
AcDbSymbolTableRecord
100
AcDbLayerTableRecord
  2
30338430_AXIS
 70
0
 62
7
  6
CONTINUOUS
370
-3
390
F
  0
LAYER
  5
212
100
AcDbSymbolTableRecord
100
AcDbLayerTableRecord
  2
30252542_HP_HL
 70
0
 62
7
  6
CONTINUOUS
370
-3
390
F
  0
LAYER
  5
213
100
AcDbSymbolTableRecord
100
AcDbLayerTableRecord
  2
30252542_HP_CL
 70
0
 62
7
  6
CONTINUOUS
370
-3
390
F
  0
ENDTAB
  0
TABLE
  2
STYLE
  5
3
100
AcDbSymbolTable
 70
1
  0
STYLE
  5
11
100
AcDbSymbolTableRecord
100
AcDbTextStyleTableRecord
  2
STANDARD
 70
0
 40
0.0
 41
0.7
 50
0.0
 71
0
 42
0.2
  3
TXT.SHX
  4

  0
STYLE
  5
214
100
AcDbSymbolTableRecord
100
AcDbTextStyleTableRecord
  2
TEXTSTYLE_1
 70
0
 40
0.0
 41
0.8
 50
0.0
 71
0
 42
0.2
  3
gdt
  4

  0
STYLE
  5
215
100
AcDbSymbolTableRecord
100
AcDbTextStyleTableRecord
  2
TEXTSTYLE_2
 70
0
 40
0.0
 41
0.675
 50
0.0
 71
0
 42
0.2
  3
TXT.SHX
  4

  0
STYLE
  5
216
100
AcDbSymbolTableRecord
100
AcDbTextStyleTableRecord
  2
TEXTSTYLE_3
 70
0
 40
0.0
 41
0.7
 50
0.0
 71
0
 42
0.2
  3
gdt
  4

  0
ENDTAB
  0
TABLE
  2
VIEW
  5
6
100
AcDbSymbolTable
 70
0
  0
ENDTAB
  0
TABLE
  2
UCS
  5
7
100
AcDbSymbolTable
 70
0
  0
ENDTAB
  0
TABLE
  2
APPID
  5
9
100
AcDbSymbolTable
 70
1
  0
APPID
  5
217
100
AcDbSymbolTableRecord
100
AcDbRegAppTableRecord
  2
ACAD
 70
0
  0
ENDTAB
  0
TABLE
  2
BLOCK_RECORD
  5
1
100
AcDbSymbolTable
 70
0
  0
BLOCK_RECORD
  5
218
100
AcDbSymbolTableRecord
100
AcDbBlockTableRecord
  2
*Model_Space
  0
BLOCK_RECORD
  5
219
100
AcDbSymbolTableRecord
100
AcDbBlockTableRecord
  2
*Paper_Space
  0
BLOCK_RECORD
  5
21A
100
AcDbSymbolTableRecord
100
AcDbBlockTableRecord
  2
_FILLED
  0
BLOCK_RECORD
  5
21B
100
AcDbSymbolTableRecord
100
AcDbBlockTableRecord
  2
_DOT
  0
BLOCK_RECORD
  5
21C
100
AcDbSymbolTableRecord
100
AcDbBlockTableRecord
  2
*D0
  0
BLOCK_RECORD
  5
21D
100
AcDbSymbolTableRecord
100
AcDbBlockTableRecord
  2
*D1
  0
BLOCK_RECORD
  5
21E
100
AcDbSymbolTableRecord
100
AcDbBlockTableRecord
  2
*D2
  0
BLOCK_RECORD
  5
21F
100
AcDbSymbolTableRecord
100
AcDbBlockTableRecord
  2
*D3
  0
BLOCK_RECORD
  5
220
100
AcDbSymbolTableRecord
100
AcDbBlockTableRecord
  2
*D4
  0
BLOCK_RECORD
  5
221
100
AcDbSymbolTableRecord
100
AcDbBlockTableRecord
  2
*D5
  0
BLOCK_RECORD
  5
222
100
AcDbSymbolTableRecord
100
AcDbBlockTableRecord
  2
*D6
  0
BLOCK_RECORD
  5
223
100
AcDbSymbolTableRecord
100
AcDbBlockTableRecord
  2
*D7
  0
BLOCK_RECORD
  5
224
100
AcDbSymbolTableRecord
100
AcDbBlockTableRecord
  2
*D8
  0
BLOCK_RECORD
  5
225
100
AcDbSymbolTableRecord
100
AcDbBlockTableRecord
  2
*D9
  0
BLOCK_RECORD
  5
226
100
AcDbSymbolTableRecord
100
AcDbBlockTableRecord
  2
*D10
  0
BLOCK_RECORD
  5
227
100
AcDbSymbolTableRecord
100
AcDbBlockTableRecord
  2
*D11
  0
BLOCK_RECORD
  5
228
100
AcDbSymbolTableRecord
100
AcDbBlockTableRecord
  2
BOMBALLOON_BL4
  0
BLOCK_RECORD
  5
229
100
AcDbSymbolTableRecord
100
AcDbBlockTableRecord
  2
GEOM_TOLERANCE_SYMBOLS_BL3
  0
BLOCK_RECORD
  5
22A
100
AcDbSymbolTableRecord
100
AcDbBlockTableRecord
  2
GEOM_TOLERANCE_SYMBOLS_BL2
  0
BLOCK_RECORD
  5
22B
100
AcDbSymbolTableRecord
100
AcDbBlockTableRecord
  2
GEOM_TOLERANCE_SYMBOLS_BL1
  0
BLOCK_RECORD
  5
22C
100
AcDbSymbolTableRecord
100
AcDbBlockTableRecord
  2
BARCODEBOX_BL0
  0
ENDTAB
  0
TABLE
  2
DIMSTYLE
  5
A
100
AcDbSymbolTable
 70
1
100
AcDbDimStyleTable
 71
0
  0
DIMSTYLE
105
22D
100
AcDbSymbolTableRecord
100
AcDbDimStyleTableRecord
  2
STANDARD
 70
0
  3

  4

 40
1.0
 41
3.5
 42
0.0625
 43
0.38
 44
0.18
 45
0.0
 46
0.0
 47
0.005
 48
0.005
140
3.5
141
0.09
142
0.0
143
25.4
144
1.0
145
0.0
146
1.0
147
0.09
 71
1.0
 72
0.0
 73
0
 74
0
 75
0
 76
0
 77
1
 78
8
170
0
171
2
172
0
173
0
174
0
175
0
176
0
177
0
178
2
270
2
271
3
272
3
273
2
274
2
275
0
280
0
281
0
282
0
283
1
284
8
285
0
286
0
287
3
288
0
340
11
341
21A
342
21A
343
21A
344
21A
  0
DIMSTYLE
105
22E
100
AcDbSymbolTableRecord
100
AcDbDimStyleTableRecord
  2
DIMSTYLE_1
 70
0
  3

  4

 40
1.0
 41
3.5
 42
0.0625
 43
0.38
 44
0.18
 45
0.0
 46
0.0
 47
0.1
 48
0.1
140
3.5
141
0.09
142
0.0
143
25.4
144
1.0
145
0.0
146
1.0
147
0.09
 71
0.0
 72
0.0
 73
0
 74
0
 75
0
 76
0
 77
1
 78
8
170
0
171
2
172
0
173
0
174
0
175
0
176
0
177
0
178
2
270
2
271
3
272
3
273
2
274
2
275
0
280
0
281
0
282
0
283
1
284
8
285
0
286
0
287
3
288
0
340
11
341
21A
342
21A
343
21A
344
21A
  0
DIMSTYLE
105
22F
100
AcDbSymbolTableRecord
100
AcDbDimStyleTableRecord
  2
DIMSTYLE_2
 70
0
  3

  4

 40
1.0
 41
3.5
 42
0.0625
 43
0.38
 44
0.18
 45
0.0
 46
0.0
 47
0.25
 48
0.25
140
3.5
141
0.09
142
0.0
143
25.4
144
1.0
145
0.0
146
1.0
147
0.09
 71
1.0
 72
0.0
 73
0
 74
0
 75
0
 76
0
 77
1
 78
8
170
0
171
2
172
0
173
0
174
0
175
0
176
0
177
0
178
2
270
2
271
2
272
2
273
2
274
2
275
0
280
0
281
0
282
0
283
1
284
8
285
0
286
0
287
3
288
0
340
11
341
21A
342
21A
343
21A
344
21A
  0
DIMSTYLE
105
230
100
AcDbSymbolTableRecord
100
AcDbDimStyleTableRecord
  2
DIMSTYLE_3
 70
0
  3

  4

 40
1.0
 41
3.5
 42
0.0625
 43
0.38
 44
0.18
 45
0.0
 46
0.0
 47
0.1
 48
0.1
140
3.5
141
0.09
142
0.0
143
25.4
144
1.0
145
0.0
146
1.0
147
0.09
 71
0.0
 72
0.0
 73
0
 74
0
 75
0
 76
0
 77
1
 78
8
170
0
171
2
172
0
173
0
174
0
175
0
176
0
177
0
178
2
270
2
271
3
272
3
273
2
274
2
275
0
280
0
281
0
282
0
283
1
284
8
285
0
286
0
287
3
288
0
340
11
341
21A
342
21A
343
21A
344
21A
  0
DIMSTYLE
105
231
100
AcDbSymbolTableRecord
100
AcDbDimStyleTableRecord
  2
DIMSTYLE_4
 70
0
  3

  4

 40
1.0
 41
3.5
 42
0.0625
 43
0.38
 44
0.18
 45
0.0
 46
0.0
 47
0.05
 48
0.05
140
3.5
141
0.09
142
0.0
143
25.4
144
1.0
145
0.0
146
1.0
147
0.09
 71
0.0
 72
0.0
 73
0
 74
0
 75
0
 76
0
 77
1
 78
8
170
0
171
2
172
0
173
0
174
0
175
0
176
0
177
0
178
2
270
2
271
3
272
3
273
2
274
2
275
0
280
0
281
0
282
0
283
1
284
8
285
0
286
0
287
3
288
0
340
11
341
21A
342
21A
343
21A
344
21A
  0
DIMSTYLE
105
232
100
AcDbSymbolTableRecord
100
AcDbDimStyleTableRecord
  2
DIMSTYLE_5
 70
0
  3

  4

 40
1.0
 41
3.5
 42
0.0625
 43
0.38
 44
0.18
 45
0.0
 46
0.0
 47
0.15
 48
0.15
140
3.5
141
0.09
142
0.0
143
25.4
144
1.0
145
0.0
146
1.0
147
0.09
 71
0.0
 72
0.0
 73
0
 74
0
 75
0
 76
0
 77
1
 78
8
170
0
171
2
172
0
173
0
174
0
175
0
176
0
177
0
178
2
270
2
271
3
272
3
273
2
274
2
275
0
280
0
281
0
282
0
283
1
284
8
285
0
286
0
287
3
288
0
340
11
341
21A
342
21A
343
21A
344
21A
  0
DIMSTYLE
105
233
100
AcDbSymbolTableRecord
100
AcDbDimStyleTableRecord
  2
DIMSTYLE_6
 70
0
  3

  4

 40
1.0
 41
3.5
 42
0.0625
 43
0.38
 44
0.18
 45
0.0
 46
0.0
 47
0.15
 48
0.15
140
3.5
141
0.09
142
0.0
143
25.4
144
1.0
145
0.0
146
1.0
147
0.09
 71
0.0
 72
0.0
 73
0
 74
0
 75
0
 76
0
 77
1
 78
8
170
0
171
2
172
0
173
0
174
0
175
0
176
0
177
0
178
2
270
2
271
2
272
2
273
2
274
2
275
0
280
0
281
0
282
0
283
1
284
8
285
0
286
0
287
3
288
0
340
11
341
21A
342
21A
343
21A
344
21A
  0
ENDTAB
  0
ENDSEC
  0
SECTION
  2
BLOCKS
  0
BLOCK
  5
20
100
AcDbEntity
  8
0
100
AcDbBlockBegin
  2
*Model_Space
 70
0
 10
0.0
 20
0.0
 30
0.0
  3
*Model_Space
  1

  0
ENDBLK
  5
21
100
AcDbEntity
  8
0
100
AcDbBlockEnd
  0
BLOCK
  5
1C
100
AcDbEntity
  8
0
100
AcDbBlockBegin
  2
*Paper_Space
 70
0
 10
0.0
 20
0.0
 30
0.0
  3
*Paper_Space
  1

  0
ENDBLK
  5
1D
100
AcDbEntity
  8
0
100
AcDbBlockEnd
  0
BLOCK
  5
234
100
AcDbEntity
  8
606446769-000-00-ED1_CL
100
AcDbBlockBegin
 62
3
  6
CONTINUOUS
  2
BOMBALLOON_BL4
 70
64
 10
183.3609901071
 20
207.2237793312
  3
BOMBALLOON_BL4
  1

  0
CIRCLE
  5
235
100
AcDbEntity
  8
606446769-000-00-ED1_CL
100
AcDbCircle
 62
3
  6
CONTINUOUS
 10
183.3609901071
 20
207.2237793312
 40
6.125
  0
LINE
  5
236
100
AcDbEntity
  8
606446769-000-00-ED1_CL
100
AcDbLine
 62
3
  6
CONTINUOUS
 10
177.2359901071
 20
207.2237793312
 11
189.4859901071
 21
207.2237793312
  0
TEXT
  5
237
100
AcDbEntity
  8
606446769-000-00-ED1_CL
100
AcDbText
 62
2
  6
CONTINUOUS
 10
182.2561723987
 20
208.1625814145
  7
STANDARD
 40
3.5
  1
1
 41
0.5714285714
 72
0
100
AcDbText
  0
TEXT
  5
238
100
AcDbEntity
  8
606446769-000-00-ED1_CL
100
AcDbText
 62
2
  6
CONTINUOUS
 10
182.3564328154
 20
203.0493001645
  7
STANDARD
 40
3.5
  1
1
 41
0.5714285714
 72
0
100
AcDbText
  0
ENDBLK
  5
239
100
AcDbEntity
  8
0
  6
BYBLOCK
 62
0
100
AcDbBlockEnd
  0
BLOCK
  5
23A
100
AcDbEntity
  8
606446769-000-00-ED1_CL
100
AcDbBlockBegin
 62
3
  6
CONTINUOUS
  2
GEOM_TOLERANCE_SYMBOLS_BL3
 70
64
 10
104.8864838234
 20
207.9111013254
  3
GEOM_TOLERANCE_SYMBOLS_BL3
  1

  0
LINE
  5
23B
100
AcDbEntity
  8
606446769-000-00-ED1_CL
100
AcDbLine
 62
3
  6
CONTINUOUS
 10
106.8377271667
 20
201.694158475
 11
103.8414851388
 21
201.544046149
  0
LINE
  5
23C
100
AcDbEntity
  8
606446769-000-00-ED1_CL
100
AcDbLine
 62
3
  6
CONTINUOUS
 10
101.2157370772
 20
213.928173501
 11
108.2069684755
 21
214.2784355952
  0
LINE
  5
23D
100
AcDbEntity
  8
606446769-000-00-ED1_CL
100
AcDbLine
 62
3
  6
CONTINUOUS
 10
108.2069684755
 20
214.2784355952
 11
108.5572305697
 21
207.2872041968
  0
LINE
  5
23E
100
AcDbEntity
  8
606446769-000-00-ED1_CL
100
AcDbLine
 62
3
  6
CONTINUOUS
 10
108.5572305697
 20
207.2872041968
 11
101.5659991713
 21
206.9369421027
  0
LINE
  5
23F
100
AcDbEntity
  8
606446769-000-00-ED1_CL
100
AcDbLine
 62
3
  6
CONTINUOUS
 10
101.5659991713
 20
206.9369421027
 11
101.2157370772
 21
213.928173501
  0
LINE
  5
240
100
AcDbEntity
  8
606446769-000-00-ED1_CL
100
AcDbLine
 62
3
  6
CONTINUOUS
 10
103.8359144365
 20
201.5437670557
 11
105.2117271966
 21
204.1158311219
  0
LINE
  5
241
100
AcDbEntity
  8
606446769-000-00-ED1_CL
100
AcDbLine
 62
3
  6
CONTINUOUS
 10
105.2117271966
 20
204.1158311219
 11
106.8321564644
 21
201.6938793817
  0
LINE
  5
242
100
AcDbEntity
  8
606446769-000-00-ED1_CL
100
AcDbLine
 62
3
  6
CONTINUOUS
 10
105.2117271966
 20
204.1158311219
 11
105.0616148705
 21
207.1120731498
  0
LINE
  5
243
100
AcDbEntity
  8
606446769-000-00-ED1_CL
100
AcDbLine
 62
3
  6
CONTINUOUS
 10
103.9385745219
 20
201.5489103465
 11
103.9300182785
 21
201.7196929647
  0
LINE
  5
244
100
AcDbEntity
  8
606446769-000-00-ED1_CL
100
AcDbLine
 62
3
  6
CONTINUOUS
 10
104.0384492562
 20
201.5539140907
 11
104.0215689155
 21
201.8908456903
  0
LINE
  5
245
100
AcDbEntity
  8
606446769-000-00-ED1_CL
100
AcDbLine
 62
3
  6
CONTINUOUS
 10
104.1383239905
 20
201.5589178349
 11
104.1131195525
 21
202.0619984158
  0
LINE
  5
246
100
AcDbEntity
  8
606446769-000-00-ED1_CL
100
AcDbLine
 62
3
  6
CONTINUOUS
 10
104.2381987247
 20
201.5639215791
 11
104.2046701895
 21
202.2331511413
  0
LINE
  5
247
100
AcDbEntity
  8
606446769-000-00-ED1_CL
100
AcDbLine
 62
3
  6
CONTINUOUS
 10
104.338073459
 20
201.5689253233
 11
104.2962208265
 21
202.4043038668
  0
LINE
  5
248
100
AcDbEntity
  8
606446769-000-00-ED1_CL
100
AcDbLine
 62
3
  6
CONTINUOUS
 10
104.4379481932
 20
201.5739290675
 11
104.3877714635
 21
202.5754565923
  0
LINE
  5
249
100
AcDbEntity
  8
606446769-000-00-ED1_CL
100
AcDbLine
 62
3
  6
CONTINUOUS
 10
104.5378229275
 20
201.5789328117
 11
104.4793221005
 21
202.7466093178
  0
LINE
  5
24A
100
AcDbEntity
  8
606446769-000-00-ED1_CL
100
AcDbLine
 62
3
  6
CONTINUOUS
 10
104.6376976618
 20
201.5839365559
 11
104.5708727375
 21
202.9177620433
  0
LINE
  5
24B
100
AcDbEntity
  8
606446769-000-00-ED1_CL
100
AcDbLine
 62
3
  6
CONTINUOUS
 10
104.737572396
 20
201.5889403001
 11
104.6624233745
 21
203.0889147688
  0
LINE
  5
24C
100
AcDbEntity
  8
606446769-000-00-ED1_CL
100
AcDbLine
 62
3
  6
CONTINUOUS
 10
104.8374471303
 20
201.5939440443
 11
104.7539740115
 21
203.2600674943
  0
LINE
  5
24D
100
AcDbEntity
  8
606446769-000-00-ED1_CL
100
AcDbLine
 62
3
  6
CONTINUOUS
 10
104.9373218646
 20
201.5989477885
 11
104.8455246486
 21
203.4312202198
  0
LINE
  5
24E
100
AcDbEntity
  8
606446769-000-00-ED1_CL
100
AcDbLine
 62
3
  6
CONTINUOUS
 10
105.0371965988
 20
201.6039515327
 11
104.9370752856
 21
203.6023729454
  0
LINE
  5
24F
100
AcDbEntity
  8
606446769-000-00-ED1_CL
100
AcDbLine
 62
3
  6
CONTINUOUS
 10
105.1370713331
 20
201.6089552769
 11
105.0286259226
 21
203.7735256709
  0
LINE
  5
250
100
AcDbEntity
  8
606446769-000-00-ED1_CL
100
AcDbLine
 62
3
  6
CONTINUOUS
 10
105.2369460673
 20
201.6139590211
 11
105.1201765596
 21
203.9446783964
  0
LINE
  5
251
100
AcDbEntity
  8
606446769-000-00-ED1_CL
100
AcDbLine
 62
3
  6
CONTINUOUS
 10
105.3368208016
 20
201.6189627653
 11
105.2117271966
 21
204.1158311219
  0
LINE
  5
252
100
AcDbEntity
  8
606446769-000-00-ED1_CL
100
AcDbLine
 62
3
  6
CONTINUOUS
 10
105.4366955359
 20
201.6239665095
 11
105.3199570386
 21
203.9540669157
  0
LINE
  5
253
100
AcDbEntity
  8
606446769-000-00-ED1_CL
100
AcDbLine
 62
3
  6
CONTINUOUS
 10
105.5365702701
 20
201.6289702537
 11
105.4281868806
 21
203.7923027096
  0
LINE
  5
254
100
AcDbEntity
  8
606446769-000-00-ED1_CL
100
AcDbLine
 62
3
  6
CONTINUOUS
 10
105.6364450044
 20
201.6339739979
 11
105.5364167225
 21
203.6305385034
  0
LINE
  5
255
100
AcDbEntity
  8
606446769-000-00-ED1_CL
100
AcDbLine
 62
3
  6
CONTINUOUS
 10
105.7363197387
 20
201.6389777421
 11
105.6446465645
 21
203.4687742972
  0
LINE
  5
256
100
AcDbEntity
  8
606446769-000-00-ED1_CL
100
AcDbLine
 62
3
  6
CONTINUOUS
 10
105.8361944729
 20
201.6439814863
 11
105.7528764065
 21
203.307010091
  0
LINE
  5
257
100
AcDbEntity
  8
606446769-000-00-ED1_CL
100
AcDbLine
 62
3
  6
CONTINUOUS
 10
105.9360692072
 20
201.6489852305
 11
105.8611062485
 21
203.1452458849
  0
LINE
  5
258
100
AcDbEntity
  8
606446769-000-00-ED1_CL
100
AcDbLine
 62
3
  6
CONTINUOUS
 10
106.0359439414
 20
201.6539889747
 11
105.9693360905
 21
202.9834816787
  0
LINE
  5
259
100
AcDbEntity
  8
606446769-000-00-ED1_CL
100
AcDbLine
 62
3
  6
CONTINUOUS
 10
106.1358186757
 20
201.6589927189
 11
106.0775659325
 21
202.8217174725
  0
LINE
  5
25A
100
AcDbEntity
  8
606446769-000-00-ED1_CL
100
AcDbLine
 62
3
  6
CONTINUOUS
 10
106.23569341
 20
201.6639964632
 11
106.1857957745
 21
202.6599532664
  0
LINE
  5
25B
100
AcDbEntity
  8
606446769-000-00-ED1_CL
100
AcDbLine
 62
3
  6
CONTINUOUS
 10
106.3355681442
 20
201.6690002074
 11
106.2940256165
 21
202.4981890602
  0
LINE
  5
25C
100
AcDbEntity
  8
606446769-000-00-ED1_CL
100
AcDbLine
 62
3
  6
CONTINUOUS
 10
106.4354428785
 20
201.6740039516
 11
106.4022554585
 21
202.336424854
  0
LINE
  5
25D
100
AcDbEntity
  8
606446769-000-00-ED1_CL
100
AcDbLine
 62
3
  6
CONTINUOUS
 10
106.5353176128
 20
201.6790076958
 11
106.5104853005
 21
202.1746606479
  0
LINE
  5
25E
100
AcDbEntity
  8
606446769-000-00-ED1_CL
100
AcDbLine
 62
3
  6
CONTINUOUS
 10
106.635192347
 20
201.68401144
 11
106.6187151425
 21
202.0128964417
  0
LINE
  5
25F
100
AcDbEntity
  8
606446769-000-00-ED1_CL
100
AcDbLine
 62
3
  6
CONTINUOUS
 10
106.7350670813
 20
201.6890151842
 11
106.7269449845
 21
201.8511322355
  0
TEXT
  5
260
100
AcDbEntity
  8
606446769-000-00-ED1_CL
100
AcDbText
 62
2
  6
CONTINUOUS
 10
103.8787656008
 20
208.8021650323
  7
STANDARD
 40
3.5
  1
A
 50
2.868131941
 41
0.8571428571
 72
0
100
AcDbText
  0
ENDBLK
  5
261
100
AcDbEntity
  8
0
  6
BYBLOCK
 62
0
100
AcDbBlockEnd
  0
BLOCK
  5
262
100
AcDbEntity
  8
606446769-000-00-ED1_CL
100
AcDbBlockBegin
 62
3
  6
CONTINUOUS
  2
GEOM_TOLERANCE_SYMBOLS_BL2
 70
64
 10
293.0371588906
 20
132.5250991011
  3
GEOM_TOLERANCE_SYMBOLS_BL2
  1

  0
LINE
  5
263
100
AcDbEntity
  8
606446769-000-00-ED1_CL
100
AcDbLine
 62
3
  6
CONTINUOUS
 10
277.5187414956
 20
136.0248382378
 11
277.5187414956
 21
129.0248380138
  0
LINE
  5
264
100
AcDbEntity
  8
606446769-000-00-ED1_CL
100
AcDbLine
 62
3
  6
CONTINUOUS
 10
277.5187414956
 20
129.0248380138
 11
299.5187421996
 21
129.0248380138
  0
LINE
  5
265
100
AcDbEntity
  8
606446769-000-00-ED1_CL
100
AcDbLine
 62
3
  6
CONTINUOUS
 10
306.5187424236
 20
129.0248380138
 11
306.5187424236
 21
136.0248382378
  0
LINE
  5
266
100
AcDbEntity
  8
606446769-000-00-ED1_CL
100
AcDbLine
 62
3
  6
CONTINUOUS
 10
299.5187421996
 20
136.0248382378
 11
277.5187414956
 21
136.0248382378
  0
LINE
  5
267
100
AcDbEntity
  8
606446769-000-00-ED1_CL
100
AcDbLine
 62
3
  6
CONTINUOUS
 10
284.5187417196
 20
136.0248382378
 11
284.5187417196
 21
129.0248380138
  0
LINE
  5
268
100
AcDbEntity
  8
606446769-000-00-ED1_CL
100
AcDbLine
 62
3
  6
CONTINUOUS
 10
299.5187421996
 20
136.0248382378
 11
299.5187421996
 21
129.0248380138
  0
LINE
  5
269
100
AcDbEntity
  8
606446769-000-00-ED1_CL
100
AcDbLine
 62
3
  6
CONTINUOUS
 10
299.5187421996
 20
136.0248382378
 11
306.5187424236
 21
136.0248382378
  0
LINE
  5
26A
100
AcDbEntity
  8
606446769-000-00-ED1_CL
100
AcDbLine
 62
3
  6
CONTINUOUS
 10
299.5187421996
 20
129.0248380138
 11
306.5187424236
 21
129.0248380138
  0
LINE
  5
26B
100
AcDbEntity
  8
606446769-000-00-ED1_CL
100
AcDbLine
 62
3
  6
CONTINUOUS
 10
272.5187414956
 20
132.5248380138
 11
277.5187414956
 21
132.5248380138
  0
LINE
  5
26C
100
AcDbEntity
  8
606446769-000-00-ED1_CL
100
AcDbLine
 62
3
  6
CONTINUOUS
 10
306.5555760616
 20
136.0253601884
 11
313.5555762856
 21
136.0253601884
  0
LINE
  5
26D
100
AcDbEntity
  8
606446769-000-00-ED1_CL
100
AcDbLine
 62
3
  6
CONTINUOUS
 10
313.5555760616
 20
136.0253601884
 11
313.5555760616
 21
129.0253599644
  0
LINE
  5
26E
100
AcDbEntity
  8
606446769-000-00-ED1_CL
100
AcDbLine
 62
3
  6
CONTINUOUS
 10
306.5555760616
 20
129.0253601884
 11
313.5555762856
 21
129.0253601884
  0
TEXT
  5
26F
100
AcDbEntity
  8
606446769-000-00-ED1_CL
100
AcDbText
 62
2
  6
CONTINUOUS
 10
277.6687415004
 20
131.3248380874
  7
TEXTSTYLE_3
 40
2.4000000768
  1
t
 41
1.0
 72
0
100
AcDbText
  0
TEXT
  5
270
100
AcDbEntity
  8
606446769-000-00-ED1_CL
100
AcDbText
 62
2
  6
CONTINUOUS
 10
285.6437417556
 20
130.7748380698
  7
STANDARD
 40
3.500000112
  1
0.003
 41
0.7285714286
 72
0
100
AcDbText
  0
TEXT
  5
271
100
AcDbEntity
  8
606446769-000-00-ED1_CL
100
AcDbText
 62
2
  6
CONTINUOUS
 10
301.5187422636
 20
130.7748380698
  7
STANDARD
 40
3.500000112
  1
A
 41
0.8571428571
 72
0
100
AcDbText
  0
TEXT
  5
272
100
AcDbEntity
  8
606446769-000-00-ED1_CL
100
AcDbText
 62
2
  6
CONTINUOUS
 10
308.6805761736
 20
130.7753601088
  7
STANDARD
 40
3.5
  1
B
 41
0.7857142857
 72
0
100
AcDbText
  0
ENDBLK
  5
273
100
AcDbEntity
  8
0
  6
BYBLOCK
 62
0
100
AcDbBlockEnd
  0
BLOCK
  5
274
100
AcDbEntity
  8
606446769-000-00-ED1_CL
100
AcDbBlockBegin
 62
3
  6
CONTINUOUS
  2
GEOM_TOLERANCE_SYMBOLS_BL1
 70
64
 10
131.2686994536
 20
226.2630269476
  3
GEOM_TOLERANCE_SYMBOLS_BL1
  1

  0
LINE
  5
275
100
AcDbEntity
  8
606446769-000-00-ED1_CL
100
AcDbLine
 62
3
  6
CONTINUOUS
 10
137.5186994536
 20
224.7630269476
 11
135.0186994536
 21
226.2630269476
  0
LINE
  5
276
100
AcDbEntity
  8
606446769-000-00-ED1_CL
100
AcDbLine
 62
3
  6
CONTINUOUS
 10
135.0186994536
 20
226.2630269476
 11
137.5186994536
 21
227.7630269476
  0
LINE
  5
277
100
AcDbEntity
  8
606446769-000-00-ED1_CL
100
AcDbLine
 62
3
  6
CONTINUOUS
 10
137.5186994536
 20
227.7630269476
 11
137.5186994536
 21
224.7630269476
  0
LINE
  5
278
100
AcDbEntity
  8
606446769-000-00-ED1_CL
100
AcDbLine
 62
3
  6
CONTINUOUS
 10
135.0186994536
 20
226.2630269476
 11
132.0186994536
 21
226.2630269476
  0
LINE
  5
279
100
AcDbEntity
  8
606446769-000-00-ED1_CL
100
AcDbLine
 62
3
  6
CONTINUOUS
 10
132.0186994536
 20
222.7630269476
 11
132.0186994536
 21
229.7630269476
  0
LINE
  5
27A
100
AcDbEntity
  8
606446769-000-00-ED1_CL
100
AcDbLine
 62
3
  6
CONTINUOUS
 10
132.0186994536
 20
229.7630269476
 11
125.0186994536
 21
229.7630269476
  0
LINE
  5
27B
100
AcDbEntity
  8
606446769-000-00-ED1_CL
100
AcDbLine
 62
3
  6
CONTINUOUS
 10
125.0186994536
 20
229.7630269476
 11
125.0186994536
 21
222.7630269476
  0
LINE
  5
27C
100
AcDbEntity
  8
606446769-000-00-ED1_CL
100
AcDbLine
 62
3
  6
CONTINUOUS
 10
125.0186994536
 20
222.7630269476
 11
132.0186994536
 21
222.7630269476
  0
LINE
  5
27D
100
AcDbEntity
  8
606446769-000-00-ED1_CL
100
AcDbLine
 62
3
  6
CONTINUOUS
 10
137.5186994536
 20
227.660238103
 11
137.3473847126
 21
227.660238103
  0
LINE
  5
27E
100
AcDbEntity
  8
606446769-000-00-ED1_CL
100
AcDbLine
 62
3
  6
CONTINUOUS
 10
137.5186994536
 20
227.560238103
 11
137.1807180459
 21
227.560238103
  0
LINE
  5
27F
100
AcDbEntity
  8
606446769-000-00-ED1_CL
100
AcDbLine
 62
3
  6
CONTINUOUS
 10
137.5186994536
 20
227.460238103
 11
137.0140513793
 21
227.460238103
  0
LINE
  5
280
100
AcDbEntity
  8
606446769-000-00-ED1_CL
100
AcDbLine
 62
3
  6
CONTINUOUS
 10
137.5186994536
 20
227.360238103
 11
136.8473847126
 21
227.360238103
  0
LINE
  5
281
100
AcDbEntity
  8
606446769-000-00-ED1_CL
100
AcDbLine
 62
3
  6
CONTINUOUS
 10
137.5186994536
 20
227.260238103
 11
136.6807180459
 21
227.260238103
  0
LINE
  5
282
100
AcDbEntity
  8
606446769-000-00-ED1_CL
100
AcDbLine
 62
3
  6
CONTINUOUS
 10
137.5186994536
 20
227.160238103
 11
136.5140513793
 21
227.160238103
  0
LINE
  5
283
100
AcDbEntity
  8
606446769-000-00-ED1_CL
100
AcDbLine
 62
3
  6
CONTINUOUS
 10
137.5186994536
 20
227.060238103
 11
136.3473847126
 21
227.060238103
  0
LINE
  5
284
100
AcDbEntity
  8
606446769-000-00-ED1_CL
100
AcDbLine
 62
3
  6
CONTINUOUS
 10
137.5186994536
 20
226.960238103
 11
136.1807180459
 21
226.960238103
  0
LINE
  5
285
100
AcDbEntity
  8
606446769-000-00-ED1_CL
100
AcDbLine
 62
3
  6
CONTINUOUS
 10
137.5186994536
 20
226.860238103
 11
136.0140513793
 21
226.860238103
  0
LINE
  5
286
100
AcDbEntity
  8
606446769-000-00-ED1_CL
100
AcDbLine
 62
3
  6
CONTINUOUS
 10
137.5186994536
 20
226.760238103
 11
135.8473847126
 21
226.760238103
  0
LINE
  5
287
100
AcDbEntity
  8
606446769-000-00-ED1_CL
100
AcDbLine
 62
3
  6
CONTINUOUS
 10
137.5186994536
 20
226.660238103
 11
135.6807180459
 21
226.660238103
  0
LINE
  5
288
100
AcDbEntity
  8
606446769-000-00-ED1_CL
100
AcDbLine
 62
3
  6
CONTINUOUS
 10
137.5186994536
 20
226.560238103
 11
135.5140513793
 21
226.560238103
  0
LINE
  5
289
100
AcDbEntity
  8
606446769-000-00-ED1_CL
100
AcDbLine
 62
3
  6
CONTINUOUS
 10
137.5186994536
 20
226.460238103
 11
135.3473847126
 21
226.460238103
  0
LINE
  5
28A
100
AcDbEntity
  8
606446769-000-00-ED1_CL
100
AcDbLine
 62
3
  6
CONTINUOUS
 10
137.5186994536
 20
226.360238103
 11
135.1807180459
 21
226.360238103
  0
LINE
  5
28B
100
AcDbEntity
  8
606446769-000-00-ED1_CL
100
AcDbLine
 62
3
  6
CONTINUOUS
 10
137.5186994536
 20
226.260238103
 11
135.023347528
 21
226.260238103
  0
LINE
  5
28C
100
AcDbEntity
  8
606446769-000-00-ED1_CL
100
AcDbLine
 62
3
  6
CONTINUOUS
 10
137.5186994536
 20
226.160238103
 11
135.1900141947
 21
226.160238103
  0
LINE
  5
28D
100
AcDbEntity
  8
606446769-000-00-ED1_CL
100
AcDbLine
 62
3
  6
CONTINUOUS
 10
137.5186994536
 20
226.060238103
 11
135.3566808613
 21
226.060238103
  0
LINE
  5
28E
100
AcDbEntity
  8
606446769-000-00-ED1_CL
100
AcDbLine
 62
3
  6
CONTINUOUS
 10
137.5186994536
 20
225.960238103
 11
135.523347528
 21
225.960238103
  0
LINE
  5
28F
100
AcDbEntity
  8
606446769-000-00-ED1_CL
100
AcDbLine
 62
3
  6
CONTINUOUS
 10
137.5186994536
 20
225.860238103
 11
135.6900141947
 21
225.860238103
  0
LINE
  5
290
100
AcDbEntity
  8
606446769-000-00-ED1_CL
100
AcDbLine
 62
3
  6
CONTINUOUS
 10
137.5186994536
 20
225.760238103
 11
135.8566808613
 21
225.760238103
  0
LINE
  5
291
100
AcDbEntity
  8
606446769-000-00-ED1_CL
100
AcDbLine
 62
3
  6
CONTINUOUS
 10
137.5186994536
 20
225.660238103
 11
136.023347528
 21
225.660238103
  0
LINE
  5
292
100
AcDbEntity
  8
606446769-000-00-ED1_CL
100
AcDbLine
 62
3
  6
CONTINUOUS
 10
137.5186994536
 20
225.560238103
 11
136.1900141947
 21
225.560238103
  0
LINE
  5
293
100
AcDbEntity
  8
606446769-000-00-ED1_CL
100
AcDbLine
 62
3
  6
CONTINUOUS
 10
137.5186994536
 20
225.460238103
 11
136.3566808613
 21
225.460238103
  0
LINE
  5
294
100
AcDbEntity
  8
606446769-000-00-ED1_CL
100
AcDbLine
 62
3
  6
CONTINUOUS
 10
137.5186994536
 20
225.360238103
 11
136.523347528
 21
225.360238103
  0
LINE
  5
295
100
AcDbEntity
  8
606446769-000-00-ED1_CL
100
AcDbLine
 62
3
  6
CONTINUOUS
 10
137.5186994536
 20
225.260238103
 11
136.6900141947
 21
225.260238103
  0
LINE
  5
296
100
AcDbEntity
  8
606446769-000-00-ED1_CL
100
AcDbLine
 62
3
  6
CONTINUOUS
 10
137.5186994536
 20
225.160238103
 11
136.8566808613
 21
225.160238103
  0
LINE
  5
297
100
AcDbEntity
  8
606446769-000-00-ED1_CL
100
AcDbLine
 62
3
  6
CONTINUOUS
 10
137.5186994536
 20
225.060238103
 11
137.023347528
 21
225.060238103
  0
LINE
  5
298
100
AcDbEntity
  8
606446769-000-00-ED1_CL
100
AcDbLine
 62
3
  6
CONTINUOUS
 10
137.5186994536
 20
224.960238103
 11
137.1900141947
 21
224.960238103
  0
LINE
  5
299
100
AcDbEntity
  8
606446769-000-00-ED1_CL
100
AcDbLine
 62
3
  6
CONTINUOUS
 10
137.5186994536
 20
224.860238103
 11
137.3566808613
 21
224.860238103
  0
TEXT
  5
29A
100
AcDbEntity
  8
606446769-000-00-ED1_CL
100
AcDbText
 62
2
  6
CONTINUOUS
 10
127.5436994536
 20
224.5130269476
  7
STANDARD
 40
3.5
  1
B
 41
0.7857142857
 72
0
100
AcDbText
  0
ENDBLK
  5
29B
100
AcDbEntity
  8
0
  6
BYBLOCK
 62
0
100
AcDbBlockEnd
  0
BLOCK
  5
29C
100
AcDbEntity
  8
606446769-000-00-ED1_FORMAT
100
AcDbBlockBegin
 62
3
  6
CONTINUOUS
  2
BARCODEBOX_BL0
 70
64
 10
87.5
 20
46.5
  3
BARCODEBOX_BL0
  1

  0
LINE
  5
29D
100
AcDbEntity
  8
606446769-000-00-ED1_FORMAT
100
AcDbLine
 62
3
  6
CONTINUOUS
 10
48.0
 20
83.0
 11
53.0
 21
83.0
  0
LINE
  5
29E
100
AcDbEntity
  8
606446769-000-00-ED1_FORMAT
100
AcDbLine
 62
3
  6
CONTINUOUS
 10
53.0
 20
83.0
 11
53.0
 21
78.0
  0
LINE
  5
29F
100
AcDbEntity
  8
606446769-000-00-ED1_FORMAT
100
AcDbLine
 62
3
  6
CONTINUOUS
 10
135.0
 20
65.0
 11
140.0
 21
65.0
  0
LINE
  5
2A0
100
AcDbEntity
  8
606446769-000-00-ED1_FORMAT
100
AcDbLine
 62
3
  6
CONTINUOUS
 10
140.0
 20
65.0
 11
140.0
 21
60.0
  0
LINE
  5
2A1
100
AcDbEntity
  8
606446769-000-00-ED1_FORMAT
100
AcDbLine
 62
3
  6
CONTINUOUS
 10
91.5
 20
65.0
 11
101.5
 21
65.0
  0
LINE
  5
2A2
100
AcDbEntity
  8
606446769-000-00-ED1_FORMAT
100
AcDbLine
 62
3
  6
CONTINUOUS
 10
140.0
 20
42.5
 11
140.0
 21
32.5
  0
LINE
  5
2A3
100
AcDbEntity
  8
606446769-000-00-ED1_FORMAT
100
AcDbLine
 62
3
  6
CONTINUOUS
 10
140.0
 20
10.0
 11
140.0
 21
15.0
  0
LINE
  5
2A4
100
AcDbEntity
  8
606446769-000-00-ED1_FORMAT
100
AcDbLine
 62
3
  6
CONTINUOUS
 10
40.0
 20
83.0
 11
35.0
 21
83.0
  0
LINE
  5
2A5
100
AcDbEntity
  8
606446769-000-00-ED1_FORMAT
100
AcDbLine
 62
3
  6
CONTINUOUS
 10
58.0
 20
65.0
 11
48.0
 21
65.0
  0
LINE
  5
2A6
100
AcDbEntity
  8
606446769-000-00-ED1_FORMAT
100
AcDbLine
 62
3
  6
CONTINUOUS
 10
53.0
 20
65.0
 11
53.0
 21
70.0
  0
LINE
  5
2A7
100
AcDbEntity
  8
606446769-000-00-ED1_FORMAT
100
AcDbLine
 62
3
  6
CONTINUOUS
 10
35.0
 20
65.0
 11
40.0
 21
65.0
  0
TEXT
  5
2A8
100
AcDbEntity
  8
606446769-000-00-ED1_FORMAT
100
AcDbText
 62
2
  6
CONTINUOUS
 10
139.0
 20
11.0
  7
STANDARD
 40
2.0
  1
BARCODE-ZONE
 50
90.0
 41
0.7876984127
 72
0
100
AcDbText
  0
ENDBLK
  5
2A9
100
AcDbEntity
  8
0
  6
BYBLOCK
 62
0
100
AcDbBlockEnd
  0
BLOCK
  5
2AA
100
AcDbEntity
  8
0
100
AcDbBlockBegin
  2
_FILLED
 70
64
 10
0.0
 20
0.0
  3
_FILLED
  1

  0
SOLID
  5
2AB
100
AcDbEntity
  8
0
  6
BYBLOCK
 62
0
100
AcDbTrace
 10
0.0
 20
0.0
 11
-1.0
 21
0.125
 12
-1.0
 22
-0.125
 13
-1.0
 23
-0.125
  0
ENDBLK
  5
2AC
100
AcDbEntity
  8
0
  6
BYBLOCK
 62
0
100
AcDbBlockEnd
  0
BLOCK
  5
2AD
100
AcDbEntity
  8
0
100
AcDbBlockBegin
  2
_DOT
 70
64
 10
0.0
 20
0.0
  3
_DOT
  1

  0
LWPOLYLINE
  5
2AE
100
AcDbEntity
  8
0
  6
BYBLOCK
 62
0
100
AcDbPolyline
 90
2
 70
1
 43
0.125
 10
-0.0625
 20
0.0
 42
1.0
 10
0.0625
 20
0.0
 42
1.0
  0
LINE
  5
2AF
100
AcDbEntity
  8
0
  6
BYBLOCK
 62
0
100
AcDbLine
 10
-0.125
 20
0.0
 11
-1.0
 21
0.0
  0
ENDBLK
  5
2B0
100
AcDbEntity
  8
0
  6
BYBLOCK
 62
0
100
AcDbBlockEnd
  0
BLOCK
  5
2B1
100
AcDbEntity
  8
606446769-000-00-ED1_DIM
100
AcDbBlockBegin
 62
3
  6
CONTINUOUS
  2
*D0
 70
65
 10
0.0
 20
0.0
  3
*D0
  1

  0
TEXT
  5
2B2
100
AcDbEntity
  8
606446769-000-00-ED1_DIM
100
AcDbText
 62
2
  6
CONTINUOUS
 10
173.0459214138
 20
142.4914095812
  7
STANDARD
 40
3.5
  1
R
 50
-42.0655941921
 41
0.7857142857
 72
1
 11
174.0666915691
 21
141.570185781
100
AcDbText
  0
TEXT
  5
2B3
100
AcDbEntity
  8
606446769-000-00-ED1_DIM
100
AcDbText
 62
2
  6
CONTINUOUS
 10
175.0874617244
 20
140.6489619808
  7
STANDARD
 40
3.5
  1
10
 50
-42.0655941921
 41
0.6785714286
 72
1
 11
176.8506101745
 21
139.057757235
100
AcDbText
  0
LINE
  5
2B4
100
AcDbEntity
  8
606446769-000-00-ED1_DIM
100
AcDbLine
 62
3
  6
CONTINUOUS
 10
169.044916506
 20
144.9235887872
 11
178.0275252971
 21
136.8169714813
  0
INSERT
  5
2B5
100
AcDbEntity
  8
606446769-000-00-ED1_DIM
100
AcDbBlockReference
 62
3
  6
CONTINUOUS
  2
_FILLED
 10
169.044916506
 20
144.9235887872
 41
3.5
 42
3.5
 43
3.5
 50
137.9344058079
  0
ENDBLK
  5
2B6
100
AcDbEntity
  8
0
  6
BYBLOCK
 62
0
100
AcDbBlockEnd
  0
BLOCK
  5
2B7
100
AcDbEntity
  8
606446769-000-00-ED1_DIM
100
AcDbBlockBegin
 62
3
  6
CONTINUOUS
  2
*D1
 70
65
 10
0.0
 20
0.0
  3
*D1
  1

  0
TEXT
  5
2B8
100
AcDbEntity
  8
606446769-000-00-ED1_DIM
100
AcDbText
 62
2
  6
CONTINUOUS
 10
236.9038475457
 20
202.861759569
  7
STANDARD
 40
3.5
  1
4.5
 50
-68.6524153306
 41
0.6904761905
 72
1
 11
238.2234377473
 21
199.4854736362
100
AcDbText
  0
TEXT
  5
2B9
100
AcDbEntity
  8
606446769-000-00-ED1_DIM
100
AcDbText
 62
2
  6
CONTINUOUS
 10
239.5430279489
 20
196.1091877035
  7
TEXTSTYLE_3
 40
3.5
  1
~
 50
-68.6524153306
 41
1.0
 72
1
 11
239.9677236459
 21
195.0225669435
100
AcDbText
  0
TEXT
  5
2BA
100
AcDbEntity
  8
606446769-000-00-ED1_DIM
100
AcDbText
 62
2
  6
CONTINUOUS
 10
240.881398685
 20
194.1270592472
  7
TEXTSTYLE_3
 40
2.45
  1
`
 50
-68.6524153306
 41
1.0
 72
1
 11
241.4016509139
 21
192.7959488162
100
AcDbText
  0
TEXT
  5
2BB
100
AcDbEntity
  8
606446769-000-00-ED1_DIM
100
AcDbText
 62
2
  6
CONTINUOUS
 10
241.9219031428
 20
191.4648383853
  7
STANDARD
 40
2.45
  1
0.25
 50
-68.6524153306
 41
0.7142857143
 72
1
 11
243.195990234
 21
188.2049761054
100
AcDbText
  0
TEXT
  5
2BC
100
AcDbEntity
  8
606446769-000-00-ED1_DIM
100
AcDbText
 62
2
  6
CONTINUOUS
 10
244.4700773252
 20
184.9451138254
  7
TEXTSTYLE_3
 40
2.45
  1
~
 50
-68.6524153306
 41
1.0
 72
1
 11
244.7673643132
 21
184.1844792935
100
AcDbText
  0
LINE
  5
2BD
100
AcDbEntity
  8
606446769-000-00-ED1_DIM
100
AcDbLine
 62
3
  6
CONTINUOUS
 10
231.665610673
 20
180.7584615449
 11
240.6942570065
 21
180.0478916682
  0
LINE
  5
2BE
100
AcDbEntity
  8
606446769-000-00-ED1_DIM
100
AcDbLine
 62
3
  6
CONTINUOUS
 10
231.400409853
 20
182.2237793312
 11
240.7797478656
 21
182.2237793312
  0
ARC
  5
2BF
100
AcDbEntity
  8
606446769-000-00-ED1_DIM
100
AcDbCircle
 62
3
  6
CONTINUOUS
 10
213.046982877
 20
182.2237793312
 40
26.2327649886
100
AcDbArc
 50
342.3952175942
 51
355.5
  0
ARC
  5
2C0
100
AcDbEntity
  8
606446769-000-00-ED1_DIM
100
AcDbCircle
 62
3
  6
CONTINUOUS
 10
213.046982877
 20
182.2237793312
 40
26.2327649886
100
AcDbArc
 50
0.0
 51
21.3475846694
  0
ARC
  5
2C1
100
AcDbEntity
  8
606446769-000-00-ED1_DIM
100
AcDbCircle
 62
3
  6
CONTINUOUS
 10
213.046982877
 20
182.2237793312
 40
26.2327649886
100
AcDbArc
 50
355.5
 51
360.0
  0
SOLID
  5
2C2
100
AcDbEntity
  8
606446769-000-00-ED1_DIM
100
AcDbTrace
 62
3
  6
CONTINUOUS
 10
239.1251837177
 20
176.6391125379
 11
239.1988810059
 21
180.1655803117
 12
238.2593977207
 22
176.7657601096
 13
238.2593977207
 23
176.7657601096
  0
SOLID
  5
2C3
100
AcDbEntity
  8
606446769-000-00-ED1_DIM
100
AcDbTrace
 62
3
  6
CONTINUOUS
 10
238.6099075125
 20
185.6868300313
 11
239.2797478656
 21
182.2237793312
 12
239.4829612342
 22
185.7451584043
 13
239.4829612342
 23
185.7451584043
  0
ENDBLK
  5
2C4
100
AcDbEntity
  8
0
  6
BYBLOCK
 62
0
100
AcDbBlockEnd
  0
BLOCK
  5
2C5
100
AcDbEntity
  8
30261798_DIM
100
AcDbBlockBegin
 62
3
  6
CONTINUOUS
  2
*D2
 70
65
 10
0.0
 20
0.0
  3
*D2
  1

  0
TEXT
  5
2C6
100
AcDbEntity
  8
30261798_DIM
100
AcDbText
 62
2
  6
CONTINUOUS
 10
194.2940410909
 20
111.0987793312
  7
STANDARD
 40
3.5
  1
10
 41
0.6785714286
 72
2
 11
199.0440410909
 21
111.0987793312
100
AcDbText
  0
TEXT
  5
2C7
100
AcDbEntity
  8
30261798_DIM
100
AcDbText
 62
2
  6
CONTINUOUS
 10
168.1273744242
 20
104.9737793312
  7
STANDARD
 40
3.5
  1
VERSTELLWEG
 41
0.803030303
 72
2
 11
199.0440410909
 21
104.9737793312
100
AcDbText
  0
LINE
  5
2C8
100
AcDbEntity
  8
30261798_DIM
100
AcDbLine
 62
3
  6
CONTINUOUS
 10
210.5186994536
 20
165.2237793312
 11
210.5186994536
 21
108.7237793312
  0
LINE
  5
2C9
100
AcDbEntity
  8
30261798_DIM
100
AcDbLine
 62
3
  6
CONTINUOUS
 10
220.5186994536
 20
165.2237793312
 11
220.5186994536
 21
108.7237793312
  0
LINE
  5
2CA
100
AcDbEntity
  8
30261798_DIM
100
AcDbLine
 62
3
  6
CONTINUOUS
 10
210.5186994536
 20
110.2237793312
 11
215.5186994536
 21
110.2237793312
  0
LINE
  5
2CB
100
AcDbEntity
  8
30261798_DIM
100
AcDbLine
 62
3
  6
CONTINUOUS
 10
215.5186994536
 20
110.2237793312
 11
168.1273744242
 21
110.2237793312
  0
LINE
  5
2CC
100
AcDbEntity
  8
30261798_DIM
100
AcDbLine
 62
3
  6
CONTINUOUS
 10
220.5186994536
 20
110.2237793312
 11
215.5186994536
 21
110.2237793312
  0
INSERT
  5
2CD
100
AcDbEntity
  8
30261798_DIM
100
AcDbBlockReference
 62
3
  6
CONTINUOUS
  2
_FILLED
 10
210.5186994536
 20
110.2237793312
 41
3.5
 42
3.5
 43
3.5
 50
180.0
  0
INSERT
  5
2CE
100
AcDbEntity
  8
30261798_DIM
100
AcDbBlockReference
 62
3
  6
CONTINUOUS
  2
_FILLED
 10
220.5186994536
 20
110.2237793312
 41
3.5
 42
3.5
 43
3.5
  0
ENDBLK
  5
2CF
100
AcDbEntity
  8
0
  6
BYBLOCK
 62
0
100
AcDbBlockEnd
  0
BLOCK
  5
2D0
100
AcDbEntity
  8
30338430_DIM
100
AcDbBlockBegin
 62
3
  6
CONTINUOUS
  2
*D3
 70
65
 10
0.0
 20
0.0
  3
*D3
  1

  0
TEXT
  5
2D1
100
AcDbEntity
  8
30338430_DIM
100
AcDbText
 62
2
  6
CONTINUOUS
 10
175.1552514139
 20
218.0987793312
  7
STANDARD
 40
3.5
  1
M
 41
0.8571428571
 72
2
 11
178.1552514139
 21
218.0987793312
100
AcDbText
  0
TEXT
  5
2D2
100
AcDbEntity
  8
30338430_DIM
100
AcDbText
 62
2
  6
CONTINUOUS
 10
178.1552514139
 20
218.0987793312
  7
STANDARD
 40
3.5
  1
6
 41
0.7857142857
 72
2
 11
180.9052514139
 21
218.0987793312
100
AcDbText
  0
TEXT
  5
2D3
100
AcDbEntity
  8
30338430_DIM
100
AcDbText
 62
2
  6
CONTINUOUS
 10
180.9052514139
 20
218.0987793312
  7
STANDARD
 40
3.5
  1
(
 41
0.4285714286
 72
2
 11
182.4052514139
 21
218.0987793312
100
AcDbText
  0
TEXT
  5
2D4
100
AcDbEntity
  8
30338430_DIM
100
AcDbText
 62
2
  6
CONTINUOUS
 10
182.4052514139
 20
218.0987793312
  7
STANDARD
 40
3.5
  1
4
 41
0.7857142857
 72
2
 11
185.1552514139
 21
218.0987793312
100
AcDbText
  0
TEXT
  5
2D5
100
AcDbEntity
  8
30338430_DIM
100
AcDbText
 62
2
  6
CONTINUOUS
 10
185.1552514139
 20
218.0987793312
  7
STANDARD
 40
3.5
  1
x)
 41
0.5714285714
 72
2
 11
189.1552514139
 21
218.0987793312
100
AcDbText
  0
LINE
  5
2D6
100
AcDbEntity
  8
30338430_DIM
100
AcDbLine
 62
3
  6
CONTINUOUS
 10
196.5186994536
 20
182.0737793312
 11
196.5186994536
 21
218.7237793312
  0
LINE
  5
2D7
100
AcDbEntity
  8
30338430_DIM
100
AcDbLine
 62
3
  6
CONTINUOUS
 10
202.5186994536
 20
182.0737793312
 11
202.5186994536
 21
218.7237793312
  0
LINE
  5
2D8
100
AcDbEntity
  8
30338430_DIM
100
AcDbLine
 62
3
  6
CONTINUOUS
 10
196.5186994536
 20
217.2237793312
 11
175.1552514139
 21
217.2237793312
  0
LINE
  5
2D9
100
AcDbEntity
  8
30338430_DIM
100
AcDbLine
 62
3
  6
CONTINUOUS
 10
175.1552514139
 20
217.2237793312
 11
199.5186994536
 21
217.2237793312
  0
LINE
  5
2DA
100
AcDbEntity
  8
30338430_DIM
100
AcDbLine
 62
3
  6
CONTINUOUS
 10
202.5186994536
 20
217.2237793312
 11
208.5186994536
 21
217.2237793312
  0
LINE
  5
2DB
100
AcDbEntity
  8
30338430_DIM
100
AcDbLine
 62
3
  6
CONTINUOUS
 10
208.5186994536
 20
217.2237793312
 11
199.5186994536
 21
217.2237793312
  0
INSERT
  5
2DC
100
AcDbEntity
  8
30338430_DIM
100
AcDbBlockReference
 62
3
  6
CONTINUOUS
  2
_FILLED
 10
196.5186994536
 20
217.2237793312
 41
3.5
 42
3.5
 43
3.5
  0
INSERT
  5
2DD
100
AcDbEntity
  8
30338430_DIM
100
AcDbBlockReference
 62
3
  6
CONTINUOUS
  2
_FILLED
 10
202.5186994536
 20
217.2237793312
 41
3.5
 42
3.5
 43
3.5
 50
180.0
  0
ENDBLK
  5
2DE
100
AcDbEntity
  8
0
  6
BYBLOCK
 62
0
100
AcDbBlockEnd
  0
BLOCK
  5
2DF
100
AcDbEntity
  8
30338430_DIM
100
AcDbBlockBegin
 62
3
  6
CONTINUOUS
  2
*D4
 70
65
 10
0.0
 20
0.0
  3
*D4
  1

  0
TEXT
  5
2E0
100
AcDbEntity
  8
30338430_DIM
100
AcDbText
 62
2
  6
CONTINUOUS
 10
225.8936994536
 20
91.0987793312
  7
STANDARD
 40
3.5
  1
58
 41
0.75
 72
1
 11
228.5186994536
 21
91.0987793312
100
AcDbText
  0
LINE
  5
2E1
100
AcDbEntity
  8
30338430_DIM
100
AcDbLine
 62
3
  6
CONTINUOUS
 10
199.5186994536
 20
146.241133915
 11
199.5186994536
 21
88.7237793312
  0
LINE
  5
2E2
100
AcDbEntity
  8
30338430_DIM
100
AcDbLine
 62
3
  6
CONTINUOUS
 10
257.5186994536
 20
152.848054894
 11
257.5186994536
 21
88.7237793312
  0
LINE
  5
2E3
100
AcDbEntity
  8
30338430_DIM
100
AcDbLine
 62
3
  6
CONTINUOUS
 10
199.5186994536
 20
90.2237793312
 11
228.5186994536
 21
90.2237793312
  0
LINE
  5
2E4
100
AcDbEntity
  8
30338430_DIM
100
AcDbLine
 62
3
  6
CONTINUOUS
 10
257.5186994536
 20
90.2237793312
 11
228.5186994536
 21
90.2237793312
  0
INSERT
  5
2E5
100
AcDbEntity
  8
30338430_DIM
100
AcDbBlockReference
 62
3
  6
CONTINUOUS
  2
_FILLED
 10
199.5186994536
 20
90.2237793312
 41
3.5
 42
3.5
 43
3.5
 50
180.0
  0
INSERT
  5
2E6
100
AcDbEntity
  8
30338430_DIM
100
AcDbBlockReference
 62
3
  6
CONTINUOUS
  2
_FILLED
 10
257.5186994536
 20
90.2237793312
 41
3.5
 42
3.5
 43
3.5
  0
ENDBLK
  5
2E7
100
AcDbEntity
  8
0
  6
BYBLOCK
 62
0
100
AcDbBlockEnd
  0
BLOCK
  5
2E8
100
AcDbEntity
  8
30338430_DIM
100
AcDbBlockBegin
 62
3
  6
CONTINUOUS
  2
*D5
 70
65
 10
0.0
 20
0.0
  3
*D5
  1

  0
TEXT
  5
2E9
100
AcDbEntity
  8
30338430_DIM
100
AcDbText
 62
2
  6
CONTINUOUS
 10
231.2686994536
 20
101.0989087357
  7
STANDARD
 40
3.5
  1
47
 41
0.7857142857
 72
1
 11
234.0186994536
 21
101.0989087357
100
AcDbText
  0
LINE
  5
2EA
100
AcDbEntity
  8
30338430_DIM
100
AcDbLine
 62
3
  6
CONTINUOUS
 10
210.5186994536
 20
161.8833741433
 11
210.5186994536
 21
98.7239087357
  0
LINE
  5
2EB
100
AcDbEntity
  8
30338430_DIM
100
AcDbLine
 62
3
  6
CONTINUOUS
 10
257.5186994536
 20
152.8181903147
 11
257.5186994536
 21
98.7239087357
  0
LINE
  5
2EC
100
AcDbEntity
  8
30338430_DIM
100
AcDbLine
 62
3
  6
CONTINUOUS
 10
210.5186994536
 20
100.2239087357
 11
234.0186994536
 21
100.2239087357
  0
LINE
  5
2ED
100
AcDbEntity
  8
30338430_DIM
100
AcDbLine
 62
3
  6
CONTINUOUS
 10
257.5186994536
 20
100.2239087357
 11
234.0186994536
 21
100.2239087357
  0
INSERT
  5
2EE
100
AcDbEntity
  8
30338430_DIM
100
AcDbBlockReference
 62
3
  6
CONTINUOUS
  2
_FILLED
 10
210.5186994536
 20
100.2239087357
 41
3.5
 42
3.5
 43
3.5
 50
180.0
  0
INSERT
  5
2EF
100
AcDbEntity
  8
30338430_DIM
100
AcDbBlockReference
 62
3
  6
CONTINUOUS
  2
_FILLED
 10
257.5186994536
 20
100.2239087357
 41
3.5
 42
3.5
 43
3.5
  0
ENDBLK
  5
2F0
100
AcDbEntity
  8
0
  6
BYBLOCK
 62
0
100
AcDbBlockEnd
  0
BLOCK
  5
2F1
100
AcDbEntity
  8
30338430_DIM
100
AcDbBlockBegin
 62
3
  6
CONTINUOUS
  2
*D6
 70
65
 10
0.0
 20
0.0
  3
*D6
  1

  0
TEXT
  5
2F2
100
AcDbEntity
  8
30338430_DIM
100
AcDbText
 62
2
  6
CONTINUOUS
 10
193.7686994536
 20
228.0987793312
  7
STANDARD
 40
3.5
  1
120
 41
0.7142857143
 72
1
 11
197.5186994536
 21
228.0987793312
100
AcDbText
  0
LINE
  5
2F3
100
AcDbEntity
  8
30338430_DIM
100
AcDbLine
 62
3
  6
CONTINUOUS
 10
257.5186994536
 20
177.5390725491
 11
257.5186994536
 21
228.7237793312
  0
LINE
  5
2F4
100
AcDbEntity
  8
30338430_DIM
100
AcDbLine
 62
3
  6
CONTINUOUS
 10
137.5186994536
 20
215.0124294307
 11
137.5186994536
 21
228.7237793312
  0
LINE
  5
2F5
100
AcDbEntity
  8
30338430_DIM
100
AcDbLine
 62
3
  6
CONTINUOUS
 10
257.5186994536
 20
227.2237793312
 11
197.5186994536
 21
227.2237793312
  0
LINE
  5
2F6
100
AcDbEntity
  8
30338430_DIM
100
AcDbLine
 62
3
  6
CONTINUOUS
 10
137.5186994536
 20
227.2237793312
 11
197.5186994536
 21
227.2237793312
  0
INSERT
  5
2F7
100
AcDbEntity
  8
30338430_DIM
100
AcDbBlockReference
 62
3
  6
CONTINUOUS
  2
_FILLED
 10
257.5186994536
 20
227.2237793312
 41
3.5
 42
3.5
 43
3.5
  0
INSERT
  5
2F8
100
AcDbEntity
  8
30338430_DIM
100
AcDbBlockReference
 62
3
  6
CONTINUOUS
  2
_FILLED
 10
137.5186994536
 20
227.2237793312
 41
3.5
 42
3.5
 43
3.5
 50
180.0
  0
ENDBLK
  5
2F9
100
AcDbEntity
  8
0
  6
BYBLOCK
 62
0
100
AcDbBlockEnd
  0
BLOCK
  5
2FA
100
AcDbEntity
  8
30338430_DIM
100
AcDbBlockBegin
 62
3
  6
CONTINUOUS
  2
*D7
 70
65
 10
0.0
 20
0.0
  3
*D7
  1

  0
TEXT
  5
2FB
100
AcDbEntity
  8
30338430_DIM
100
AcDbText
 62
2
  6
CONTINUOUS
 10
76.7436994536
 20
141.7464921371
  7
STANDARD
 40
3.5
  1
M
 50
90.0
 41
0.8571428571
 72
2
 11
76.7436994536
 21
144.7464921371
100
AcDbText
  0
TEXT
  5
2FC
100
AcDbEntity
  8
30338430_DIM
100
AcDbText
 62
2
  6
CONTINUOUS
 10
76.7436994536
 20
144.7464921371
  7
STANDARD
 40
3.5
  1
10
 50
90.0
 41
0.6785714286
 72
2
 11
76.7436994536
 21
149.4964921371
100
AcDbText
  0
TEXT
  5
2FD
100
AcDbEntity
  8
30338430_DIM
100
AcDbText
 62
2
  6
CONTINUOUS
 10
76.7436994536
 20
149.4964921371
  7
STANDARD
 40
3.5
  1
x1
 50
90.0
 41
0.6428571429
 72
2
 11
76.7436994536
 21
153.9964921371
100
AcDbText
  0
LINE
  5
2FE
100
AcDbEntity
  8
30338430_DIM
100
AcDbLine
 62
3
  6
CONTINUOUS
 10
192.5186994536
 20
160.2237793312
 11
76.1186994536
 21
160.2237793312
  0
LINE
  5
2FF
100
AcDbEntity
  8
30338430_DIM
100
AcDbLine
 62
3
  6
CONTINUOUS
 10
192.5186994536
 20
170.2237793312
 11
76.1186994536
 21
170.2237793312
  0
LINE
  5
300
100
AcDbEntity
  8
30338430_DIM
100
AcDbLine
 62
3
  6
CONTINUOUS
 10
77.6186994536
 20
160.2237793312
 11
77.6186994536
 21
141.7464921371
  0
LINE
  5
301
100
AcDbEntity
  8
30338430_DIM
100
AcDbLine
 62
3
  6
CONTINUOUS
 10
77.6186994536
 20
141.7464921371
 11
77.6186994536
 21
165.2237793312
  0
LINE
  5
302
100
AcDbEntity
  8
30338430_DIM
100
AcDbLine
 62
3
  6
CONTINUOUS
 10
77.6186994536
 20
170.2237793312
 11
77.6186994536
 21
176.2237793312
  0
LINE
  5
303
100
AcDbEntity
  8
30338430_DIM
100
AcDbLine
 62
3
  6
CONTINUOUS
 10
77.6186994536
 20
176.2237793312
 11
77.6186994536
 21
165.2237793312
  0
INSERT
  5
304
100
AcDbEntity
  8
30338430_DIM
100
AcDbBlockReference
 62
3
  6
CONTINUOUS
  2
_FILLED
 10
77.6186994536
 20
160.2237793312
 41
3.5
 42
3.5
 43
3.5
 50
90.0
  0
INSERT
  5
305
100
AcDbEntity
  8
30338430_DIM
100
AcDbBlockReference
 62
3
  6
CONTINUOUS
  2
_FILLED
 10
77.6186994536
 20
170.2237793312
 41
3.5
 42
3.5
 43
3.5
 50
270.0
  0
ENDBLK
  5
306
100
AcDbEntity
  8
0
  6
BYBLOCK
 62
0
100
AcDbBlockEnd
  0
BLOCK
  5
307
100
AcDbEntity
  8
30338430_DIM
100
AcDbBlockBegin
 62
3
  6
CONTINUOUS
  2
*D8
 70
65
 10
0.0
 20
0.0
  3
*D8
  1

  0
TEXT
  5
308
100
AcDbEntity
  8
30338430_DIM
100
AcDbText
 62
2
  6
CONTINUOUS
 10
271.6436994536
 20
160.5154459979
  7
TEXTSTYLE_3
 40
3.5
  1
n
 50
90.0
 41
1.0
 72
1
 11
271.6436994536
 21
162.8487793312
100
AcDbText
  0
TEXT
  5
309
100
AcDbEntity
  8
30338430_DIM
100
AcDbText
 62
2
  6
CONTINUOUS
 10
271.6436994536
 20
165.1821126645
  7
STANDARD
 40
3.5
  1
14
 50
90.0
 41
0.6785714286
 72
1
 11
271.6436994536
 21
167.5571126645
100
AcDbText
  0
LINE
  5
30A
100
AcDbEntity
  8
30338430_DIM
100
AcDbLine
 62
3
  6
CONTINUOUS
 10
255.5186994536
 20
158.2237793312
 11
274.0186994536
 21
158.2237793312
  0
LINE
  5
30B
100
AcDbEntity
  8
30338430_DIM
100
AcDbLine
 62
3
  6
CONTINUOUS
 10
255.5186994536
 20
172.2237793312
 11
274.0186994536
 21
172.2237793312
  0
LINE
  5
30C
100
AcDbEntity
  8
30338430_DIM
100
AcDbLine
 62
3
  6
CONTINUOUS
 10
272.5186994536
 20
158.2237793312
 11
272.5186994536
 21
152.2237793312
  0
LINE
  5
30D
100
AcDbEntity
  8
30338430_DIM
100
AcDbLine
 62
3
  6
CONTINUOUS
 10
272.5186994536
 20
152.2237793312
 11
272.5186994536
 21
165.2237793312
  0
LINE
  5
30E
100
AcDbEntity
  8
30338430_DIM
100
AcDbLine
 62
3
  6
CONTINUOUS
 10
272.5186994536
 20
172.2237793312
 11
272.5186994536
 21
178.2237793312
  0
LINE
  5
30F
100
AcDbEntity
  8
30338430_DIM
100
AcDbLine
 62
3
  6
CONTINUOUS
 10
272.5186994536
 20
178.2237793312
 11
272.5186994536
 21
165.2237793312
  0
INSERT
  5
310
100
AcDbEntity
  8
30338430_DIM
100
AcDbBlockReference
 62
3
  6
CONTINUOUS
  2
_FILLED
 10
272.5186994536
 20
158.2237793312
 41
3.5
 42
3.5
 43
3.5
 50
90.0
  0
INSERT
  5
311
100
AcDbEntity
  8
30338430_DIM
100
AcDbBlockReference
 62
3
  6
CONTINUOUS
  2
_FILLED
 10
272.5186994536
 20
172.2237793312
 41
3.5
 42
3.5
 43
3.5
 50
270.0
  0
ENDBLK
  5
312
100
AcDbEntity
  8
0
  6
BYBLOCK
 62
0
100
AcDbBlockEnd
  0
BLOCK
  5
313
100
AcDbEntity
  8
30338430_DIM
100
AcDbBlockBegin
 62
3
  6
CONTINUOUS
  2
*D9
 70
65
 10
0.0
 20
0.0
  3
*D9
  1

  0
TEXT
  5
314
100
AcDbEntity
  8
30338430_DIM
100
AcDbText
 62
2
  6
CONTINUOUS
 10
227.2828411653
 20
208.0987793312
  7
STANDARD
 40
3.5
  1
(
 41
0.4285714286
 72
1
 11
228.0328411653
 21
208.0987793312
100
AcDbText
  0
TEXT
  5
315
100
AcDbEntity
  8
30338430_DIM
100
AcDbText
 62
2
  6
CONTINUOUS
 10
228.7828411653
 20
208.0987793312
  7
STANDARD
 40
3.5
  1
44.47
 41
0.7428571429
 72
1
 11
235.2828411653
 21
208.0987793312
100
AcDbText
  0
TEXT
  5
316
100
AcDbEntity
  8
30338430_DIM
100
AcDbText
 62
2
  6
CONTINUOUS
 10
241.7828411653
 20
208.0987793312
  7
STANDARD
 40
3.5
  1
)
 41
0.4285714286
 72
1
 11
242.5328411653
 21
208.0987793312
100
AcDbText
  0
LINE
  5
317
100
AcDbEntity
  8
30338430_DIM
100
AcDbLine
 62
3
  6
CONTINUOUS
 10
257.5186994536
 20
177.7993888395
 11
257.5186994536
 21
208.7237793312
  0
LINE
  5
318
100
AcDbEntity
  8
30338430_DIM
100
AcDbLine
 62
3
  6
CONTINUOUS
 10
213.046982877
 20
182.2237793312
 11
213.046982877
 21
208.7237793312
  0
LINE
  5
319
100
AcDbEntity
  8
30338430_DIM
100
AcDbLine
 62
3
  6
CONTINUOUS
 10
257.5186994536
 20
207.2237793312
 11
235.2828411653
 21
207.2237793312
  0
LINE
  5
31A
100
AcDbEntity
  8
30338430_DIM
100
AcDbLine
 62
3
  6
CONTINUOUS
 10
213.046982877
 20
207.2237793312
 11
235.2828411653
 21
207.2237793312
  0
INSERT
  5
31B
100
AcDbEntity
  8
30338430_DIM
100
AcDbBlockReference
 62
3
  6
CONTINUOUS
  2
_FILLED
 10
257.5186994536
 20
207.2237793312
 41
3.5
 42
3.5
 43
3.5
  0
INSERT
  5
31C
100
AcDbEntity
  8
30338430_DIM
100
AcDbBlockReference
 62
3
  6
CONTINUOUS
  2
_FILLED
 10
213.046982877
 20
207.2237793312
 41
3.5
 42
3.5
 43
3.5
 50
180.0
  0
ENDBLK
  5
31D
100
AcDbEntity
  8
0
  6
BYBLOCK
 62
0
100
AcDbBlockEnd
  0
BLOCK
  5
31E
100
AcDbEntity
  8
30338430_DIM
100
AcDbBlockBegin
 62
3
  6
CONTINUOUS
  2
*D10
 70
65
 10
0.0
 20
0.0
  3
*D10
  1

  0
TEXT
  5
31F
100
AcDbEntity
  8
30338430_DIM
100
AcDbText
 62
2
  6
CONTINUOUS
 10
291.6436994536
 20
160.2654459979
  7
TEXTSTYLE_3
 40
3.5
  1
n
 50
90.0
 41
1.0
 72
1
 11
291.6436994536
 21
162.5987793312
100
AcDbText
  0
TEXT
  5
320
100
AcDbEntity
  8
30338430_DIM
100
AcDbText
 62
2
  6
CONTINUOUS
 10
291.6436994536
 20
164.9321126645
  7
STANDARD
 40
3.5
  1
34
 50
90.0
 41
0.75
 72
1
 11
291.6436994536
 21
167.5571126645
100
AcDbText
  0
LINE
  5
321
100
AcDbEntity
  8
30338430_DIM
100
AcDbLine
 62
3
  6
CONTINUOUS
 10
213.046982877
 20
148.2237793312
 11
294.0186994536
 21
148.2237793312
  0
LINE
  5
322
100
AcDbEntity
  8
30338430_DIM
100
AcDbLine
 62
3
  6
CONTINUOUS
 10
213.046982877
 20
182.2237793312
 11
294.0186994536
 21
182.2237793312
  0
LINE
  5
323
100
AcDbEntity
  8
30338430_DIM
100
AcDbLine
 62
3
  6
CONTINUOUS
 10
292.5186994536
 20
148.2237793312
 11
292.5186994536
 21
165.2237793312
  0
LINE
  5
324
100
AcDbEntity
  8
30338430_DIM
100
AcDbLine
 62
3
  6
CONTINUOUS
 10
292.5186994536
 20
182.2237793312
 11
292.5186994536
 21
165.2237793312
  0
INSERT
  5
325
100
AcDbEntity
  8
30338430_DIM
100
AcDbBlockReference
 62
3
  6
CONTINUOUS
  2
_FILLED
 10
292.5186994536
 20
148.2237793312
 41
3.5
 42
3.5
 43
3.5
 50
270.0
  0
INSERT
  5
326
100
AcDbEntity
  8
30338430_DIM
100
AcDbBlockReference
 62
3
  6
CONTINUOUS
  2
_FILLED
 10
292.5186994536
 20
182.2237793312
 41
3.5
 42
3.5
 43
3.5
 50
90.0
  0
ENDBLK
  5
327
100
AcDbEntity
  8
0
  6
BYBLOCK
 62
0
100
AcDbBlockEnd
  0
BLOCK
  5
328
100
AcDbEntity
  8
30338430_DIM
100
AcDbBlockBegin
 62
3
  6
CONTINUOUS
  2
*D11
 70
65
 10
0.0
 20
0.0
  3
*D11
  1

  0
TEXT
  5
329
100
AcDbEntity
  8
30338430_DIM
100
AcDbText
 62
2
  6
CONTINUOUS
 10
281.6436994536
 20
160.1404459979
  7
TEXTSTYLE_3
 40
3.5
  1
n
 50
90.0
 41
1.0
 72
1
 11
281.6436994536
 21
162.4737793312
100
AcDbText
  0
TEXT
  5
32A
100
AcDbEntity
  8
30338430_DIM
100
AcDbText
 62
2
  6
CONTINUOUS
 10
281.6436994536
 20
164.8071126645
  7
STANDARD
 40
3.5
  1
27
 50
90.0
 41
0.7857142857
 72
1
 11
281.6436994536
 21
167.5571126645
100
AcDbText
  0
LINE
  5
32B
100
AcDbEntity
  8
30338430_DIM
100
AcDbLine
 62
3
  6
CONTINUOUS
 10
257.5186994536
 20
151.7237793312
 11
284.0186994536
 21
151.7237793312
  0
LINE
  5
32C
100
AcDbEntity
  8
30338430_DIM
100
AcDbLine
 62
3
  6
CONTINUOUS
 10
257.5186994536
 20
178.7237793312
 11
284.0186994536
 21
178.7237793312
  0
LINE
  5
32D
100
AcDbEntity
  8
30338430_DIM
100
AcDbLine
 62
3
  6
CONTINUOUS
 10
282.5186994536
 20
151.7237793312
 11
282.5186994536
 21
165.2237793312
  0
LINE
  5
32E
100
AcDbEntity
  8
30338430_DIM
100
AcDbLine
 62
3
  6
CONTINUOUS
 10
282.5186994536
 20
178.7237793312
 11
282.5186994536
 21
165.2237793312
  0
INSERT
  5
32F
100
AcDbEntity
  8
30338430_DIM
100
AcDbBlockReference
 62
3
  6
CONTINUOUS
  2
_FILLED
 10
282.5186994536
 20
151.7237793312
 41
3.5
 42
3.5
 43
3.5
 50
270.0
  0
INSERT
  5
330
100
AcDbEntity
  8
30338430_DIM
100
AcDbBlockReference
 62
3
  6
CONTINUOUS
  2
_FILLED
 10
282.5186994536
 20
178.7237793312
 41
3.5
 42
3.5
 43
3.5
 50
90.0
  0
ENDBLK
  5
331
100
AcDbEntity
  8
0
  6
BYBLOCK
 62
0
100
AcDbBlockEnd
  0
ENDSEC
  0
SECTION
  2
ENTITIES
  0
TEXT
  5
332
100
AcDbEntity
  8
606446769-000-00-ED1_FORMAT
100
AcDbText
 62
90
  6
CONTINUOUS
 10
34.0
 20
287.75
  7
TEXTSTYLE_2
 40
3.5
  1
1
 41
0.5714285714
 72
1
 11
35.0
 21
287.75
100
AcDbText
  0
TEXT
  5
333
100
AcDbEntity
  8
606446769-000-00-ED1_FORMAT
100
AcDbText
 62
90
  6
CONTINUOUS
 10
83.625
 20
287.75
  7
TEXTSTYLE_2
 40
3.5
  1
2
 41
0.7857142857
 72
1
 11
85.0
 21
287.75
100
AcDbText
  0
TEXT
  5
334
100
AcDbEntity
  8
606446769-000-00-ED1_FORMAT
100
AcDbText
 62
90
  6
CONTINUOUS
 10
133.75
 20
287.75
  7
TEXTSTYLE_2
 40
3.5
  1
3
 41
0.7142857143
 72
1
 11
135.0
 21
287.75
100
AcDbText
  0
TEXT
  5
335
100
AcDbEntity
  8
606446769-000-00-ED1_FORMAT
100
AcDbText
 62
90
  6
CONTINUOUS
 10
183.625
 20
287.75
  7
TEXTSTYLE_2
 40
3.5
  1
4
 41
0.7857142857
 72
1
 11
185.0
 21
287.75
100
AcDbText
  0
TEXT
  5
336
100
AcDbEntity
  8
606446769-000-00-ED1_FORMAT
100
AcDbText
 62
90
  6
CONTINUOUS
 10
233.75
 20
287.75
  7
TEXTSTYLE_2
 40
3.5
  1
5
 41
0.7142857143
 72
1
 11
235.0
 21
287.75
100
AcDbText
  0
TEXT
  5
337
100
AcDbEntity
  8
606446769-000-00-ED1_FORMAT
100
AcDbText
 62
90
  6
CONTINUOUS
 10
283.625
 20
287.75
  7
TEXTSTYLE_2
 40
3.5
  1
6
 41
0.7857142857
 72
1
 11
285.0
 21
287.75
100
AcDbText
  0
TEXT
  5
338
100
AcDbEntity
  8
606446769-000-00-ED1_FORMAT
100
AcDbText
 62
90
  6
CONTINUOUS
 10
333.625
 20
287.75
  7
TEXTSTYLE_2
 40
3.5
  1
7
 41
0.7857142857
 72
1
 11
335.0
 21
287.75
100
AcDbText
  0
TEXT
  5
339
100
AcDbEntity
  8
606446769-000-00-ED1_FORMAT
100
AcDbText
 62
90
  6
CONTINUOUS
 10
383.625
 20
287.75
  7
TEXTSTYLE_2
 40
3.5
  1
8
 41
0.7857142857
 72
1
 11
385.0
 21
287.75
100
AcDbText
  0
TEXT
  5
33A
100
AcDbEntity
  8
606446769-000-00-ED1_FORMAT
100
AcDbText
 62
90
  6
CONTINUOUS
 10
133.75
 20
5.75
  7
TEXTSTYLE_2
 40
3.5
  1
3
 41
0.7142857143
 72
1
 11
135.0
 21
5.75
100
AcDbText
  0
TEXT
  5
33B
100
AcDbEntity
  8
606446769-000-00-ED1_FORMAT
100
AcDbText
 62
90
  6
CONTINUOUS
 10
83.625
 20
5.75
  7
TEXTSTYLE_2
 40
3.5
  1
2
 41
0.7857142857
 72
1
 11
85.0
 21
5.75
100
AcDbText
  0
TEXT
  5
33C
100
AcDbEntity
  8
606446769-000-00-ED1_FORMAT
100
AcDbText
 62
90
  6
CONTINUOUS
 10
34.0
 20
5.75
  7
TEXTSTYLE_2
 40
3.5
  1
1
 41
0.5714285714
 72
1
 11
35.0
 21
5.75
100
AcDbText
  0
TEXT
  5
33D
100
AcDbEntity
  8
606446769-000-00-ED1_FORMAT
100
AcDbText
 62
90
  6
CONTINUOUS
 10
19.0
 20
262.75
  7
TEXTSTYLE_2
 40
3.5
  1
A
 41
0.8571428571
 72
1
 11
20.5
 21
262.75
100
AcDbText
  0
TEXT
  5
33E
100
AcDbEntity
  8
606446769-000-00-ED1_FORMAT
100
AcDbText
 62
90
  6
CONTINUOUS
 10
411.0
 20
262.75
  7
TEXTSTYLE_2
 40
3.5
  1
A
 41
0.8571428571
 72
1
 11
412.5
 21
262.75
100
AcDbText
  0
TEXT
  5
33F
100
AcDbEntity
  8
606446769-000-00-ED1_FORMAT
100
AcDbText
 62
90
  6
CONTINUOUS
 10
411.125
 20
221.75
  7
TEXTSTYLE_2
 40
3.5
  1
B
 41
0.7857142857
 72
1
 11
412.5
 21
221.75
100
AcDbText
  0
TEXT
  5
340
100
AcDbEntity
  8
606446769-000-00-ED1_FORMAT
100
AcDbText
 62
90
  6
CONTINUOUS
 10
19.125
 20
221.75
  7
TEXTSTYLE_2
 40
3.5
  1
B
 41
0.7857142857
 72
1
 11
20.5
 21
221.75
100
AcDbText
  0
TEXT
  5
341
100
AcDbEntity
  8
606446769-000-00-ED1_FORMAT
100
AcDbText
 62
90
  6
CONTINUOUS
 10
19.0416666667
 20
171.75
  7
TEXTSTYLE_2
 40
3.5
  1
C
 41
0.8333333333
 72
1
 11
20.5
 21
171.75
100
AcDbText
  0
TEXT
  5
342
100
AcDbEntity
  8
606446769-000-00-ED1_FORMAT
100
AcDbText
 62
90
  6
CONTINUOUS
 10
411.0416666667
 20
171.75
  7
TEXTSTYLE_2
 40
3.5
  1
C
 41
0.8333333333
 72
1
 11
412.5
 21
171.75
100
AcDbText
  0
TEXT
  5
343
100
AcDbEntity
  8
606446769-000-00-ED1_FORMAT
100
AcDbText
 62
90
  6
CONTINUOUS
 10
410.9166666667
 20
121.75
  7
TEXTSTYLE_2
 40
3.5
  1
D
 41
0.9047619048
 72
1
 11
412.5
 21
121.75
100
AcDbText
  0
TEXT
  5
344
100
AcDbEntity
  8
606446769-000-00-ED1_FORMAT
100
AcDbText
 62
90
  6
CONTINUOUS
 10
18.9166666667
 20
121.75
  7
TEXTSTYLE_2
 40
3.5
  1
D
 41
0.9047619048
 72
1
 11
20.5
 21
121.75
100
AcDbText
  0
TEXT
  5
345
100
AcDbEntity
  8
606446769-000-00-ED1_FORMAT
100
AcDbText
 62
90
  6
CONTINUOUS
 10
19.25
 20
71.75
  7
TEXTSTYLE_2
 40
3.5
  1
E
 41
0.7142857143
 72
1
 11
20.5
 21
71.75
100
AcDbText
  0
TEXT
  5
346
100
AcDbEntity
  8
606446769-000-00-ED1_FORMAT
100
AcDbText
 62
90
  6
CONTINUOUS
 10
411.25
 20
71.75
  7
TEXTSTYLE_2
 40
3.5
  1
E
 41
0.7142857143
 72
1
 11
412.5
 21
71.75
100
AcDbText
  0
TEXT
  5
347
100
AcDbEntity
  8
606446769-000-00-ED1_FORMAT
100
AcDbText
 62
90
  6
CONTINUOUS
 10
411.25
 20
21.75
  7
TEXTSTYLE_2
 40
3.5
  1
F
 41
0.7142857143
 72
1
 11
412.5
 21
21.75
100
AcDbText
  0
TEXT
  5
348
100
AcDbEntity
  8
606446769-000-00-ED1_FORMAT
100
AcDbText
 62
90
  6
CONTINUOUS
 10
19.25
 20
21.75
  7
TEXTSTYLE_2
 40
3.5
  1
F
 41
0.7142857143
 72
1
 11
20.5
 21
21.75
100
AcDbText
  0
TEXT
  5
349
100
AcDbEntity
  8
606446769-000-00-ED1_FORMAT
100
AcDbText
 62
2
  6
CONTINUOUS
 10
266.0792011722
 20
283.4479128464
  7
STANDARD
 40
1.9999997015
  1
INDEX
 41
0.780952381
 72
0
100
AcDbText
  0
TEXT
  5
34A
100
AcDbEntity
  8
606446769-000-00-ED1_FORMAT
100
AcDbText
 62
2
  6
CONTINUOUS
 10
267.8411056711
 20
280.4479132942
  7
STANDARD
 40
1.9999997015
  1
NR.
 41
0.7142857143
 72
0
100
AcDbText
  0
TEXT
  5
34B
100
AcDbEntity
  8
606446769-000-00-ED1_FORMAT
100
AcDbText
 62
2
  6
CONTINUOUS
 10
310.3389765087
 20
281.9588201847
  7
STANDARD
 40
1.9999997015
  1
ART DER AENDERUNG
 41
0.799719888
 72
0
100
AcDbText
  0
TEXT
  5
34C
100
AcDbEntity
  8
606446769-000-00-ED1_FORMAT
100
AcDbText
 62
2
  6
CONTINUOUS
 10
379.9980938591
 20
282.0962316584
  7
STANDARD
 40
1.9999997015
  1
DATUM
 41
0.8523809524
 72
0
100
AcDbText
  0
TEXT
  5
34D
100
AcDbEntity
  8
606446769-000-00-ED1_FORMAT
100
AcDbText
 62
2
  6
CONTINUOUS
 10
397.8615854447
 20
282.0962316584
  7
STANDARD
 40
1.9999997015
  1
NAME
 41
0.8035714286
 72
0
100
AcDbText
  0
TEXT
  5
34E
100
AcDbEntity
  8
606446769-000-00-ED1_FORMAT
100
AcDbText
 62
2
  6
CONTINUOUS
 10
27.6553587823
 20
149.7733961004
  7
STANDARD
 40
3.0
  1
VORGANGS-NR.:
 50
90.0
 41
0.7399267399
 72
0
100
AcDbText
  0
TEXT
  5
34F
100
AcDbEntity
  8
606446769-000-00-ED1_FORMAT
100
AcDbText
 62
2
  6
CONTINUOUS
 10
27.9024680453
 20
94.666552576
  7
STANDARD
 40
3.0
  1
PROJEKT-NR.:
 50
90.0
 41
0.7142857143
 72
0
100
AcDbText
  0
TEXT
  5
350
100
AcDbEntity
  8
606446769-000-00-ED1_FORMAT
100
AcDbText
 62
2
  6
CONTINUOUS
 10
27.9024680453
 20
11.0873145846
  7
STANDARD
 40
3.0
  1
KUNDE:
 50
90.0
 41
0.7222222222
 72
0
100
AcDbText
  0
TEXT
  5
351
100
AcDbEntity
  8
606446769-000-00-ED1_FORMAT
100
AcDbText
 62
2
  6
CONTINUOUS
 10
225.0528335394
 20
61.7772757079
  7
STANDARD
 40
1.4000001944
  1
DIE ZEICHNUNGEN,  MODELLE  ETC. BLEIBEN  UNSER  AUSSCHLIESSLICHES
 41
0.7549450549
 72
0
100
AcDbText
  0
TEXT
  5
352
100
AcDbEntity
  8
606446769-000-00-ED1_FORMAT
100
AcDbText
 62
2
  6
CONTINUOUS
 10
225.0528335394
 20
58.9772753192
  7
STANDARD
 40
1.4000001944
  1
EIGENTUM. SIE WERDEN NUR ZU DEM VEREINBARTEN  ZWECK ANVERTRAUT
 41
0.7976190476
 72
0
100
AcDbText
  0
TEXT
  5
353
100
AcDbEntity
  8
606446769-000-00-ED1_FORMAT
100
AcDbText
 62
2
  6
CONTINUOUS
 10
225.0528335394
 20
56.1772749305
  7
STANDARD
 40
1.4000001944
  1
UND DUERFEN ZU KEINEM ANDEREN  ZWECK VERWENDET WERDEN. KOPIEN
 41
0.8040593286
 72
0
100
AcDbText
  0
TEXT
  5
354
100
AcDbEntity
  8
606446769-000-00-ED1_FORMAT
100
AcDbText
 62
2
  6
CONTINUOUS
 10
225.0528335394
 20
53.3772745417
  7
STANDARD
 40
1.4000001944
  1
ODER  SONSTIGE  VERVIELFAELTIGUNGEN  DUERFEN  NUR ZU DEM VEREIN-
 41
0.7689732143
 72
0
100
AcDbText
  0
TEXT
  5
355
100
AcDbEntity
  8
606446769-000-00-ED1_FORMAT
100
AcDbText
 62
2
  6
CONTINUOUS
 10
225.0528335394
 20
50.577274153
  7
STANDARD
 40
1.4000001944
  1
BARTEN ZWECK ANGEFERTIGT WERDEN. WEDER ORIGINALE NOCH VERVIEL-
 41
0.7949308756
 72
0
100
AcDbText
  0
TEXT
  5
356
100
AcDbEntity
  8
606446769-000-00-ED1_FORMAT
100
AcDbText
 62
2
  6
CONTINUOUS
 10
225.0528335394
 20
47.7772737643
  7
STANDARD
 40
1.4000001944
  1
FAELTIGUNGEN  DUERFEN  DRITTEN  AUSGEHAENDIGT ODER IN SONSTIGER
 41
0.776266062
 72
0
100
AcDbText
  0
TEXT
  5
357
100
AcDbEntity
  8
606446769-000-00-ED1_FORMAT
100
AcDbText
 62
2
  6
CONTINUOUS
 10
225.0528335394
 20
44.9772733756
  7
STANDARD
 40
1.4000001944
  1
WEISE ZUGAENGLICH GEMACHT WERDEN.
 41
0.803030303
 72
0
100
AcDbText
  0
TEXT
  5
358
100
AcDbEntity
  8
606446769-000-00-ED1_FORMAT
100
AcDbText
 62
2
  6
CONTINUOUS
 10
225.1601630615
 20
39.378272574
  7
STANDARD
 40
1.8000002499
  1
MASSE OHNE TOLERANZANGABE
 41
0.7857142857
 72
0
100
AcDbText
  0
TEXT
  5
359
100
AcDbEntity
  8
606446769-000-00-ED1_FORMAT
100
AcDbText
 62
2
  6
CONTINUOUS
 10
236.0244502841
 20
36.6782721992
  7
STANDARD
 40
1.8000002499
  1
ISO 2768-F
 41
0.7571428571
 72
0
100
AcDbText
  0
TEXT
  5
35A
100
AcDbEntity
  8
606446769-000-00-ED1_FORMAT
100
AcDbText
 62
2
  6
CONTINUOUS
 10
262.1543713235
 20
39.5917730329
  7
STANDARD
 40
1.8000002499
  1
UNBEMASSTE EINZELHEITEN
 41
0.7608695652
 72
0
100
AcDbText
  0
TEXT
  5
35B
100
AcDbEntity
  8
606446769-000-00-ED1_FORMAT
100
AcDbText
 62
2
  6
CONTINUOUS
 10
267.382943478
 20
36.8917726581
  7
STANDARD
 40
1.8000002499
  1
NACH WERKSNORM
 41
0.8350340136
 72
0
100
AcDbText
  0
TEXT
  5
35C
100
AcDbEntity
  8
606446769-000-00-ED1_FORMAT
100
AcDbText
 62
2
  6
CONTINUOUS
 10
150.063304016
 20
38.7910868059
  7
STANDARD
 40
2.0
  1
ZUSAETZLICH ZU VA-NR. 07.05.01 BESCHRIFTET MIT:
 41
0.7507598784
 72
1
 11
185.3490183017
 21
38.7910868059
100
AcDbText
  0
TEXT
  5
35D
100
AcDbEntity
  8
606446769-000-00-ED1_FORMAT
100
AcDbText
 62
2
  6
CONTINUOUS
 10
224.7601228044
 20
20.7999897947
  7
STANDARD
 40
2.5
  1
TECHNISCHE SPEZIFIKATION:
 41
0.7466666667
 72
0
100
AcDbText
  0
TEXT
  5
35E
100
AcDbEntity
  8
606446769-000-00-ED1_FORMAT
100
AcDbText
 62
2
  6
CONTINUOUS
 10
224.8199471988
 20
31.7602174681
  7
STANDARD
 40
2.5
  1
BENENNUNG:
 41
0.7285714286
 72
0
100
AcDbText
  0
TEXT
  5
35F
100
AcDbEntity
  8
606446769-000-00-ED1_FORMAT
100
AcDbText
 62
2
  6
CONTINUOUS
 10
224.5262063004
 20
11.0903924223
  7
STANDARD
 40
1.6000002221
  1
ERSATZ F. ZCHNR.:
 41
0.7380952381
 72
0
100
AcDbText
  0
TEXT
  5
360
100
AcDbEntity
  8
606446769-000-00-ED1_FORMAT
100
AcDbText
 62
2
  6
CONTINUOUS
 10
300.4889576042
 20
10.8414910836
  7
STANDARD
 40
1.6000002221
  1
ERSETZT D. ZCHNR.:
 41
0.7473544974
 72
0
100
AcDbText
  0
TEXT
  5
361
100
AcDbEntity
  8
606446769-000-00-ED1_FORMAT
100
AcDbText
 62
2
  6
CONTINUOUS
 10
379.498513208
 20
60.814916182
  7
STANDARD
 40
2.0000002777
  1
DATUM
 41
0.8523809524
 72
0
100
AcDbText
  0
TEXT
  5
362
100
AcDbEntity
  8
606446769-000-00-ED1_FORMAT
100
AcDbText
 62
2
  6
CONTINUOUS
 10
398.0389134502
 20
60.814916182
  7
STANDARD
 40
2.0000002777
  1
NAME
 41
0.8035714286
 72
0
100
AcDbText
  0
TEXT
  5
363
100
AcDbEntity
  8
606446769-000-00-ED1_FORMAT
100
AcDbText
 62
2
  6
CONTINUOUS
 10
366.6248819325
 20
54.9911796252
  7
STANDARD
 40
2.0000002777
  1
GEZ.
 41
0.7142857143
 72
0
100
AcDbText
  0
TEXT
  5
364
100
AcDbEntity
  8
606446769-000-00-ED1_FORMAT
100
AcDbText
 62
2
  6
CONTINUOUS
 10
366.6248819325
 20
48.9031554343
  7
STANDARD
 40
2.0
  1
GEPR.
 41
0.7285714286
 72
0
100
AcDbText
  0
TEXT
  5
365
100
AcDbEntity
  8
606446769-000-00-ED1_FORMAT
100
AcDbText
 62
2
  6
CONTINUOUS
 10
366.6248819325
 20
42.8151311047
  7
STANDARD
 40
2.0
  1
FREIG.
 41
0.7023809524
 72
0
100
AcDbText
  0
TEXT
  5
366
100
AcDbEntity
  8
606446769-000-00-ED1_FORMAT
100
AcDbText
 62
2
  6
CONTINUOUS
 10
300.5448732723
 20
20.8921153842
  7
STANDARD
 40
2.5
  1
MATERIALNUMMER:
 41
0.7571428571
 72
0
100
AcDbText
  0
TEXT
  5
367
100
AcDbEntity
  8
606446769-000-00-ED1_FORMAT
100
AcDbText
 62
2
  6
CONTINUOUS
 10
345.5006276188
 20
20.8921153842
  7
STANDARD
 40
2.5
  1
ZEICHNUNGSNUMMER:
 41
0.7549019608
 72
0
100
AcDbText
  0
TEXT
  5
368
100
AcDbEntity
  8
606446769-000-00-ED1_FORMAT
100
AcDbText
 62
2
  6
CONTINUOUS
 10
400.7764463981
 20
32.1524019301
  7
STANDARD
 40
2.0
  1
ORIGIN
 41
0.7380952381
 72
0
100
AcDbText
  0
TEXT
  5
369
100
AcDbEntity
  8
606446769-000-00-ED1_FORMAT
100
AcDbText
 62
2
  6
CONTINUOUS
 10
400.4059589228
 20
21.1649440759
  7
STANDARD
 40
2.5
  1
INDEX
 41
0.780952381
 72
0
100
AcDbText
  0
TEXT
  5
36A
100
AcDbEntity
  8
606446769-000-00-ED1_FORMAT
100
AcDbText
 62
2
  6
CONTINUOUS
 10
366.825457919
 20
36.6922441013
  7
STANDARD
 40
2.0000002777
  1
MASSSTAB: 
 41
0.7714285714
 72
0
100
AcDbText
  0
TEXT
  5
36B
100
AcDbEntity
  8
606446769-000-00-ED1_FORMAT
100
AcDbText
 62
2
  6
CONTINUOUS
 10
382.2540314895
 20
36.6922441013
  7
STANDARD
 40
2.0000002777
  1
1:1
 41
0.5
 72
0
100
AcDbText
  0
TEXT
  5
36C
100
AcDbEntity
  8
606446769-000-00-ED1_FORMAT
100
AcDbText
 62
2
  6
CONTINUOUS
 10
148.8802806988
 20
67.4938922276
  7
STANDARD
 40
2.0000002777
  1
POS
 41
0.7857142857
 72
0
100
AcDbText
  0
TEXT
  5
36D
100
AcDbEntity
  8
606446769-000-00-ED1_FORMAT
100
AcDbText
 62
2
  6
CONTINUOUS
 10
156.2800350516
 20
67.4938922276
  7
STANDARD
 40
2.0000002777
  1
TYP
 41
0.8333333333
 72
0
100
AcDbText
  0
TEXT
  5
36E
100
AcDbEntity
  8
606446769-000-00-ED1_FORMAT
100
AcDbText
 62
2
  6
CONTINUOUS
 10
163.3396899162
 20
67.5421772957
  7
STANDARD
 40
2.0000002777
  1
MENGE
 41
0.7714285714
 72
0
100
AcDbText
  0
TEXT
  5
36F
100
AcDbEntity
  8
606446769-000-00-ED1_FORMAT
100
AcDbText
 62
2
  6
CONTINUOUS
 10
172.6578100909
 20
67.5585023576
  7
STANDARD
 40
2.0000002777
  1
ME
 41
0.7857142857
 72
0
100
AcDbText
  0
TEXT
  5
370
100
AcDbEntity
  8
606446769-000-00-ED1_FORMAT
100
AcDbText
 62
2
  6
CONTINUOUS
 10
181.2151302056
 20
67.5585023576
  7
STANDARD
 40
2.0000002777
  1
MATERIALNUMMER
 41
0.7857142857
 72
0
100
AcDbText
  0
TEXT
  5
371
100
AcDbEntity
  8
606446769-000-00-ED1_FORMAT
100
AcDbText
 62
2
  6
CONTINUOUS
 10
257.4508902212
 20
67.6477439033
  7
STANDARD
 40
2.0000002777
  1
BENENNUNG
 41
0.7698412698
 72
0
100
AcDbText
  0
TEXT
  5
372
100
AcDbEntity
  8
606446769-000-00-ED1_FORMAT
100
AcDbText
 62
2
  6
CONTINUOUS
 10
321.8093099266
 20
67.455938924
  7
STANDARD
 40
2.0000002777
  1
TECHNISCHE SPEZIFIKATION
 41
0.7628968254
 72
0
100
AcDbText
  0
TEXT
  5
373
100
AcDbEntity
  8
606446769-000-00-ED1_FORMAT
100
AcDbText
 62
2
  6
CONTINUOUS
 10
378.8634420866
 20
67.8395488825
  7
STANDARD
 40
2.0000002777
  1
KUNDENNUMMER
 41
0.7956349206
 72
0
100
AcDbText
  0
TEXT
  5
374
100
AcDbEntity
  8
606446769-000-00-ED1_FORMAT
100
AcDbText
 62
2
  6
CONTINUOUS
 10
378.2047936993
 20
10.9096736719
  7
STANDARD
 40
1.6
  1
BLATT   V.   BLAETTERN
 41
0.7781385281
 72
0
100
AcDbText
  0
TEXT
  5
375
100
AcDbEntity
  8
606446769-000-00-ED1_FORMAT
100
AcDbText
 62
2
  6
CONTINUOUS
 10
385.137224502
 20
10.8641703019
  7
STANDARD
 40
1.6
  1
1
 41
0.5714285714
 72
0
100
AcDbText
  0
TEXT
  5
376
100
AcDbEntity
  8
606446769-000-00-ED1_FORMAT
100
AcDbText
 62
2
  6
CONTINUOUS
 10
391.2747609807
 20
10.9140689725
  7
STANDARD
 40
1.6
  1
1
 41
0.5714285714
 72
0
100
AcDbText
  0
TEXT
  5
377
100
AcDbEntity
  8
606446769-000-00-ED1_FORMAT
100
AcDbText
 62
2
  6
CONTINUOUS
 10
398.7751202552
 20
36.7556960436
  7
STANDARD
 40
2.0
  1
A3
 41
0.7857142857
 72
0
100
AcDbText
  0
TEXT
  5
378
100
AcDbEntity
  8
606446769-000-00-ED1_FORMAT
100
AcDbText
 62
2
  6
CONTINUOUS
 10
23.9272382303
 20
282.7195210512
  7
STANDARD
 40
1.9999995576
  1
MASCH.-NR.:
 41
0.7186147186
 72
0
100
AcDbText
  0
TEXT
  5
379
100
AcDbEntity
  8
606446769-000-00-ED1_FORMAT
100
AcDbText
 62
2
  6
CONTINUOUS
 10
61.221262923
 20
282.7441697896
  7
STANDARD
 40
1.9999995184
  1
STATION:
 41
0.7410714286
 72
0
100
AcDbText
  0
TEXT
  5
37A
100
AcDbEntity
  8
606446769-000-00-ED1_FORMAT
100
AcDbText
 62
2
  6
CONTINUOUS
 10
99.2119750426
 20
282.7441697896
  7
STANDARD
 40
1.9999995184
  1
SPINDEL:
 41
0.7023809524
 72
0
100
AcDbText
  0
TEXT
  5
37B
100
AcDbEntity
  8
606446769-000-00-ED1_FORMAT
100
AcDbText
 62
2
  6
CONTINUOUS
 10
23.5637846434
 20
277.4328879656
  7
STANDARD
 40
1.9999995576
  1
WERKST.-BEN.:
 41
0.7527472527
 72
0
100
AcDbText
  0
TEXT
  5
37C
100
AcDbEntity
  8
606446769-000-00-ED1_FORMAT
100
AcDbText
 62
2
  6
CONTINUOUS
 10
23.7506774
 20
266.657832536
  7
STANDARD
 40
1.9999995184
  1
WERKSTOFF:
 41
0.7857142857
 72
0
100
AcDbText
  0
TEXT
  5
37D
100
AcDbEntity
  8
606446769-000-00-ED1_FORMAT
100
AcDbText
 62
2
  6
CONTINUOUS
 10
99.2058269153
 20
260.6643446337
  7
STANDARD
 40
1.9999995184
  1
BOHRUNGS-NR.:
 41
0.7307692308
 72
0
100
AcDbText
  0
TEXT
  5
37E
100
AcDbEntity
  8
606446769-000-00-ED1_FORMAT
100
AcDbText
 62
2
  6
CONTINUOUS
 10
23.8681648642
 20
272.062255871
  7
STANDARD
 40
1.9999995576
  1
WERKST.-NR.:
 41
0.755952381
 72
0
100
AcDbText
  0
TEXT
  5
37F
100
AcDbEntity
  8
606446769-000-00-ED1_FORMAT
100
AcDbText
 62
2
  6
CONTINUOUS
 10
61.140009526
 20
260.6643443929
  7
STANDARD
 40
2.0
  1
OP-NR.:
 41
0.6836734694
 72
0
100
AcDbText
  0
TEXT
  5
380
100
AcDbEntity
  8
606446769-000-00-ED1_FORMAT
100
AcDbText
 62
2
  6
CONTINUOUS
 10
23.9309790234
 20
260.9091406462
  7
STANDARD
 40
2.0
  1
TOOL-NR.:
 41
0.6984126984
 72
0
100
AcDbText
  0
TEXT
  5
381
100
AcDbEntity
  8
606446769-000-00-ED1_FORMAT
100
AcDbText
 62
2
  6
CONTINUOUS
 10
326.44999432
 20
53.0000824065
  7
STANDARD
 40
2.5
  1
Präzisionswerkzeuge
 41
0.7147869674
 72
0
100
AcDbText
  0
TEXT
  5
382
100
AcDbEntity
  8
606446769-000-00-ED1_FORMAT
100
AcDbText
 62
2
  6
CONTINUOUS
 10
326.44999432
 20
48.4000824065
  7
STANDARD
 40
2.5
  1
Dr. Kress KG
 41
0.751984127
 72
0
100
AcDbText
  0
TEXT
  5
383
100
AcDbEntity
  8
606446769-000-00-ED1_FORMAT
100
AcDbText
 62
2
  6
CONTINUOUS
 10
326.44999432
 20
57.6000824065
  7
STANDARD
 40
2.5
  1
MAPAL
 41
0.8380952381
 72
0
100
AcDbText
  0
INSERT
  5
384
100
AcDbEntity
  8
606446769-000-00-ED1_FORMAT
100
AcDbBlockReference
 62
3
  6
CONTINUOUS
  2
BARCODEBOX_BL0
 10
87.5
 20
46.5
  0
DIMENSION
  5
385
100
AcDbEntity
  8
606446769-000-00-ED1_DIM
100
AcDbDimension
 62
3
  6
CONTINUOUS
  2
*D0
 10
176.4686994536
 20
138.2237793312
 11
177.638024949
 21
139.5142022145
 70
164
 71
2
 42
10.0
  1
<>
  3
DIMSTYLE_1
100
AcDbRadialDimension
 15
169.044916506
 25
144.9235887872
  0
DIMENSION
  5
386
100
AcDbEntity
  8
606446769-000-00-ED1_DIM
100
AcDbDimension
 62
3
  6
CONTINUOUS
  2
*D1
 10
240.7797478656
 20
182.2237793312
 11
240.1378109639
 21
192.7886945322
 70
162
 71
2
 42
0.0785398163
  3
DIMSTYLE_2
100
AcDb2LineAngularDimension
 13
240.6942570065
 23
180.0478916682
 14
231.665610673
 24
180.7584615449
 15
231.400409853
 25
182.2237793312
 16
239.2595233545
 26
181.1938858109
  0
DIMENSION
  5
387
100
AcDbEntity
  8
30261798_DIM
100
AcDbDimension
 62
3
  6
CONTINUOUS
  2
*D2
 10
220.5186994536
 20
110.2237793312
 11
165.7523744242
 21
109.7862793312
 70
160
 71
3
 42
10.0
  1
<>\PVERSTELLWEG
  3
DIMSTYLE_3
100
AcDbAlignedDimension
 13
210.5186994536
 23
165.2237793312
 14
220.5186994536
 24
165.2237793312
100
AcDbRotatedDimension
  0
DIMENSION
  5
388
100
AcDbEntity
  8
30338430_DIM
100
AcDbDimension
 62
3
  6
CONTINUOUS
  2
*D3
 10
202.5186994536
 20
217.2237793312
 11
178.6552514139
 21
219.8487793312
 70
160
 71
3
 42
6.0
  1
M<>(4x)
  3
DIMSTYLE_4
100
AcDbAlignedDimension
 13
196.5186994536
 23
182.0737793312
 14
202.5186994536
 24
182.0737793312
100
AcDbRotatedDimension
  0
DIMENSION
  5
389
100
AcDbEntity
  8
30338430_DIM
100
AcDbDimension
 62
3
  6
CONTINUOUS
  2
*D4
 10
257.5186994536
 20
90.2237793312
 11
225.8936994536
 21
92.8487793312
 70
160
 71
2
 42
58.0
  3
DIMSTYLE_5
100
AcDbAlignedDimension
 13
199.5186994536
 23
146.241133915
 14
257.5186994536
 24
152.848054894
100
AcDbRotatedDimension
  0
DIMENSION
  5
38A
100
AcDbEntity
  8
30338430_DIM
100
AcDbDimension
 62
3
  6
CONTINUOUS
  2
*D5
 10
257.5186994536
 20
100.2239087357
 11
231.2686994536
 21
102.8489087357
 70
160
 71
2
 42
47.0
  3
DIMSTYLE_5
100
AcDbAlignedDimension
 13
210.5186994536
 23
161.8833741433
 14
257.5186994536
 24
152.8181903147
100
AcDbRotatedDimension
  0
DIMENSION
  5
38B
100
AcDbEntity
  8
30338430_DIM
100
AcDbDimension
 62
3
  6
CONTINUOUS
  2
*D6
 10
137.5186994536
 20
227.2237793312
 11
193.7686994536
 21
229.8487793312
 70
160
 71
2
 42
120.0
  3
DIMSTYLE_5
100
AcDbAlignedDimension
 13
257.5186994536
 23
177.5390725491
 14
137.5186994536
 24
215.0124294307
 50
180.0
100
AcDbRotatedDimension
  0
INSERT
  5
38C
100
AcDbEntity
  8
606446769-000-00-ED1_CL
100
AcDbBlockReference
 62
3
  6
CONTINUOUS
  2
GEOM_TOLERANCE_SYMBOLS_BL1
 10
131.2686994536
 20
226.2630269476
  0
DIMENSION
  5
38D
100
AcDbEntity
  8
30338430_DIM
100
AcDbDimension
 62
3
  6
CONTINUOUS
  2
*D7
 10
77.6186994536
 20
170.2237793312
 11
76.7299847161
 21
144.5190046486
 70
160
 71
3
 42
10.0
  1
M<>x1
  3
DIMSTYLE_3
100
AcDbAlignedDimension
 13
192.5186994536
 23
160.2237793312
 14
192.5186994536
 24
170.2237793312
 50
90.0
100
AcDbRotatedDimension
  0
DIMENSION
  5
38E
100
AcDbEntity
  8
30338430_DIM
100
AcDbDimension
 62
3
  6
CONTINUOUS
  2
*D8
 10
272.5186994536
 20
172.2237793312
 11
270.9485394249
 21
163.1191621856
 70
160
 71
2
 42
14.0
  1
%%c<>
  3
DIMSTYLE_3
100
AcDbAlignedDimension
 13
255.5186994536
 23
158.2237793312
 14
255.5186994536
 24
172.2237793312
 50
90.0
100
AcDbRotatedDimension
  0
LEADER
  5
38F
100
AcDbEntity
  8
606446769-000-00-ED1_CL
100
AcDbLeader
 62
3
  6
CONTINUOUS
  3
STANDARD
 71
1
 72
0
 73
2
 75
0
 76
3
 10
272.5186994536
 20
158.2237793312
 30
0.0
 10
272.5186994536
 20
132.5248380138
 30
0.0
 10
272.5187414956
 20
132.5248380138
 30
0.0
340
390
1001
ACAD
1000
DSTYLE
1002
{
1070
77
1070
0
1002
}
  0
INSERT
  5
390
102
{ACAD_REACTORS
330
38F
102
}
100
AcDbEntity
  8
606446769-000-00-ED1_CL
100
AcDbBlockReference
 62
3
  6
CONTINUOUS
  2
GEOM_TOLERANCE_SYMBOLS_BL2
 10
293.0371588906
 20
132.5250991011
  0
TEXT
  5
391
100
AcDbEntity
  8
0
100
AcDbText
 62
2
  6
CONTINUOUS
 10
277.5186994536
 20
119.5579949
  7
STANDARD
 40
3.5
  1
FUER SCHAEFTE MIT
 41
0.7759103641
 72
0
100
AcDbText
  0
TEXT
  5
392
100
AcDbEntity
  8
0
100
AcDbText
 62
2
  6
CONTINUOUS
 10
277.5186994536
 20
114.3079949
  7
STANDARD
 40
3.5
  1
TOLERANZFELD h6
 41
0.7650793651
 72
0
100
AcDbText
  0
LEADER
  5
393
100
AcDbEntity
  8
0
100
AcDbLeader
 62
3
  6
CONTINUOUS
  3
STANDARD
 71
1
 72
0
 73
3
 75
0
 76
3
 10
272.5186994536
 20
158.2237793312
 30
0.0
 10
272.5186994536
 20
121.3079949
 30
0.0
 10
277.5186994536
 20
121.3079949
 30
0.0
1001
ACAD
1000
DSTYLE
1002
{
1070
77
1070
0
1002
}
  0
DIMENSION
  5
394
100
AcDbEntity
  8
30338430_DIM
100
AcDbDimension
 62
3
  6
CONTINUOUS
  2
*D9
 10
213.046982877
 20
207.2237793312
 11
232.4078411653
 21
209.8487793312
 70
160
 71
2
 42
44.4717165766
  1
(<>)
  3
DIMSTYLE_6
100
AcDbAlignedDimension
 13
257.5186994536
 23
177.7993888395
 14
213.046982877
 24
182.2237793312
 50
180.0
100
AcDbRotatedDimension
  0
DIMENSION
  5
395
100
AcDbEntity
  8
30338430_DIM
100
AcDbDimension
 62
3
  6
CONTINUOUS
  2
*D10
 10
292.5186994536
 20
182.2237793312
 11
291.004548627
 21
163.0074126027
 70
160
 71
2
 42
34.0
  1
%%c<>
  3
DIMSTYLE_5
100
AcDbAlignedDimension
 13
213.046982877
 23
148.2237793312
 14
213.046982877
 24
182.2237793312
 50
90.0
100
AcDbRotatedDimension
  0
DIMENSION
  5
396
100
AcDbEntity
  8
30338430_DIM
100
AcDbDimension
 62
3
  6
CONTINUOUS
  2
*D11
 10
282.5186994536
 20
178.7237793312
 11
281.032553228
 21
162.9515378112
 70
160
 71
2
 42
27.0
  1
%%c<>
  3
DIMSTYLE_3
100
AcDbAlignedDimension
 13
257.5186994536
 23
151.7237793312
 14
257.5186994536
 24
178.7237793312
 50
90.0
100
AcDbRotatedDimension
  0
LINE
  5
397
100
AcDbEntity
  8
606446769-000-00-ED1_FORMAT
100
AcDbLine
 62
3
  6
CONTINUOUS
 10
264.9
 20
287.0000007463
 11
410.0
 21
287.0000007463
  0
LINE
  5
398
100
AcDbEntity
  8
606446769-000-00-ED1_FORMAT
100
AcDbLine
 62
3
  6
CONTINUOUS
 10
264.9
 20
287.0000007463
 11
264.9
 21
225.0000007463
  0
LINE
  5
399
100
AcDbEntity
  8
606446769-000-00-ED1_FORMAT
100
AcDbLine
 62
3
  6
CONTINUOUS
 10
264.9
 20
225.0000007463
 11
410.0
 21
225.0000007463
  0
LINE
  5
39A
100
AcDbEntity
  8
606446769-000-00-ED1_FORMAT
100
AcDbLine
 62
3
  6
CONTINUOUS
 10
410.0
 20
287.0000007463
 11
410.0
 21
225.0000007463
  0
LINE
  5
39B
100
AcDbEntity
  8
606446769-000-00-ED1_FORMAT
100
AcDbLine
 62
3
  6
CONTINUOUS
 10
23.0
 20
10.0
 11
23.0
 21
210.0
  0
LINE
  5
39C
100
AcDbEntity
  8
606446769-000-00-ED1_FORMAT
100
AcDbLine
 62
3
  6
CONTINUOUS
 10
23.0
 20
10.0
 11
29.0
 21
10.0
  0
LINE
  5
39D
100
AcDbEntity
  8
606446769-000-00-ED1_FORMAT
100
AcDbLine
 62
3
  6
CONTINUOUS
 10
29.0
 20
10.0
 11
29.0
 21
210.0
  0
LINE
  5
39E
100
AcDbEntity
  8
606446769-000-00-ED1_FORMAT
100
AcDbLine
 62
3
  6
CONTINUOUS
 10
23.0
 20
210.0
 11
29.0
 21
210.0
  0
LINE
  5
39F
100
AcDbEntity
  8
606446769-000-00-ED1_FORMAT
100
AcDbLine
 62
3
  6
CONTINUOUS
 10
146.999991584
 20
65.00000176
 11
410.000001584
 21
65.00000176
  0
LINE
  5
3A0
100
AcDbEntity
  8
606446769-000-00-ED1_FORMAT
100
AcDbLine
 62
3
  6
CONTINUOUS
 10
146.999991584
 20
65.00000176
 11
146.999991584
 21
78.50000176
  0
LINE
  5
3A1
100
AcDbEntity
  8
606446769-000-00-ED1_FORMAT
100
AcDbLine
 62
3
  6
CONTINUOUS
 10
146.999991584
 20
72.50000176
 11
410.000001584
 21
72.50000176
  0
LINE
  5
3A2
100
AcDbEntity
  8
606446769-000-00-ED1_FORMAT
100
AcDbLine
 62
3
  6
CONTINUOUS
 10
146.999991584
 20
78.50000176
 11
410.000001584
 21
78.50000176
  0
LINE
  5
3A3
100
AcDbEntity
  8
606446769-000-00-ED1_FORMAT
100
AcDbLine
 62
3
  6
CONTINUOUS
 10
154.499991584
 20
65.00000176
 11
154.499991584
 21
78.50000176
  0
LINE
  5
3A4
100
AcDbEntity
  8
606446769-000-00-ED1_FORMAT
100
AcDbLine
 62
3
  6
CONTINUOUS
 10
161.999991584
 20
65.00000176
 11
161.999991584
 21
78.50000176
  0
LINE
  5
3A5
100
AcDbEntity
  8
606446769-000-00-ED1_FORMAT
100
AcDbLine
 62
3
  6
CONTINUOUS
 10
171.398801584
 20
65.00000176
 11
171.398801584
 21
78.50000176
  0
LINE
  5
3A6
100
AcDbEntity
  8
606446769-000-00-ED1_FORMAT
100
AcDbLine
 62
3
  6
CONTINUOUS
 10
176.398801584
 20
65.00000176
 11
176.398801584
 21
78.50000176
  0
LINE
  5
3A7
100
AcDbEntity
  8
606446769-000-00-ED1_FORMAT
100
AcDbLine
 62
3
  6
CONTINUOUS
 10
208.000001584
 20
65.00000176
 11
208.000001584
 21
78.50000176
  0
LINE
  5
3A8
100
AcDbEntity
  8
606446769-000-00-ED1_FORMAT
100
AcDbLine
 62
3
  6
CONTINUOUS
 10
314.000001584
 20
65.00000176
 11
314.000001584
 21
78.50000176
  0
LINE
  5
3A9
100
AcDbEntity
  8
606446769-000-00-ED1_FORMAT
100
AcDbLine
 62
3
  6
CONTINUOUS
 10
366.000001584
 20
65.00000176
 11
366.000001584
 21
78.50000176
  0
LINE
  5
3AA
100
AcDbEntity
  8
606446769-000-00-ED1_FORMAT
100
AcDbLine
 62
3
  6
CONTINUOUS
 10
410.000001584
 20
65.00000176
 11
410.000001584
 21
78.50000176
  0
TEXT
  5
3AB
100
AcDbEntity
  8
606446769-000-00-ED1_FORMAT
100
AcDbText
 62
2
  6
CONTINUOUS
 10
148.224991584
 20
74.25000176
  7
STANDARD
 40
2.0
  1
1
 41
0.5714285714
 72
0
100
AcDbText
  0
TEXT
  5
3AC
100
AcDbEntity
  8
606446769-000-00-ED1_FORMAT
100
AcDbText
 62
2
  6
CONTINUOUS
 10
163.224991584
 20
74.25000176
  7
STANDARD
 40
2.0
  1
1
 41
0.5714285714
 72
0
100
AcDbText
  0
TEXT
  5
3AD
100
AcDbEntity
  8
606446769-000-00-ED1_FORMAT
100
AcDbText
 62
2
  6
CONTINUOUS
 10
177.623801584
 20
74.25000176
  7
STANDARD
 40
2.0
  1
30252542
 41
0.7589285714
 72
0
100
AcDbText
  0
TEXT
  5
3AE
100
AcDbEntity
  8
606446769-000-00-ED1_FORMAT
100
AcDbText
 62
2
  6
CONTINUOUS
 10
209.225001584
 20
74.25000176
  7
STANDARD
 40
2.0
  1
ANSCHLAGSCHRAUBE
 41
0.7916666667
 72
0
100
AcDbText
  0
TEXT
  5
3AF
100
AcDbEntity
  8
606446769-000-00-ED1_FORMAT
100
AcDbText
 62
2
  6
CONTINUOUS
 10
315.225001584
 20
74.25000176
  7
STANDARD
 40
2.0
  1
M10X1 SW5
 41
0.8095238095
 72
0
100
AcDbText
  0
TEXT
  5
3B0
100
AcDbEntity
  8
606446769-000-00-ED1_FORMAT
100
AcDbText
 62
2
  6
CONTINUOUS
 10
406.5221444411
 20
76.72000176
  7
STANDARD
 40
0.03
  1
30252542_HP
 41
0.7662337662
 72
2
 11
406.775001584
 21
76.72000176
100
AcDbText
  0
TEXT
  5
3B1
100
AcDbEntity
  8
606446769-000-00-ED1_FORMAT
100
AcDbText
 62
2
  6
CONTINUOUS
 10
407.7257158697
 20
76.72000176
  7
STANDARD
 40
0.03
  1
KA
 41
0.8214285714
 72
2
 11
407.775001584
 21
76.72000176
100
AcDbText
  0
TEXT
  5
3B2
100
AcDbEntity
  8
606446769-000-00-ED1_FORMAT
100
AcDbText
 62
2
  6
CONTINUOUS
 10
408.7278587269
 20
76.72000176
  7
STANDARD
 40
0.03
  1
HP
 41
0.7857142857
 72
2
 11
408.775001584
 21
76.72000176
100
AcDbText
  0
LINE
  5
3B3
100
AcDbEntity
  8
606446769-000-00-ED1_FORMAT
100
AcDbLine
 62
3
  6
CONTINUOUS
 10
23.0
 20
287.0
 11
135.0
 21
287.0
  0
LINE
  5
3B4
100
AcDbEntity
  8
606446769-000-00-ED1_FORMAT
100
AcDbLine
 62
3
  6
CONTINUOUS
 10
23.0
 20
287.0
 11
23.0
 21
259.00001
  0
LINE
  5
3B5
100
AcDbEntity
  8
606446769-000-00-ED1_FORMAT
100
AcDbLine
 62
3
  6
CONTINUOUS
 10
23.0
 20
259.00001
 11
135.0
 21
259.00001
  0
LINE
  5
3B6
100
AcDbEntity
  8
606446769-000-00-ED1_FORMAT
100
AcDbLine
 62
3
  6
CONTINUOUS
 10
135.0
 20
287.0
 11
135.0
 21
259.00001
  0
LINE
  5
3B7
100
AcDbEntity
  8
606446769-000-00-ED1_FORMAT
100
AcDbLine
 62
3
  6
CONTINUOUS
 10
146.999991584
 20
65.00000176
 11
409.999961584
 21
65.00000176
  0
LINE
  5
3B8
100
AcDbEntity
  8
606446769-000-00-ED1_FORMAT
100
AcDbLine
 62
3
  6
CONTINUOUS
 10
146.999991584
 20
65.00000176
 11
146.999991584
 21
10.00000176
  0
LINE
  5
3B9
100
AcDbEntity
  8
606446769-000-00-ED1_FORMAT
100
AcDbLine
 62
3
  6
CONTINUOUS
 10
146.999991584
 20
10.00000176
 11
409.999961584
 21
10.00000176
  0
LINE
  5
3BA
100
AcDbEntity
  8
606446769-000-00-ED1_FORMAT
100
AcDbLine
 62
3
  6
CONTINUOUS
 10
409.999961584
 20
65.00000176
 11
409.999961584
 21
10.00000176
  0
TEXT
  5
3BB
100
AcDbEntity
  8
606446769-000-00-ED1_FORMAT
100
AcDbText
 62
2
  6
CONTINUOUS
 10
184.5178487269
 20
60.75000176
  7
STANDARD
 40
2.5
  1
 
 41
0.7857142857
 72
1
 11
185.499991584
 21
60.75000176
100
AcDbText
  0
TEXT
  5
3BC
100
AcDbEntity
  8
606446769-000-00-ED1_FORMAT
100
AcDbText
 62
2
  6
CONTINUOUS
 10
154.130943965
 20
58.24975176
  7
STANDARD
 40
2.5
  1
AUSWUCHTGUETE DIN ISO 1940-G 
 41
0.7939244663
 72
1
 11
182.9107058697
 21
58.24975176
100
AcDbText
  0
TEXT
  5
3BD
100
AcDbEntity
  8
606446769-000-00-ED1_FORMAT
100
AcDbText
 62
2
  6
CONTINUOUS
 10
211.6904677745
 20
58.24975176
  7
STANDARD
 40
2.5
  1
2.5
 41
0.6904761905
 72
1
 11
214.2797534888
 21
58.24975176
100
AcDbText
  0
TEXT
  5
3BE
100
AcDbEntity
  8
606446769-000-00-ED1_FORMAT
100
AcDbText
 62
2
  6
CONTINUOUS
 10
184.5178487269
 20
56.57968176
  7
STANDARD
 40
2.5
  1
 
 41
0.7857142857
 72
1
 11
185.499991584
 21
56.57968176
100
AcDbText
  0
TEXT
  5
3BF
100
AcDbEntity
  8
606446769-000-00-ED1_FORMAT
100
AcDbText
 62
2
  6
CONTINUOUS
 10
167.7321344411
 20
52.82968176
  7
STANDARD
 40
2.5
  1
(KOMPLETT MONTIERT)
 41
0.7481203008
 72
1
 11
185.499991584
 21
52.82968176
100
AcDbText
  0
TEXT
  5
3C0
100
AcDbEntity
  8
606446769-000-00-ED1_FORMAT
100
AcDbText
 62
2
  6
CONTINUOUS
 10
378.122491584
 20
54.95468176
  7
STANDARD
 40
2.0
  1
27.05.15
 41
0.6875
 72
0
100
AcDbText
  0
TEXT
  5
3C1
100
AcDbEntity
  8
606446769-000-00-ED1_FORMAT
100
AcDbText
 62
2
  6
CONTINUOUS
 10
398.5201551554
 20
54.95468176
  7
STANDARD
 40
2.0
  1
SMU
 41
0.8095238095
 72
1
 11
400.948726584
 21
54.95468176
100
AcDbText
  0
TEXT
  5
3C2
100
AcDbEntity
  8
606446769-000-00-ED1_FORMAT
100
AcDbText
 62
2
  6
CONTINUOUS
 10
157.8511820602
 20
46.82968176
  7
STANDARD
 40
2.5
  1
FUER NENNDREHZAHL 
 41
0.7724867725
 72
1
 11
175.2321344411
 21
46.82968176
100
AcDbText
  0
TEXT
  5
3C3
100
AcDbEntity
  8
606446769-000-00-ED1_FORMAT
100
AcDbText
 62
2
  6
CONTINUOUS
 10
192.6130868221
 20
46.82968176
  7
STANDARD
 40
2.5
  1
25000
 41
0.7714285714
 72
1
 11
197.4345153935
 21
46.82968176
100
AcDbText
  0
TEXT
  5
3C4
100
AcDbEntity
  8
606446769-000-00-ED1_FORMAT
100
AcDbText
 62
2
  6
CONTINUOUS
 10
202.255943965
 20
46.82968176
  7
STANDARD
 40
2.5
  1
 MIN
 41
0.7678571429
 72
1
 11
206.0952296792
 21
46.82968176
100
AcDbText
  0
TEXT
  5
3C5
100
AcDbEntity
  8
606446769-000-00-ED1_FORMAT
100
AcDbText
 62
2
  6
CONTINUOUS
 10
209.9345153935
 20
48.70468176
  7
STANDARD
 40
2.5
  1
-1
 41
0.6428571429
 72
1
 11
211.5416582507
 21
48.70468176
100
AcDbText
  0
TEXT
  5
3C6
100
AcDbEntity
  8
606446769-000-00-ED1_FORMAT
100
AcDbText
 62
2
  6
CONTINUOUS
 10
378.122491584
 20
48.95468176
  7
STANDARD
 40
2.0
  1
27.05.15
 41
0.6875
 72
0
100
AcDbText
  0
TEXT
  5
3C7
100
AcDbEntity
  8
606446769-000-00-ED1_FORMAT
100
AcDbText
 62
2
  6
CONTINUOUS
 10
398.5201551554
 20
48.95468176
  7
STANDARD
 40
2.0
  1
SMU
 41
0.8095238095
 72
1
 11
400.948726584
 21
48.95468176
100
AcDbText
  0
TEXT
  5
3C8
100
AcDbEntity
  8
606446769-000-00-ED1_FORMAT
100
AcDbText
 62
7
  6
CONTINUOUS
 10
225.224991584
 20
26.00000176
  7
STANDARD
 40
2.5
  1
THERMOCHUCK, HSK, STANDARDAUSFUEHRUNG
 41
0.7889317889
 72
0
100
AcDbText
  0
TEXT
  5
3C9
100
AcDbEntity
  8
606446769-000-00-ED1_FORMAT
100
AcDbText
 62
2
  6
CONTINUOUS
 10
402.5951996792
 20
26.00000176
  7
STANDARD
 40
2.0
  1
EHD
 41
0.8015873016
 72
1
 11
404.999961584
 21
26.00000176
100
AcDbText
  0
TEXT
  5
3CA
100
AcDbEntity
  8
606446769-000-00-ED1_FORMAT
100
AcDbText
 62
7
  6
CONTINUOUS
 10
225.224991584
 20
15.25000176
  7
STANDARD
 40
2.5
  1
MTC-HSK-A100-14-120-1-0-A
 41
0.7447619048
 72
0
100
AcDbText
  0
TEXT
  5
3CB
100
AcDbEntity
  8
606446769-000-00-ED1_FORMAT
100
AcDbText
 62
7
  6
CONTINUOUS
 10
301.224991584
 20
15.25000176
  7
STANDARD
 40
2.5
  1
30261798
 41
0.75
 72
0
100
AcDbText
  0
TEXT
  5
3CC
100
AcDbEntity
  8
606446769-000-00-ED1_FORMAT
100
AcDbText
 62
7
  6
CONTINUOUS
 10
346.224991584
 20
15.25000176
  7
STANDARD
 40
2.5
  1
606446769-000-00-ED1
 41
0.7666666667
 72
0
100
AcDbText
  0
TEXT
  5
3CD
100
AcDbEntity
  8
606446769-000-00-ED1_FORMAT
100
AcDbText
 62
2
  6
CONTINUOUS
 10
403.0356758697
 20
15.25000176
  7
STANDARD
 40
2.5
  1
00
 41
0.7857142857
 72
1
 11
404.999961584
 21
15.25000176
100
AcDbText
  0
LINE
  5
3CE
100
AcDbEntity
  8
606446769-000-00-ED1_FORMAT
100
AcDbLine
 62
3
  6
CONTINUOUS
 10
29.0
 20
10.0
 11
29.0
 21
145.0
  0
LINE
  5
3CF
100
AcDbEntity
  8
606446769-000-00-ED1_FORMAT
100
AcDbLine
 62
3
  6
CONTINUOUS
 10
29.0
 20
10.0
 11
35.0
 21
10.0
  0
LINE
  5
3D0
100
AcDbEntity
  8
606446769-000-00-ED1_FORMAT
100
AcDbLine
 62
3
  6
CONTINUOUS
 10
35.0
 20
10.0
 11
35.0
 21
145.0
  0
LINE
  5
3D1
100
AcDbEntity
  8
606446769-000-00-ED1_FORMAT
100
AcDbLine
 62
3
  6
CONTINUOUS
 10
29.0
 20
80.0
 11
35.0
 21
80.0
  0
LINE
  5
3D2
100
AcDbEntity
  8
606446769-000-00-ED1_FORMAT
100
AcDbLine
 62
3
  6
CONTINUOUS
 10
29.0
 20
145.0
 11
35.0
 21
145.0
  0
TEXT
  5
3D3
100
AcDbEntity
  8
606446769-000-00-ED1_FORMAT
100
AcDbText
 62
2
  6
CONTINUOUS
 10
34.0
 20
11.225
  7
STANDARD
 40
3.0
  1
AEHNLICH:
 50
90.0
 41
0.7116402116
 72
0
100
AcDbText
  0
TEXT
  5
3D4
100
AcDbEntity
  8
606446769-000-00-ED1_FORMAT
100
AcDbText
 62
2
  6
CONTINUOUS
 10
34.0
 20
81.225
  7
STANDARD
 40
3.0
  1
SKIZZE:
 50
90.0
 41
0.693877551
 72
0
100
AcDbText
  0
LINE
  5
3D5
100
AcDbEntity
  8
606446769-000-00-ED1_FORMAT
100
AcDbLine
 62
3
  6
CONTINUOUS
 10
365.999998592
 20
35.0000008
 11
294.999998592
 21
35.0000008
  0
LINE
  5
3D6
100
AcDbEntity
  8
606446769-000-00-ED1_FORMAT
100
AcDbLine
 62
3
  6
CONTINUOUS
 10
365.999998592
 20
35.0000008
 11
365.999998592
 21
43.5000008
  0
LINE
  5
3D7
100
AcDbEntity
  8
606446769-000-00-ED1_FORMAT
100
AcDbLine
 62
3
  6
CONTINUOUS
 10
365.999998592
 20
43.5000008
 11
294.999998592
 21
43.5000008
  0
LINE
  5
3D8
100
AcDbEntity
  8
606446769-000-00-ED1_FORMAT
100
AcDbLine
 62
3
  6
CONTINUOUS
 10
294.999998592
 20
35.0000008
 11
294.999998592
 21
43.5000008
  0
TEXT
  5
3D9
100
AcDbEntity
  8
606446769-000-00-ED1_FORMAT
100
AcDbText
 62
2
  6
CONTINUOUS
 10
304.9642843063
 20
38.0000008
  7
STANDARD
 40
2.5
  1
PATENTRECHTLICH GESCHUETZT
 41
0.7857142857
 72
1
 11
330.499998592
 21
38.0000008
100
AcDbText
  0
TEXT
  5
3DA
100
AcDbEntity
  8
606446769-000-00-ED1_TEXT
100
AcDbText
 62
2
  6
CONTINUOUS
 10
158.5532407348
 20
259.7237793312
  7
STANDARD
 40
5.0
  1
TRENNSTELLE HSK-A100
 41
0.7666666667
 72
0
100
AcDbText
  0
TEXT
  5
3DB
100
AcDbEntity
  8
606446769-000-00-ED1_TEXT
100
AcDbText
 62
2
  6
CONTINUOUS
 10
158.5532407348
 20
252.2237793312
  7
STANDARD
 40
5.0
  1
(AEHNLICH DIN 69893-1)
 41
0.7251082251
 72
0
100
AcDbText
  0
TEXT
  5
3DC
100
AcDbEntity
  8
606446769-000-00-ED1_TEXT
100
AcDbText
 62
2
  6
CONTINUOUS
 10
158.5532407348
 20
244.7237793312
  7
STANDARD
 40
5.0
  1
NACH MN609 BLATT 2-6
 41
0.7952380952
 72
0
100
AcDbText
  0
INSERT
  5
3DD
100
AcDbEntity
  8
606446769-000-00-ED1_CL
100
AcDbBlockReference
 62
3
  6
CONTINUOUS
  2
GEOM_TOLERANCE_SYMBOLS_BL3
 10
104.8864838234
 20
207.9111013254
  0
LEADER
  5
3DE
100
AcDbEntity
  8
606446769-000-00-ED1_CL
100
AcDbLeader
 62
3
  6
CONTINUOUS
  3
STANDARD
 71
1
 72
0
 73
2
 75
0
 76
2
 10
207.1304641454
 20
167.7237793312
 30
0.0
 10
186.5190611045
 20
201.9757118225
 30
0.0
340
3DF
1001
ACAD
1000
DSTYLE
1002
{
1070
77
1070
0
1070
341
1005
21B
1002
}
  0
INSERT
  5
3DF
102
{ACAD_REACTORS
330
3DE
102
}
100
AcDbEntity
  8
606446769-000-00-ED1_CL
100
AcDbBlockReference
 62
3
  6
CONTINUOUS
  2
BOMBALLOON_BL4
 10
183.3609901071
 20
207.2237793312
  0
LINE
  5
3E0
100
AcDbEntity
  8
606446769-000-00-ED1_FORMAT
100
AcDbLine
 62
6
  6
HIDDEN
 10
0.0
 20
297.0
 11
0.0
 21
0.0
  0
LINE
  5
3E1
100
AcDbEntity
  8
606446769-000-00-ED1_FORMAT
100
AcDbLine
 62
7
  6
CONTINUOUS
 10
18.0
 20
292.0
 11
18.0
 21
5.0
  0
LINE
  5
3E2
100
AcDbEntity
  8
606446769-000-00-ED1_FORMAT
100
AcDbLine
 62
3
  6
CONTINUOUS
 10
23.0
 20
259.0000097341
 11
23.0
 21
10.0
  0
LINE
  5
3E3
100
AcDbEntity
  8
606446769-000-00-ED1_FORMAT
100
AcDbLine
 62
7
  6
CONTINUOUS
 10
23.0
 20
259.0000097341
 11
23.0
 21
287.0
  0
LINE
  5
3E4
100
AcDbEntity
  8
606446769-000-00-ED1_FORMAT
100
AcDbLine
 62
3
  6
CONTINUOUS
 10
28.9999998068
 20
9.9999999122
 11
28.9999998068
 21
209.9999964
  0
LINE
  5
3E5
100
AcDbEntity
  8
606446769-000-00-ED1_FORMAT
100
AcDbLine
 62
3
  6
CONTINUOUS
 10
60.0
 20
10.0
 11
60.0
 21
5.0
  0
LINE
  5
3E6
100
AcDbEntity
  8
606446769-000-00-ED1_FORMAT
100
AcDbLine
 62
3
  6
CONTINUOUS
 10
60.0
 20
287.0
 11
60.0
 21
292.0
  0
LINE
  5
3E7
100
AcDbEntity
  8
606446769-000-00-ED1_FORMAT
100
AcDbLine
 62
7
  6
CONTINUOUS
 10
60.4999978194
 20
259.0000097341
 11
60.4999978194
 21
265.0000076482
  0
LINE
  5
3E8
100
AcDbEntity
  8
606446769-000-00-ED1_FORMAT
100
AcDbLine
 62
7
  6
CONTINUOUS
 10
60.500027184
 20
281.0047710842
 11
60.500027184
 21
287.0
  0
LINE
  5
3E9
100
AcDbEntity
  8
606446769-000-00-ED1_FORMAT
100
AcDbLine
 62
6
  6
HIDDEN
 10
0.0
 20
0.0
 11
420.0
 21
0.0
  0
LINE
  5
3EA
100
AcDbEntity
  8
606446769-000-00-ED1_FORMAT
100
AcDbLine
 62
7
  6
CONTINUOUS
 10
18.0
 20
5.0
 11
415.0
 21
5.0
  0
LINE
  5
3EB
100
AcDbEntity
  8
606446769-000-00-ED1_FORMAT
100
AcDbLine
 62
3
  6
CONTINUOUS
 10
23.0
 20
10.0
 11
146.999991584
 21
10.0
  0
LINE
  5
3EC
100
AcDbEntity
  8
606446769-000-00-ED1_FORMAT
100
AcDbLine
 62
7
  6
CONTINUOUS
 10
146.999991584
 20
10.0
 11
410.0
 21
10.0
  0
LINE
  5
3ED
100
AcDbEntity
  8
606446769-000-00-ED1_FORMAT
100
AcDbLine
 62
7
  6
CONTINUOUS
 10
410.0
 20
13.500000112
 11
223.999992048
 21
13.500000112
  0
LINE
  5
3EE
100
AcDbEntity
  8
606446769-000-00-ED1_FORMAT
100
AcDbLine
 62
2
  6
CONTINUOUS
 10
308.1737564759
 20
52.0267386374
 11
309.1516114228
 21
52.2473767493
  0
LINE
  5
3EF
100
AcDbEntity
  8
606446769-000-00-ED1_FORMAT
100
AcDbLine
 62
7
  6
CONTINUOUS
 10
410.0
 20
24.250000456
 11
223.999992048
 21
24.250000456
  0
LINE
  5
3F0
100
AcDbEntity
  8
606446769-000-00-ED1_FORMAT
100
AcDbLine
 62
7
  6
CONTINUOUS
 10
98.4999894133
 20
259.0000097341
 11
98.4999894133
 21
265.0000076482
  0
LINE
  5
3F1
100
AcDbEntity
  8
606446769-000-00-ED1_FORMAT
100
AcDbLine
 62
7
  6
CONTINUOUS
 10
98.5000134045
 20
281.0047710842
 11
98.5000134045
 21
287.0
  0
LINE
  5
3F2
100
AcDbEntity
  8
606446769-000-00-ED1_FORMAT
100
AcDbLine
 62
2
  6
CONTINUOUS
 10
316.811390075
 20
56.3655426444
 11
315.6581835473
 21
56.1055812919
  0
LINE
  5
3F3
100
AcDbEntity
  8
606446769-000-00-ED1_FORMAT
100
AcDbLine
 62
2
  6
CONTINUOUS
 10
313.8970140824
 20
54.0619609694
 11
313.770971016
 21
54.0347884704
  0
LINE
  5
3F4
100
AcDbEntity
  8
606446769-000-00-ED1_FORMAT
100
AcDbLine
 62
2
  6
CONTINUOUS
 10
314.0150648347
 20
53.2748724898
 11
314.125727646
 21
53.2985664359
  0
LINE
  5
3F5
100
AcDbEntity
  8
606446769-000-00-ED1_FORMAT
100
AcDbLine
 62
2
  6
CONTINUOUS
 10
309.4726377778
 20
52.3088992873
 11
309.7481381608
 21
52.3575829001
  0
LINE
  5
3F6
100
AcDbEntity
  8
606446769-000-00-ED1_FORMAT
100
AcDbLine
 62
2
  6
CONTINUOUS
 10
309.7481381608
 20
52.3575829001
 11
310.0106653611
 21
52.3954383742
  0
LINE
  5
3F7
100
AcDbEntity
  8
606446769-000-00-ED1_FORMAT
100
AcDbLine
 62
2
  6
CONTINUOUS
 10
310.0106653611
 20
52.3954383742
 11
310.2676594209
 21
52.4242614386
  0
LINE
  5
3F8
100
AcDbEntity
  8
606446769-000-00-ED1_FORMAT
100
AcDbLine
 62
2
  6
CONTINUOUS
 10
313.7760873475
 20
53.2488129126
 11
314.0150648347
 21
53.2748724898
  0
LINE
  5
3F9
100
AcDbEntity
  8
606446769-000-00-ED1_FORMAT
100
AcDbLine
 62
2
  6
CONTINUOUS
 10
310.2676594209
 20
52.4242614386
 11
310.5265291215
 21
52.4458639518
  0
LINE
  5
3FA
100
AcDbEntity
  8
606446769-000-00-ED1_FORMAT
100
AcDbLine
 62
2
  6
CONTINUOUS
 10
313.770971016
 20
54.0347884704
 11
313.62612986
 21
54.0232237601
  0
LINE
  5
3FB
100
AcDbEntity
  8
606446769-000-00-ED1_FORMAT
100
AcDbLine
 62
2
  6
CONTINUOUS
 10
310.6816029405
 20
53.1572307303
 11
311.3784660447
 21
53.2094789191
  0
LINE
  5
3FC
100
AcDbEntity
  8
606446769-000-00-ED1_FORMAT
100
AcDbLine
 62
2
  6
CONTINUOUS
 10
311.5221922364
 20
52.5294029883
 11
311.8167824754
 21
52.5503549529
  0
LINE
  5
3FD
100
AcDbEntity
  8
606446769-000-00-ED1_FORMAT
100
AcDbLine
 62
7
  6
CONTINUOUS
 10
223.999992048
 20
35.0000008
 11
410.0
 21
35.0000008
  0
LINE
  5
3FE
100
AcDbEntity
  8
606446769-000-00-ED1_FORMAT
100
AcDbLine
 62
7
  6
CONTINUOUS
 10
410.0
 20
40.9546819905
 11
365.999998592
 21
40.9546819905
  0
LINE
  5
3FF
100
AcDbEntity
  8
606446769-000-00-ED1_FORMAT
100
AcDbLine
 62
7
  6
CONTINUOUS
 10
365.999998592
 20
43.500001072
 11
146.999991584
 21
43.500001072
  0
LINE
  5
400
100
AcDbEntity
  8
606446769-000-00-ED1_FORMAT
100
AcDbLine
 62
7
  6
CONTINUOUS
 10
410.0
 20
46.9546821825
 11
365.999998592
 21
46.9546821825
  0
LINE
  5
401
100
AcDbEntity
  8
606446769-000-00-ED1_FORMAT
100
AcDbLine
 62
3
  6
CONTINUOUS
 10
110.0
 20
10.0
 11
110.0
 21
5.0
  0
LINE
  5
402
100
AcDbEntity
  8
606446769-000-00-ED1_FORMAT
100
AcDbLine
 62
3
  6
CONTINUOUS
 10
110.0
 20
287.0
 11
110.0
 21
292.0
  0
LINE
  5
403
100
AcDbEntity
  8
606446769-000-00-ED1_FORMAT
100
AcDbLine
 62
2
  6
CONTINUOUS
 10
311.2880080537
 20
53.9326200889
 11
310.7557428559
 21
53.9038776709
  0
LINE
  5
404
100
AcDbEntity
  8
606446769-000-00-ED1_FORMAT
100
AcDbLine
 62
2
  6
CONTINUOUS
 10
313.0830380463
 20
55.9298901709
 11
312.7687535783
 21
55.9176103949
  0
LINE
  5
405
100
AcDbEntity
  8
606446769-000-00-ED1_FORMAT
100
AcDbLine
 62
2
  6
CONTINUOUS
 10
311.8167824754
 20
52.5503549529
 11
311.9618945573
 21
52.5553174018
  0
LINE
  5
406
100
AcDbEntity
  8
606446769-000-00-ED1_FORMAT
100
AcDbLine
 62
2
  6
CONTINUOUS
 10
313.6478560334
 20
53.2465010459
 11
313.7760873475
 21
53.2488129126
  0
LINE
  5
407
100
AcDbEntity
  8
606446769-000-00-ED1_FORMAT
100
AcDbLine
 62
2
  6
CONTINUOUS
 10
311.9618945573
 20
52.5553174018
 11
312.2501805589
 21
52.5601884513
  0
LINE
  5
408
100
AcDbEntity
  8
606446769-000-00-ED1_FORMAT
100
AcDbLine
 62
2
  6
CONTINUOUS
 10
311.9618945573
 20
52.5553174018
 11
312.3943235597
 21
52.5618121345
  0
LINE
  5
409
100
AcDbEntity
  8
606446769-000-00-ED1_FORMAT
100
AcDbLine
 62
2
  6
CONTINUOUS
 10
312.2501805589
 20
52.5601884513
 11
312.3943235597
 21
52.5618121345
  0
LINE
  5
40A
100
AcDbEntity
  8
606446769-000-00-ED1_FORMAT
100
AcDbLine
 62
2
  6
CONTINUOUS
 10
313.8726828523
 20
55.9364870559
 11
313.0830380463
 21
55.9298901709
  0
LINE
  5
40B
100
AcDbEntity
  8
606446769-000-00-ED1_FORMAT
100
AcDbLine
 62
3
  6
CONTINUOUS
 10
23.0
 20
48.5
 11
18.0
 21
48.5
  0
LINE
  5
40C
100
AcDbEntity
  8
606446769-000-00-ED1_FORMAT
100
AcDbLine
 62
3
  6
CONTINUOUS
 10
410.0
 20
48.5
 11
415.0
 21
48.5
  0
LINE
  5
40D
100
AcDbEntity
  8
606446769-000-00-ED1_FORMAT
100
AcDbLine
 62
2
  6
CONTINUOUS
 10
312.5957904147
 20
49.4612169223
 11
312.6308094674
 21
49.4612169223
  0
LINE
  5
40E
100
AcDbEntity
  8
606446769-000-00-ED1_FORMAT
100
AcDbLine
 62
2
  6
CONTINUOUS
 10
312.3970603564
 20
49.5612169223
 11
312.8368994729
 21
49.5612169223
  0
LINE
  5
40F
100
AcDbEntity
  8
606446769-000-00-ED1_FORMAT
100
AcDbLine
 62
2
  6
CONTINUOUS
 10
312.1983302981
 20
49.6612169223
 11
313.0429894784
 21
49.6612169223
  0
LINE
  5
410
100
AcDbEntity
  8
606446769-000-00-ED1_FORMAT
100
AcDbLine
 62
2
  6
CONTINUOUS
 10
311.9996002398
 20
49.7612169223
 11
313.249079484
 21
49.7612169223
  0
LINE
  5
411
100
AcDbEntity
  8
606446769-000-00-ED1_FORMAT
100
AcDbLine
 62
2
  6
CONTINUOUS
 10
311.8008701816
 20
49.8612169223
 11
313.4551694895
 21
49.8612169223
  0
LINE
  5
412
100
AcDbEntity
  8
606446769-000-00-ED1_FORMAT
100
AcDbLine
 62
2
  6
CONTINUOUS
 10
311.6021401233
 20
49.9612169223
 11
313.661259495
 21
49.9612169223
  0
LINE
  5
413
100
AcDbEntity
  8
606446769-000-00-ED1_FORMAT
100
AcDbLine
 62
2
  6
CONTINUOUS
 10
311.403410065
 20
50.0612169223
 11
313.8673495005
 21
50.0612169223
  0
LINE
  5
414
100
AcDbEntity
  8
606446769-000-00-ED1_FORMAT
100
AcDbLine
 62
2
  6
CONTINUOUS
 10
311.2046800067
 20
50.1612169223
 11
314.073439506
 21
50.1612169223
  0
LINE
  5
415
100
AcDbEntity
  8
606446769-000-00-ED1_FORMAT
100
AcDbLine
 62
2
  6
CONTINUOUS
 10
311.0059499484
 20
50.2612169223
 11
314.2795295116
 21
50.2612169223
  0
LINE
  5
416
100
AcDbEntity
  8
606446769-000-00-ED1_FORMAT
100
AcDbLine
 62
2
  6
CONTINUOUS
 10
310.8072198901
 20
50.3612169223
 11
314.4856195171
 21
50.3612169223
  0
LINE
  5
417
100
AcDbEntity
  8
606446769-000-00-ED1_FORMAT
100
AcDbLine
 62
2
  6
CONTINUOUS
 10
310.6084898318
 20
50.4612169223
 11
314.6917095226
 21
50.4612169223
  0
LINE
  5
418
100
AcDbEntity
  8
606446769-000-00-ED1_FORMAT
100
AcDbLine
 62
2
  6
CONTINUOUS
 10
310.4097597735
 20
50.5612169223
 11
314.8977995281
 21
50.5612169223
  0
LINE
  5
419
100
AcDbEntity
  8
606446769-000-00-ED1_FORMAT
100
AcDbLine
 62
2
  6
CONTINUOUS
 10
320.1049530975
 20
50.5612169223
 11
320.2033331149
 21
50.5612169223
  0
LINE
  5
41A
100
AcDbEntity
  8
606446769-000-00-ED1_FORMAT
100
AcDbLine
 62
2
  6
CONTINUOUS
 10
310.2110297152
 20
50.6612169223
 11
315.1038895337
 21
50.6612169223
  0
LINE
  5
41B
100
AcDbEntity
  8
606446769-000-00-ED1_FORMAT
100
AcDbLine
 62
2
  6
CONTINUOUS
 10
319.9145646092
 20
50.6612169223
 11
320.3313136725
 21
50.6612169223
  0
LINE
  5
41C
100
AcDbEntity
  8
606446769-000-00-ED1_FORMAT
100
AcDbLine
 62
2
  6
CONTINUOUS
 10
305.3807768328
 20
50.7612169223
 11
305.5908168656
 21
50.7612169223
  0
LINE
  5
41D
100
AcDbEntity
  8
606446769-000-00-ED1_FORMAT
100
AcDbLine
 62
2
  6
CONTINUOUS
 10
310.012299657
 20
50.7612169223
 11
315.3099795392
 21
50.7612169223
  0
LINE
  5
41E
100
AcDbEntity
  8
606446769-000-00-ED1_FORMAT
100
AcDbLine
 62
2
  6
CONTINUOUS
 10
319.724176121
 20
50.7612169223
 11
320.119060279
 21
50.7612169223
  0
LINE
  5
41F
100
AcDbEntity
  8
606446769-000-00-ED1_FORMAT
100
AcDbLine
 62
2
  6
CONTINUOUS
 10
320.1383810082
 20
50.7612169223
 11
320.4592942301
 21
50.7612169223
  0
LINE
  5
420
100
AcDbEntity
  8
606446769-000-00-ED1_FORMAT
100
AcDbLine
 62
2
  6
CONTINUOUS
 10
305.1884579939
 20
50.8612169223
 11
305.7636453527
 21
50.8612169223
  0
LINE
  5
421
100
AcDbEntity
  8
606446769-000-00-ED1_FORMAT
100
AcDbLine
 62
2
  6
CONTINUOUS
 10
309.8135695987
 20
50.8612169223
 11
315.5160695447
 21
50.8612169223
  0
LINE
  5
422
100
AcDbEntity
  8
606446769-000-00-ED1_FORMAT
100
AcDbLine
 62
2
  6
CONTINUOUS
 10
319.5337876327
 20
50.8612169223
 11
319.9269830626
 21
50.8612169223
  0
LINE
  5
423
100
AcDbEntity
  8
606446769-000-00-ED1_FORMAT
100
AcDbLine
 62
2
  6
CONTINUOUS
 10
320.1383810082
 20
50.8612169223
 11
320.5409560601
 21
50.8612169223
  0
LINE
  5
424
100
AcDbEntity
  8
606446769-000-00-ED1_FORMAT
100
AcDbLine
 62
2
  6
CONTINUOUS
 10
305.0850031937
 20
50.9612169223
 11
305.4976754456
 21
50.9612169223
  0
LINE
  5
425
100
AcDbEntity
  8
606446769-000-00-ED1_FORMAT
100
AcDbLine
 62
2
  6
CONTINUOUS
 10
305.5651294594
 20
50.9612169223
 11
305.9364738399
 21
50.9612169223
  0
LINE
  5
426
100
AcDbEntity
  8
606446769-000-00-ED1_FORMAT
100
AcDbLine
 62
2
  6
CONTINUOUS
 10
309.6148395404
 20
50.9612169223
 11
315.7221595502
 21
50.9612169223
  0
LINE
  5
427
100
AcDbEntity
  8
606446769-000-00-ED1_FORMAT
100
AcDbLine
 62
2
  6
CONTINUOUS
 10
319.3433991445
 20
50.9612169223
 11
319.7349058461
 21
50.9612169223
  0
LINE
  5
428
100
AcDbEntity
  8
606446769-000-00-ED1_FORMAT
100
AcDbLine
 62
2
  6
CONTINUOUS
 10
320.1383810082
 20
50.9612169223
 11
320.5409560601
 21
50.9612169223
  0
LINE
  5
429
100
AcDbEntity
  8
606446769-000-00-ED1_FORMAT
100
AcDbLine
 62
2
  6
CONTINUOUS
 10
305.0850031937
 20
51.0612169223
 11
305.4976754456
 21
51.0612169223
  0
LINE
  5
42A
100
AcDbEntity
  8
606446769-000-00-ED1_FORMAT
100
AcDbLine
 62
2
  6
CONTINUOUS
 10
305.7425043521
 20
51.0612169223
 11
306.109302327
 21
51.0612169223
  0
LINE
  5
42B
100
AcDbEntity
  8
606446769-000-00-ED1_FORMAT
100
AcDbLine
 62
2
  6
CONTINUOUS
 10
309.4161094821
 20
51.0612169223
 11
315.9282495557
 21
51.0612169223
  0
LINE
  5
42C
100
AcDbEntity
  8
606446769-000-00-ED1_FORMAT
100
AcDbLine
 62
2
  6
CONTINUOUS
 10
319.1530106562
 20
51.0612169223
 11
319.5428286297
 21
51.0612169223
  0
LINE
  5
42D
100
AcDbEntity
  8
606446769-000-00-ED1_FORMAT
100
AcDbLine
 62
2
  6
CONTINUOUS
 10
320.1383810082
 20
51.0612169223
 11
320.5409560601
 21
51.0612169223
  0
LINE
  5
42E
100
AcDbEntity
  8
606446769-000-00-ED1_FORMAT
100
AcDbLine
 62
2
  6
CONTINUOUS
 10
305.0850031937
 20
51.1612169223
 11
305.4976754456
 21
51.1612169223
  0
LINE
  5
42F
100
AcDbEntity
  8
606446769-000-00-ED1_FORMAT
100
AcDbLine
 62
2
  6
CONTINUOUS
 10
305.9198792448
 20
51.1612169223
 11
306.2821308142
 21
51.1612169223
  0
LINE
  5
430
100
AcDbEntity
  8
606446769-000-00-ED1_FORMAT
100
AcDbLine
 62
2
  6
CONTINUOUS
 10
309.2173794238
 20
51.1612169223
 11
316.1343395613
 21
51.1612169223
  0
LINE
  5
431
100
AcDbEntity
  8
606446769-000-00-ED1_FORMAT
100
AcDbLine
 62
2
  6
CONTINUOUS
 10
318.9626221679
 20
51.1612169223
 11
319.3507514132
 21
51.1612169223
  0
LINE
  5
432
100
AcDbEntity
  8
606446769-000-00-ED1_FORMAT
100
AcDbLine
 62
2
  6
CONTINUOUS
 10
320.1383810082
 20
51.1612169223
 11
320.5409560601
 21
51.1612169223
  0
LINE
  5
433
100
AcDbEntity
  8
606446769-000-00-ED1_FORMAT
100
AcDbLine
 62
2
  6
CONTINUOUS
 10
305.0850031937
 20
51.2612169223
 11
305.4976754456
 21
51.2612169223
  0
LINE
  5
434
100
AcDbEntity
  8
606446769-000-00-ED1_FORMAT
100
AcDbLine
 62
2
  6
CONTINUOUS
 10
306.0972541374
 20
51.2612169223
 11
306.4549593013
 21
51.2612169223
  0
LINE
  5
435
100
AcDbEntity
  8
606446769-000-00-ED1_FORMAT
100
AcDbLine
 62
2
  6
CONTINUOUS
 10
309.0186493655
 20
51.2612169223
 11
316.3404295668
 21
51.2612169223
  0
LINE
  5
436
100
AcDbEntity
  8
606446769-000-00-ED1_FORMAT
100
AcDbLine
 62
2
  6
CONTINUOUS
 10
318.7722336797
 20
51.2612169223
 11
319.1586741968
 21
51.2612169223
  0
LINE
  5
437
100
AcDbEntity
  8
606446769-000-00-ED1_FORMAT
100
AcDbLine
 62
2
  6
CONTINUOUS
 10
320.1383810082
 20
51.2612169223
 11
320.5409560601
 21
51.2612169223
  0
LINE
  5
438
100
AcDbEntity
  8
606446769-000-00-ED1_FORMAT
100
AcDbLine
 62
2
  6
CONTINUOUS
 10
305.0850031937
 20
51.3612169223
 11
305.4976754456
 21
51.3612169223
  0
LINE
  5
439
100
AcDbEntity
  8
606446769-000-00-ED1_FORMAT
100
AcDbLine
 62
2
  6
CONTINUOUS
 10
306.2746290301
 20
51.3612169223
 11
306.6277877884
 21
51.3612169223
  0
LINE
  5
43A
100
AcDbEntity
  8
606446769-000-00-ED1_FORMAT
100
AcDbLine
 62
2
  6
CONTINUOUS
 10
308.8199193072
 20
51.3612169223
 11
316.5465195723
 21
51.3612169223
  0
LINE
  5
43B
100
AcDbEntity
  8
606446769-000-00-ED1_FORMAT
100
AcDbLine
 62
2
  6
CONTINUOUS
 10
318.5818451914
 20
51.3612169223
 11
318.9665969803
 21
51.3612169223
  0
LINE
  5
43C
100
AcDbEntity
  8
606446769-000-00-ED1_FORMAT
100
AcDbLine
 62
2
  6
CONTINUOUS
 10
320.1383810082
 20
51.3612169223
 11
320.5409560601
 21
51.3612169223
  0
LINE
  5
43D
100
AcDbEntity
  8
606446769-000-00-ED1_FORMAT
100
AcDbLine
 62
2
  6
CONTINUOUS
 10
305.0850031937
 20
51.4612169223
 11
305.4976754456
 21
51.4612169223
  0
LINE
  5
43E
100
AcDbEntity
  8
606446769-000-00-ED1_FORMAT
100
AcDbLine
 62
2
  6
CONTINUOUS
 10
306.4520039228
 20
51.4612169223
 11
306.7262247592
 21
51.4612169223
  0
LINE
  5
43F
100
AcDbEntity
  8
606446769-000-00-ED1_FORMAT
100
AcDbLine
 62
2
  6
CONTINUOUS
 10
308.6211892489
 20
51.4612169223
 11
316.7526095778
 21
51.4612169223
  0
LINE
  5
440
100
AcDbEntity
  8
606446769-000-00-ED1_FORMAT
100
AcDbLine
 62
2
  6
CONTINUOUS
 10
318.3914567032
 20
51.4612169223
 11
318.7745197639
 21
51.4612169223
  0
LINE
  5
441
100
AcDbEntity
  8
606446769-000-00-ED1_FORMAT
100
AcDbLine
 62
2
  6
CONTINUOUS
 10
320.1383810082
 20
51.4612169223
 11
320.5409560601
 21
51.4612169223
  0
LINE
  5
442
100
AcDbEntity
  8
606446769-000-00-ED1_FORMAT
100
AcDbLine
 62
2
  6
CONTINUOUS
 10
305.0850031937
 20
51.5612169223
 11
305.4976754456
 21
51.5612169223
  0
LINE
  5
443
100
AcDbEntity
  8
606446769-000-00-ED1_FORMAT
100
AcDbLine
 62
2
  6
CONTINUOUS
 10
306.5876624558
 20
51.5612169223
 11
306.72608996
 21
51.5612169223
  0
LINE
  5
444
100
AcDbEntity
  8
606446769-000-00-ED1_FORMAT
100
AcDbLine
 62
2
  6
CONTINUOUS
 10
308.4224591907
 20
51.5612169223
 11
316.9586995833
 21
51.5612169223
  0
LINE
  5
445
100
AcDbEntity
  8
606446769-000-00-ED1_FORMAT
100
AcDbLine
 62
2
  6
CONTINUOUS
 10
318.2010682149
 20
51.5612169223
 11
318.5824425474
 21
51.5612169223
  0
LINE
  5
446
100
AcDbEntity
  8
606446769-000-00-ED1_FORMAT
100
AcDbLine
 62
2
  6
CONTINUOUS
 10
320.1383810082
 20
51.5612169223
 11
320.5409560601
 21
51.5612169223
  0
LINE
  5
447
100
AcDbEntity
  8
606446769-000-00-ED1_FORMAT
100
AcDbLine
 62
2
  6
CONTINUOUS
 10
305.0850031937
 20
51.6612169223
 11
305.4976754456
 21
51.6612169223
  0
LINE
  5
448
100
AcDbEntity
  8
606446769-000-00-ED1_FORMAT
100
AcDbLine
 62
2
  6
CONTINUOUS
 10
306.5876624558
 20
51.6612169223
 11
306.7259551609
 21
51.6612169223
  0
LINE
  5
449
100
AcDbEntity
  8
606446769-000-00-ED1_FORMAT
100
AcDbLine
 62
2
  6
CONTINUOUS
 10
308.2237291324
 20
51.6612169223
 11
317.1647895889
 21
51.6612169223
  0
LINE
  5
44A
100
AcDbEntity
  8
606446769-000-00-ED1_FORMAT
100
AcDbLine
 62
2
  6
CONTINUOUS
 10
318.0106797267
 20
51.6612169223
 11
318.390365331
 21
51.6612169223
  0
LINE
  5
44B
100
AcDbEntity
  8
606446769-000-00-ED1_FORMAT
100
AcDbLine
 62
2
  6
CONTINUOUS
 10
320.1383810082
 20
51.6612169223
 11
320.5409560601
 21
51.6612169223
  0
LINE
  5
44C
100
AcDbEntity
  8
606446769-000-00-ED1_FORMAT
100
AcDbLine
 62
2
  6
CONTINUOUS
 10
305.0850031937
 20
51.7612169223
 11
305.4976754456
 21
51.7612169223
  0
LINE
  5
44D
100
AcDbEntity
  8
606446769-000-00-ED1_FORMAT
100
AcDbLine
 62
2
  6
CONTINUOUS
 10
306.5876624558
 20
51.7612169223
 11
306.7258203617
 21
51.7612169223
  0
LINE
  5
44E
100
AcDbEntity
  8
606446769-000-00-ED1_FORMAT
100
AcDbLine
 62
2
  6
CONTINUOUS
 10
308.0249990741
 20
51.7612169223
 11
317.3708795944
 21
51.7612169223
  0
LINE
  5
44F
100
AcDbEntity
  8
606446769-000-00-ED1_FORMAT
100
AcDbLine
 62
2
  6
CONTINUOUS
 10
317.9768299493
 20
51.7612169223
 11
318.1982881145
 21
51.7612169223
  0
LINE
  5
450
100
AcDbEntity
  8
606446769-000-00-ED1_FORMAT
100
AcDbLine
 62
2
  6
CONTINUOUS
 10
320.1383810082
 20
51.7612169223
 11
320.5409560601
 21
51.7612169223
  0
LINE
  5
451
100
AcDbEntity
  8
606446769-000-00-ED1_FORMAT
100
AcDbLine
 62
2
  6
CONTINUOUS
 10
305.0850031937
 20
51.8612169223
 11
305.4976754456
 21
51.8612169223
  0
LINE
  5
452
100
AcDbEntity
  8
606446769-000-00-ED1_FORMAT
100
AcDbLine
 62
2
  6
CONTINUOUS
 10
306.5876624558
 20
51.8612169223
 11
306.7256855626
 21
51.8612169223
  0
LINE
  5
453
100
AcDbEntity
  8
606446769-000-00-ED1_FORMAT
100
AcDbLine
 62
2
  6
CONTINUOUS
 10
307.8262690158
 20
51.8612169223
 11
317.5769695999
 21
51.8612169223
  0
LINE
  5
454
100
AcDbEntity
  8
606446769-000-00-ED1_FORMAT
100
AcDbLine
 62
2
  6
CONTINUOUS
 10
317.9768299493
 20
51.8612169223
 11
318.1654360589
 21
51.8612169223
  0
LINE
  5
455
100
AcDbEntity
  8
606446769-000-00-ED1_FORMAT
100
AcDbLine
 62
2
  6
CONTINUOUS
 10
320.1383810082
 20
51.8612169223
 11
320.5409560601
 21
51.8612169223
  0
LINE
  5
456
100
AcDbEntity
  8
606446769-000-00-ED1_FORMAT
100
AcDbLine
 62
2
  6
CONTINUOUS
 10
305.0850031937
 20
51.9612169223
 11
305.4976754456
 21
51.9612169223
  0
LINE
  5
457
100
AcDbEntity
  8
606446769-000-00-ED1_FORMAT
100
AcDbLine
 62
2
  6
CONTINUOUS
 10
306.5876624558
 20
51.9612169223
 11
306.7255507634
 21
51.9612169223
  0
LINE
  5
458
100
AcDbEntity
  8
606446769-000-00-ED1_FORMAT
100
AcDbLine
 62
2
  6
CONTINUOUS
 10
307.6275389575
 20
51.9612169223
 11
317.4415652387
 21
51.9612169223
  0
LINE
  5
459
100
AcDbEntity
  8
606446769-000-00-ED1_FORMAT
100
AcDbLine
 62
2
  6
CONTINUOUS
 10
317.6038131628
 20
51.9612169223
 11
317.7830596054
 21
51.9612169223
  0
LINE
  5
45A
100
AcDbEntity
  8
606446769-000-00-ED1_FORMAT
100
AcDbLine
 62
2
  6
CONTINUOUS
 10
317.9768299493
 20
51.9612169223
 11
318.1654360589
 21
51.9612169223
  0
LINE
  5
45B
100
AcDbEntity
  8
606446769-000-00-ED1_FORMAT
100
AcDbLine
 62
2
  6
CONTINUOUS
 10
320.1117998511
 20
51.9612169223
 11
320.5409560601
 21
51.9612169223
  0
LINE
  5
45C
100
AcDbEntity
  8
606446769-000-00-ED1_FORMAT
100
AcDbLine
 62
2
  6
CONTINUOUS
 10
305.0850031937
 20
52.0612169223
 11
305.4976754456
 21
52.0612169223
  0
LINE
  5
45D
100
AcDbEntity
  8
606446769-000-00-ED1_FORMAT
100
AcDbLine
 62
2
  6
CONTINUOUS
 10
306.5876624558
 20
52.0612169223
 11
306.7254159642
 21
52.0612169223
  0
LINE
  5
45E
100
AcDbEntity
  8
606446769-000-00-ED1_FORMAT
100
AcDbLine
 62
2
  6
CONTINUOUS
 10
307.4288088992
 20
52.0612169223
 11
308.1737564759
 21
52.0612169223
  0
LINE
  5
45F
100
AcDbEntity
  8
606446769-000-00-ED1_FORMAT
100
AcDbLine
 62
2
  6
CONTINUOUS
 10
308.326562177
 20
52.0612169223
 11
316.9400481234
 21
52.0612169223
  0
LINE
  5
460
100
AcDbEntity
  8
606446769-000-00-ED1_FORMAT
100
AcDbLine
 62
2
  6
CONTINUOUS
 10
317.5858212353
 20
52.0612169223
 11
318.1654360589
 21
52.0612169223
  0
LINE
  5
461
100
AcDbEntity
  8
606446769-000-00-ED1_FORMAT
100
AcDbLine
 62
2
  6
CONTINUOUS
 10
319.8719349704
 20
52.0612169223
 11
320.5409560601
 21
52.0612169223
  0
LINE
  5
462
100
AcDbEntity
  8
606446769-000-00-ED1_FORMAT
100
AcDbLine
 62
2
  6
CONTINUOUS
 10
305.0850031937
 20
52.1612169223
 11
305.4976754456
 21
52.1612169223
  0
LINE
  5
463
100
AcDbEntity
  8
606446769-000-00-ED1_FORMAT
100
AcDbLine
 62
2
  6
CONTINUOUS
 10
306.5876624558
 20
52.1612169223
 11
306.7252811651
 21
52.1612169223
  0
LINE
  5
464
100
AcDbEntity
  8
606446769-000-00-ED1_FORMAT
100
AcDbLine
 62
2
  6
CONTINUOUS
 10
307.2343142672
 20
52.1612169223
 11
307.3763373641
 21
52.1612169223
  0
LINE
  5
465
100
AcDbEntity
  8
606446769-000-00-ED1_FORMAT
100
AcDbLine
 62
2
  6
CONTINUOUS
 10
307.4487604473
 20
52.1612169223
 11
308.1737564759
 21
52.1612169223
  0
LINE
  5
466
100
AcDbEntity
  8
606446769-000-00-ED1_FORMAT
100
AcDbLine
 62
2
  6
CONTINUOUS
 10
308.7697562103
 20
52.1612169223
 11
316.510623604
 21
52.1612169223
  0
LINE
  5
467
100
AcDbEntity
  8
606446769-000-00-ED1_FORMAT
100
AcDbLine
 62
2
  6
CONTINUOUS
 10
317.5678293079
 20
52.1612169223
 11
318.1654360589
 21
52.1612169223
  0
LINE
  5
468
100
AcDbEntity
  8
606446769-000-00-ED1_FORMAT
100
AcDbLine
 62
2
  6
CONTINUOUS
 10
319.6320700897
 20
52.1612169223
 11
320.2983439148
 21
52.1612169223
  0
LINE
  5
469
100
AcDbEntity
  8
606446769-000-00-ED1_FORMAT
100
AcDbLine
 62
2
  6
CONTINUOUS
 10
305.0850031937
 20
52.2612169223
 11
305.4976754456
 21
52.2612169223
  0
LINE
  5
46A
100
AcDbEntity
  8
606446769-000-00-ED1_FORMAT
100
AcDbLine
 62
2
  6
CONTINUOUS
 10
306.5876624558
 20
52.2612169223
 11
306.7251463659
 21
52.2612169223
  0
LINE
  5
46B
100
AcDbEntity
  8
606446769-000-00-ED1_FORMAT
100
AcDbLine
 62
2
  6
CONTINUOUS
 10
307.0339179266
 20
52.2612169223
 11
307.3358574011
 21
52.2612169223
  0
LINE
  5
46C
100
AcDbEntity
  8
606446769-000-00-ED1_FORMAT
100
AcDbLine
 62
2
  6
CONTINUOUS
 10
307.4899857745
 20
52.2612169223
 11
308.1737564759
 21
52.2612169223
  0
LINE
  5
46D
100
AcDbEntity
  8
606446769-000-00-ED1_FORMAT
100
AcDbLine
 62
2
  6
CONTINUOUS
 10
309.1516114228
 20
52.2612169223
 11
316.5030757086
 21
52.2612169223
  0
LINE
  5
46E
100
AcDbEntity
  8
606446769-000-00-ED1_FORMAT
100
AcDbLine
 62
2
  6
CONTINUOUS
 10
317.5498373805
 20
52.2612169223
 11
318.1654360589
 21
52.2612169223
  0
LINE
  5
46F
100
AcDbEntity
  8
606446769-000-00-ED1_FORMAT
100
AcDbLine
 62
2
  6
CONTINUOUS
 10
319.392205209
 20
52.2612169223
 11
320.0495911282
 21
52.2612169223
  0
LINE
  5
470
100
AcDbEntity
  8
606446769-000-00-ED1_FORMAT
100
AcDbLine
 62
2
  6
CONTINUOUS
 10
305.0850031937
 20
52.3612169223
 11
305.4976754456
 21
52.3612169223
  0
LINE
  5
471
100
AcDbEntity
  8
606446769-000-00-ED1_FORMAT
100
AcDbLine
 62
2
  6
CONTINUOUS
 10
306.5876624558
 20
52.3612169223
 11
306.7250115668
 21
52.3612169223
  0
LINE
  5
472
100
AcDbEntity
  8
606446769-000-00-ED1_FORMAT
100
AcDbLine
 62
2
  6
CONTINUOUS
 10
306.833521586
 20
52.3612169223
 11
307.2953774381
 21
52.3612169223
  0
LINE
  5
473
100
AcDbEntity
  8
606446769-000-00-ED1_FORMAT
100
AcDbLine
 62
2
  6
CONTINUOUS
 10
307.5312111018
 20
52.3612169223
 11
308.1737564759
 21
52.3612169223
  0
LINE
  5
474
100
AcDbEntity
  8
606446769-000-00-ED1_FORMAT
100
AcDbLine
 62
2
  6
CONTINUOUS
 10
309.1516114228
 20
52.3612169223
 11
309.4866702568
 21
52.3612169223
  0
LINE
  5
475
100
AcDbEntity
  8
606446769-000-00-ED1_FORMAT
100
AcDbLine
 62
2
  6
CONTINUOUS
 10
309.7733400551
 20
52.3612169223
 11
315.1266453693
 21
52.3612169223
  0
LINE
  5
476
100
AcDbEntity
  8
606446769-000-00-ED1_FORMAT
100
AcDbLine
 62
2
  6
CONTINUOUS
 10
315.8559823799
 20
52.3612169223
 11
316.4955278133
 21
52.3612169223
  0
LINE
  5
477
100
AcDbEntity
  8
606446769-000-00-ED1_FORMAT
100
AcDbLine
 62
2
  6
CONTINUOUS
 10
317.5318454531
 20
52.3612169223
 11
318.1654360589
 21
52.3612169223
  0
LINE
  5
478
100
AcDbEntity
  8
606446769-000-00-ED1_FORMAT
100
AcDbLine
 62
2
  6
CONTINUOUS
 10
319.2068127099
 20
52.3612169223
 11
319.8008383416
 21
52.3612169223
  0
LINE
  5
479
100
AcDbEntity
  8
606446769-000-00-ED1_FORMAT
100
AcDbLine
 62
2
  6
CONTINUOUS
 10
305.0850031937
 20
52.4612169223
 11
305.4976754456
 21
52.4612169223
  0
LINE
  5
47A
100
AcDbEntity
  8
606446769-000-00-ED1_FORMAT
100
AcDbLine
 62
2
  6
CONTINUOUS
 10
306.5876624558
 20
52.4612169223
 11
307.2548974752
 21
52.4612169223
  0
LINE
  5
47B
100
AcDbEntity
  8
606446769-000-00-ED1_FORMAT
100
AcDbLine
 62
2
  6
CONTINUOUS
 10
307.5724364291
 20
52.4612169223
 11
308.1737564759
 21
52.4612169223
  0
LINE
  5
47C
100
AcDbEntity
  8
606446769-000-00-ED1_FORMAT
100
AcDbLine
 62
2
  6
CONTINUOUS
 10
309.1516114228
 20
52.4612169223
 11
309.5134919565
 21
52.4612169223
  0
LINE
  5
47D
100
AcDbEntity
  8
606446769-000-00-ED1_FORMAT
100
AcDbLine
 62
2
  6
CONTINUOUS
 10
310.5298759797
 20
52.4612169223
 11
314.8545938863
 21
52.4612169223
  0
LINE
  5
47E
100
AcDbEntity
  8
606446769-000-00-ED1_FORMAT
100
AcDbLine
 62
2
  6
CONTINUOUS
 10
315.8741814988
 20
52.4612169223
 11
316.487979918
 21
52.4612169223
  0
LINE
  5
47F
100
AcDbEntity
  8
606446769-000-00-ED1_FORMAT
100
AcDbLine
 62
2
  6
CONTINUOUS
 10
317.5138535256
 20
52.4612169223
 11
318.1654360589
 21
52.4612169223
  0
LINE
  5
480
100
AcDbEntity
  8
606446769-000-00-ED1_FORMAT
100
AcDbLine
 62
2
  6
CONTINUOUS
 10
319.2068127099
 20
52.4612169223
 11
319.559328991
 21
52.4612169223
  0
LINE
  5
481
100
AcDbEntity
  8
606446769-000-00-ED1_FORMAT
100
AcDbLine
 62
2
  6
CONTINUOUS
 10
305.0850031937
 20
52.5612169223
 11
305.4976754456
 21
52.5612169223
  0
LINE
  5
482
100
AcDbEntity
  8
606446769-000-00-ED1_FORMAT
100
AcDbLine
 62
2
  6
CONTINUOUS
 10
306.5876624558
 20
52.5612169223
 11
307.2144175122
 21
52.5612169223
  0
LINE
  5
483
100
AcDbEntity
  8
606446769-000-00-ED1_FORMAT
100
AcDbLine
 62
2
  6
CONTINUOUS
 10
307.6136617564
 20
52.5612169223
 11
308.1737564759
 21
52.5612169223
  0
LINE
  5
484
100
AcDbEntity
  8
606446769-000-00-ED1_FORMAT
100
AcDbLine
 62
2
  6
CONTINUOUS
 10
309.1516114228
 20
52.5612169223
 11
309.5403136563
 21
52.5612169223
  0
LINE
  5
485
100
AcDbEntity
  8
606446769-000-00-ED1_FORMAT
100
AcDbLine
 62
2
  6
CONTINUOUS
 10
310.5516753979
 20
52.5612169223
 11
311.515468729
 21
52.5612169223
  0
LINE
  5
486
100
AcDbEntity
  8
606446769-000-00-ED1_FORMAT
100
AcDbLine
 62
2
  6
CONTINUOUS
 10
312.3546934437
 20
52.5612169223
 11
312.7687535783
 21
52.5612169223
  0
LINE
  5
487
100
AcDbEntity
  8
606446769-000-00-ED1_FORMAT
100
AcDbLine
 62
2
  6
CONTINUOUS
 10
313.6490428391
 20
52.5612169223
 11
314.8766440871
 21
52.5612169223
  0
LINE
  5
488
100
AcDbEntity
  8
606446769-000-00-ED1_FORMAT
100
AcDbLine
 62
2
  6
CONTINUOUS
 10
315.8923806178
 20
52.5612169223
 11
316.4804320227
 21
52.5612169223
  0
LINE
  5
489
100
AcDbEntity
  8
606446769-000-00-ED1_FORMAT
100
AcDbLine
 62
2
  6
CONTINUOUS
 10
317.4958615982
 20
52.5612169223
 11
318.1654360589
 21
52.5612169223
  0
LINE
  5
48A
100
AcDbEntity
  8
606446769-000-00-ED1_FORMAT
100
AcDbLine
 62
2
  6
CONTINUOUS
 10
319.2068127099
 20
52.5612169223
 11
319.559328991
 21
52.5612169223
  0
LINE
  5
48B
100
AcDbEntity
  8
606446769-000-00-ED1_FORMAT
100
AcDbLine
 62
2
  6
CONTINUOUS
 10
312.3943235597
 20
52.5618121345
 11
312.5391021943
 21
52.5618121345
  0
LINE
  5
48C
100
AcDbEntity
  8
606446769-000-00-ED1_FORMAT
100
AcDbLine
 62
2
  6
CONTINUOUS
 10
305.0850031937
 20
52.6612169223
 11
305.4976754456
 21
52.6612169223
  0
LINE
  5
48D
100
AcDbEntity
  8
606446769-000-00-ED1_FORMAT
100
AcDbLine
 62
2
  6
CONTINUOUS
 10
306.5876624558
 20
52.6612169223
 11
307.1739375492
 21
52.6612169223
  0
LINE
  5
48E
100
AcDbEntity
  8
606446769-000-00-ED1_FORMAT
100
AcDbLine
 62
2
  6
CONTINUOUS
 10
307.6548870837
 20
52.6612169223
 11
308.1737564759
 21
52.6612169223
  0
LINE
  5
48F
100
AcDbEntity
  8
606446769-000-00-ED1_FORMAT
100
AcDbLine
 62
2
  6
CONTINUOUS
 10
309.1516114228
 20
52.6612169223
 11
309.567135356
 21
52.6612169223
  0
LINE
  5
490
100
AcDbEntity
  8
606446769-000-00-ED1_FORMAT
100
AcDbLine
 62
2
  6
CONTINUOUS
 10
310.5734748161
 20
52.6612169223
 11
311.4943348842
 21
52.6612169223
  0
LINE
  5
491
100
AcDbEntity
  8
606446769-000-00-ED1_FORMAT
100
AcDbLine
 62
2
  6
CONTINUOUS
 10
312.514745064
 20
52.6612169223
 11
312.7687535783
 21
52.6612169223
  0
LINE
  5
492
100
AcDbEntity
  8
606446769-000-00-ED1_FORMAT
100
AcDbLine
 62
2
  6
CONTINUOUS
 10
313.6488696546
 20
52.6612169223
 11
314.8986942879
 21
52.6612169223
  0
LINE
  5
493
100
AcDbEntity
  8
606446769-000-00-ED1_FORMAT
100
AcDbLine
 62
2
  6
CONTINUOUS
 10
315.9105797367
 20
52.6612169223
 11
316.0647338538
 21
52.6612169223
  0
LINE
  5
494
100
AcDbEntity
  8
606446769-000-00-ED1_FORMAT
100
AcDbLine
 62
2
  6
CONTINUOUS
 10
317.4778696708
 20
52.6612169223
 11
318.1654360589
 21
52.6612169223
  0
LINE
  5
495
100
AcDbEntity
  8
606446769-000-00-ED1_FORMAT
100
AcDbLine
 62
2
  6
CONTINUOUS
 10
319.2068127099
 20
52.6612169223
 11
319.559328991
 21
52.6612169223
  0
LINE
  5
496
100
AcDbEntity
  8
606446769-000-00-ED1_FORMAT
100
AcDbLine
 62
2
  6
CONTINUOUS
 10
305.0850031937
 20
52.7612169223
 11
305.4976754456
 21
52.7612169223
  0
LINE
  5
497
100
AcDbEntity
  8
606446769-000-00-ED1_FORMAT
100
AcDbLine
 62
2
  6
CONTINUOUS
 10
306.5876624558
 20
52.7612169223
 11
307.1334575862
 21
52.7612169223
  0
LINE
  5
498
100
AcDbEntity
  8
606446769-000-00-ED1_FORMAT
100
AcDbLine
 62
2
  6
CONTINUOUS
 10
307.696112411
 20
52.7612169223
 11
308.1737564759
 21
52.7612169223
  0
LINE
  5
499
100
AcDbEntity
  8
606446769-000-00-ED1_FORMAT
100
AcDbLine
 62
2
  6
CONTINUOUS
 10
309.1516114228
 20
52.7612169223
 11
309.5939570558
 21
52.7612169223
  0
LINE
  5
49A
100
AcDbEntity
  8
606446769-000-00-ED1_FORMAT
100
AcDbLine
 62
2
  6
CONTINUOUS
 10
310.5952742343
 20
52.7612169223
 11
311.4732010394
 21
52.7612169223
  0
LINE
  5
49B
100
AcDbEntity
  8
606446769-000-00-ED1_FORMAT
100
AcDbLine
 62
2
  6
CONTINUOUS
 10
312.490242089
 20
52.7612169223
 11
312.7687535783
 21
52.7612169223
  0
LINE
  5
49C
100
AcDbEntity
  8
606446769-000-00-ED1_FORMAT
100
AcDbLine
 62
2
  6
CONTINUOUS
 10
313.6486964701
 20
52.7612169223
 11
314.9207444887
 21
52.7612169223
  0
LINE
  5
49D
100
AcDbEntity
  8
606446769-000-00-ED1_FORMAT
100
AcDbLine
 62
2
  6
CONTINUOUS
 10
317.4598777433
 20
52.7612169223
 11
318.1654360589
 21
52.7612169223
  0
LINE
  5
49E
100
AcDbEntity
  8
606446769-000-00-ED1_FORMAT
100
AcDbLine
 62
2
  6
CONTINUOUS
 10
319.2068127099
 20
52.7612169223
 11
319.559328991
 21
52.7612169223
  0
LINE
  5
49F
100
AcDbEntity
  8
606446769-000-00-ED1_FORMAT
100
AcDbLine
 62
2
  6
CONTINUOUS
 10
305.0850031937
 20
52.8612169223
 11
305.4976754456
 21
52.8612169223
  0
LINE
  5
4A0
100
AcDbEntity
  8
606446769-000-00-ED1_FORMAT
100
AcDbLine
 62
2
  6
CONTINUOUS
 10
306.5876624558
 20
52.8612169223
 11
307.0929776233
 21
52.8612169223
  0
LINE
  5
4A1
100
AcDbEntity
  8
606446769-000-00-ED1_FORMAT
100
AcDbLine
 62
2
  6
CONTINUOUS
 10
307.7373377383
 20
52.8612169223
 11
308.1737564759
 21
52.8612169223
  0
LINE
  5
4A2
100
AcDbEntity
  8
606446769-000-00-ED1_FORMAT
100
AcDbLine
 62
2
  6
CONTINUOUS
 10
309.1516114228
 20
52.8612169223
 11
309.6207787556
 21
52.8612169223
  0
LINE
  5
4A3
100
AcDbEntity
  8
606446769-000-00-ED1_FORMAT
100
AcDbLine
 62
2
  6
CONTINUOUS
 10
310.6170736525
 20
52.8612169223
 11
311.4520671946
 21
52.8612169223
  0
LINE
  5
4A4
100
AcDbEntity
  8
606446769-000-00-ED1_FORMAT
100
AcDbLine
 62
2
  6
CONTINUOUS
 10
312.465739114
 20
52.8612169223
 11
312.7687535783
 21
52.8612169223
  0
LINE
  5
4A5
100
AcDbEntity
  8
606446769-000-00-ED1_FORMAT
100
AcDbLine
 62
2
  6
CONTINUOUS
 10
313.6485232857
 20
52.8612169223
 11
314.9427946895
 21
52.8612169223
  0
LINE
  5
4A6
100
AcDbEntity
  8
606446769-000-00-ED1_FORMAT
100
AcDbLine
 62
2
  6
CONTINUOUS
 10
317.4418858159
 20
52.8612169223
 11
318.1654360589
 21
52.8612169223
  0
LINE
  5
4A7
100
AcDbEntity
  8
606446769-000-00-ED1_FORMAT
100
AcDbLine
 62
2
  6
CONTINUOUS
 10
319.2068127099
 20
52.8612169223
 11
319.6369745096
 21
52.8612169223
  0
LINE
  5
4A8
100
AcDbEntity
  8
606446769-000-00-ED1_FORMAT
100
AcDbLine
 62
7
  6
CONTINUOUS
 10
410.0
 20
52.9546823745
 11
365.999998592
 21
52.9546823745
  0
LINE
  5
4A9
100
AcDbEntity
  8
606446769-000-00-ED1_FORMAT
100
AcDbLine
 62
2
  6
CONTINUOUS
 10
305.0850031937
 20
52.9612169223
 11
305.4976754456
 21
52.9612169223
  0
LINE
  5
4AA
100
AcDbEntity
  8
606446769-000-00-ED1_FORMAT
100
AcDbLine
 62
2
  6
CONTINUOUS
 10
306.5876624558
 20
52.9612169223
 11
307.0524976603
 21
52.9612169223
  0
LINE
  5
4AB
100
AcDbEntity
  8
606446769-000-00-ED1_FORMAT
100
AcDbLine
 62
2
  6
CONTINUOUS
 10
307.7785630656
 20
52.9612169223
 11
308.1737564759
 21
52.9612169223
  0
LINE
  5
4AC
100
AcDbEntity
  8
606446769-000-00-ED1_FORMAT
100
AcDbLine
 62
2
  6
CONTINUOUS
 10
309.1516114228
 20
52.9612169223
 11
309.6476004553
 21
52.9612169223
  0
LINE
  5
4AD
100
AcDbEntity
  8
606446769-000-00-ED1_FORMAT
100
AcDbLine
 62
2
  6
CONTINUOUS
 10
310.6388730707
 20
52.9612169223
 11
311.4309333498
 21
52.9612169223
  0
LINE
  5
4AE
100
AcDbEntity
  8
606446769-000-00-ED1_FORMAT
100
AcDbLine
 62
2
  6
CONTINUOUS
 10
312.441236139
 20
52.9612169223
 11
312.7687535783
 21
52.9612169223
  0
LINE
  5
4AF
100
AcDbEntity
  8
606446769-000-00-ED1_FORMAT
100
AcDbLine
 62
2
  6
CONTINUOUS
 10
313.6483501012
 20
52.9612169223
 11
314.9648448903
 21
52.9612169223
  0
LINE
  5
4B0
100
AcDbEntity
  8
606446769-000-00-ED1_FORMAT
100
AcDbLine
 62
2
  6
CONTINUOUS
 10
317.4238938885
 20
52.9612169223
 11
318.1654360589
 21
52.9612169223
  0
LINE
  5
4B1
100
AcDbEntity
  8
606446769-000-00-ED1_FORMAT
100
AcDbLine
 62
2
  6
CONTINUOUS
 10
319.2068127099
 20
52.9612169223
 11
319.8430403031
 21
52.9612169223
  0
LINE
  5
4B2
100
AcDbEntity
  8
606446769-000-00-ED1_FORMAT
100
AcDbLine
 62
2
  6
CONTINUOUS
 10
305.0850031937
 20
53.0612169223
 11
305.4976754456
 21
53.0612169223
  0
LINE
  5
4B3
100
AcDbEntity
  8
606446769-000-00-ED1_FORMAT
100
AcDbLine
 62
2
  6
CONTINUOUS
 10
306.5876624558
 20
53.0612169223
 11
307.0120176973
 21
53.0612169223
  0
LINE
  5
4B4
100
AcDbEntity
  8
606446769-000-00-ED1_FORMAT
100
AcDbLine
 62
2
  6
CONTINUOUS
 10
307.8197883929
 20
53.0612169223
 11
308.1737564759
 21
53.0612169223
  0
LINE
  5
4B5
100
AcDbEntity
  8
606446769-000-00-ED1_FORMAT
100
AcDbLine
 62
2
  6
CONTINUOUS
 10
309.1516114228
 20
53.0612169223
 11
309.6744221551
 21
53.0612169223
  0
LINE
  5
4B6
100
AcDbEntity
  8
606446769-000-00-ED1_FORMAT
100
AcDbLine
 62
2
  6
CONTINUOUS
 10
310.6606724889
 20
53.0612169223
 11
311.409799505
 21
53.0612169223
  0
LINE
  5
4B7
100
AcDbEntity
  8
606446769-000-00-ED1_FORMAT
100
AcDbLine
 62
2
  6
CONTINUOUS
 10
312.416733164
 20
53.0612169223
 11
312.7687535783
 21
53.0612169223
  0
LINE
  5
4B8
100
AcDbEntity
  8
606446769-000-00-ED1_FORMAT
100
AcDbLine
 62
2
  6
CONTINUOUS
 10
313.6481769167
 20
53.0612169223
 11
314.9868950911
 21
53.0612169223
  0
LINE
  5
4B9
100
AcDbEntity
  8
606446769-000-00-ED1_FORMAT
100
AcDbLine
 62
2
  6
CONTINUOUS
 10
317.405901961
 20
53.0612169223
 11
318.1654360589
 21
53.0612169223
  0
LINE
  5
4BA
100
AcDbEntity
  8
606446769-000-00-ED1_FORMAT
100
AcDbLine
 62
2
  6
CONTINUOUS
 10
319.2068127099
 20
53.0612169223
 11
320.0491060967
 21
53.0612169223
  0
LINE
  5
4BB
100
AcDbEntity
  8
606446769-000-00-ED1_FORMAT
100
AcDbLine
 62
2
  6
CONTINUOUS
 10
305.0850031937
 20
53.1612169223
 11
305.4976754456
 21
53.1612169223
  0
LINE
  5
4BC
100
AcDbEntity
  8
606446769-000-00-ED1_FORMAT
100
AcDbLine
 62
2
  6
CONTINUOUS
 10
306.5876624558
 20
53.1612169223
 11
306.9715377343
 21
53.1612169223
  0
LINE
  5
4BD
100
AcDbEntity
  8
606446769-000-00-ED1_FORMAT
100
AcDbLine
 62
2
  6
CONTINUOUS
 10
307.8610137202
 20
53.1612169223
 11
308.1737564759
 21
53.1612169223
  0
LINE
  5
4BE
100
AcDbEntity
  8
606446769-000-00-ED1_FORMAT
100
AcDbLine
 62
2
  6
CONTINUOUS
 10
309.1516114228
 20
53.1612169223
 11
309.7012438548
 21
53.1612169223
  0
LINE
  5
4BF
100
AcDbEntity
  8
606446769-000-00-ED1_FORMAT
100
AcDbLine
 62
2
  6
CONTINUOUS
 10
310.7347689956
 20
53.1612169223
 11
311.3886656602
 21
53.1612169223
  0
LINE
  5
4C0
100
AcDbEntity
  8
606446769-000-00-ED1_FORMAT
100
AcDbLine
 62
2
  6
CONTINUOUS
 10
312.3922301889
 20
53.1612169223
 11
312.7687535783
 21
53.1612169223
  0
LINE
  5
4C1
100
AcDbEntity
  8
606446769-000-00-ED1_FORMAT
100
AcDbLine
 62
2
  6
CONTINUOUS
 10
313.6480037323
 20
53.1612169223
 11
315.0089452919
 21
53.1612169223
  0
LINE
  5
4C2
100
AcDbEntity
  8
606446769-000-00-ED1_FORMAT
100
AcDbLine
 62
2
  6
CONTINUOUS
 10
317.3879100336
 20
53.1612169223
 11
318.1654360589
 21
53.1612169223
  0
LINE
  5
4C3
100
AcDbEntity
  8
606446769-000-00-ED1_FORMAT
100
AcDbLine
 62
2
  6
CONTINUOUS
 10
319.2068127099
 20
53.1612169223
 11
320.2551718903
 21
53.1612169223
  0
LINE
  5
4C4
100
AcDbEntity
  8
606446769-000-00-ED1_FORMAT
100
AcDbLine
 62
2
  6
CONTINUOUS
 10
305.0440585598
 20
53.2612169223
 11
305.4976754456
 21
53.2612169223
  0
LINE
  5
4C5
100
AcDbEntity
  8
606446769-000-00-ED1_FORMAT
100
AcDbLine
 62
2
  6
CONTINUOUS
 10
306.5876624558
 20
53.2612169223
 11
306.9310577713
 21
53.2612169223
  0
LINE
  5
4C6
100
AcDbEntity
  8
606446769-000-00-ED1_FORMAT
100
AcDbLine
 62
2
  6
CONTINUOUS
 10
307.9022390474
 20
53.2612169223
 11
308.1737564759
 21
53.2612169223
  0
LINE
  5
4C7
100
AcDbEntity
  8
606446769-000-00-ED1_FORMAT
100
AcDbLine
 62
2
  6
CONTINUOUS
 10
309.1516114228
 20
53.2612169223
 11
309.7280655546
 21
53.2612169223
  0
LINE
  5
4C8
100
AcDbEntity
  8
606446769-000-00-ED1_FORMAT
100
AcDbLine
 62
2
  6
CONTINUOUS
 10
312.3677272139
 20
53.2612169223
 11
312.7687535783
 21
53.2612169223
  0
LINE
  5
4C9
100
AcDbEntity
  8
606446769-000-00-ED1_FORMAT
100
AcDbLine
 62
2
  6
CONTINUOUS
 10
313.8898374299
 20
53.2612169223
 11
315.0309954927
 21
53.2612169223
  0
LINE
  5
4CA
100
AcDbEntity
  8
606446769-000-00-ED1_FORMAT
100
AcDbLine
 62
2
  6
CONTINUOUS
 10
317.3699181062
 20
53.2612169223
 11
318.1654360589
 21
53.2612169223
  0
LINE
  5
4CB
100
AcDbEntity
  8
606446769-000-00-ED1_FORMAT
100
AcDbLine
 62
2
  6
CONTINUOUS
 10
319.2068127099
 20
53.2612169223
 11
320.4612376839
 21
53.2612169223
  0
LINE
  5
4CC
100
AcDbEntity
  8
606446769-000-00-ED1_FORMAT
100
AcDbLine
 62
2
  6
CONTINUOUS
 10
304.8453278365
 20
53.3612169223
 11
305.4976754456
 21
53.3612169223
  0
LINE
  5
4CD
100
AcDbEntity
  8
606446769-000-00-ED1_FORMAT
100
AcDbLine
 62
2
  6
CONTINUOUS
 10
306.5876624558
 20
53.3612169223
 11
306.8905778084
 21
53.3612169223
  0
LINE
  5
4CE
100
AcDbEntity
  8
606446769-000-00-ED1_FORMAT
100
AcDbLine
 62
2
  6
CONTINUOUS
 10
307.9434643747
 20
53.3612169223
 11
308.1737564759
 21
53.3612169223
  0
LINE
  5
4CF
100
AcDbEntity
  8
606446769-000-00-ED1_FORMAT
100
AcDbLine
 62
2
  6
CONTINUOUS
 10
309.1516114228
 20
53.3612169223
 11
309.7548872544
 21
53.3612169223
  0
LINE
  5
4D0
100
AcDbEntity
  8
606446769-000-00-ED1_FORMAT
100
AcDbLine
 62
2
  6
CONTINUOUS
 10
312.3432242389
 20
53.3612169223
 11
312.7687535783
 21
53.3612169223
  0
LINE
  5
4D1
100
AcDbEntity
  8
606446769-000-00-ED1_FORMAT
100
AcDbLine
 62
2
  6
CONTINUOUS
 10
314.3042703099
 20
53.3612169223
 11
315.0530456934
 21
53.3612169223
  0
LINE
  5
4D2
100
AcDbEntity
  8
606446769-000-00-ED1_FORMAT
100
AcDbLine
 62
2
  6
CONTINUOUS
 10
317.3519261787
 20
53.3612169223
 11
318.1654360589
 21
53.3612169223
  0
LINE
  5
4D3
100
AcDbEntity
  8
606446769-000-00-ED1_FORMAT
100
AcDbLine
 62
2
  6
CONTINUOUS
 10
319.2068127099
 20
53.3612169223
 11
320.6673034775
 21
53.3612169223
  0
LINE
  5
4D4
100
AcDbEntity
  8
606446769-000-00-ED1_FORMAT
100
AcDbLine
 62
2
  6
CONTINUOUS
 10
304.6465971132
 20
53.4612169223
 11
305.4976754456
 21
53.4612169223
  0
LINE
  5
4D5
100
AcDbEntity
  8
606446769-000-00-ED1_FORMAT
100
AcDbLine
 62
2
  6
CONTINUOUS
 10
306.5876624558
 20
53.4612169223
 11
306.8500978454
 21
53.4612169223
  0
LINE
  5
4D6
100
AcDbEntity
  8
606446769-000-00-ED1_FORMAT
100
AcDbLine
 62
2
  6
CONTINUOUS
 10
307.984689702
 20
53.4612169223
 11
308.1737564759
 21
53.4612169223
  0
LINE
  5
4D7
100
AcDbEntity
  8
606446769-000-00-ED1_FORMAT
100
AcDbLine
 62
2
  6
CONTINUOUS
 10
309.1516114228
 20
53.4612169223
 11
309.7817089541
 21
53.4612169223
  0
LINE
  5
4D8
100
AcDbEntity
  8
606446769-000-00-ED1_FORMAT
100
AcDbLine
 62
2
  6
CONTINUOUS
 10
312.3187212639
 20
53.4612169223
 11
312.7687535783
 21
53.4612169223
  0
LINE
  5
4D9
100
AcDbEntity
  8
606446769-000-00-ED1_FORMAT
100
AcDbLine
 62
2
  6
CONTINUOUS
 10
314.4961822423
 20
53.4612169223
 11
315.0750958942
 21
53.4612169223
  0
LINE
  5
4DA
100
AcDbEntity
  8
606446769-000-00-ED1_FORMAT
100
AcDbLine
 62
2
  6
CONTINUOUS
 10
317.3339342513
 20
53.4612169223
 11
318.1654360589
 21
53.4612169223
  0
LINE
  5
4DB
100
AcDbEntity
  8
606446769-000-00-ED1_FORMAT
100
AcDbLine
 62
2
  6
CONTINUOUS
 10
319.2068127099
 20
53.4612169223
 11
320.873369271
 21
53.4612169223
  0
LINE
  5
4DC
100
AcDbEntity
  8
606446769-000-00-ED1_FORMAT
100
AcDbLine
 62
2
  6
CONTINUOUS
 10
304.4478663899
 20
53.5612169223
 11
305.4976754456
 21
53.5612169223
  0
LINE
  5
4DD
100
AcDbEntity
  8
606446769-000-00-ED1_FORMAT
100
AcDbLine
 62
2
  6
CONTINUOUS
 10
306.5876624558
 20
53.5612169223
 11
306.8096178824
 21
53.5612169223
  0
LINE
  5
4DE
100
AcDbEntity
  8
606446769-000-00-ED1_FORMAT
100
AcDbLine
 62
2
  6
CONTINUOUS
 10
308.0259150293
 20
53.5612169223
 11
308.1737564759
 21
53.5612169223
  0
LINE
  5
4DF
100
AcDbEntity
  8
606446769-000-00-ED1_FORMAT
100
AcDbLine
 62
2
  6
CONTINUOUS
 10
309.1516114228
 20
53.5612169223
 11
309.8085306539
 21
53.5612169223
  0
LINE
  5
4E0
100
AcDbEntity
  8
606446769-000-00-ED1_FORMAT
100
AcDbLine
 62
2
  6
CONTINUOUS
 10
312.2942182889
 20
53.5612169223
 11
312.7687535783
 21
53.5612169223
  0
LINE
  5
4E1
100
AcDbEntity
  8
606446769-000-00-ED1_FORMAT
100
AcDbLine
 62
2
  6
CONTINUOUS
 10
314.6285894584
 20
53.5612169223
 11
315.097146095
 21
53.5612169223
  0
LINE
  5
4E2
100
AcDbEntity
  8
606446769-000-00-ED1_FORMAT
100
AcDbLine
 62
2
  6
CONTINUOUS
 10
317.3159423239
 20
53.5612169223
 11
318.1654360589
 21
53.5612169223
  0
LINE
  5
4E3
100
AcDbEntity
  8
606446769-000-00-ED1_FORMAT
100
AcDbLine
 62
2
  6
CONTINUOUS
 10
319.2068127099
 20
53.5612169223
 11
321.0794350646
 21
53.5612169223
  0
LINE
  5
4E4
100
AcDbEntity
  8
606446769-000-00-ED1_FORMAT
100
AcDbLine
 62
2
  6
CONTINUOUS
 10
304.2491356666
 20
53.6612169223
 11
305.4976754456
 21
53.6612169223
  0
LINE
  5
4E5
100
AcDbEntity
  8
606446769-000-00-ED1_FORMAT
100
AcDbLine
 62
2
  6
CONTINUOUS
 10
306.5876624558
 20
53.6612169223
 11
306.7691379194
 21
53.6612169223
  0
LINE
  5
4E6
100
AcDbEntity
  8
606446769-000-00-ED1_FORMAT
100
AcDbLine
 62
2
  6
CONTINUOUS
 10
308.0671403566
 20
53.6612169223
 11
308.1737564759
 21
53.6612169223
  0
LINE
  5
4E7
100
AcDbEntity
  8
606446769-000-00-ED1_FORMAT
100
AcDbLine
 62
2
  6
CONTINUOUS
 10
309.1516114228
 20
53.6612169223
 11
309.8353523536
 21
53.6612169223
  0
LINE
  5
4E8
100
AcDbEntity
  8
606446769-000-00-ED1_FORMAT
100
AcDbLine
 62
2
  6
CONTINUOUS
 10
312.2697153139
 20
53.6612169223
 11
312.7687535783
 21
53.6612169223
  0
LINE
  5
4E9
100
AcDbEntity
  8
606446769-000-00-ED1_FORMAT
100
AcDbLine
 62
2
  6
CONTINUOUS
 10
314.7313458744
 20
53.6612169223
 11
315.1191962958
 21
53.6612169223
  0
LINE
  5
4EA
100
AcDbEntity
  8
606446769-000-00-ED1_FORMAT
100
AcDbLine
 62
2
  6
CONTINUOUS
 10
316.0266224027
 20
53.6612169223
 11
316.4071912766
 21
53.6612169223
  0
LINE
  5
4EB
100
AcDbEntity
  8
606446769-000-00-ED1_FORMAT
100
AcDbLine
 62
2
  6
CONTINUOUS
 10
317.2979503964
 20
53.6612169223
 11
318.1654360589
 21
53.6612169223
  0
LINE
  5
4EC
100
AcDbEntity
  8
606446769-000-00-ED1_FORMAT
100
AcDbLine
 62
2
  6
CONTINUOUS
 10
319.2068127099
 20
53.6612169223
 11
321.2855008582
 21
53.6612169223
  0
LINE
  5
4ED
100
AcDbEntity
  8
606446769-000-00-ED1_FORMAT
100
AcDbLine
 62
2
  6
CONTINUOUS
 10
304.0504049433
 20
53.7612169223
 11
305.4976754456
 21
53.7612169223
  0
LINE
  5
4EE
100
AcDbEntity
  8
606446769-000-00-ED1_FORMAT
100
AcDbLine
 62
2
  6
CONTINUOUS
 10
306.5876624558
 20
53.7612169223
 11
306.7286579565
 21
53.7612169223
  0
LINE
  5
4EF
100
AcDbEntity
  8
606446769-000-00-ED1_FORMAT
100
AcDbLine
 62
2
  6
CONTINUOUS
 10
308.1083656839
 20
53.7612169223
 11
308.1737564759
 21
53.7612169223
  0
LINE
  5
4F0
100
AcDbEntity
  8
606446769-000-00-ED1_FORMAT
100
AcDbLine
 62
2
  6
CONTINUOUS
 10
309.1516114228
 20
53.7612169223
 11
309.8621740534
 21
53.7612169223
  0
LINE
  5
4F1
100
AcDbEntity
  8
606446769-000-00-ED1_FORMAT
100
AcDbLine
 62
2
  6
CONTINUOUS
 10
312.2452123389
 20
53.7612169223
 11
312.7687535783
 21
53.7612169223
  0
LINE
  5
4F2
100
AcDbEntity
  8
606446769-000-00-ED1_FORMAT
100
AcDbLine
 62
2
  6
CONTINUOUS
 10
314.8062069384
 20
53.7612169223
 11
315.1412464966
 21
53.7612169223
  0
LINE
  5
4F3
100
AcDbEntity
  8
606446769-000-00-ED1_FORMAT
100
AcDbLine
 62
2
  6
CONTINUOUS
 10
316.0181043406
 20
53.7612169223
 11
316.3923233886
 21
53.7612169223
  0
LINE
  5
4F4
100
AcDbEntity
  8
606446769-000-00-ED1_FORMAT
100
AcDbLine
 62
2
  6
CONTINUOUS
 10
317.279958469
 20
53.7612169223
 11
318.1654360589
 21
53.7612169223
  0
LINE
  5
4F5
100
AcDbEntity
  8
606446769-000-00-ED1_FORMAT
100
AcDbLine
 62
2
  6
CONTINUOUS
 10
319.2068127099
 20
53.7612169223
 11
321.4915666518
 21
53.7612169223
  0
LINE
  5
4F6
100
AcDbEntity
  8
606446769-000-00-ED1_FORMAT
100
AcDbLine
 62
2
  6
CONTINUOUS
 10
303.85167422
 20
53.8612169223
 11
305.4976754456
 21
53.8612169223
  0
LINE
  5
4F7
100
AcDbEntity
  8
606446769-000-00-ED1_FORMAT
100
AcDbLine
 62
2
  6
CONTINUOUS
 10
306.5876624558
 20
53.8612169223
 11
306.6881779935
 21
53.8612169223
  0
LINE
  5
4F8
100
AcDbEntity
  8
606446769-000-00-ED1_FORMAT
100
AcDbLine
 62
2
  6
CONTINUOUS
 10
308.1495910112
 20
53.8612169223
 11
308.1737564759
 21
53.8612169223
  0
LINE
  5
4F9
100
AcDbEntity
  8
606446769-000-00-ED1_FORMAT
100
AcDbLine
 62
2
  6
CONTINUOUS
 10
309.1516114228
 20
53.8612169223
 11
309.8889957532
 21
53.8612169223
  0
LINE
  5
4FA
100
AcDbEntity
  8
606446769-000-00-ED1_FORMAT
100
AcDbLine
 62
2
  6
CONTINUOUS
 10
312.2207093639
 20
53.8612169223
 11
312.7687535783
 21
53.8612169223
  0
LINE
  5
4FB
100
AcDbEntity
  8
606446769-000-00-ED1_FORMAT
100
AcDbLine
 62
2
  6
CONTINUOUS
 10
314.8663911181
 20
53.8612169223
 11
315.1632966974
 21
53.8612169223
  0
LINE
  5
4FC
100
AcDbEntity
  8
606446769-000-00-ED1_FORMAT
100
AcDbLine
 62
2
  6
CONTINUOUS
 10
316.0320994653
 20
53.8612169223
 11
316.3774555006
 21
53.8612169223
  0
LINE
  5
4FD
100
AcDbEntity
  8
606446769-000-00-ED1_FORMAT
100
AcDbLine
 62
2
  6
CONTINUOUS
 10
317.2619665416
 20
53.8612169223
 11
318.1654360589
 21
53.8612169223
  0
LINE
  5
4FE
100
AcDbEntity
  8
606446769-000-00-ED1_FORMAT
100
AcDbLine
 62
2
  6
CONTINUOUS
 10
319.2068127099
 20
53.8612169223
 11
321.6976324454
 21
53.8612169223
  0
LINE
  5
4FF
100
AcDbEntity
  8
606446769-000-00-ED1_FORMAT
100
AcDbLine
 62
2
  6
CONTINUOUS
 10
303.6529434967
 20
53.9612169223
 11
305.4976754456
 21
53.9612169223
  0
LINE
  5
500
100
AcDbEntity
  8
606446769-000-00-ED1_FORMAT
100
AcDbLine
 62
2
  6
CONTINUOUS
 10
306.5876624558
 20
53.9612169223
 11
306.6476980305
 21
53.9612169223
  0
LINE
  5
501
100
AcDbEntity
  8
606446769-000-00-ED1_FORMAT
100
AcDbLine
 62
2
  6
CONTINUOUS
 10
309.1516114228
 20
53.9612169223
 11
309.9158174529
 21
53.9612169223
  0
LINE
  5
502
100
AcDbEntity
  8
606446769-000-00-ED1_FORMAT
100
AcDbLine
 62
2
  6
CONTINUOUS
 10
310.768326453
 20
53.9612169223
 11
311.2820181671
 21
53.9612169223
  0
LINE
  5
503
100
AcDbEntity
  8
606446769-000-00-ED1_FORMAT
100
AcDbLine
 62
2
  6
CONTINUOUS
 10
312.1962063889
 20
53.9612169223
 11
312.7687535783
 21
53.9612169223
  0
LINE
  5
504
100
AcDbEntity
  8
606446769-000-00-ED1_FORMAT
100
AcDbLine
 62
2
  6
CONTINUOUS
 10
314.9130254495
 20
53.9612169223
 11
315.1853468982
 21
53.9612169223
  0
LINE
  5
505
100
AcDbEntity
  8
606446769-000-00-ED1_FORMAT
100
AcDbLine
 62
2
  6
CONTINUOUS
 10
316.0460945899
 20
53.9612169223
 11
316.3625876126
 21
53.9612169223
  0
LINE
  5
506
100
AcDbEntity
  8
606446769-000-00-ED1_FORMAT
100
AcDbLine
 62
2
  6
CONTINUOUS
 10
317.2439746141
 20
53.9612169223
 11
318.1654360589
 21
53.9612169223
  0
LINE
  5
507
100
AcDbEntity
  8
606446769-000-00-ED1_FORMAT
100
AcDbLine
 62
2
  6
CONTINUOUS
 10
319.2068127099
 20
53.9612169223
 11
321.9036982389
 21
53.9612169223
  0
LINE
  5
508
100
AcDbEntity
  8
606446769-000-00-ED1_FORMAT
100
AcDbLine
 62
2
  6
CONTINUOUS
 10
303.4542127734
 20
54.0612169223
 11
305.4976754456
 21
54.0612169223
  0
LINE
  5
509
100
AcDbEntity
  8
606446769-000-00-ED1_FORMAT
100
AcDbLine
 62
2
  6
CONTINUOUS
 10
306.5876624558
 20
54.0612169223
 11
306.6072180675
 21
54.0612169223
  0
LINE
  5
50A
100
AcDbEntity
  8
606446769-000-00-ED1_FORMAT
100
AcDbLine
 62
2
  6
CONTINUOUS
 10
309.1516114228
 20
54.0612169223
 11
309.9426391527
 21
54.0612169223
  0
LINE
  5
50B
100
AcDbEntity
  8
606446769-000-00-ED1_FORMAT
100
AcDbLine
 62
2
  6
CONTINUOUS
 10
310.7902723221
 20
54.0612169223
 11
311.2610721888
 21
54.0612169223
  0
LINE
  5
50C
100
AcDbEntity
  8
606446769-000-00-ED1_FORMAT
100
AcDbLine
 62
2
  6
CONTINUOUS
 10
312.1717034139
 20
54.0612169223
 11
312.7687535783
 21
54.0612169223
  0
LINE
  5
50D
100
AcDbEntity
  8
606446769-000-00-ED1_FORMAT
100
AcDbLine
 62
2
  6
CONTINUOUS
 10
313.625958211
 20
54.0612169223
 11
313.8935627257
 21
54.0612169223
  0
LINE
  5
50E
100
AcDbEntity
  8
606446769-000-00-ED1_FORMAT
100
AcDbLine
 62
2
  6
CONTINUOUS
 10
314.9511286237
 20
54.0612169223
 11
315.207397099
 21
54.0612169223
  0
LINE
  5
50F
100
AcDbEntity
  8
606446769-000-00-ED1_FORMAT
100
AcDbLine
 62
2
  6
CONTINUOUS
 10
316.0600897146
 20
54.0612169223
 11
316.3477197245
 21
54.0612169223
  0
LINE
  5
510
100
AcDbEntity
  8
606446769-000-00-ED1_FORMAT
100
AcDbLine
 62
2
  6
CONTINUOUS
 10
317.2259826867
 20
54.0612169223
 11
318.1654360589
 21
54.0612169223
  0
LINE
  5
511
100
AcDbEntity
  8
606446769-000-00-ED1_FORMAT
100
AcDbLine
 62
2
  6
CONTINUOUS
 10
319.2068127099
 20
54.0612169223
 11
322.1097640325
 21
54.0612169223
  0
LINE
  5
512
100
AcDbEntity
  8
606446769-000-00-ED1_FORMAT
100
AcDbLine
 62
2
  6
CONTINUOUS
 10
303.2554820501
 20
54.1612169223
 11
305.4976754456
 21
54.1612169223
  0
LINE
  5
513
100
AcDbEntity
  8
606446769-000-00-ED1_FORMAT
100
AcDbLine
 62
2
  6
CONTINUOUS
 10
309.1516114228
 20
54.1612169223
 11
309.9694608525
 21
54.1612169223
  0
LINE
  5
514
100
AcDbEntity
  8
606446769-000-00-ED1_FORMAT
100
AcDbLine
 62
2
  6
CONTINUOUS
 10
310.8122181913
 20
54.1612169223
 11
311.2401262105
 21
54.1612169223
  0
LINE
  5
515
100
AcDbEntity
  8
606446769-000-00-ED1_FORMAT
100
AcDbLine
 62
2
  6
CONTINUOUS
 10
312.1472004389
 20
54.1612169223
 11
312.7687535783
 21
54.1612169223
  0
LINE
  5
516
100
AcDbEntity
  8
606446769-000-00-ED1_FORMAT
100
AcDbLine
 62
2
  6
CONTINUOUS
 10
313.6255064219
 20
54.1612169223
 11
314.0790479951
 21
54.1612169223
  0
LINE
  5
517
100
AcDbEntity
  8
606446769-000-00-ED1_FORMAT
100
AcDbLine
 62
2
  6
CONTINUOUS
 10
314.9838524179
 20
54.1612169223
 11
315.2294472997
 21
54.1612169223
  0
LINE
  5
518
100
AcDbEntity
  8
606446769-000-00-ED1_FORMAT
100
AcDbLine
 62
2
  6
CONTINUOUS
 10
316.0740848392
 20
54.1612169223
 11
316.3328518365
 21
54.1612169223
  0
LINE
  5
519
100
AcDbEntity
  8
606446769-000-00-ED1_FORMAT
100
AcDbLine
 62
2
  6
CONTINUOUS
 10
317.2079907593
 20
54.1612169223
 11
318.1654360589
 21
54.1612169223
  0
LINE
  5
51A
100
AcDbEntity
  8
606446769-000-00-ED1_FORMAT
100
AcDbLine
 62
2
  6
CONTINUOUS
 10
319.2068127099
 20
54.1612169223
 11
322.3158298261
 21
54.1612169223
  0
LINE
  5
51B
100
AcDbEntity
  8
606446769-000-00-ED1_FORMAT
100
AcDbLine
 62
2
  6
CONTINUOUS
 10
303.1527285403
 20
54.2612169223
 11
305.4976754456
 21
54.2612169223
  0
LINE
  5
51C
100
AcDbEntity
  8
606446769-000-00-ED1_FORMAT
100
AcDbLine
 62
2
  6
CONTINUOUS
 10
309.1516114228
 20
54.2612169223
 11
309.9962825522
 21
54.2612169223
  0
LINE
  5
51D
100
AcDbEntity
  8
606446769-000-00-ED1_FORMAT
100
AcDbLine
 62
2
  6
CONTINUOUS
 10
310.8341640604
 20
54.2612169223
 11
311.2191802322
 21
54.2612169223
  0
LINE
  5
51E
100
AcDbEntity
  8
606446769-000-00-ED1_FORMAT
100
AcDbLine
 62
2
  6
CONTINUOUS
 10
312.1226974639
 20
54.2612169223
 11
312.7687535783
 21
54.2612169223
  0
LINE
  5
51F
100
AcDbEntity
  8
606446769-000-00-ED1_FORMAT
100
AcDbLine
 62
2
  6
CONTINUOUS
 10
313.6250546327
 20
54.2612169223
 11
314.1633385198
 21
54.2612169223
  0
LINE
  5
520
100
AcDbEntity
  8
606446769-000-00-ED1_FORMAT
100
AcDbLine
 62
2
  6
CONTINUOUS
 10
315.0064005294
 20
54.2612169223
 11
315.2514975005
 21
54.2612169223
  0
LINE
  5
521
100
AcDbEntity
  8
606446769-000-00-ED1_FORMAT
100
AcDbLine
 62
2
  6
CONTINUOUS
 10
316.0880799638
 20
54.2612169223
 11
316.3179839485
 21
54.2612169223
  0
LINE
  5
522
100
AcDbEntity
  8
606446769-000-00-ED1_FORMAT
100
AcDbLine
 62
2
  6
CONTINUOUS
 10
317.1899988319
 20
54.2612169223
 11
318.1654360589
 21
54.2612169223
  0
LINE
  5
523
100
AcDbEntity
  8
606446769-000-00-ED1_FORMAT
100
AcDbLine
 62
2
  6
CONTINUOUS
 10
319.2068127099
 20
54.2612169223
 11
322.4223775784
 21
54.2612169223
  0
LINE
  5
524
100
AcDbEntity
  8
606446769-000-00-ED1_FORMAT
100
AcDbLine
 62
2
  6
CONTINUOUS
 10
303.3670363022
 20
54.3612169223
 11
305.4976754456
 21
54.3612169223
  0
LINE
  5
525
100
AcDbEntity
  8
606446769-000-00-ED1_FORMAT
100
AcDbLine
 62
2
  6
CONTINUOUS
 10
309.1516114228
 20
54.3612169223
 11
310.023104252
 21
54.3612169223
  0
LINE
  5
526
100
AcDbEntity
  8
606446769-000-00-ED1_FORMAT
100
AcDbLine
 62
2
  6
CONTINUOUS
 10
310.8561099295
 20
54.3612169223
 11
311.1982342538
 21
54.3612169223
  0
LINE
  5
527
100
AcDbEntity
  8
606446769-000-00-ED1_FORMAT
100
AcDbLine
 62
2
  6
CONTINUOUS
 10
312.0981944889
 20
54.3612169223
 11
312.7687535783
 21
54.3612169223
  0
LINE
  5
528
100
AcDbEntity
  8
606446769-000-00-ED1_FORMAT
100
AcDbLine
 62
2
  6
CONTINUOUS
 10
313.6246028436
 20
54.3612169223
 11
314.2089542591
 21
54.3612169223
  0
LINE
  5
529
100
AcDbEntity
  8
606446769-000-00-ED1_FORMAT
100
AcDbLine
 62
2
  6
CONTINUOUS
 10
315.0288327876
 20
54.3612169223
 11
315.2735477013
 21
54.3612169223
  0
LINE
  5
52A
100
AcDbEntity
  8
606446769-000-00-ED1_FORMAT
100
AcDbLine
 62
2
  6
CONTINUOUS
 10
316.1020750885
 20
54.3612169223
 11
316.3031160605
 21
54.3612169223
  0
LINE
  5
52B
100
AcDbEntity
  8
606446769-000-00-ED1_FORMAT
100
AcDbLine
 62
2
  6
CONTINUOUS
 10
317.1720069044
 20
54.3612169223
 11
318.1654360589
 21
54.3612169223
  0
LINE
  5
52C
100
AcDbEntity
  8
606446769-000-00-ED1_FORMAT
100
AcDbLine
 62
2
  6
CONTINUOUS
 10
319.2068127099
 20
54.3612169223
 11
322.2001669143
 21
54.3612169223
  0
LINE
  5
52D
100
AcDbEntity
  8
606446769-000-00-ED1_FORMAT
100
AcDbLine
 62
2
  6
CONTINUOUS
 10
303.581344064
 20
54.4612169223
 11
305.4976754456
 21
54.4612169223
  0
LINE
  5
52E
100
AcDbEntity
  8
606446769-000-00-ED1_FORMAT
100
AcDbLine
 62
2
  6
CONTINUOUS
 10
309.1516114228
 20
54.4612169223
 11
310.0499259517
 21
54.4612169223
  0
LINE
  5
52F
100
AcDbEntity
  8
606446769-000-00-ED1_FORMAT
100
AcDbLine
 62
2
  6
CONTINUOUS
 10
310.8780557987
 20
54.4612169223
 11
311.1772882755
 21
54.4612169223
  0
LINE
  5
530
100
AcDbEntity
  8
606446769-000-00-ED1_FORMAT
100
AcDbLine
 62
2
  6
CONTINUOUS
 10
312.0736915139
 20
54.4612169223
 11
312.7687535783
 21
54.4612169223
  0
LINE
  5
531
100
AcDbEntity
  8
606446769-000-00-ED1_FORMAT
100
AcDbLine
 62
2
  6
CONTINUOUS
 10
313.6241510544
 20
54.4612169223
 11
314.2323556081
 21
54.4612169223
  0
LINE
  5
532
100
AcDbEntity
  8
606446769-000-00-ED1_FORMAT
100
AcDbLine
 62
2
  6
CONTINUOUS
 10
315.0389016175
 20
54.4612169223
 11
315.2955979021
 21
54.4612169223
  0
LINE
  5
533
100
AcDbEntity
  8
606446769-000-00-ED1_FORMAT
100
AcDbLine
 62
2
  6
CONTINUOUS
 10
316.1160702131
 20
54.4612169223
 11
316.2882481725
 21
54.4612169223
  0
LINE
  5
534
100
AcDbEntity
  8
606446769-000-00-ED1_FORMAT
100
AcDbLine
 62
2
  6
CONTINUOUS
 10
317.154014977
 20
54.4612169223
 11
318.1654360589
 21
54.4612169223
  0
LINE
  5
535
100
AcDbEntity
  8
606446769-000-00-ED1_FORMAT
100
AcDbLine
 62
2
  6
CONTINUOUS
 10
319.2068127099
 20
54.4612169223
 11
321.9779562502
 21
54.4612169223
  0
LINE
  5
536
100
AcDbEntity
  8
606446769-000-00-ED1_FORMAT
100
AcDbLine
 62
2
  6
CONTINUOUS
 10
303.7956518259
 20
54.5612169223
 11
305.4976754456
 21
54.5612169223
  0
LINE
  5
537
100
AcDbEntity
  8
606446769-000-00-ED1_FORMAT
100
AcDbLine
 62
2
  6
CONTINUOUS
 10
309.1516114228
 20
54.5612169223
 11
310.0767476515
 21
54.5612169223
  0
LINE
  5
538
100
AcDbEntity
  8
606446769-000-00-ED1_FORMAT
100
AcDbLine
 62
2
  6
CONTINUOUS
 10
310.9000016678
 20
54.5612169223
 11
311.1563422972
 21
54.5612169223
  0
LINE
  5
539
100
AcDbEntity
  8
606446769-000-00-ED1_FORMAT
100
AcDbLine
 62
2
  6
CONTINUOUS
 10
312.0491885388
 20
54.5612169223
 11
312.7687535783
 21
54.5612169223
  0
LINE
  5
53A
100
AcDbEntity
  8
606446769-000-00-ED1_FORMAT
100
AcDbLine
 62
2
  6
CONTINUOUS
 10
313.6236992653
 20
54.5612169223
 11
314.2449481092
 21
54.5612169223
  0
LINE
  5
53B
100
AcDbEntity
  8
606446769-000-00-ED1_FORMAT
100
AcDbLine
 62
2
  6
CONTINUOUS
 10
315.0489704474
 20
54.5612169223
 11
315.3176481029
 21
54.5612169223
  0
LINE
  5
53C
100
AcDbEntity
  8
606446769-000-00-ED1_FORMAT
100
AcDbLine
 62
2
  6
CONTINUOUS
 10
316.1300653377
 20
54.5612169223
 11
316.2733802845
 21
54.5612169223
  0
LINE
  5
53D
100
AcDbEntity
  8
606446769-000-00-ED1_FORMAT
100
AcDbLine
 62
2
  6
CONTINUOUS
 10
317.1360230496
 20
54.5612169223
 11
318.1654360589
 21
54.5612169223
  0
LINE
  5
53E
100
AcDbEntity
  8
606446769-000-00-ED1_FORMAT
100
AcDbLine
 62
2
  6
CONTINUOUS
 10
319.2068127099
 20
54.5612169223
 11
321.755745586
 21
54.5612169223
  0
LINE
  5
53F
100
AcDbEntity
  8
606446769-000-00-ED1_FORMAT
100
AcDbLine
 62
2
  6
CONTINUOUS
 10
304.0099595877
 20
54.6612169223
 11
305.4976754456
 21
54.6612169223
  0
LINE
  5
540
100
AcDbEntity
  8
606446769-000-00-ED1_FORMAT
100
AcDbLine
 62
2
  6
CONTINUOUS
 10
309.1516114228
 20
54.6612169223
 11
310.1035693513
 21
54.6612169223
  0
LINE
  5
541
100
AcDbEntity
  8
606446769-000-00-ED1_FORMAT
100
AcDbLine
 62
2
  6
CONTINUOUS
 10
310.9219475369
 20
54.6612169223
 11
311.1353963189
 21
54.6612169223
  0
LINE
  5
542
100
AcDbEntity
  8
606446769-000-00-ED1_FORMAT
100
AcDbLine
 62
2
  6
CONTINUOUS
 10
312.0246855638
 20
54.6612169223
 11
312.7687535783
 21
54.6612169223
  0
LINE
  5
543
100
AcDbEntity
  8
606446769-000-00-ED1_FORMAT
100
AcDbLine
 62
2
  6
CONTINUOUS
 10
313.6232474762
 20
54.6612169223
 11
314.2513308978
 21
54.6612169223
  0
LINE
  5
544
100
AcDbEntity
  8
606446769-000-00-ED1_FORMAT
100
AcDbLine
 62
2
  6
CONTINUOUS
 10
315.0549566033
 20
54.6612169223
 11
315.3396983037
 21
54.6612169223
  0
LINE
  5
545
100
AcDbEntity
  8
606446769-000-00-ED1_FORMAT
100
AcDbLine
 62
2
  6
CONTINUOUS
 10
316.1440604624
 20
54.6612169223
 11
316.2585123965
 21
54.6612169223
  0
LINE
  5
546
100
AcDbEntity
  8
606446769-000-00-ED1_FORMAT
100
AcDbLine
 62
2
  6
CONTINUOUS
 10
317.1180311221
 20
54.6612169223
 11
318.1654360589
 21
54.6612169223
  0
LINE
  5
547
100
AcDbEntity
  8
606446769-000-00-ED1_FORMAT
100
AcDbLine
 62
2
  6
CONTINUOUS
 10
319.2068127099
 20
54.6612169223
 11
321.5335349219
 21
54.6612169223
  0
LINE
  5
548
100
AcDbEntity
  8
606446769-000-00-ED1_FORMAT
100
AcDbLine
 62
2
  6
CONTINUOUS
 10
304.2242673496
 20
54.7612169223
 11
305.4976754456
 21
54.7612169223
  0
LINE
  5
549
100
AcDbEntity
  8
606446769-000-00-ED1_FORMAT
100
AcDbLine
 62
2
  6
CONTINUOUS
 10
309.1516114228
 20
54.7612169223
 11
310.130391051
 21
54.7612169223
  0
LINE
  5
54A
100
AcDbEntity
  8
606446769-000-00-ED1_FORMAT
100
AcDbLine
 62
2
  6
CONTINUOUS
 10
310.9438934061
 20
54.7612169223
 11
311.1144503405
 21
54.7612169223
  0
LINE
  5
54B
100
AcDbEntity
  8
606446769-000-00-ED1_FORMAT
100
AcDbLine
 62
2
  6
CONTINUOUS
 10
312.0001825888
 20
54.7612169223
 11
312.7687535783
 21
54.7612169223
  0
LINE
  5
54C
100
AcDbEntity
  8
606446769-000-00-ED1_FORMAT
100
AcDbLine
 62
2
  6
CONTINUOUS
 10
313.622795687
 20
54.7612169223
 11
314.243276854
 21
54.7612169223
  0
LINE
  5
54D
100
AcDbEntity
  8
606446769-000-00-ED1_FORMAT
100
AcDbLine
 62
2
  6
CONTINUOUS
 10
315.0549566033
 20
54.7612169223
 11
315.3617485045
 21
54.7612169223
  0
LINE
  5
54E
100
AcDbEntity
  8
606446769-000-00-ED1_FORMAT
100
AcDbLine
 62
2
  6
CONTINUOUS
 10
316.158055587
 20
54.7612169223
 11
316.2436445084
 21
54.7612169223
  0
LINE
  5
54F
100
AcDbEntity
  8
606446769-000-00-ED1_FORMAT
100
AcDbLine
 62
2
  6
CONTINUOUS
 10
317.1000391947
 20
54.7612169223
 11
318.1654360589
 21
54.7612169223
  0
LINE
  5
550
100
AcDbEntity
  8
606446769-000-00-ED1_FORMAT
100
AcDbLine
 62
2
  6
CONTINUOUS
 10
319.2068127099
 20
54.7612169223
 11
321.3113242578
 21
54.7612169223
  0
LINE
  5
551
100
AcDbEntity
  8
606446769-000-00-ED1_FORMAT
100
AcDbLine
 62
2
  6
CONTINUOUS
 10
304.4385751114
 20
54.8612169223
 11
305.4976754456
 21
54.8612169223
  0
LINE
  5
552
100
AcDbEntity
  8
606446769-000-00-ED1_FORMAT
100
AcDbLine
 62
2
  6
CONTINUOUS
 10
307.3074853576
 20
54.8612169223
 11
307.3805938489
 21
54.8612169223
  0
LINE
  5
553
100
AcDbEntity
  8
606446769-000-00-ED1_FORMAT
100
AcDbLine
 62
2
  6
CONTINUOUS
 10
309.1516114228
 20
54.8612169223
 11
310.1572127508
 21
54.8612169223
  0
LINE
  5
554
100
AcDbEntity
  8
606446769-000-00-ED1_FORMAT
100
AcDbLine
 62
2
  6
CONTINUOUS
 10
310.9658392752
 20
54.8612169223
 11
311.0935043622
 21
54.8612169223
  0
LINE
  5
555
100
AcDbEntity
  8
606446769-000-00-ED1_FORMAT
100
AcDbLine
 62
2
  6
CONTINUOUS
 10
311.9756796138
 20
54.8612169223
 11
312.7687535783
 21
54.8612169223
  0
LINE
  5
556
100
AcDbEntity
  8
606446769-000-00-ED1_FORMAT
100
AcDbLine
 62
2
  6
CONTINUOUS
 10
313.6223438979
 20
54.8612169223
 11
314.2224299404
 21
54.8612169223
  0
LINE
  5
557
100
AcDbEntity
  8
606446769-000-00-ED1_FORMAT
100
AcDbLine
 62
2
  6
CONTINUOUS
 10
315.0544618239
 20
54.8612169223
 11
315.3837987053
 21
54.8612169223
  0
LINE
  5
558
100
AcDbEntity
  8
606446769-000-00-ED1_FORMAT
100
AcDbLine
 62
2
  6
CONTINUOUS
 10
316.1720507117
 20
54.8612169223
 11
316.2287766204
 21
54.8612169223
  0
LINE
  5
559
100
AcDbEntity
  8
606446769-000-00-ED1_FORMAT
100
AcDbLine
 62
2
  6
CONTINUOUS
 10
317.0820472673
 20
54.8612169223
 11
318.1654360589
 21
54.8612169223
  0
LINE
  5
55A
100
AcDbEntity
  8
606446769-000-00-ED1_FORMAT
100
AcDbLine
 62
2
  6
CONTINUOUS
 10
319.2068127099
 20
54.8612169223
 11
321.0891135937
 21
54.8612169223
  0
LINE
  5
55B
100
AcDbEntity
  8
606446769-000-00-ED1_FORMAT
100
AcDbLine
 62
2
  6
CONTINUOUS
 10
304.6528828733
 20
54.9612169223
 11
305.4976754456
 21
54.9612169223
  0
LINE
  5
55C
100
AcDbEntity
  8
606446769-000-00-ED1_FORMAT
100
AcDbLine
 62
2
  6
CONTINUOUS
 10
307.2747904084
 20
54.9612169223
 11
307.4465769883
 21
54.9612169223
  0
LINE
  5
55D
100
AcDbEntity
  8
606446769-000-00-ED1_FORMAT
100
AcDbLine
 62
2
  6
CONTINUOUS
 10
309.1516114228
 20
54.9612169223
 11
310.1840344505
 21
54.9612169223
  0
LINE
  5
55E
100
AcDbEntity
  8
606446769-000-00-ED1_FORMAT
100
AcDbLine
 62
2
  6
CONTINUOUS
 10
310.9877851444
 20
54.9612169223
 11
311.0725583839
 21
54.9612169223
  0
LINE
  5
55F
100
AcDbEntity
  8
606446769-000-00-ED1_FORMAT
100
AcDbLine
 62
2
  6
CONTINUOUS
 10
311.9511766388
 20
54.9612169223
 11
312.7687535783
 21
54.9612169223
  0
LINE
  5
560
100
AcDbEntity
  8
606446769-000-00-ED1_FORMAT
100
AcDbLine
 62
2
  6
CONTINUOUS
 10
313.6218921087
 20
54.9612169223
 11
314.1772743447
 21
54.9612169223
  0
LINE
  5
561
100
AcDbEntity
  8
606446769-000-00-ED1_FORMAT
100
AcDbLine
 62
2
  6
CONTINUOUS
 10
315.0419741551
 20
54.9612169223
 11
315.4058489061
 21
54.9612169223
  0
LINE
  5
562
100
AcDbEntity
  8
606446769-000-00-ED1_FORMAT
100
AcDbLine
 62
2
  6
CONTINUOUS
 10
316.1860458363
 20
54.9612169223
 11
316.2139087324
 21
54.9612169223
  0
LINE
  5
563
100
AcDbEntity
  8
606446769-000-00-ED1_FORMAT
100
AcDbLine
 62
2
  6
CONTINUOUS
 10
317.0640553398
 20
54.9612169223
 11
318.1654360589
 21
54.9612169223
  0
LINE
  5
564
100
AcDbEntity
  8
606446769-000-00-ED1_FORMAT
100
AcDbLine
 62
2
  6
CONTINUOUS
 10
319.2068127099
 20
54.9612169223
 11
320.8669029295
 21
54.9612169223
  0
LINE
  5
565
100
AcDbEntity
  8
606446769-000-00-ED1_FORMAT
100
AcDbLine
 62
2
  6
CONTINUOUS
 10
304.8671906351
 20
55.0612169223
 11
305.4976754456
 21
55.0612169223
  0
LINE
  5
566
100
AcDbEntity
  8
606446769-000-00-ED1_FORMAT
100
AcDbLine
 62
2
  6
CONTINUOUS
 10
307.2420954592
 20
55.0612169223
 11
307.5125601276
 21
55.0612169223
  0
LINE
  5
567
100
AcDbEntity
  8
606446769-000-00-ED1_FORMAT
100
AcDbLine
 62
2
  6
CONTINUOUS
 10
309.1516114228
 20
55.0612169223
 11
310.2108561503
 21
55.0612169223
  0
LINE
  5
568
100
AcDbEntity
  8
606446769-000-00-ED1_FORMAT
100
AcDbLine
 62
2
  6
CONTINUOUS
 10
311.0097310135
 20
55.0612169223
 11
311.0516124055
 21
55.0612169223
  0
LINE
  5
569
100
AcDbEntity
  8
606446769-000-00-ED1_FORMAT
100
AcDbLine
 62
2
  6
CONTINUOUS
 10
311.9266736638
 20
55.0612169223
 11
312.7687535783
 21
55.0612169223
  0
LINE
  5
56A
100
AcDbEntity
  8
606446769-000-00-ED1_FORMAT
100
AcDbLine
 62
2
  6
CONTINUOUS
 10
313.6214403196
 20
55.0612169223
 11
314.0823675722
 21
55.0612169223
  0
LINE
  5
56B
100
AcDbEntity
  8
606446769-000-00-ED1_FORMAT
100
AcDbLine
 62
2
  6
CONTINUOUS
 10
315.0186315978
 20
55.0612169223
 11
315.4278991068
 21
55.0612169223
  0
LINE
  5
56C
100
AcDbEntity
  8
606446769-000-00-ED1_FORMAT
100
AcDbLine
 62
2
  6
CONTINUOUS
 10
317.0460634124
 20
55.0612169223
 11
318.1654360589
 21
55.0612169223
  0
LINE
  5
56D
100
AcDbEntity
  8
606446769-000-00-ED1_FORMAT
100
AcDbLine
 62
2
  6
CONTINUOUS
 10
319.2068127099
 20
55.0612169223
 11
320.6446922654
 21
55.0612169223
  0
LINE
  5
56E
100
AcDbEntity
  8
606446769-000-00-ED1_FORMAT
100
AcDbLine
 62
2
  6
CONTINUOUS
 10
305.081498397
 20
55.1612169223
 11
305.4976754456
 21
55.1612169223
  0
LINE
  5
56F
100
AcDbEntity
  8
606446769-000-00-ED1_FORMAT
100
AcDbLine
 62
2
  6
CONTINUOUS
 10
307.20940051
 20
55.1612169223
 11
307.578543267
 21
55.1612169223
  0
LINE
  5
570
100
AcDbEntity
  8
606446769-000-00-ED1_FORMAT
100
AcDbLine
 62
2
  6
CONTINUOUS
 10
309.1516114228
 20
55.1612169223
 11
310.2376778501
 21
55.1612169223
  0
LINE
  5
571
100
AcDbEntity
  8
606446769-000-00-ED1_FORMAT
100
AcDbLine
 62
2
  6
CONTINUOUS
 10
311.9021706888
 20
55.1612169223
 11
312.7687535783
 21
55.1612169223
  0
LINE
  5
572
100
AcDbEntity
  8
606446769-000-00-ED1_FORMAT
100
AcDbLine
 62
2
  6
CONTINUOUS
 10
313.6209885304
 20
55.1612169223
 11
313.648597506
 21
55.1612169223
  0
LINE
  5
573
100
AcDbEntity
  8
606446769-000-00-ED1_FORMAT
100
AcDbLine
 62
2
  6
CONTINUOUS
 10
314.9929590246
 20
55.1612169223
 11
315.4499493076
 21
55.1612169223
  0
LINE
  5
574
100
AcDbEntity
  8
606446769-000-00-ED1_FORMAT
100
AcDbLine
 62
2
  6
CONTINUOUS
 10
317.028071485
 20
55.1612169223
 11
318.1654360589
 21
55.1612169223
  0
LINE
  5
575
100
AcDbEntity
  8
606446769-000-00-ED1_FORMAT
100
AcDbLine
 62
2
  6
CONTINUOUS
 10
319.2068127099
 20
55.1612169223
 11
320.4224816013
 21
55.1612169223
  0
LINE
  5
576
100
AcDbEntity
  8
606446769-000-00-ED1_FORMAT
100
AcDbLine
 62
2
  6
CONTINUOUS
 10
305.0855867265
 20
55.2612169223
 11
305.4976754456
 21
55.2612169223
  0
LINE
  5
577
100
AcDbEntity
  8
606446769-000-00-ED1_FORMAT
100
AcDbLine
 62
2
  6
CONTINUOUS
 10
307.1767055608
 20
55.2612169223
 11
307.6445264063
 21
55.2612169223
  0
LINE
  5
578
100
AcDbEntity
  8
606446769-000-00-ED1_FORMAT
100
AcDbLine
 62
2
  6
CONTINUOUS
 10
309.1516114228
 20
55.2612169223
 11
310.2644995498
 21
55.2612169223
  0
LINE
  5
579
100
AcDbEntity
  8
606446769-000-00-ED1_FORMAT
100
AcDbLine
 62
2
  6
CONTINUOUS
 10
311.8776677138
 20
55.2612169223
 11
312.7687535783
 21
55.2612169223
  0
LINE
  5
57A
100
AcDbEntity
  8
606446769-000-00-ED1_FORMAT
100
AcDbLine
 62
2
  6
CONTINUOUS
 10
314.952943952
 20
55.2612169223
 11
315.4719995084
 21
55.2612169223
  0
LINE
  5
57B
100
AcDbEntity
  8
606446769-000-00-ED1_FORMAT
100
AcDbLine
 62
2
  6
CONTINUOUS
 10
317.0100795575
 20
55.2612169223
 11
318.1654360589
 21
55.2612169223
  0
LINE
  5
57C
100
AcDbEntity
  8
606446769-000-00-ED1_FORMAT
100
AcDbLine
 62
2
  6
CONTINUOUS
 10
319.2068127099
 20
55.2612169223
 11
320.2002709371
 21
55.2612169223
  0
LINE
  5
57D
100
AcDbEntity
  8
606446769-000-00-ED1_FORMAT
100
AcDbLine
 62
2
  6
CONTINUOUS
 10
305.0855867265
 20
55.3612169223
 11
305.4976754456
 21
55.3612169223
  0
LINE
  5
57E
100
AcDbEntity
  8
606446769-000-00-ED1_FORMAT
100
AcDbLine
 62
2
  6
CONTINUOUS
 10
307.1440106116
 20
55.3612169223
 11
307.7105095457
 21
55.3612169223
  0
LINE
  5
57F
100
AcDbEntity
  8
606446769-000-00-ED1_FORMAT
100
AcDbLine
 62
2
  6
CONTINUOUS
 10
309.1516114228
 20
55.3612169223
 11
310.2913212496
 21
55.3612169223
  0
LINE
  5
580
100
AcDbEntity
  8
606446769-000-00-ED1_FORMAT
100
AcDbLine
 62
2
  6
CONTINUOUS
 10
311.8531647388
 20
55.3612169223
 11
312.7687535783
 21
55.3612169223
  0
LINE
  5
581
100
AcDbEntity
  8
606446769-000-00-ED1_FORMAT
100
AcDbLine
 62
2
  6
CONTINUOUS
 10
314.8979235488
 20
55.3612169223
 11
315.4940497092
 21
55.3612169223
  0
LINE
  5
582
100
AcDbEntity
  8
606446769-000-00-ED1_FORMAT
100
AcDbLine
 62
2
  6
CONTINUOUS
 10
316.9920876301
 20
55.3612169223
 11
318.1654360589
 21
55.3612169223
  0
LINE
  5
583
100
AcDbEntity
  8
606446769-000-00-ED1_FORMAT
100
AcDbLine
 62
2
  6
CONTINUOUS
 10
319.2068127099
 20
55.3612169223
 11
319.978060273
 21
55.3612169223
  0
LINE
  5
584
100
AcDbEntity
  8
606446769-000-00-ED1_FORMAT
100
AcDbLine
 62
2
  6
CONTINUOUS
 10
305.0855867265
 20
55.4612169223
 11
305.4976754456
 21
55.4612169223
  0
LINE
  5
585
100
AcDbEntity
  8
606446769-000-00-ED1_FORMAT
100
AcDbLine
 62
2
  6
CONTINUOUS
 10
307.1113156624
 20
55.4612169223
 11
307.776492685
 21
55.4612169223
  0
LINE
  5
586
100
AcDbEntity
  8
606446769-000-00-ED1_FORMAT
100
AcDbLine
 62
2
  6
CONTINUOUS
 10
309.1516114228
 20
55.4612169223
 11
310.3181429493
 21
55.4612169223
  0
LINE
  5
587
100
AcDbEntity
  8
606446769-000-00-ED1_FORMAT
100
AcDbLine
 62
2
  6
CONTINUOUS
 10
311.8286617638
 20
55.4612169223
 11
312.7687535783
 21
55.4612169223
  0
LINE
  5
588
100
AcDbEntity
  8
606446769-000-00-ED1_FORMAT
100
AcDbLine
 62
2
  6
CONTINUOUS
 10
314.8293698291
 20
55.4612169223
 11
315.51609991
 21
55.4612169223
  0
LINE
  5
589
100
AcDbEntity
  8
606446769-000-00-ED1_FORMAT
100
AcDbLine
 62
2
  6
CONTINUOUS
 10
316.9740957027
 20
55.4612169223
 11
318.1654360589
 21
55.4612169223
  0
LINE
  5
58A
100
AcDbEntity
  8
606446769-000-00-ED1_FORMAT
100
AcDbLine
 62
2
  6
CONTINUOUS
 10
319.2068127099
 20
55.4612169223
 11
319.7558496089
 21
55.4612169223
  0
LINE
  5
58B
100
AcDbEntity
  8
606446769-000-00-ED1_FORMAT
100
AcDbLine
 62
2
  6
CONTINUOUS
 10
305.0855867265
 20
55.5612169223
 11
305.4976754456
 21
55.5612169223
  0
LINE
  5
58C
100
AcDbEntity
  8
606446769-000-00-ED1_FORMAT
100
AcDbLine
 62
2
  6
CONTINUOUS
 10
307.0786207132
 20
55.5612169223
 11
307.8424758243
 21
55.5612169223
  0
LINE
  5
58D
100
AcDbEntity
  8
606446769-000-00-ED1_FORMAT
100
AcDbLine
 62
2
  6
CONTINUOUS
 10
309.1516114228
 20
55.5612169223
 11
310.3449646491
 21
55.5612169223
  0
LINE
  5
58E
100
AcDbEntity
  8
606446769-000-00-ED1_FORMAT
100
AcDbLine
 62
2
  6
CONTINUOUS
 10
311.8041587888
 20
55.5612169223
 11
312.7687535783
 21
55.5612169223
  0
LINE
  5
58F
100
AcDbEntity
  8
606446769-000-00-ED1_FORMAT
100
AcDbLine
 62
2
  6
CONTINUOUS
 10
314.7385066587
 20
55.5612169223
 11
315.5381501108
 21
55.5612169223
  0
LINE
  5
590
100
AcDbEntity
  8
606446769-000-00-ED1_FORMAT
100
AcDbLine
 62
2
  6
CONTINUOUS
 10
316.9561037752
 20
55.5612169223
 11
318.1654360589
 21
55.5612169223
  0
LINE
  5
591
100
AcDbEntity
  8
606446769-000-00-ED1_FORMAT
100
AcDbLine
 62
2
  6
CONTINUOUS
 10
319.2068127099
 20
55.5612169223
 11
319.6064909387
 21
55.5612169223
  0
LINE
  5
592
100
AcDbEntity
  8
606446769-000-00-ED1_FORMAT
100
AcDbLine
 62
2
  6
CONTINUOUS
 10
305.0855867265
 20
55.6612169223
 11
305.4976754456
 21
55.6612169223
  0
LINE
  5
593
100
AcDbEntity
  8
606446769-000-00-ED1_FORMAT
100
AcDbLine
 62
2
  6
CONTINUOUS
 10
307.045925764
 20
55.6612169223
 11
307.9084589637
 21
55.6612169223
  0
LINE
  5
594
100
AcDbEntity
  8
606446769-000-00-ED1_FORMAT
100
AcDbLine
 62
2
  6
CONTINUOUS
 10
309.1516114228
 20
55.6612169223
 11
310.3717863489
 21
55.6612169223
  0
LINE
  5
595
100
AcDbEntity
  8
606446769-000-00-ED1_FORMAT
100
AcDbLine
 62
2
  6
CONTINUOUS
 10
311.7796558138
 20
55.6612169223
 11
312.7687535783
 21
55.6612169223
  0
LINE
  5
596
100
AcDbEntity
  8
606446769-000-00-ED1_FORMAT
100
AcDbLine
 62
2
  6
CONTINUOUS
 10
314.6299847361
 20
55.6612169223
 11
315.5602003116
 21
55.6612169223
  0
LINE
  5
597
100
AcDbEntity
  8
606446769-000-00-ED1_FORMAT
100
AcDbLine
 62
2
  6
CONTINUOUS
 10
316.9381118478
 20
55.6612169223
 11
318.1654360589
 21
55.6612169223
  0
LINE
  5
598
100
AcDbEntity
  8
606446769-000-00-ED1_FORMAT
100
AcDbLine
 62
2
  6
CONTINUOUS
 10
319.2068127099
 20
55.6612169223
 11
319.6064909387
 21
55.6612169223
  0
LINE
  5
599
100
AcDbEntity
  8
606446769-000-00-ED1_FORMAT
100
AcDbLine
 62
2
  6
CONTINUOUS
 10
305.0855867265
 20
55.7612169223
 11
305.4976754456
 21
55.7612169223
  0
LINE
  5
59A
100
AcDbEntity
  8
606446769-000-00-ED1_FORMAT
100
AcDbLine
 62
2
  6
CONTINUOUS
 10
307.0132308148
 20
55.7612169223
 11
307.974442103
 21
55.7612169223
  0
LINE
  5
59B
100
AcDbEntity
  8
606446769-000-00-ED1_FORMAT
100
AcDbLine
 62
2
  6
CONTINUOUS
 10
309.1516114228
 20
55.7612169223
 11
310.3986080486
 21
55.7612169223
  0
LINE
  5
59C
100
AcDbEntity
  8
606446769-000-00-ED1_FORMAT
100
AcDbLine
 62
2
  6
CONTINUOUS
 10
311.7551528388
 20
55.7612169223
 11
312.7687535783
 21
55.7612169223
  0
LINE
  5
59D
100
AcDbEntity
  8
606446769-000-00-ED1_FORMAT
100
AcDbLine
 62
2
  6
CONTINUOUS
 10
314.4704308002
 20
55.7612169223
 11
315.5822505124
 21
55.7612169223
  0
LINE
  5
59E
100
AcDbEntity
  8
606446769-000-00-ED1_FORMAT
100
AcDbLine
 62
2
  6
CONTINUOUS
 10
316.9201199204
 20
55.7612169223
 11
318.1654360589
 21
55.7612169223
  0
LINE
  5
59F
100
AcDbEntity
  8
606446769-000-00-ED1_FORMAT
100
AcDbLine
 62
2
  6
CONTINUOUS
 10
319.2068127099
 20
55.7612169223
 11
319.6064909387
 21
55.7612169223
  0
LINE
  5
5A0
100
AcDbEntity
  8
606446769-000-00-ED1_FORMAT
100
AcDbLine
 62
2
  6
CONTINUOUS
 10
305.0855867265
 20
55.8612169223
 11
305.4976754456
 21
55.8612169223
  0
LINE
  5
5A1
100
AcDbEntity
  8
606446769-000-00-ED1_FORMAT
100
AcDbLine
 62
2
  6
CONTINUOUS
 10
306.9805358656
 20
55.8612169223
 11
308.0404252424
 21
55.8612169223
  0
LINE
  5
5A2
100
AcDbEntity
  8
606446769-000-00-ED1_FORMAT
100
AcDbLine
 62
2
  6
CONTINUOUS
 10
309.1516114228
 20
55.8612169223
 11
310.4254297484
 21
55.8612169223
  0
LINE
  5
5A3
100
AcDbEntity
  8
606446769-000-00-ED1_FORMAT
100
AcDbLine
 62
2
  6
CONTINUOUS
 10
311.7306498637
 20
55.8612169223
 11
312.7687535783
 21
55.8612169223
  0
LINE
  5
5A4
100
AcDbEntity
  8
606446769-000-00-ED1_FORMAT
100
AcDbLine
 62
2
  6
CONTINUOUS
 10
314.2272767393
 20
55.8612169223
 11
315.6043007131
 21
55.8612169223
  0
LINE
  5
5A5
100
AcDbEntity
  8
606446769-000-00-ED1_FORMAT
100
AcDbLine
 62
2
  6
CONTINUOUS
 10
316.9021279929
 20
55.8612169223
 11
318.1654360589
 21
55.8612169223
  0
LINE
  5
5A6
100
AcDbEntity
  8
606446769-000-00-ED1_FORMAT
100
AcDbLine
 62
2
  6
CONTINUOUS
 10
319.2068127099
 20
55.8612169223
 11
319.6064909387
 21
55.8612169223
  0
LINE
  5
5A7
100
AcDbEntity
  8
606446769-000-00-ED1_FORMAT
100
AcDbLine
 62
2
  6
CONTINUOUS
 10
305.0855867265
 20
55.9612169223
 11
305.4976754456
 21
55.9612169223
  0
LINE
  5
5A8
100
AcDbEntity
  8
606446769-000-00-ED1_FORMAT
100
AcDbLine
 62
2
  6
CONTINUOUS
 10
306.9478409164
 20
55.9612169223
 11
308.1064083817
 21
55.9612169223
  0
LINE
  5
5A9
100
AcDbEntity
  8
606446769-000-00-ED1_FORMAT
100
AcDbLine
 62
2
  6
CONTINUOUS
 10
309.1516114228
 20
55.9612169223
 11
310.4522514481
 21
55.9612169223
  0
LINE
  5
5AA
100
AcDbEntity
  8
606446769-000-00-ED1_FORMAT
100
AcDbLine
 62
2
  6
CONTINUOUS
 10
310.5444356071
 20
55.9612169223
 11
315.6263509139
 21
55.9612169223
  0
LINE
  5
5AB
100
AcDbEntity
  8
606446769-000-00-ED1_FORMAT
100
AcDbLine
 62
2
  6
CONTINUOUS
 10
316.8841360655
 20
55.9612169223
 11
318.1654360589
 21
55.9612169223
  0
LINE
  5
5AC
100
AcDbEntity
  8
606446769-000-00-ED1_FORMAT
100
AcDbLine
 62
2
  6
CONTINUOUS
 10
319.2068127099
 20
55.9612169223
 11
319.6064909387
 21
55.9612169223
  0
LINE
  5
5AD
100
AcDbEntity
  8
606446769-000-00-ED1_FORMAT
100
AcDbLine
 62
2
  6
CONTINUOUS
 10
305.0855867265
 20
56.0612169223
 11
305.4976754456
 21
56.0612169223
  0
LINE
  5
5AE
100
AcDbEntity
  8
606446769-000-00-ED1_FORMAT
100
AcDbLine
 62
2
  6
CONTINUOUS
 10
306.9151459672
 20
56.0612169223
 11
308.1723915211
 21
56.0612169223
  0
LINE
  5
5AF
100
AcDbEntity
  8
606446769-000-00-ED1_FORMAT
100
AcDbLine
 62
2
  6
CONTINUOUS
 10
309.1516114228
 20
56.0612169223
 11
315.6484011147
 21
56.0612169223
  0
LINE
  5
5B0
100
AcDbEntity
  8
606446769-000-00-ED1_FORMAT
100
AcDbLine
 62
2
  6
CONTINUOUS
 10
316.8661441381
 20
56.0612169223
 11
318.1654360589
 21
56.0612169223
  0
LINE
  5
5B1
100
AcDbEntity
  8
606446769-000-00-ED1_FORMAT
100
AcDbLine
 62
2
  6
CONTINUOUS
 10
319.2068127099
 20
56.0612169223
 11
319.6064909387
 21
56.0612169223
  0
LINE
  5
5B2
100
AcDbEntity
  8
606446769-000-00-ED1_FORMAT
100
AcDbLine
 62
2
  6
CONTINUOUS
 10
305.0855867265
 20
56.1612169223
 11
305.4976754456
 21
56.1612169223
  0
LINE
  5
5B3
100
AcDbEntity
  8
606446769-000-00-ED1_FORMAT
100
AcDbLine
 62
2
  6
CONTINUOUS
 10
306.882451018
 20
56.1612169223
 11
307.0650673072
 21
56.1612169223
  0
LINE
  5
5B4
100
AcDbEntity
  8
606446769-000-00-ED1_FORMAT
100
AcDbLine
 62
2
  6
CONTINUOUS
 10
307.2244391185
 20
56.1612169223
 11
308.2383746604
 21
56.1612169223
  0
LINE
  5
5B5
100
AcDbEntity
  8
606446769-000-00-ED1_FORMAT
100
AcDbLine
 62
2
  6
CONTINUOUS
 10
308.9936781125
 20
56.1612169223
 11
315.9049870492
 21
56.1612169223
  0
LINE
  5
5B6
100
AcDbEntity
  8
606446769-000-00-ED1_FORMAT
100
AcDbLine
 62
2
  6
CONTINUOUS
 10
316.8481522107
 20
56.1612169223
 11
318.1654360589
 21
56.1612169223
  0
LINE
  5
5B7
100
AcDbEntity
  8
606446769-000-00-ED1_FORMAT
100
AcDbLine
 62
2
  6
CONTINUOUS
 10
319.2068127099
 20
56.1612169223
 11
319.6064909387
 21
56.1612169223
  0
LINE
  5
5B8
100
AcDbEntity
  8
606446769-000-00-ED1_FORMAT
100
AcDbLine
 62
2
  6
CONTINUOUS
 10
305.0855867265
 20
56.2612169223
 11
305.4976754456
 21
56.2612169223
  0
LINE
  5
5B9
100
AcDbEntity
  8
606446769-000-00-ED1_FORMAT
100
AcDbLine
 62
2
  6
CONTINUOUS
 10
306.8497560688
 20
56.2612169223
 11
307.0311892349
 21
56.2612169223
  0
LINE
  5
5BA
100
AcDbEntity
  8
606446769-000-00-ED1_FORMAT
100
AcDbLine
 62
2
  6
CONTINUOUS
 10
307.4387402694
 20
56.2612169223
 11
308.3043577998
 21
56.2612169223
  0
LINE
  5
5BB
100
AcDbEntity
  8
606446769-000-00-ED1_FORMAT
100
AcDbLine
 62
2
  6
CONTINUOUS
 10
308.5068560725
 20
56.2612169223
 11
316.3485939609
 21
56.2612169223
  0
LINE
  5
5BC
100
AcDbEntity
  8
606446769-000-00-ED1_FORMAT
100
AcDbLine
 62
2
  6
CONTINUOUS
 10
316.8301602832
 20
56.2612169223
 11
318.1654360589
 21
56.2612169223
  0
LINE
  5
5BD
100
AcDbEntity
  8
606446769-000-00-ED1_FORMAT
100
AcDbLine
 62
2
  6
CONTINUOUS
 10
319.2068127099
 20
56.2612169223
 11
319.6064909387
 21
56.2612169223
  0
LINE
  5
5BE
100
AcDbEntity
  8
606446769-000-00-ED1_FORMAT
100
AcDbLine
 62
2
  6
CONTINUOUS
 10
305.0855867265
 20
56.3612169223
 11
305.4976754456
 21
56.3612169223
  0
LINE
  5
5BF
100
AcDbEntity
  8
606446769-000-00-ED1_FORMAT
100
AcDbLine
 62
2
  6
CONTINUOUS
 10
306.8170611196
 20
56.3612169223
 11
306.9973111626
 21
56.3612169223
  0
LINE
  5
5C0
100
AcDbEntity
  8
606446769-000-00-ED1_FORMAT
100
AcDbLine
 62
2
  6
CONTINUOUS
 10
307.6530414203
 20
56.3612169223
 11
316.7922008727
 21
56.3612169223
  0
LINE
  5
5C1
100
AcDbEntity
  8
606446769-000-00-ED1_FORMAT
100
AcDbLine
 62
2
  6
CONTINUOUS
 10
316.8121683558
 20
56.3612169223
 11
317.7559843721
 21
56.3612169223
  0
LINE
  5
5C2
100
AcDbEntity
  8
606446769-000-00-ED1_FORMAT
100
AcDbLine
 62
2
  6
CONTINUOUS
 10
317.9768299493
 20
56.3612169223
 11
318.1654360589
 21
56.3612169223
  0
LINE
  5
5C3
100
AcDbEntity
  8
606446769-000-00-ED1_FORMAT
100
AcDbLine
 62
2
  6
CONTINUOUS
 10
319.2068127099
 20
56.3612169223
 11
319.6064909387
 21
56.3612169223
  0
LINE
  5
5C4
100
AcDbEntity
  8
606446769-000-00-ED1_FORMAT
100
AcDbLine
 62
2
  6
CONTINUOUS
 10
305.0855867265
 20
56.4612169223
 11
305.4976754456
 21
56.4612169223
  0
LINE
  5
5C5
100
AcDbEntity
  8
606446769-000-00-ED1_FORMAT
100
AcDbLine
 62
2
  6
CONTINUOUS
 10
306.7843661705
 20
56.4612169223
 11
306.9634330903
 21
56.4612169223
  0
LINE
  5
5C6
100
AcDbEntity
  8
606446769-000-00-ED1_FORMAT
100
AcDbLine
 62
2
  6
CONTINUOUS
 10
307.8673425713
 20
56.4612169223
 11
317.5337737463
 21
56.4612169223
  0
LINE
  5
5C7
100
AcDbEntity
  8
606446769-000-00-ED1_FORMAT
100
AcDbLine
 62
2
  6
CONTINUOUS
 10
317.9768299493
 20
56.4612169223
 11
318.1654360589
 21
56.4612169223
  0
LINE
  5
5C8
100
AcDbEntity
  8
606446769-000-00-ED1_FORMAT
100
AcDbLine
 62
2
  6
CONTINUOUS
 10
319.2068127099
 20
56.4612169223
 11
319.6064909387
 21
56.4612169223
  0
LINE
  5
5C9
100
AcDbEntity
  8
606446769-000-00-ED1_FORMAT
100
AcDbLine
 62
2
  6
CONTINUOUS
 10
305.0855867265
 20
56.5612169223
 11
305.4976754456
 21
56.5612169223
  0
LINE
  5
5CA
100
AcDbEntity
  8
606446769-000-00-ED1_FORMAT
100
AcDbLine
 62
2
  6
CONTINUOUS
 10
306.7516712213
 20
56.5612169223
 11
306.929555018
 21
56.5612169223
  0
LINE
  5
5CB
100
AcDbEntity
  8
606446769-000-00-ED1_FORMAT
100
AcDbLine
 62
2
  6
CONTINUOUS
 10
308.0816437222
 20
56.5612169223
 11
317.3115631205
 21
56.5612169223
  0
LINE
  5
5CC
100
AcDbEntity
  8
606446769-000-00-ED1_FORMAT
100
AcDbLine
 62
2
  6
CONTINUOUS
 10
317.9768299493
 20
56.5612169223
 11
318.1654360589
 21
56.5612169223
  0
LINE
  5
5CD
100
AcDbEntity
  8
606446769-000-00-ED1_FORMAT
100
AcDbLine
 62
2
  6
CONTINUOUS
 10
319.2068127099
 20
56.5612169223
 11
319.6064909387
 21
56.5612169223
  0
LINE
  5
5CE
100
AcDbEntity
  8
606446769-000-00-ED1_FORMAT
100
AcDbLine
 62
2
  6
CONTINUOUS
 10
305.0855867265
 20
56.6612169223
 11
305.4976754456
 21
56.6612169223
  0
LINE
  5
5CF
100
AcDbEntity
  8
606446769-000-00-ED1_FORMAT
100
AcDbLine
 62
2
  6
CONTINUOUS
 10
306.7189762721
 20
56.6612169223
 11
306.8956769457
 21
56.6612169223
  0
LINE
  5
5D0
100
AcDbEntity
  8
606446769-000-00-ED1_FORMAT
100
AcDbLine
 62
2
  6
CONTINUOUS
 10
308.2959448731
 20
56.6612169223
 11
317.0893524946
 21
56.6612169223
  0
LINE
  5
5D1
100
AcDbEntity
  8
606446769-000-00-ED1_FORMAT
100
AcDbLine
 62
2
  6
CONTINUOUS
 10
317.9768299493
 20
56.6612169223
 11
318.1654360589
 21
56.6612169223
  0
LINE
  5
5D2
100
AcDbEntity
  8
606446769-000-00-ED1_FORMAT
100
AcDbLine
 62
2
  6
CONTINUOUS
 10
319.2068127099
 20
56.6612169223
 11
319.6064909387
 21
56.6612169223
  0
LINE
  5
5D3
100
AcDbEntity
  8
606446769-000-00-ED1_FORMAT
100
AcDbLine
 62
2
  6
CONTINUOUS
 10
305.0855867265
 20
56.7612169223
 11
305.4976754456
 21
56.7612169223
  0
LINE
  5
5D4
100
AcDbEntity
  8
606446769-000-00-ED1_FORMAT
100
AcDbLine
 62
2
  6
CONTINUOUS
 10
306.6862813229
 20
56.7612169223
 11
306.8617988734
 21
56.7612169223
  0
LINE
  5
5D5
100
AcDbEntity
  8
606446769-000-00-ED1_FORMAT
100
AcDbLine
 62
2
  6
CONTINUOUS
 10
308.510246024
 20
56.7612169223
 11
316.8671418688
 21
56.7612169223
  0
LINE
  5
5D6
100
AcDbEntity
  8
606446769-000-00-ED1_FORMAT
100
AcDbLine
 62
2
  6
CONTINUOUS
 10
317.9768299493
 20
56.7612169223
 11
318.1654360589
 21
56.7612169223
  0
LINE
  5
5D7
100
AcDbEntity
  8
606446769-000-00-ED1_FORMAT
100
AcDbLine
 62
2
  6
CONTINUOUS
 10
319.2068127099
 20
56.7612169223
 11
319.6064909387
 21
56.7612169223
  0
LINE
  5
5D8
100
AcDbEntity
  8
606446769-000-00-ED1_FORMAT
100
AcDbLine
 62
2
  6
CONTINUOUS
 10
305.0855867265
 20
56.8612169223
 11
305.4976754456
 21
56.8612169223
  0
LINE
  5
5D9
100
AcDbEntity
  8
606446769-000-00-ED1_FORMAT
100
AcDbLine
 62
2
  6
CONTINUOUS
 10
306.6535863737
 20
56.8612169223
 11
306.8279208011
 21
56.8612169223
  0
LINE
  5
5DA
100
AcDbEntity
  8
606446769-000-00-ED1_FORMAT
100
AcDbLine
 62
2
  6
CONTINUOUS
 10
308.7245471749
 20
56.8612169223
 11
316.6449312429
 21
56.8612169223
  0
LINE
  5
5DB
100
AcDbEntity
  8
606446769-000-00-ED1_FORMAT
100
AcDbLine
 62
2
  6
CONTINUOUS
 10
317.9768299493
 20
56.8612169223
 11
318.1654360589
 21
56.8612169223
  0
LINE
  5
5DC
100
AcDbEntity
  8
606446769-000-00-ED1_FORMAT
100
AcDbLine
 62
2
  6
CONTINUOUS
 10
319.2068127099
 20
56.8612169223
 11
319.6064909387
 21
56.8612169223
  0
LINE
  5
5DD
100
AcDbEntity
  8
606446769-000-00-ED1_FORMAT
100
AcDbLine
 62
2
  6
CONTINUOUS
 10
305.0855867265
 20
56.9612169223
 11
305.4976754456
 21
56.9612169223
  0
LINE
  5
5DE
100
AcDbEntity
  8
606446769-000-00-ED1_FORMAT
100
AcDbLine
 62
2
  6
CONTINUOUS
 10
306.6208914245
 20
56.9612169223
 11
306.7940427288
 21
56.9612169223
  0
LINE
  5
5DF
100
AcDbEntity
  8
606446769-000-00-ED1_FORMAT
100
AcDbLine
 62
2
  6
CONTINUOUS
 10
308.9388483258
 20
56.9612169223
 11
316.4227206171
 21
56.9612169223
  0
LINE
  5
5E0
100
AcDbEntity
  8
606446769-000-00-ED1_FORMAT
100
AcDbLine
 62
2
  6
CONTINUOUS
 10
317.9768299493
 20
56.9612169223
 11
318.1654360589
 21
56.9612169223
  0
LINE
  5
5E1
100
AcDbEntity
  8
606446769-000-00-ED1_FORMAT
100
AcDbLine
 62
2
  6
CONTINUOUS
 10
319.2068127099
 20
56.9612169223
 11
319.6064909387
 21
56.9612169223
  0
LINE
  5
5E2
100
AcDbEntity
  8
606446769-000-00-ED1_FORMAT
100
AcDbLine
 62
2
  6
CONTINUOUS
 10
305.0855867265
 20
57.0612169223
 11
305.4976754456
 21
57.0612169223
  0
LINE
  5
5E3
100
AcDbEntity
  8
606446769-000-00-ED1_FORMAT
100
AcDbLine
 62
2
  6
CONTINUOUS
 10
306.5881964753
 20
57.0612169223
 11
306.7601646565
 21
57.0612169223
  0
LINE
  5
5E4
100
AcDbEntity
  8
606446769-000-00-ED1_FORMAT
100
AcDbLine
 62
2
  6
CONTINUOUS
 10
309.1531494768
 20
57.0612169223
 11
316.2005099913
 21
57.0612169223
  0
LINE
  5
5E5
100
AcDbEntity
  8
606446769-000-00-ED1_FORMAT
100
AcDbLine
 62
2
  6
CONTINUOUS
 10
317.9768299493
 20
57.0612169223
 11
318.3455606316
 21
57.0612169223
  0
LINE
  5
5E6
100
AcDbEntity
  8
606446769-000-00-ED1_FORMAT
100
AcDbLine
 62
2
  6
CONTINUOUS
 10
319.2068127099
 20
57.0612169223
 11
319.6064909387
 21
57.0612169223
  0
LINE
  5
5E7
100
AcDbEntity
  8
606446769-000-00-ED1_FORMAT
100
AcDbLine
 62
2
  6
CONTINUOUS
 10
305.0855867265
 20
57.1612169223
 11
305.4976754456
 21
57.1612169223
  0
LINE
  5
5E8
100
AcDbEntity
  8
606446769-000-00-ED1_FORMAT
100
AcDbLine
 62
2
  6
CONTINUOUS
 10
306.4555411246
 20
57.1612169223
 11
306.7262865842
 21
57.1612169223
  0
LINE
  5
5E9
100
AcDbEntity
  8
606446769-000-00-ED1_FORMAT
100
AcDbLine
 62
2
  6
CONTINUOUS
 10
309.3674506277
 20
57.1612169223
 11
315.9782993654
 21
57.1612169223
  0
LINE
  5
5EA
100
AcDbEntity
  8
606446769-000-00-ED1_FORMAT
100
AcDbLine
 62
2
  6
CONTINUOUS
 10
318.1329117395
 20
57.1612169223
 11
318.5860115167
 21
57.1612169223
  0
LINE
  5
5EB
100
AcDbEntity
  8
606446769-000-00-ED1_FORMAT
100
AcDbLine
 62
2
  6
CONTINUOUS
 10
319.2068127099
 20
57.1612169223
 11
319.5794487609
 21
57.1612169223
  0
LINE
  5
5EC
100
AcDbEntity
  8
606446769-000-00-ED1_FORMAT
100
AcDbLine
 62
2
  6
CONTINUOUS
 10
305.0855867265
 20
57.2612169223
 11
305.4976754456
 21
57.2612169223
  0
LINE
  5
5ED
100
AcDbEntity
  8
606446769-000-00-ED1_FORMAT
100
AcDbLine
 62
2
  6
CONTINUOUS
 10
306.2508372927
 20
57.2612169223
 11
306.6290258773
 21
57.2612169223
  0
LINE
  5
5EE
100
AcDbEntity
  8
606446769-000-00-ED1_FORMAT
100
AcDbLine
 62
2
  6
CONTINUOUS
 10
309.5817517786
 20
57.2612169223
 11
315.7560887396
 21
57.2612169223
  0
LINE
  5
5EF
100
AcDbEntity
  8
606446769-000-00-ED1_FORMAT
100
AcDbLine
 62
2
  6
CONTINUOUS
 10
318.3681701388
 20
57.2612169223
 11
318.8264624019
 21
57.2612169223
  0
LINE
  5
5F0
100
AcDbEntity
  8
606446769-000-00-ED1_FORMAT
100
AcDbLine
 62
2
  6
CONTINUOUS
 10
319.2068127099
 20
57.2612169223
 11
319.511321886
 21
57.2612169223
  0
LINE
  5
5F1
100
AcDbEntity
  8
606446769-000-00-ED1_FORMAT
100
AcDbLine
 62
2
  6
CONTINUOUS
 10
305.0855867265
 20
57.3612169223
 11
305.4976754456
 21
57.3612169223
  0
LINE
  5
5F2
100
AcDbEntity
  8
606446769-000-00-ED1_FORMAT
100
AcDbLine
 62
2
  6
CONTINUOUS
 10
306.0461334607
 20
57.3612169223
 11
306.4241101874
 21
57.3612169223
  0
LINE
  5
5F3
100
AcDbEntity
  8
606446769-000-00-ED1_FORMAT
100
AcDbLine
 62
2
  6
CONTINUOUS
 10
309.7960529295
 20
57.3612169223
 11
315.5338781138
 21
57.3612169223
  0
LINE
  5
5F4
100
AcDbEntity
  8
606446769-000-00-ED1_FORMAT
100
AcDbLine
 62
2
  6
CONTINUOUS
 10
318.603428538
 20
57.3612169223
 11
319.066913287
 21
57.3612169223
  0
LINE
  5
5F5
100
AcDbEntity
  8
606446769-000-00-ED1_FORMAT
100
AcDbLine
 62
2
  6
CONTINUOUS
 10
319.2068127099
 20
57.3612169223
 11
319.443195011
 21
57.3612169223
  0
LINE
  5
5F6
100
AcDbEntity
  8
606446769-000-00-ED1_FORMAT
100
AcDbLine
 62
2
  6
CONTINUOUS
 10
305.0855867265
 20
57.4612169223
 11
305.4976754456
 21
57.4612169223
  0
LINE
  5
5F7
100
AcDbEntity
  8
606446769-000-00-ED1_FORMAT
100
AcDbLine
 62
2
  6
CONTINUOUS
 10
305.8414296288
 20
57.4612169223
 11
306.2191944974
 21
57.4612169223
  0
LINE
  5
5F8
100
AcDbEntity
  8
606446769-000-00-ED1_FORMAT
100
AcDbLine
 62
2
  6
CONTINUOUS
 10
310.0103540804
 20
57.4612169223
 11
315.3116674879
 21
57.4612169223
  0
LINE
  5
5F9
100
AcDbEntity
  8
606446769-000-00-ED1_FORMAT
100
AcDbLine
 62
2
  6
CONTINUOUS
 10
318.8386869373
 20
57.4612169223
 11
319.375068136
 21
57.4612169223
  0
LINE
  5
5FA
100
AcDbEntity
  8
606446769-000-00-ED1_FORMAT
100
AcDbLine
 62
2
  6
CONTINUOUS
 10
305.0855867265
 20
57.5612169223
 11
305.4976754456
 21
57.5612169223
  0
LINE
  5
5FB
100
AcDbEntity
  8
606446769-000-00-ED1_FORMAT
100
AcDbLine
 62
2
  6
CONTINUOUS
 10
305.6367257968
 20
57.5612169223
 11
306.0142788074
 21
57.5612169223
  0
LINE
  5
5FC
100
AcDbEntity
  8
606446769-000-00-ED1_FORMAT
100
AcDbLine
 62
2
  6
CONTINUOUS
 10
310.2246552313
 20
57.5612169223
 11
315.0894568621
 21
57.5612169223
  0
LINE
  5
5FD
100
AcDbEntity
  8
606446769-000-00-ED1_FORMAT
100
AcDbLine
 62
2
  6
CONTINUOUS
 10
319.0739453365
 20
57.5612169223
 11
319.306941261
 21
57.5612169223
  0
LINE
  5
5FE
100
AcDbEntity
  8
606446769-000-00-ED1_FORMAT
100
AcDbLine
 62
2
  6
CONTINUOUS
 10
305.154016136
 20
57.6612169223
 11
305.8093631174
 21
57.6612169223
  0
LINE
  5
5FF
100
AcDbEntity
  8
606446769-000-00-ED1_FORMAT
100
AcDbLine
 62
2
  6
CONTINUOUS
 10
310.4389563822
 20
57.6612169223
 11
314.8672462362
 21
57.6612169223
  0
LINE
  5
600
100
AcDbEntity
  8
606446769-000-00-ED1_FORMAT
100
AcDbLine
 62
2
  6
CONTINUOUS
 10
305.3624826996
 20
57.7612169223
 11
305.6044474274
 21
57.7612169223
  0
LINE
  5
601
100
AcDbEntity
  8
606446769-000-00-ED1_FORMAT
100
AcDbLine
 62
2
  6
CONTINUOUS
 10
310.6532575332
 20
57.7612169223
 11
314.6450356104
 21
57.7612169223
  0
LINE
  5
602
100
AcDbEntity
  8
606446769-000-00-ED1_FORMAT
100
AcDbLine
 62
2
  6
CONTINUOUS
 10
310.8675586841
 20
57.8612169223
 11
314.4228249846
 21
57.8612169223
  0
LINE
  5
603
100
AcDbEntity
  8
606446769-000-00-ED1_FORMAT
100
AcDbLine
 62
2
  6
CONTINUOUS
 10
311.081859835
 20
57.9612169223
 11
314.2006143587
 21
57.9612169223
  0
LINE
  5
604
100
AcDbEntity
  8
606446769-000-00-ED1_FORMAT
100
AcDbLine
 62
2
  6
CONTINUOUS
 10
311.2961609859
 20
58.0612169223
 11
313.9784037329
 21
58.0612169223
  0
LINE
  5
605
100
AcDbEntity
  8
606446769-000-00-ED1_FORMAT
100
AcDbLine
 62
2
  6
CONTINUOUS
 10
311.5104621368
 20
58.1612169223
 11
313.756193107
 21
58.1612169223
  0
LINE
  5
606
100
AcDbEntity
  8
606446769-000-00-ED1_FORMAT
100
AcDbLine
 62
2
  6
CONTINUOUS
 10
311.7247632877
 20
58.2612169223
 11
313.5339824812
 21
58.2612169223
  0
LINE
  5
607
100
AcDbEntity
  8
606446769-000-00-ED1_FORMAT
100
AcDbLine
 62
2
  6
CONTINUOUS
 10
311.9390644386
 20
58.3612169223
 11
313.3117718554
 21
58.3612169223
  0
LINE
  5
608
100
AcDbEntity
  8
606446769-000-00-ED1_FORMAT
100
AcDbLine
 62
2
  6
CONTINUOUS
 10
312.1533655896
 20
58.4612169223
 11
313.0895612295
 21
58.4612169223
  0
LINE
  5
609
100
AcDbEntity
  8
606446769-000-00-ED1_FORMAT
100
AcDbLine
 62
2
  6
CONTINUOUS
 10
312.3676667405
 20
58.5612169223
 11
312.8673506037
 21
58.5612169223
  0
LINE
  5
60A
100
AcDbEntity
  8
606446769-000-00-ED1_FORMAT
100
AcDbLine
 62
2
  6
CONTINUOUS
 10
312.5819678914
 20
58.6612169223
 11
312.6451399778
 21
58.6612169223
  0
LINE
  5
60B
100
AcDbEntity
  8
606446769-000-00-ED1_FORMAT
100
AcDbLine
 62
7
  6
CONTINUOUS
 10
410.0
 20
58.9546825665
 11
365.999998592
 21
58.9546825665
  0
LINE
  5
60C
100
AcDbEntity
  8
606446769-000-00-ED1_FORMAT
100
AcDbLine
 62
2
  6
CONTINUOUS
 10
311.7224794206
 20
55.894561621
 11
311.4496882966
 21
55.9014380805
  0
LINE
  5
60D
100
AcDbEntity
  8
606446769-000-00-ED1_FORMAT
100
AcDbLine
 62
2
  6
CONTINUOUS
 10
311.7224794206
 20
55.894561621
 11
311.1712806703
 21
55.9102124213
  0
LINE
  5
60E
100
AcDbEntity
  8
606446769-000-00-ED1_FORMAT
100
AcDbLine
 62
2
  6
CONTINUOUS
 10
311.4496882966
 20
55.9014380805
 11
311.1712806703
 21
55.9102124213
  0
LINE
  5
60F
100
AcDbEntity
  8
606446769-000-00-ED1_FORMAT
100
AcDbLine
 62
2
  6
CONTINUOUS
 10
312.7687535783
 20
52.5591239173
 11
312.9504198167
 21
52.5526130553
  0
LINE
  5
610
100
AcDbEntity
  8
606446769-000-00-ED1_FORMAT
100
AcDbLine
 62
2
  6
CONTINUOUS
 10
313.7515477128
 20
55.1560492255
 11
313.6209822678
 21
55.162603099
  0
LINE
  5
611
100
AcDbEntity
  8
606446769-000-00-ED1_FORMAT
100
AcDbLine
 62
2
  6
CONTINUOUS
 10
311.1712806703
 20
55.9102124213
 11
310.8879963776
 21
55.9259116095
  0
LINE
  5
612
100
AcDbEntity
  8
606446769-000-00-ED1_FORMAT
100
AcDbLine
 62
2
  6
CONTINUOUS
 10
312.9504198167
 20
52.5526130553
 11
313.2565348267
 21
52.5334030555
  0
LINE
  5
613
100
AcDbEntity
  8
606446769-000-00-ED1_FORMAT
100
AcDbLine
 62
2
  6
CONTINUOUS
 10
313.5203541352
 20
52.5109618186
 11
313.6491481416
 21
52.5004132544
  0
LINE
  5
614
100
AcDbEntity
  8
606446769-000-00-ED1_FORMAT
100
AcDbLine
 62
2
  6
CONTINUOUS
 10
313.2565348267
 20
52.5334030555
 11
313.3911850007
 21
52.5222093192
  0
LINE
  5
615
100
AcDbEntity
  8
606446769-000-00-ED1_FORMAT
100
AcDbLine
 62
2
  6
CONTINUOUS
 10
313.2565348267
 20
52.5334030555
 11
313.6491481416
 21
52.5004132544
  0
LINE
  5
616
100
AcDbEntity
  8
606446769-000-00-ED1_FORMAT
100
AcDbLine
 62
2
  6
CONTINUOUS
 10
313.3911850007
 20
52.5222093192
 11
313.5203541352
 21
52.5109618186
  0
LINE
  5
617
100
AcDbEntity
  8
606446769-000-00-ED1_FORMAT
100
AcDbLine
 62
7
  6
CONTINUOUS
 10
135.000019298
 20
287.0000045341
 11
135.000019298
 21
259.0000098321
  0
LINE
  5
618
100
AcDbEntity
  8
606446769-000-00-ED1_FORMAT
100
AcDbLine
 62
7
  6
CONTINUOUS
 10
146.999991584
 20
65.00000176
 11
410.0
 21
65.00000176
  0
LINE
  5
619
100
AcDbEntity
  8
606446769-000-00-ED1_FORMAT
100
AcDbLine
 62
7
  6
CONTINUOUS
 10
146.999993584
 20
72.500002
 11
410.0
 21
72.500002
  0
LINE
  5
61A
100
AcDbEntity
  8
606446769-000-00-ED1_FORMAT
100
AcDbLine
 62
2
  6
CONTINUOUS
 10
310.8879963776
 20
55.9259116095
 11
310.6005648347
 21
55.9535357291
  0
LINE
  5
61B
100
AcDbEntity
  8
606446769-000-00-ED1_FORMAT
100
AcDbLine
 62
2
  6
CONTINUOUS
 10
316.4130664758
 20
53.6217008918
 11
316.0044268517
 21
53.6634865394
  0
LINE
  5
61C
100
AcDbEntity
  8
606446769-000-00-ED1_FORMAT
100
AcDbLine
 62
2
  6
CONTINUOUS
 10
314.8399247979
 20
52.3946910499
 11
315.8408084466
 21
52.2778396262
  0
LINE
  5
61D
100
AcDbEntity
  8
606446769-000-00-ED1_FORMAT
100
AcDbLine
 62
2
  6
CONTINUOUS
 10
313.8717033509
 20
55.14090381
 11
313.7515477128
 21
55.1560492255
  0
LINE
  5
61E
100
AcDbEntity
  8
606446769-000-00-ED1_FORMAT
100
AcDbLine
 62
2
  6
CONTINUOUS
 10
310.6005648347
 20
55.9535357291
 11
310.4555152741
 21
55.9733855246
  0
LINE
  5
61F
100
AcDbEntity
  8
606446769-000-00-ED1_FORMAT
100
AcDbLine
 62
2
  6
CONTINUOUS
 10
314.0345193986
 20
55.9111586738
 11
313.8726828523
 21
55.9364870559
  0
LINE
  5
620
100
AcDbEntity
  8
606446769-000-00-ED1_FORMAT
100
AcDbLine
 62
2
  6
CONTINUOUS
 10
315.9152088677
 20
52.6866529395
 11
316.4781928948
 21
52.5908825149
  0
LINE
  5
621
100
AcDbEntity
  8
606446769-000-00-ED1_FORMAT
100
AcDbLine
 62
2
  6
CONTINUOUS
 10
316.5117251855
 20
52.14662237
 11
317.609850393
 21
51.9276617057
  0
LINE
  5
622
100
AcDbEntity
  8
606446769-000-00-ED1_FORMAT
100
AcDbLine
 62
7
  6
CONTINUOUS
 10
146.999991584
 20
10.0
 11
146.999993584
 21
72.500002
  0
LINE
  5
623
100
AcDbEntity
  8
606446769-000-00-ED1_FORMAT
100
AcDbLine
 62
2
  6
CONTINUOUS
 10
309.1516114228
 20
56.1287752295
 11
308.3285281083
 21
56.2978479598
  0
LINE
  5
624
100
AcDbEntity
  8
606446769-000-00-ED1_FORMAT
100
AcDbLine
 62
2
  6
CONTINUOUS
 10
314.1823667901
 20
55.8760075461
 11
314.0345193986
 21
55.9111586738
  0
LINE
  5
625
100
AcDbEntity
  8
606446769-000-00-ED1_FORMAT
100
AcDbLine
 62
2
  6
CONTINUOUS
 10
313.9792609345
 20
55.1134248542
 11
313.8717033509
 21
55.14090381
  0
LINE
  5
626
100
AcDbEntity
  8
606446769-000-00-ED1_FORMAT
100
AcDbLine
 62
7
  6
CONTINUOUS
 10
154.499993824
 20
65.00000176
 11
154.499993824
 21
72.500002
  0
LINE
  5
627
100
AcDbEntity
  8
606446769-000-00-ED1_FORMAT
100
AcDbLine
 62
3
  6
CONTINUOUS
 10
160.0
 20
10.0
 11
160.0
 21
5.0
  0
LINE
  5
628
100
AcDbEntity
  8
606446769-000-00-ED1_FORMAT
100
AcDbLine
 62
3
  6
CONTINUOUS
 10
160.0
 20
287.0
 11
160.0
 21
292.0
  0
LINE
  5
629
100
AcDbEntity
  8
606446769-000-00-ED1_FORMAT
100
AcDbLine
 62
7
  6
CONTINUOUS
 10
161.999994064
 20
65.00000176
 11
161.999994064
 21
72.500002
  0
LINE
  5
62A
100
AcDbEntity
  8
606446769-000-00-ED1_FORMAT
100
AcDbLine
 62
3
  6
CONTINUOUS
 10
22.9999999122
 20
93.4999984459
 11
28.9999998068
 21
93.4999984459
  0
LINE
  5
62B
100
AcDbEntity
  8
606446769-000-00-ED1_FORMAT
100
AcDbLine
 62
3
  6
CONTINUOUS
 10
23.0
 20
98.5
 11
18.0
 21
98.5
  0
LINE
  5
62C
100
AcDbEntity
  8
606446769-000-00-ED1_FORMAT
100
AcDbLine
 62
3
  6
CONTINUOUS
 10
410.0
 20
98.5
 11
415.0
 21
98.5
  0
LINE
  5
62D
100
AcDbEntity
  8
606446769-000-00-ED1_FORMAT
100
AcDbLine
 62
2
  6
CONTINUOUS
 10
314.3167043572
 20
55.8317648681
 11
314.1823667901
 21
55.8760075461
  0
LINE
  5
62E
100
AcDbEntity
  8
606446769-000-00-ED1_FORMAT
100
AcDbLine
 62
2
  6
CONTINUOUS
 10
319.559328991
 20
52.4583050208
 11
320.5409560601
 21
52.0636854941
  0
LINE
  5
62F
100
AcDbEntity
  8
606446769-000-00-ED1_FORMAT
100
AcDbLine
 62
2
  6
CONTINUOUS
 10
320.1383810082
 20
51.9501352012
 11
319.2068127099
 21
52.3385073111
  0
LINE
  5
630
100
AcDbEntity
  8
606446769-000-00-ED1_FORMAT
100
AcDbLine
 62
2
  6
CONTINUOUS
 10
314.4380166406
 20
55.7791618346
 11
314.3167043572
 21
55.8317648681
  0
LINE
  5
631
100
AcDbEntity
  8
606446769-000-00-ED1_FORMAT
100
AcDbLine
 62
2
  6
CONTINUOUS
 10
307.412287964
 20
52.0724060706
 11
306.724938527
 21
52.4154010749
  0
LINE
  5
632
100
AcDbEntity
  8
606446769-000-00-ED1_FORMAT
100
AcDbLine
 62
2
  6
CONTINUOUS
 10
302.29999432
 20
54.25000176
 11
305.0850031937
 21
52.8486018943
  0
LINE
  5
633
100
AcDbEntity
  8
606446769-000-00-ED1_FORMAT
100
AcDbLine
 62
2
  6
CONTINUOUS
 10
306.7254647485
 20
52.0231256736
 11
312.6103036057
 21
49.0619039283
  0
LINE
  5
634
100
AcDbEntity
  8
606446769-000-00-ED1_FORMAT
100
AcDbLine
 62
2
  6
CONTINUOUS
 10
305.0850031937
 20
53.2406138503
 11
303.1029301255
 21
54.2379800528
  0
LINE
  5
635
100
AcDbEntity
  8
606446769-000-00-ED1_FORMAT
100
AcDbLine
 62
2
  6
CONTINUOUS
 10
312.6129816041
 20
49.4525663993
 11
306.724938527
 21
52.4154010749
  0
LINE
  5
636
100
AcDbEntity
  8
606446769-000-00-ED1_FORMAT
100
AcDbLine
 62
2
  6
CONTINUOUS
 10
305.491402469
 20
50.7036949256
 11
305.0850031937
 21
50.9150103003
  0
LINE
  5
637
100
AcDbEntity
  8
606446769-000-00-ED1_FORMAT
100
AcDbLine
 62
7
  6
CONTINUOUS
 10
171.3988033648
 20
65.00000176
 11
171.3988033648
 21
72.500002
  0
LINE
  5
638
100
AcDbEntity
  8
606446769-000-00-ED1_FORMAT
100
AcDbLine
 62
7
  6
CONTINUOUS
 10
176.3988035248
 20
65.00000176
 11
176.3988035248
 21
72.500002
  0
LINE
  5
639
100
AcDbEntity
  8
606446769-000-00-ED1_FORMAT
100
AcDbLine
 62
2
  6
CONTINUOUS
 10
319.6064909387
 20
55.5284318198
 11
322.4740123803
 21
54.2379800528
  0
LINE
  5
63A
100
AcDbEntity
  8
606446769-000-00-ED1_FORMAT
100
AcDbLine
 62
2
  6
CONTINUOUS
 10
312.6129816041
 20
58.6756889457
 11
317.9768299493
 21
56.2618312262
  0
LINE
  5
63B
100
AcDbEntity
  8
606446769-000-00-ED1_FORMAT
100
AcDbLine
 62
2
  6
CONTINUOUS
 10
323.3012846261
 20
54.2500824065
 11
319.6064909387
 21
55.9128307448
  0
LINE
  5
63C
100
AcDbEntity
  8
606446769-000-00-ED1_FORMAT
100
AcDbLine
 62
2
  6
CONTINUOUS
 10
317.9768299493
 20
56.6462193984
 11
312.6104703294
 21
59.0612169219
  0
LINE
  5
63D
100
AcDbEntity
  8
606446769-000-00-ED1_FORMAT
100
AcDbLine
 62
2
  6
CONTINUOUS
 10
314.0720426362
 20
55.0698542304
 11
313.9792609345
 21
55.1134248542
  0
LINE
  5
63E
100
AcDbEntity
  8
606446769-000-00-ED1_FORMAT
100
AcDbLine
 62
2
  6
CONTINUOUS
 10
305.4845042786
 20
57.8197498481
 11
306.7049629517
 21
57.2241592063
  0
LINE
  5
63F
100
AcDbEntity
  8
606446769-000-00-ED1_FORMAT
100
AcDbLine
 62
2
  6
CONTINUOUS
 10
306.5745017091
 20
57.103103411
 11
305.4976754456
 21
57.6291444983
  0
LINE
  5
640
100
AcDbEntity
  8
606446769-000-00-ED1_FORMAT
100
AcDbLine
 62
2
  6
CONTINUOUS
 10
318.1654360589
 20
51.7783204894
 11
320.1383810082
 21
50.7511580878
  0
LINE
  5
641
100
AcDbEntity
  8
606446769-000-00-ED1_FORMAT
100
AcDbLine
 62
2
  6
CONTINUOUS
 10
320.1637855218
 20
50.5303156714
 11
317.9768299493
 21
51.6789962417
  0
LINE
  5
642
100
AcDbEntity
  8
606446769-000-00-ED1_FORMAT
100
AcDbLine
 62
2
  6
CONTINUOUS
 10
314.5468246514
 20
55.7189242644
 11
314.4380166406
 21
55.7791618346
  0
LINE
  5
643
100
AcDbEntity
  8
606446769-000-00-ED1_FORMAT
100
AcDbLine
 62
2
  6
CONTINUOUS
 10
314.6435868798
 20
55.6517779761
 11
314.5468246514
 21
55.7189242644
  0
LINE
  5
644
100
AcDbEntity
  8
606446769-000-00-ED1_FORMAT
100
AcDbLine
 62
7
  6
CONTINUOUS
 10
207.999993536
 20
65.00000176
 11
207.999993536
 21
72.500002
  0
LINE
  5
645
100
AcDbEntity
  8
606446769-000-00-ED1_FORMAT
100
AcDbLine
 62
7
  6
CONTINUOUS
 10
210.0
 20
292.0
 11
210.0
 21
277.0
  0
LINE
  5
646
100
AcDbEntity
  8
606446769-000-00-ED1_FORMAT
100
AcDbLine
 62
3
  6
CONTINUOUS
 10
210.0
 20
10.0
 11
210.0
 21
5.0
  0
LINE
  5
647
100
AcDbEntity
  8
606446769-000-00-ED1_FORMAT
100
AcDbLine
 62
7
  6
CONTINUOUS
 10
415.0
 20
148.5
 11
400.0
 21
148.5
  0
LINE
  5
648
100
AcDbEntity
  8
606446769-000-00-ED1_FORMAT
100
AcDbLine
 62
7
  6
CONTINUOUS
 10
18.0
 20
148.5
 11
33.0
 21
148.5
  0
LINE
  5
649
100
AcDbEntity
  8
606446769-000-00-ED1_FORMAT
100
AcDbLine
 62
3
  6
CONTINUOUS
 10
23.0
 20
148.515014696
 11
29.000000192
 21
148.515014696
  0
LINE
  5
64A
100
AcDbEntity
  8
606446769-000-00-ED1_FORMAT
100
AcDbLine
 62
2
  6
CONTINUOUS
 10
314.1478289475
 20
55.0064553168
 11
314.0720426362
 21
55.0698542304
  0
LINE
  5
64B
100
AcDbEntity
  8
606446769-000-00-ED1_FORMAT
100
AcDbLine
 62
7
  6
CONTINUOUS
 10
223.999992048
 20
10.0
 11
223.999992048
 21
65.00000176
  0
LINE
  5
64C
100
AcDbEntity
  8
606446769-000-00-ED1_FORMAT
100
AcDbLine
 62
2
  6
CONTINUOUS
 10
314.8029955132
 20
55.4996894019
 11
314.6435868798
 21
55.6517779761
  0
LINE
  5
64D
100
AcDbEntity
  8
606446769-000-00-ED1_FORMAT
100
AcDbLine
 62
2
  6
CONTINUOUS
 10
314.9202022271
 20
55.3287187903
 11
314.8029955132
 21
55.4996894019
  0
LINE
  5
64E
100
AcDbEntity
  8
606446769-000-00-ED1_FORMAT
100
AcDbLine
 62
2
  6
CONTINUOUS
 10
319.2546207116
 20
57.638015615
 11
319.6064909387
 21
57.121523075
  0
LINE
  5
64F
100
AcDbEntity
  8
606446769-000-00-ED1_FORMAT
100
AcDbLine
 62
2
  6
CONTINUOUS
 10
314.2044576714
 20
54.9194538566
 11
314.1478289475
 21
55.0064553168
  0
LINE
  5
650
100
AcDbEntity
  8
606446769-000-00-ED1_FORMAT
100
AcDbLine
 62
3
  6
CONTINUOUS
 10
260.0
 20
10.0
 11
260.0
 21
5.0
  0
LINE
  5
651
100
AcDbEntity
  8
606446769-000-00-ED1_FORMAT
100
AcDbLine
 62
3
  6
CONTINUOUS
 10
260.0
 20
287.0
 11
260.0
 21
292.0
  0
LINE
  5
652
100
AcDbEntity
  8
606446769-000-00-ED1_FORMAT
100
AcDbLine
 62
7
  6
CONTINUOUS
 10
260.999993232
 20
43.500001072
 11
260.999993232
 21
35.0000008
  0
LINE
  5
653
100
AcDbEntity
  8
606446769-000-00-ED1_FORMAT
100
AcDbLine
 62
7
  6
CONTINUOUS
 10
264.9013593819
 20
287.0
 11
264.9013593819
 21
225.000007
  0
LINE
  5
654
100
AcDbEntity
  8
606446769-000-00-ED1_FORMAT
100
AcDbLine
 62
3
  6
CONTINUOUS
 10
23.0
 20
198.5
 11
18.0
 21
198.5
  0
LINE
  5
655
100
AcDbEntity
  8
606446769-000-00-ED1_FORMAT
100
AcDbLine
 62
3
  6
CONTINUOUS
 10
410.0
 20
198.5
 11
415.0
 21
198.5
  0
LINE
  5
656
100
AcDbEntity
  8
606446769-000-00-ED1_FORMAT
100
AcDbLine
 62
2
  6
CONTINUOUS
 10
314.9642172662
 20
55.2379753318
 11
314.9202022271
 21
55.3287187903
  0
LINE
  5
657
100
AcDbEntity
  8
606446769-000-00-ED1_FORMAT
100
AcDbLine
 62
2
  6
CONTINUOUS
 10
306.5876624558
 20
54.1095262839
 11
307.412287964
 21
52.0724060706
  0
LINE
  5
658
100
AcDbEntity
  8
606446769-000-00-ED1_FORMAT
100
AcDbLine
 62
7
  6
CONTINUOUS
 10
274.9014193732
 20
225.000007
 11
274.9014193732
 21
287.0000007463
  0
LINE
  5
659
100
AcDbEntity
  8
606446769-000-00-ED1_FORMAT
100
AcDbLine
 62
3
  6
CONTINUOUS
 10
28.9999998068
 20
209.9999964
 11
22.9999999122
 21
209.9999964
  0
LINE
  5
65A
100
AcDbEntity
  8
606446769-000-00-ED1_FORMAT
100
AcDbLine
 62
2
  6
CONTINUOUS
 10
314.9991458672
 20
55.1446941962
 11
314.9642172662
 21
55.2379753318
  0
LINE
  5
65B
100
AcDbEntity
  8
606446769-000-00-ED1_FORMAT
100
AcDbLine
 62
2
  6
CONTINUOUS
 10
306.7049629517
 20
57.2241592063
 11
307.0868225922
 21
56.0970005027
  0
LINE
  5
65C
100
AcDbEntity
  8
606446769-000-00-ED1_FORMAT
100
AcDbLine
 62
2
  6
CONTINUOUS
 10
307.3317083482
 20
54.7871290549
 11
306.5745017091
 21
57.103103411
  0
LINE
  5
65D
100
AcDbEntity
  8
606446769-000-00-ED1_FORMAT
100
AcDbLine
 62
2
  6
CONTINUOUS
 10
314.2397405602
 20
54.8051239806
 11
314.2044576714
 21
54.9194538566
  0
LINE
  5
65E
100
AcDbEntity
  8
606446769-000-00-ED1_FORMAT
100
AcDbLine
 62
7
  6
CONTINUOUS
 10
294.99999432
 20
65.00000176
 11
294.99999432
 21
35.0000008
  0
LINE
  5
65F
100
AcDbEntity
  8
606446769-000-00-ED1_FORMAT
100
AcDbLine
 62
7
  6
CONTINUOUS
 10
264.9013593819
 20
225.000007
 11
410.0000007463
 21
225.000007
  0
LINE
  5
660
100
AcDbEntity
  8
606446769-000-00-ED1_FORMAT
100
AcDbLine
 62
7
  6
CONTINUOUS
 10
274.9014193732
 20
229.5500015411
 11
376.900004085
 21
229.5500015411
  0
LINE
  5
661
100
AcDbEntity
  8
606446769-000-00-ED1_FORMAT
100
AcDbLine
 62
7
  6
CONTINUOUS
 10
264.9013593819
 20
234.0999960821
 11
410.0000007463
 21
234.0999960821
  0
LINE
  5
662
100
AcDbEntity
  8
606446769-000-00-ED1_FORMAT
100
AcDbLine
 62
2
  6
CONTINUOUS
 10
312.5391021943
 20
52.5618121345
 11
311.7224794206
 21
55.894561621
  0
LINE
  5
663
100
AcDbEntity
  8
606446769-000-00-ED1_FORMAT
100
AcDbLine
 62
2
  6
CONTINUOUS
 10
315.0437861199
 20
54.9534544272
 11
314.9991458672
 21
55.1446941962
  0
LINE
  5
664
100
AcDbEntity
  8
606446769-000-00-ED1_FORMAT
100
AcDbLine
 62
2
  6
CONTINUOUS
 10
311.3784660447
 20
53.2094789191
 11
311.5221922364
 21
52.5294029883
  0
LINE
  5
665
100
AcDbEntity
  8
606446769-000-00-ED1_FORMAT
100
AcDbLine
 62
2
  6
CONTINUOUS
 10
311.0311598771
 20
55.1588611007
 11
311.2880080537
 21
53.9326200889
  0
LINE
  5
666
100
AcDbEntity
  8
606446769-000-00-ED1_FORMAT
100
AcDbLine
 62
2
  6
CONTINUOUS
 10
317.609850393
 20
51.9276617057
 11
316.811390075
 21
56.3655426444
  0
LINE
  5
667
100
AcDbEntity
  8
606446769-000-00-ED1_FORMAT
100
AcDbLine
 62
2
  6
CONTINUOUS
 10
314.2397405602
 20
54.8051239806
 11
314.2514528954
 21
54.659702185
  0
LINE
  5
668
100
AcDbEntity
  8
606446769-000-00-ED1_FORMAT
100
AcDbLine
 62
2
  6
CONTINUOUS
 10
316.4781928948
 20
52.5908825149
 11
316.5117251855
 21
52.14662237
  0
LINE
  5
669
100
AcDbEntity
  8
606446769-000-00-ED1_FORMAT
100
AcDbLine
 62
2
  6
CONTINUOUS
 10
313.6209822678
 20
55.162603099
 11
313.62612986
 21
54.0232237601
  0
LINE
  5
66A
100
AcDbEntity
  8
606446769-000-00-ED1_FORMAT
100
AcDbLine
 62
2
  6
CONTINUOUS
 10
313.6491481416
 20
52.5004132544
 11
313.6478560334
 21
53.2465010459
  0
LINE
  5
66B
100
AcDbEntity
  8
606446769-000-00-ED1_FORMAT
100
AcDbLine
 62
2
  6
CONTINUOUS
 10
306.724938527
 20
52.4154010749
 11
306.7262827363
 21
51.4182069182
  0
LINE
  5
66C
100
AcDbEntity
  8
606446769-000-00-ED1_FORMAT
100
AcDbLine
 62
7
  6
CONTINUOUS
 10
299.9999903875
 20
10.0
 11
299.999990634
 21
24.250000456
  0
LINE
  5
66D
100
AcDbEntity
  8
606446769-000-00-ED1_FORMAT
100
AcDbLine
 62
2
  6
CONTINUOUS
 10
305.0850031937
 20
50.9150103003
 11
305.0850031937
 21
53.2406138503
  0
LINE
  5
66E
100
AcDbEntity
  8
606446769-000-00-ED1_FORMAT
100
AcDbLine
 62
2
  6
CONTINUOUS
 10
305.0855867265
 20
55.1631246131
 11
305.0855867265
 21
57.6283917975
  0
LINE
  5
66F
100
AcDbEntity
  8
606446769-000-00-ED1_FORMAT
100
AcDbLine
 62
2
  6
CONTINUOUS
 10
305.4976754456
 20
57.6291444983
 11
305.4976754456
 21
50.923187857
  0
LINE
  5
670
100
AcDbEntity
  8
606446769-000-00-ED1_FORMAT
100
AcDbLine
 62
2
  6
CONTINUOUS
 10
306.5876624558
 20
51.5376981711
 11
306.5876624558
 21
54.1095262839
  0
LINE
  5
671
100
AcDbEntity
  8
606446769-000-00-ED1_FORMAT
100
AcDbLine
 62
2
  6
CONTINUOUS
 10
308.1737564759
 20
53.919834928
 11
308.1737564759
 21
52.0267386374
  0
LINE
  5
672
100
AcDbEntity
  8
606446769-000-00-ED1_FORMAT
100
AcDbLine
 62
2
  6
CONTINUOUS
 10
309.1516114228
 20
52.2473767493
 11
309.1516114228
 21
56.1287752295
  0
LINE
  5
673
100
AcDbEntity
  8
606446769-000-00-ED1_FORMAT
100
AcDbLine
 62
3
  6
CONTINUOUS
 10
310.0
 20
10.0
 11
310.0
 21
5.0
  0
LINE
  5
674
100
AcDbEntity
  8
606446769-000-00-ED1_FORMAT
100
AcDbLine
 62
3
  6
CONTINUOUS
 10
310.0
 20
287.0
 11
310.0
 21
292.0
  0
LINE
  5
675
100
AcDbEntity
  8
606446769-000-00-ED1_FORMAT
100
AcDbLine
 62
2
  6
CONTINUOUS
 10
312.7687535783
 20
55.9176103949
 11
312.7687535783
 21
52.5591239173
  0
LINE
  5
676
100
AcDbEntity
  8
606446769-000-00-ED1_FORMAT
100
AcDbLine
 62
7
  6
CONTINUOUS
 10
314.0000008808
 20
65.00000176
 11
314.0000008808
 21
72.500002
  0
LINE
  5
677
100
AcDbEntity
  8
606446769-000-00-ED1_FORMAT
100
AcDbLine
 62
7
  6
CONTINUOUS
 10
274.9014193732
 20
238.6499906232
 11
376.900004085
 21
238.6499906232
  0
LINE
  5
678
100
AcDbEntity
  8
606446769-000-00-ED1_FORMAT
100
AcDbLine
 62
7
  6
CONTINUOUS
 10
264.9013593819
 20
243.1999851642
 11
410.0000007463
 21
243.1999851642
  0
LINE
  5
679
100
AcDbEntity
  8
606446769-000-00-ED1_FORMAT
100
AcDbLine
 62
7
  6
CONTINUOUS
 10
274.9014193732
 20
247.7499797053
 11
376.900004085
 21
247.7499797053
  0
LINE
  5
67A
100
AcDbEntity
  8
606446769-000-00-ED1_FORMAT
100
AcDbLine
 62
3
  6
CONTINUOUS
 10
23.0
 20
248.5
 11
18.0
 21
248.5
  0
LINE
  5
67B
100
AcDbEntity
  8
606446769-000-00-ED1_FORMAT
100
AcDbLine
 62
3
  6
CONTINUOUS
 10
410.0
 20
248.5
 11
415.0
 21
248.5
  0
LINE
  5
67C
100
AcDbEntity
  8
606446769-000-00-ED1_FORMAT
100
AcDbLine
 62
7
  6
CONTINUOUS
 10
264.9013593819
 20
252.2999732463
 11
410.0000007463
 21
252.2999732463
  0
LINE
  5
67D
100
AcDbEntity
  8
606446769-000-00-ED1_FORMAT
100
AcDbLine
 62
2
  6
CONTINUOUS
 10
316.1995560235
 20
55.0577518767
 11
316.4130664758
 21
53.6217008918
  0
LINE
  5
67E
100
AcDbEntity
  8
606446769-000-00-ED1_FORMAT
100
AcDbLine
 62
2
  6
CONTINUOUS
 10
315.0549566033
 20
54.8569420546
 11
315.0437861199
 21
54.9534544272
  0
LINE
  5
67F
100
AcDbEntity
  8
606446769-000-00-ED1_FORMAT
100
AcDbLine
 62
2
  6
CONTINUOUS
 10
315.0549566033
 20
54.6206692717
 11
315.0549566033
 21
54.8569420546
  0
LINE
  5
680
100
AcDbEntity
  8
606446769-000-00-ED1_FORMAT
100
AcDbLine
 62
2
  6
CONTINUOUS
 10
317.9768299493
 20
51.6789962417
 11
317.9768299493
 21
52.0552391158
  0
LINE
  5
681
100
AcDbEntity
  8
606446769-000-00-ED1_FORMAT
100
AcDbLine
 62
2
  6
CONTINUOUS
 10
317.9768299493
 20
56.2618312262
 11
317.9768299493
 21
57.09487209
  0
LINE
  5
682
100
AcDbEntity
  8
606446769-000-00-ED1_FORMAT
100
AcDbLine
 62
2
  6
CONTINUOUS
 10
318.1654360589
 20
56.9863057517
 11
318.1654360589
 21
51.7783204894
  0
LINE
  5
683
100
AcDbEntity
  8
606446769-000-00-ED1_FORMAT
100
AcDbLine
 62
2
  6
CONTINUOUS
 10
319.2068127099
 20
52.3385073111
 11
319.2068127099
 21
57.4193990424
  0
LINE
  5
684
100
AcDbEntity
  8
606446769-000-00-ED1_FORMAT
100
AcDbLine
 62
2
  6
CONTINUOUS
 10
319.559328991
 20
52.8235369574
 11
319.559328991
 21
52.4583050208
  0
LINE
  5
685
100
AcDbEntity
  8
606446769-000-00-ED1_FORMAT
100
AcDbLine
 62
2
  6
CONTINUOUS
 10
319.6064909387
 20
57.121523075
 11
319.6064909387
 21
55.5284318198
  0
LINE
  5
686
100
AcDbEntity
  8
606446769-000-00-ED1_FORMAT
100
AcDbLine
 62
2
  6
CONTINUOUS
 10
320.1383810082
 20
50.7511580878
 11
320.1383810082
 21
51.9501352012
  0
LINE
  5
687
100
AcDbEntity
  8
606446769-000-00-ED1_FORMAT
100
AcDbLine
 62
2
  6
CONTINUOUS
 10
320.5409560601
 20
52.0636854941
 11
320.5409560601
 21
50.825024919
  0
LINE
  5
688
100
AcDbEntity
  8
606446769-000-00-ED1_FORMAT
100
AcDbLine
 62
2
  6
CONTINUOUS
 10
314.2514528954
 20
54.659702185
 11
314.2408242638
 21
54.4987801291
  0
LINE
  5
689
100
AcDbEntity
  8
606446769-000-00-ED1_FORMAT
100
AcDbLine
 62
2
  6
CONTINUOUS
 10
315.0287393121
 20
54.3602885573
 11
315.0549566033
 21
54.6206692717
  0
LINE
  5
68A
100
AcDbEntity
  8
606446769-000-00-ED1_FORMAT
100
AcDbLine
 62
2
  6
CONTINUOUS
 10
316.1995560235
 20
55.0577518767
 11
316.0044268517
 21
53.6634865394
  0
LINE
  5
68B
100
AcDbEntity
  8
606446769-000-00-ED1_FORMAT
100
AcDbLine
 62
2
  6
CONTINUOUS
 10
310.5265291215
 20
52.4458639518
 11
310.6816029405
 21
53.1572307303
  0
LINE
  5
68C
100
AcDbEntity
  8
606446769-000-00-ED1_FORMAT
100
AcDbLine
 62
2
  6
CONTINUOUS
 10
311.0311598771
 20
55.1588611007
 11
310.7557428559
 21
53.9038776709
  0
LINE
  5
68D
100
AcDbEntity
  8
606446769-000-00-ED1_FORMAT
100
AcDbLine
 62
7
  6
CONTINUOUS
 10
274.9014193732
 20
256.8499677874
 11
376.900004085
 21
256.8499677874
  0
LINE
  5
68E
100
AcDbEntity
  8
606446769-000-00-ED1_FORMAT
100
AcDbLine
 62
7
  6
CONTINUOUS
 10
135.0000610636
 20
259.0000097341
 11
23.0001
 21
259.0000097341
  0
LINE
  5
68F
100
AcDbEntity
  8
606446769-000-00-ED1_FORMAT
100
AcDbLine
 62
7
  6
CONTINUOUS
 10
264.9013593819
 20
261.3999623285
 11
410.0000007463
 21
261.3999623285
  0
LINE
  5
690
100
AcDbEntity
  8
606446769-000-00-ED1_FORMAT
100
AcDbLine
 62
7
  6
CONTINUOUS
 10
135.0000610636
 20
265.0000076482
 11
23.0001
 21
265.0000076482
  0
LINE
  5
691
100
AcDbEntity
  8
606446769-000-00-ED1_FORMAT
100
AcDbLine
 62
7
  6
CONTINUOUS
 10
274.9014193732
 20
265.9499568695
 11
376.900004085
 21
265.9499568695
  0
LINE
  5
692
100
AcDbEntity
  8
606446769-000-00-ED1_FORMAT
100
AcDbLine
 62
2
  6
CONTINUOUS
 10
315.8408084466
 20
52.2778396262
 11
315.9152088677
 21
52.6866529395
  0
LINE
  5
693
100
AcDbEntity
  8
606446769-000-00-ED1_FORMAT
100
AcDbLine
 62
2
  6
CONTINUOUS
 10
315.6581835473
 20
56.1055812919
 11
314.8399247979
 21
52.3946910499
  0
LINE
  5
694
100
AcDbEntity
  8
606446769-000-00-ED1_FORMAT
100
AcDbLine
 62
2
  6
CONTINUOUS
 10
314.2408242638
 20
54.4987801291
 11
314.2106472863
 21
54.3649284202
  0
LINE
  5
695
100
AcDbEntity
  8
606446769-000-00-ED1_FORMAT
100
AcDbLine
 62
2
  6
CONTINUOUS
 10
314.9760546441
 20
54.126634098
 11
315.0287393121
 21
54.3602885573
  0
LINE
  5
696
100
AcDbEntity
  8
606446769-000-00-ED1_FORMAT
100
AcDbLine
 62
2
  6
CONTINUOUS
 10
310.4555152741
 20
55.9733855246
 11
309.4726377778
 21
52.3088992873
  0
LINE
  5
697
100
AcDbEntity
  8
606446769-000-00-ED1_FORMAT
100
AcDbLine
 62
2
  6
CONTINUOUS
 10
314.897298568
 20
53.9199424567
 11
314.9760546441
 21
54.126634098
  0
LINE
  5
698
100
AcDbEntity
  8
606446769-000-00-ED1_FORMAT
100
AcDbLine
 62
2
  6
CONTINUOUS
 10
307.412287964
 20
52.0724060706
 11
308.1737564759
 21
53.919834928
  0
LINE
  5
699
100
AcDbEntity
  8
606446769-000-00-ED1_FORMAT
100
AcDbLine
 62
2
  6
CONTINUOUS
 10
307.4111900432
 20
52.070082645
 11
308.1737564759
 21
53.919834928
  0
LINE
  5
69A
100
AcDbEntity
  8
606446769-000-00-ED1_FORMAT
100
AcDbLine
 62
2
  6
CONTINUOUS
 10
308.3285281083
 20
56.2978479598
 11
307.3317083482
 21
54.7871290549
  0
LINE
  5
69B
100
AcDbEntity
  8
606446769-000-00-ED1_FORMAT
100
AcDbLine
 62
2
  6
CONTINUOUS
 10
306.7262827363
 20
51.4182069182
 11
305.491402469
 21
50.7036949256
  0
LINE
  5
69C
100
AcDbEntity
  8
606446769-000-00-ED1_FORMAT
100
AcDbLine
 62
2
  6
CONTINUOUS
 10
305.4976754456
 20
50.923187857
 11
306.5876624558
 21
51.5376981711
  0
LINE
  5
69D
100
AcDbEntity
  8
606446769-000-00-ED1_FORMAT
100
AcDbLine
 62
2
  6
CONTINUOUS
 10
305.0855867265
 20
57.6283917975
 11
305.4845042786
 21
57.8197498481
  0
LINE
  5
69E
100
AcDbEntity
  8
606446769-000-00-ED1_FORMAT
100
AcDbLine
 62
2
  6
CONTINUOUS
 10
305.0855867265
 20
55.5498515342
 11
302.29999432
 21
54.25000176
  0
LINE
  5
69F
100
AcDbEntity
  8
606446769-000-00-ED1_FORMAT
100
AcDbLine
 62
2
  6
CONTINUOUS
 10
312.6104703294
 20
59.0612169219
 11
306.9737006074
 21
56.4309093329
  0
LINE
  5
6A0
100
AcDbEntity
  8
606446769-000-00-ED1_FORMAT
100
AcDbLine
 62
2
  6
CONTINUOUS
 10
303.1029301255
 20
54.2379800528
 11
305.0855867265
 21
55.1631246131
  0
LINE
  5
6A1
100
AcDbEntity
  8
606446769-000-00-ED1_FORMAT
100
AcDbLine
 62
2
  6
CONTINUOUS
 10
307.0868225922
 20
56.0970005027
 11
312.6129816041
 21
58.6756889457
  0
LINE
  5
6A2
100
AcDbEntity
  8
606446769-000-00-ED1_FORMAT
100
AcDbLine
 62
2
  6
CONTINUOUS
 10
314.2304457177
 20
53.3293357696
 11
314.4218236077
 21
53.411982318
  0
LINE
  5
6A3
100
AcDbEntity
  8
606446769-000-00-ED1_FORMAT
100
AcDbLine
 62
2
  6
CONTINUOUS
 10
317.9768299493
 20
57.09487209
 11
319.2546207116
 21
57.638015615
  0
LINE
  5
6A4
100
AcDbEntity
  8
606446769-000-00-ED1_FORMAT
100
AcDbLine
 62
2
  6
CONTINUOUS
 10
314.004113176
 20
54.106655268
 11
313.8970140824
 21
54.0619609694
  0
LINE
  5
6A5
100
AcDbEntity
  8
606446769-000-00-ED1_FORMAT
100
AcDbLine
 62
2
  6
CONTINUOUS
 10
319.2068127099
 20
57.4193990424
 11
318.1654360589
 21
56.9863057517
  0
LINE
  5
6A6
100
AcDbEntity
  8
606446769-000-00-ED1_FORMAT
100
AcDbLine
 62
2
  6
CONTINUOUS
 10
314.125727646
 20
53.2985664359
 11
314.2304457177
 21
53.3293357696
  0
LINE
  5
6A7
100
AcDbEntity
  8
606446769-000-00-ED1_FORMAT
100
AcDbLine
 62
7
  6
CONTINUOUS
 10
264.9013593819
 20
270.4999514106
 11
410.0000007463
 21
270.4999514106
  0
LINE
  5
6A8
100
AcDbEntity
  8
606446769-000-00-ED1_FORMAT
100
AcDbLine
 62
7
  6
CONTINUOUS
 10
274.9014193732
 20
275.0499459516
 11
376.900004085
 21
275.0499459516
  0
LINE
  5
6A9
100
AcDbEntity
  8
606446769-000-00-ED1_FORMAT
100
AcDbLine
 62
7
  6
CONTINUOUS
 10
264.9013593819
 20
279.5999404927
 11
410.0000007463
 21
279.5999404927
  0
LINE
  5
6AA
100
AcDbEntity
  8
606446769-000-00-ED1_FORMAT
100
AcDbLine
 62
7
  6
CONTINUOUS
 10
135.0000610636
 20
281.0000010853
 11
23.0001
 21
281.0000010853
  0
LINE
  5
6AB
100
AcDbEntity
  8
606446769-000-00-ED1_FORMAT
100
AcDbLine
 62
7
  6
CONTINUOUS
 10
344.9999968815
 20
13.500000112
 11
344.9999968815
 21
24.250000456
  0
LINE
  5
6AC
100
AcDbEntity
  8
606446769-000-00-ED1_FORMAT
100
AcDbLine
 62
2
  6
CONTINUOUS
 10
314.2106472863
 20
54.3649284202
 11
314.1610626359
 21
54.2562276709
  0
LINE
  5
6AD
100
AcDbEntity
  8
606446769-000-00-ED1_FORMAT
100
AcDbLine
 62
2
  6
CONTINUOUS
 10
314.8482609795
 20
53.8267688498
 11
314.897298568
 21
53.9199424567
  0
LINE
  5
6AE
100
AcDbEntity
  8
606446769-000-00-ED1_FORMAT
100
AcDbLine
 62
2
  6
CONTINUOUS
 10
314.7928670525
 20
53.7404233146
 11
314.8482609795
 21
53.8267688498
  0
LINE
  5
6AF
100
AcDbEntity
  8
606446769-000-00-ED1_FORMAT
100
AcDbLine
 62
2
  6
CONTINUOUS
 10
314.731116787
 20
53.6609219802
 11
314.7928670525
 21
53.7404233146
  0
LINE
  5
6B0
100
AcDbEntity
  8
606446769-000-00-ED1_FORMAT
100
AcDbLine
 62
2
  6
CONTINUOUS
 10
314.1610626359
 20
54.2562276709
 11
314.0921745149
 21
54.1707746238
  0
LINE
  5
6B1
100
AcDbEntity
  8
606446769-000-00-ED1_FORMAT
100
AcDbLine
 62
2
  6
CONTINUOUS
 10
314.5888598473
 20
53.5225809485
 11
314.731116787
 21
53.6609219802
  0
LINE
  5
6B2
100
AcDbEntity
  8
606446769-000-00-ED1_FORMAT
100
AcDbLine
 62
2
  6
CONTINUOUS
 10
320.5409560601
 20
50.825024919
 11
320.1637855218
 21
50.5303156714
  0
LINE
  5
6B3
100
AcDbEntity
  8
606446769-000-00-ED1_FORMAT
100
AcDbLine
 62
2
  6
CONTINUOUS
 10
314.0921745149
 20
54.1707746238
 11
314.004113176
 21
54.106655268
  0
LINE
  5
6B4
100
AcDbEntity
  8
606446769-000-00-ED1_FORMAT
100
AcDbLine
 62
2
  6
CONTINUOUS
 10
314.4218236077
 20
53.411982318
 11
314.5888598473
 21
53.5225809485
  0
LINE
  5
6B5
100
AcDbEntity
  8
606446769-000-00-ED1_FORMAT
100
AcDbLine
 62
2
  6
CONTINUOUS
 10
317.9768299493
 20
52.0552391158
 11
312.6129816041
 21
49.4525663993
  0
LINE
  5
6B6
100
AcDbEntity
  8
606446769-000-00-ED1_FORMAT
100
AcDbLine
 62
2
  6
CONTINUOUS
 10
322.4740123803
 20
54.2379800528
 11
319.559328991
 21
52.8235369574
  0
LINE
  5
6B7
100
AcDbEntity
  8
606446769-000-00-ED1_FORMAT
100
AcDbLine
 62
2
  6
CONTINUOUS
 10
312.6103036057
 20
49.0619039283
 11
317.9894905251
 21
51.6723455924
  0
LINE
  5
6B8
100
AcDbEntity
  8
606446769-000-00-ED1_FORMAT
100
AcDbLine
 62
2
  6
CONTINUOUS
 10
319.5865362039
 20
52.4473693534
 11
323.3012846261
 21
54.2500824065
  0
LINE
  5
6B9
100
AcDbEntity
  8
606446769-000-00-ED1_FORMAT
100
AcDbLine
 62
7
  6
CONTINUOUS
 10
410.0
 20
287.0
 11
264.9013593819
 21
287.0
  0
LINE
  5
6BA
100
AcDbEntity
  8
606446769-000-00-ED1_FORMAT
100
AcDbLine
 62
3
  6
CONTINUOUS
 10
23.0
 20
287.0
 11
23.0001
 21
287.0
  0
LINE
  5
6BB
100
AcDbEntity
  8
606446769-000-00-ED1_FORMAT
100
AcDbLine
 62
7
  6
CONTINUOUS
 10
23.0001
 20
287.0
 11
135.0000610636
 21
287.0
  0
LINE
  5
6BC
100
AcDbEntity
  8
606446769-000-00-ED1_FORMAT
100
AcDbLine
 62
3
  6
CONTINUOUS
 10
135.0000610636
 20
287.0
 11
264.9013593819
 21
287.0
  0
LINE
  5
6BD
100
AcDbEntity
  8
606446769-000-00-ED1_FORMAT
100
AcDbLine
 62
7
  6
CONTINUOUS
 10
415.0
 20
292.0
 11
18.0
 21
292.0
  0
LINE
  5
6BE
100
AcDbEntity
  8
606446769-000-00-ED1_FORMAT
100
AcDbLine
 62
6
  6
HIDDEN
 10
420.0
 20
297.0
 11
0.0
 21
297.0
  0
LINE
  5
6BF
100
AcDbEntity
  8
606446769-000-00-ED1_FORMAT
100
AcDbLine
 62
3
  6
CONTINUOUS
 10
360.0
 20
10.0
 11
360.0
 21
5.0
  0
LINE
  5
6C0
100
AcDbEntity
  8
606446769-000-00-ED1_FORMAT
100
AcDbLine
 62
3
  6
CONTINUOUS
 10
360.0
 20
287.0
 11
360.0
 21
292.0
  0
LINE
  5
6C1
100
AcDbEntity
  8
606446769-000-00-ED1_FORMAT
100
AcDbLine
 62
7
  6
CONTINUOUS
 10
365.999998592
 20
35.0000008
 11
366.0000025448
 21
72.500002
  0
LINE
  5
6C2
100
AcDbEntity
  8
606446769-000-00-ED1_FORMAT
100
AcDbLine
 62
7
  6
CONTINUOUS
 10
376.8994429408
 20
40.9546819905
 11
376.8994429408
 21
65.00000176
  0
LINE
  5
6C3
100
AcDbEntity
  8
606446769-000-00-ED1_FORMAT
100
AcDbLine
 62
7
  6
CONTINUOUS
 10
376.900004085
 20
225.000007
 11
376.900004085
 21
287.0000007463
  0
LINE
  5
6C4
100
AcDbEntity
  8
606446769-000-00-ED1_FORMAT
100
AcDbLine
 62
7
  6
CONTINUOUS
 10
377.7325379674
 20
13.500000112
 11
377.7325379674
 21
10.0
  0
LINE
  5
6C5
100
AcDbEntity
  8
606446769-000-00-ED1_FORMAT
100
AcDbLine
 62
7
  6
CONTINUOUS
 10
391.8994434208
 20
65.00000176
 11
391.8994434208
 21
35.0000008
  0
LINE
  5
6C6
100
AcDbEntity
  8
606446769-000-00-ED1_FORMAT
100
AcDbLine
 62
7
  6
CONTINUOUS
 10
391.900002572
 20
225.000007
 11
391.900002572
 21
287.0000007463
  0
LINE
  5
6C7
100
AcDbEntity
  8
606446769-000-00-ED1_FORMAT
100
AcDbLine
 62
7
  6
CONTINUOUS
 10
399.9999602137
 20
13.500000112
 11
399.9999602137
 21
35.0000008
  0
LINE
  5
6C8
100
AcDbEntity
  8
606446769-000-00-ED1_FORMAT
100
AcDbLine
 62
7
  6
CONTINUOUS
 10
410.0
 20
10.0
 11
410.0
 21
78.4999970131
  0
LINE
  5
6C9
100
AcDbEntity
  8
606446769-000-00-ED1_FORMAT
100
AcDbLine
 62
3
  6
CONTINUOUS
 10
410.0
 20
78.4999970131
 11
410.0000007463
 21
225.000007
  0
LINE
  5
6CA
100
AcDbEntity
  8
606446769-000-00-ED1_FORMAT
100
AcDbLine
 62
7
  6
CONTINUOUS
 10
410.0000007463
 20
225.000007
 11
410.0000007463
 21
287.0000007463
  0
LINE
  5
6CB
100
AcDbEntity
  8
606446769-000-00-ED1_FORMAT
100
AcDbLine
 62
7
  6
CONTINUOUS
 10
415.0
 20
5.0
 11
415.0
 21
292.0
  0
LINE
  5
6CC
100
AcDbEntity
  8
606446769-000-00-ED1_FORMAT
100
AcDbLine
 62
6
  6
HIDDEN
 10
420.0
 20
0.0
 11
420.0
 21
297.0
  0
LINE
  5
6CD
100
AcDbEntity
  8
30338430_CL
100
AcDbLine
 62
7
  6
CONTINUOUS
 10
87.6186994536
 20
131.6185853836
 11
87.6186994536
 21
153.7137793312
  0
LINE
  5
6CE
100
AcDbEntity
  8
30338430_CL
100
AcDbLine
 62
7
  6
CONTINUOUS
 10
87.6186994536
 20
176.7337793312
 11
87.6186994536
 21
198.8289732788
  0
LINE
  5
6CF
100
AcDbEntity
  8
30338430_CL
100
AcDbLine
 62
7
  6
CONTINUOUS
 10
89.1186994536
 20
155.2137793312
 11
89.1186994536
 21
150.2850850448
  0
LINE
  5
6D0
100
AcDbEntity
  8
30338430_HL
100
AcDbLine
 62
6
  6
HIDDEN
 10
89.1186994536
 20
138.7237793312
 11
89.1186994536
 21
150.2850850448
  0
LINE
  5
6D1
100
AcDbEntity
  8
30338430_CL
100
AcDbLine
 62
7
  6
CONTINUOUS
 10
89.1186994536
 20
175.2337793312
 11
89.1186994536
 21
180.1624736175
  0
LINE
  5
6D2
100
AcDbEntity
  8
30338430_HL
100
AcDbLine
 62
6
  6
HIDDEN
 10
89.1186994536
 20
180.1624736175
 11
89.1186994536
 21
191.7237793312
  0
LINE
  5
6D3
100
AcDbEntity
  8
30338430_CL
100
AcDbLine
 62
9
  6
CONTINUOUS
 10
89.5186245696
 20
200.826467964
 11
89.5186245696
 21
180.3154242264
  0
LINE
  5
6D4
100
AcDbEntity
  8
30338430_CL
100
AcDbLine
 62
9
  6
CONTINUOUS
 10
89.5186245696
 20
150.132134436
 11
89.5186245696
 21
129.6210906983
  0
LINE
  5
6D5
100
AcDbEntity
  8
30338430_CL
100
AcDbLine
 62
9
  6
CONTINUOUS
 10
95.6186994536
 20
155.2137793312
 11
95.6186994536
 21
149.1275989957
  0
LINE
  5
6D6
100
AcDbEntity
  8
30338430_CL
100
AcDbLine
 62
9
  6
CONTINUOUS
 10
95.6186994536
 20
175.2337793312
 11
95.6186994536
 21
181.3199596666
  0
LINE
  5
6D7
100
AcDbEntity
  8
30338430_CL
100
AcDbLine
 62
7
  6
CONTINUOUS
 10
97.6186994536
 20
177.6536609933
 11
97.6186994536
 21
152.793897669
  0
LINE
  5
6D8
100
AcDbEntity
  8
30338430_HL
100
AcDbLine
 62
6
  6
HIDDEN
 10
107.5153237807
 20
191.7237793312
 11
107.5153237807
 21
138.7237793312
  0
LINE
  5
6D9
100
AcDbEntity
  8
30338430_HL
100
AcDbLine
 62
6
  6
HIDDEN
 10
107.5153237807
 20
191.7237793312
 11
110.113399992
 21
196.2237793312
  0
LINE
  5
6DA
100
AcDbEntity
  8
30338430_HL
100
AcDbLine
 62
6
  6
HIDDEN
 10
107.5153237807
 20
138.7237793312
 11
110.113399992
 21
134.2237793312
  0
LINE
  5
6DB
100
AcDbEntity
  8
30338430_CL
100
AcDbLine
 62
9
  6
CONTINUOUS
 10
110.113399992
 20
134.2237793312
 11
110.113399992
 21
196.2237793312
  0
LINE
  5
6DC
100
AcDbEntity
  8
30338430_CL
100
AcDbLine
 62
9
  6
CONTINUOUS
 10
110.9794253958
 20
133.7237793312
 11
110.9794253958
 21
196.7237793312
  0
LINE
  5
6DD
100
AcDbEntity
  8
30338430_CL
100
AcDbLine
 62
7
  6
CONTINUOUS
 10
137.5186994536
 20
215.0237793312
 11
137.7186994536
 21
215.2237793312
  0
LINE
  5
6DE
100
AcDbEntity
  8
30338430_CL
100
AcDbLine
 62
7
  6
CONTINUOUS
 10
137.5186994536
 20
115.4237793312
 11
137.7186994536
 21
115.2237793312
  0
LINE
  5
6DF
100
AcDbEntity
  8
30338430_CL
100
AcDbLine
 62
7
  6
CONTINUOUS
 10
87.6186994536
 20
153.7137793312
 11
89.1186994536
 21
155.2137793312
  0
LINE
  5
6E0
100
AcDbEntity
  8
30338430_CL
100
AcDbLine
 62
7
  6
CONTINUOUS
 10
89.1186994536
 20
175.2337793312
 11
87.6186994536
 21
176.7337793312
  0
LINE
  5
6E1
100
AcDbEntity
  8
30338430_AXIS
100
AcDbLine
 62
3
  6
CENTER
 10
122.5186994536
 20
165.2237793312
 11
122.5186994536
 21
156.2237793312
  0
LINE
  5
6E2
100
AcDbEntity
  8
30338430_AXIS
100
AcDbLine
 62
3
  6
CENTER
 10
122.5186994536
 20
165.2237793312
 11
122.5186994536
 21
174.2237793312
  0
LINE
  5
6E3
100
AcDbEntity
  8
30338430_HL
100
AcDbLine
 62
6
  6
HIDDEN
 10
150.0186994536
 20
215.2237793312
 11
149.5186994536
 21
214.7237793312
  0
LINE
  5
6E4
100
AcDbEntity
  8
30338430_HL
100
AcDbLine
 62
6
  6
HIDDEN
 10
145.1186994536
 20
210.3237793312
 11
144.5186994536
 21
209.7237793312
  0
LINE
  5
6E5
100
AcDbEntity
  8
30338430_HL
100
AcDbLine
 62
6
  6
HIDDEN
 10
149.5186994536
 20
210.6237793312
 11
149.2186994536
 21
210.3237793312
  0
LINE
  5
6E6
100
AcDbEntity
  8
30338430_CL
100
AcDbLine
 62
7
  6
CONTINUOUS
 10
137.7186994536
 20
115.2237793312
 11
142.4086979836
 21
115.2237793312
  0
LINE
  5
6E7
100
AcDbEntity
  8
30338430_HL
100
AcDbLine
 62
6
  6
HIDDEN
 10
142.4086979836
 20
115.2237793312
 11
142.410625892
 21
115.2237793312
  0
LINE
  5
6E8
100
AcDbEntity
  8
30338430_HL
100
AcDbLine
 62
6
  6
HIDDEN
 10
149.6267730024
 20
115.2237793312
 11
149.6287009236
 21
115.2237793312
  0
LINE
  5
6E9
100
AcDbEntity
  8
30338430_CL
100
AcDbLine
 62
7
  6
CONTINUOUS
 10
149.6287009236
 20
115.2237793312
 11
154.2711041894
 21
115.2237793312
  0
LINE
  5
6EA
100
AcDbEntity
  8
30338430_CL
100
AcDbLine
 62
7
  6
CONTINUOUS
 10
160.7662947178
 20
115.2237793312
 11
166.4686994536
 21
115.2237793312
  0
LINE
  5
6EB
100
AcDbEntity
  8
30338430_HL
100
AcDbLine
 62
6
  6
HIDDEN
 10
146.0086994536
 20
118.8237793312
 11
146.0286994536
 21
118.8237793312
  0
LINE
  5
6EC
100
AcDbEntity
  8
30338430_CL
100
AcDbLine
 62
7
  6
CONTINUOUS
 10
158.6436994536
 20
119.2237793312
 11
156.3936994536
 21
119.2237793312
  0
LINE
  5
6ED
100
AcDbEntity
  8
30338430_HL
100
AcDbLine
 62
6
  6
HIDDEN
 10
149.6285697642
 20
115.2239090206
 11
146.0286994536
 21
118.8237793312
  0
LINE
  5
6EE
100
AcDbEntity
  8
30338430_CL
100
AcDbLine
 62
9
  6
CONTINUOUS
 10
127.7719051088
 20
162.3248432601
 11
127.7719051088
 21
133.7237793312
  0
LINE
  5
6EF
100
AcDbEntity
  8
30338430_CL
100
AcDbLine
 62
9
  6
CONTINUOUS
 10
127.7719051088
 20
168.1227154023
 11
127.7719051088
 21
196.7237793312
  0
LINE
  5
6F0
100
AcDbEntity
  8
30338430_CL
100
AcDbLine
 62
7
  6
CONTINUOUS
 10
142.8318015944
 20
126.3940227005
 11
154.2711041894
 21
126.3940227005
  0
LINE
  5
6F1
100
AcDbEntity
  8
30338430_CL
100
AcDbLine
 62
7
  6
CONTINUOUS
 10
160.7662947178
 20
126.3940227005
 11
166.4686994536
 21
126.3940227005
  0
LINE
  5
6F2
100
AcDbEntity
  8
30338430_CL
100
AcDbLine
 62
7
  6
CONTINUOUS
 10
89.5186245696
 20
129.6210906983
 11
135.0186994536
 21
127.3415278281
  0
LINE
  5
6F3
100
AcDbEntity
  8
30338430_CL
100
AcDbLine
 62
7
  6
CONTINUOUS
 10
135.0186994536
 20
127.3415278281
 11
135.0186994536
 21
203.1060308342
  0
LINE
  5
6F4
100
AcDbEntity
  8
30338430_CL
100
AcDbLine
 62
9
  6
CONTINUOUS
 10
135.6379430676
 20
202.9401050079
 11
135.6379430676
 21
127.5074536544
  0
LINE
  5
6F5
100
AcDbEntity
  8
30338430_CL
100
AcDbLine
 62
9
  6
CONTINUOUS
 10
135.8967621127
 20
202.9060308342
 11
135.8967621127
 21
127.5415278281
  0
LINE
  5
6F6
100
AcDbEntity
  8
30338430_CL
100
AcDbLine
 62
9
  6
CONTINUOUS
 10
136.6186994536
 20
202.9060308342
 11
136.6186994536
 21
127.5415278281
  0
LINE
  5
6F7
100
AcDbEntity
  8
30338430_CL
100
AcDbLine
 62
7
  6
CONTINUOUS
 10
137.5186994536
 20
115.4237811431
 11
137.5186994536
 21
215.0237775193
  0
LINE
  5
6F8
100
AcDbEntity
  8
30338430_CL
100
AcDbLine
 62
9
  6
CONTINUOUS
 10
137.6089675224
 20
126.4023547272
 11
137.6089675224
 21
204.0452039352
  0
LINE
  5
6F9
100
AcDbEntity
  8
30338430_HL
100
AcDbLine
 62
6
  6
HIDDEN
 10
137.6186994536
 20
203.9002681087
 11
137.6186994536
 21
126.5472905537
  0
LINE
  5
6FA
100
AcDbEntity
  8
30338430_CL
100
AcDbLine
 62
7
  6
CONTINUOUS
 10
137.7186994536
 20
115.2237793312
 11
137.7186994536
 21
215.2237793312
  0
LINE
  5
6FB
100
AcDbEntity
  8
30338430_HL
100
AcDbLine
 62
6
  6
HIDDEN
 10
139.5186994536
 20
214.7237793312
 11
139.5186994536
 21
210.6237793312
  0
LINE
  5
6FC
100
AcDbEntity
  8
30338430_CL
100
AcDbLine
 62
7
  6
CONTINUOUS
 10
160.7662947178
 20
215.2237793312
 11
159.3936994536
 21
212.8463745954
  0
LINE
  5
6FD
100
AcDbEntity
  8
30338430_CL
100
AcDbLine
 62
7
  6
CONTINUOUS
 10
135.8967621127
 20
127.5415278281
 11
136.6186994536
 21
127.5415278281
  0
LINE
  5
6FE
100
AcDbEntity
  8
30338430_CL
100
AcDbLine
 62
7
  6
CONTINUOUS
 10
158.6436994536
 20
131.7013987475
 11
156.3936994536
 21
131.7013987475
  0
LINE
  5
6FF
100
AcDbEntity
  8
30338430_CL
100
AcDbLine
 62
7
  6
CONTINUOUS
 10
160.7662947178
 20
115.2237793312
 11
159.3936994536
 21
117.601184067
  0
LINE
  5
700
100
AcDbEntity
  8
30338430_HL
100
AcDbLine
 62
6
  6
HIDDEN
 10
142.4686994536
 20
166.2237793312
 11
142.4686994536
 21
164.2237793312
  0
LINE
  5
701
100
AcDbEntity
  8
30338430_AXIS
100
AcDbLine
 62
3
  6
CENTER
 10
144.5186994536
 20
206.7237793312
 11
144.5186994536
 21
219.7237793312
  0
LINE
  5
702
100
AcDbEntity
  8
30338430_AXIS
100
AcDbLine
 62
3
  6
CENTER
 10
146.0186994536
 20
121.8237793312
 11
146.0186994536
 21
111.7337793312
  0
LINE
  5
703
100
AcDbEntity
  8
30338430_HL
100
AcDbLine
 62
6
  6
HIDDEN
 10
146.8186994536
 20
191.7237793312
 11
146.8186994536
 21
138.7237793312
  0
LINE
  5
704
100
AcDbEntity
  8
30338430_HL
100
AcDbLine
 62
6
  6
HIDDEN
 10
137.5186994536
 20
125.760064044
 11
137.6089675224
 21
126.4023547272
  0
LINE
  5
705
100
AcDbEntity
  8
30338430_CL
100
AcDbLine
 62
7
  6
CONTINUOUS
 10
135.0186994536
 20
127.3415278281
 11
135.6379430676
 21
127.5074536544
  0
LINE
  5
706
100
AcDbEntity
  8
30338430_HL
100
AcDbLine
 62
6
  6
HIDDEN
 10
110.9794253958
 20
133.7237793312
 11
127.7719051088
 21
133.7237793312
  0
LINE
  5
707
100
AcDbEntity
  8
30338430_CL
100
AcDbLine
 62
7
  6
CONTINUOUS
 10
152.4686994536
 20
133.7237793312
 11
166.4686994536
 21
133.7237793312
  0
LINE
  5
708
100
AcDbEntity
  8
30338430_HL
100
AcDbLine
 62
6
  6
HIDDEN
 10
89.1186994536
 20
138.7237793312
 11
107.5153237807
 21
138.7237793312
  0
LINE
  5
709
100
AcDbEntity
  8
30338430_HL
100
AcDbLine
 62
6
  6
HIDDEN
 10
137.5186994536
 20
138.7237793312
 11
146.8186994536
 21
138.7237793312
  0
LINE
  5
70A
100
AcDbEntity
  8
30338430_HL
100
AcDbLine
 62
6
  6
HIDDEN
 10
137.5186994536
 20
204.6874946184
 11
137.6089675224
 21
204.0452039352
  0
LINE
  5
70B
100
AcDbEntity
  8
30338430_HL
100
AcDbLine
 62
6
  6
HIDDEN
 10
149.5186994536
 20
214.7237793312
 11
149.5186994536
 21
210.6237793312
  0
LINE
  5
70C
100
AcDbEntity
  8
30338430_HL
100
AcDbLine
 62
6
  6
HIDDEN
 10
150.0186994536
 20
190.1237793312
 11
150.0186994536
 21
140.3237793312
  0
LINE
  5
70D
100
AcDbEntity
  8
30338430_AXIS
100
AcDbLine
 62
3
  6
CENTER
 10
152.5186994536
 20
165.2237793312
 11
152.5186994536
 21
156.0237793312
  0
LINE
  5
70E
100
AcDbEntity
  8
30338430_AXIS
100
AcDbLine
 62
3
  6
CENTER
 10
152.5186994536
 20
165.2237793312
 11
152.5186994536
 21
174.4237793312
  0
LINE
  5
70F
100
AcDbEntity
  8
30338430_CL
100
AcDbLine
 62
7
  6
CONTINUOUS
 10
213.046982877
 20
148.2237793312
 11
256.5971585494
 21
151.6512524891
  0
LINE
  5
710
100
AcDbEntity
  8
30338430_CL
100
AcDbLine
 62
7
  6
CONTINUOUS
 10
154.2711041894
 20
215.2237793312
 11
154.2711041894
 21
175.2237793312
  0
LINE
  5
711
100
AcDbEntity
  8
30338430_CL
100
AcDbLine
 62
7
  6
CONTINUOUS
 10
154.2711041894
 20
155.2237793312
 11
154.2711041894
 21
133.7237793312
  0
LINE
  5
712
100
AcDbEntity
  8
30338430_CL
100
AcDbLine
 62
7
  6
CONTINUOUS
 10
154.2711041894
 20
126.3940227005
 11
154.2711041894
 21
115.2237793312
  0
LINE
  5
713
100
AcDbEntity
  8
30338430_HL
100
AcDbLine
 62
6
  6
HIDDEN
 10
154.2711041894
 20
126.3940227005
 11
154.2711041894
 21
133.7237793312
  0
LINE
  5
714
100
AcDbEntity
  8
30338430_CL
100
AcDbLine
 62
7
  6
CONTINUOUS
 10
155.6436994536
 20
212.8463739453
 11
155.6436994536
 21
175.2237793312
  0
LINE
  5
715
100
AcDbEntity
  8
30338430_CL
100
AcDbLine
 62
7
  6
CONTINUOUS
 10
155.6436994536
 20
155.2237793312
 11
155.6436994536
 21
133.7237793312
  0
LINE
  5
716
100
AcDbEntity
  8
30338430_HL
100
AcDbLine
 62
6
  6
HIDDEN
 10
155.6436994536
 20
130.6794237865
 11
155.6436994536
 21
133.7237793312
  0
LINE
  5
717
100
AcDbEntity
  8
30338430_CL
100
AcDbLine
 62
7
  6
CONTINUOUS
 10
155.6436994536
 20
117.6011852584
 11
155.6436994536
 21
130.6794237865
  0
LINE
  5
718
100
AcDbEntity
  8
30338430_CL
100
AcDbLine
 62
9
  6
CONTINUOUS
 10
156.3936994536
 20
119.2237793312
 11
156.3936994536
 21
155.2237793312
  0
LINE
  5
719
100
AcDbEntity
  8
30338430_CL
100
AcDbLine
 62
9
  6
CONTINUOUS
 10
156.3936994536
 20
175.2237793312
 11
156.3936994536
 21
211.2237793312
  0
LINE
  5
71A
100
AcDbEntity
  8
30338430_CL
100
AcDbLine
 62
9
  6
CONTINUOUS
 10
158.6436994536
 20
119.2237793312
 11
158.6436994536
 21
155.2237793312
  0
LINE
  5
71B
100
AcDbEntity
  8
30338430_CL
100
AcDbLine
 62
9
  6
CONTINUOUS
 10
158.6436994536
 20
175.2237793312
 11
158.6436994536
 21
211.2237793312
  0
LINE
  5
71C
100
AcDbEntity
  8
30338430_HL
100
AcDbLine
 62
6
  6
HIDDEN
 10
159.3936994536
 20
130.6794237865
 11
159.3936994536
 21
133.7237793312
  0
LINE
  5
71D
100
AcDbEntity
  8
30338430_CL
100
AcDbLine
 62
7
  6
CONTINUOUS
 10
159.3936994536
 20
117.6011852584
 11
159.3936994536
 21
130.6794237865
  0
LINE
  5
71E
100
AcDbEntity
  8
30338430_CL
100
AcDbLine
 62
7
  6
CONTINUOUS
 10
159.3936994536
 20
133.7237793312
 11
159.3936994536
 21
155.2237793312
  0
LINE
  5
71F
100
AcDbEntity
  8
30338430_CL
100
AcDbLine
 62
7
  6
CONTINUOUS
 10
159.3936994536
 20
175.2237793312
 11
159.3936994536
 21
212.8463739453
  0
LINE
  5
720
100
AcDbEntity
  8
30338430_HL
100
AcDbLine
 62
6
  6
HIDDEN
 10
89.1186994536
 20
138.7237793312
 11
87.6186994536
 21
137.8577539274
  0
LINE
  5
721
100
AcDbEntity
  8
30338430_CL
100
AcDbLine
 62
7
  6
CONTINUOUS
 10
176.4686994536
 20
148.2237793312
 11
195.5186994536
 21
148.2237793312
  0
LINE
  5
722
100
AcDbEntity
  8
30338430_CL
100
AcDbLine
 62
7
  6
CONTINUOUS
 10
203.5186994536
 20
148.2237793312
 11
213.046982877
 21
148.2237793312
  0
LINE
  5
723
100
AcDbEntity
  8
30338430_CL
100
AcDbLine
 62
7
  6
CONTINUOUS
 10
195.5186994536
 20
148.3737793312
 11
197.0186994536
 21
148.3737793312
  0
LINE
  5
724
100
AcDbEntity
  8
30338430_CL
100
AcDbLine
 62
7
  6
CONTINUOUS
 10
202.0186994536
 20
148.3737793312
 11
203.5186994536
 21
148.3737793312
  0
LINE
  5
725
100
AcDbEntity
  8
30338430_HL
100
AcDbLine
 62
6
  6
HIDDEN
 10
166.0186994536
 20
152.2237793312
 11
160.4186994536
 21
152.2237793312
  0
LINE
  5
726
100
AcDbEntity
  8
30338430_HL
100
AcDbLine
 62
6
  6
HIDDEN
 10
89.1186994536
 20
191.7237793312
 11
87.6186994536
 21
192.589804735
  0
LINE
  5
727
100
AcDbEntity
  8
30338430_HL
100
AcDbLine
 62
6
  6
HIDDEN
 10
160.4186994536
 20
152.2237793312
 11
160.4186994536
 21
178.2237793312
  0
LINE
  5
728
100
AcDbEntity
  8
30338430_CL
100
AcDbLine
 62
7
  6
CONTINUOUS
 10
160.7662947178
 20
215.2237793312
 11
160.7662947178
 21
175.2237793312
  0
LINE
  5
729
100
AcDbEntity
  8
30338430_CL
100
AcDbLine
 62
7
  6
CONTINUOUS
 10
160.7662947178
 20
155.2237793312
 11
160.7662947178
 21
133.7237793312
  0
LINE
  5
72A
100
AcDbEntity
  8
30338430_CL
100
AcDbLine
 62
7
  6
CONTINUOUS
 10
160.7662947178
 20
126.3940227005
 11
160.7662947178
 21
115.2237793312
  0
LINE
  5
72B
100
AcDbEntity
  8
30338430_HL
100
AcDbLine
 62
6
  6
HIDDEN
 10
160.7662947178
 20
126.3940227005
 11
160.7662947178
 21
133.7237793312
  0
LINE
  5
72C
100
AcDbEntity
  8
30338430_HL
100
AcDbLine
 62
6
  6
HIDDEN
 10
166.0186994536
 20
152.2237793312
 11
166.0186994536
 21
178.2237793312
  0
LINE
  5
72D
100
AcDbEntity
  8
30338430_CL
100
AcDbLine
 62
7
  6
CONTINUOUS
 10
166.4686994536
 20
115.2237799874
 11
166.4686994536
 21
215.2237786446
  0
LINE
  5
72E
100
AcDbEntity
  8
30338430_HL
100
AcDbLine
 62
6
  6
HIDDEN
 10
166.5186994536
 20
170.7237793312
 11
166.5186994536
 21
159.7237793312
  0
LINE
  5
72F
100
AcDbEntity
  8
30338430_HL
100
AcDbLine
 62
6
  6
HIDDEN
 10
160.4186994536
 20
153.2237793312
 11
150.0186994536
 21
153.2237793312
  0
LINE
  5
730
100
AcDbEntity
  8
30338430_HL
100
AcDbLine
 62
6
  6
HIDDEN
 10
160.4186994536
 20
153.9737793312
 11
150.0186994536
 21
153.9737793312
  0
LINE
  5
731
100
AcDbEntity
  8
30338430_HL
100
AcDbLine
 62
6
  6
HIDDEN
 10
152.4686994536
 20
154.2237793312
 11
166.4686994536
 21
154.2237793312
  0
LINE
  5
732
100
AcDbEntity
  8
30338430_HL
100
AcDbLine
 62
6
  6
HIDDEN
 10
202.5186994536
 20
154.8737793312
 11
196.5186994536
 21
154.8737793312
  0
LINE
  5
733
100
AcDbEntity
  8
30338430_CL
100
AcDbLine
 62
7
  6
CONTINUOUS
 10
89.1186994536
 20
155.2137793312
 11
95.6186994536
 21
155.2137793312
  0
LINE
  5
734
100
AcDbEntity
  8
30338430_CL
100
AcDbLine
 62
7
  6
CONTINUOUS
 10
152.4686994536
 20
155.2237793312
 11
166.4686994536
 21
155.2237793312
  0
LINE
  5
735
100
AcDbEntity
  8
30338430_HL
100
AcDbLine
 62
6
  6
HIDDEN
 10
202.0186994536
 20
156.8737793312
 11
197.0186994536
 21
156.8737793312
  0
LINE
  5
736
100
AcDbEntity
  8
30338430_HL
100
AcDbLine
 62
6
  6
HIDDEN
 10
209.0186994536
 20
158.0737793312
 11
221.5186994536
 21
158.0737793312
  0
LINE
  5
737
100
AcDbEntity
  8
30338430_HL
100
AcDbLine
 62
6
  6
HIDDEN
 10
221.5186994536
 20
158.2237793312
 11
255.5186994536
 21
158.2237793312
  0
LINE
  5
738
100
AcDbEntity
  8
30338430_HL
100
AcDbLine
 62
6
  6
HIDDEN
 10
166.5186994536
 20
159.7237793312
 11
166.0186994536
 21
159.2237793312
  0
LINE
  5
739
100
AcDbEntity
  8
30338430_HL
100
AcDbLine
 62
6
  6
HIDDEN
 10
255.5186994536
 20
172.2237793312
 11
256.6058551964
 21
172.3188931342
  0
LINE
  5
73A
100
AcDbEntity
  8
30338430_HL
100
AcDbLine
 62
6
  6
HIDDEN
 10
166.5186994536
 20
159.7237793312
 11
192.4186994536
 21
159.7237793312
  0
LINE
  5
73B
100
AcDbEntity
  8
30338430_HL
100
AcDbLine
 62
6
  6
HIDDEN
 10
209.0186994536
 20
160.2237793312
 11
192.5186994536
 21
160.2237793312
  0
LINE
  5
73C
100
AcDbEntity
  8
30252542_HP_HL
100
AcDbLine
 62
6
  6
HIDDEN
 10
197.6336994536
 20
160.2237793312
 11
203.8186994536
 21
160.2237793312
  0
LINE
  5
73D
100
AcDbEntity
  8
30252542_HP_HL
100
AcDbLine
 62
6
  6
HIDDEN
 10
209.0186994536
 20
160.3237793312
 11
210.5186994536
 21
160.3237793312
  0
LINE
  5
73E
100
AcDbEntity
  8
30338430_HL
100
AcDbLine
 62
6
  6
HIDDEN
 10
193.0195600727
 20
160.7237793312
 11
208.4186994536
 21
160.7237793312
  0
LINE
  5
73F
100
AcDbEntity
  8
30252542_HP_HL
100
AcDbLine
 62
6
  6
HIDDEN
 10
197.0186994536
 20
160.8387793312
 11
204.8839107003
 21
160.8387793312
  0
LINE
  5
740
100
AcDbEntity
  8
30252542_HP_HL
100
AcDbLine
 62
6
  6
HIDDEN
 10
206.0249172363
 20
161.3737793312
 11
208.2186994536
 21
161.3737793312
  0
LINE
  5
741
100
AcDbEntity
  8
30252542_HP_HL
100
AcDbLine
 62
6
  6
HIDDEN
 10
197.1419481077
 20
162.7237793312
 11
210.3954507996
 21
162.7237793312
  0
LINE
  5
742
100
AcDbEntity
  8
30252542_HP_HL
100
AcDbLine
 62
6
  6
HIDDEN
 10
210.3954507996
 20
165.2237793312
 11
205.5186994536
 21
165.2237793312
  0
LINE
  5
743
100
AcDbEntity
  8
30338430_AXIS
100
AcDbLine
 62
3
  6
CENTER
 10
152.5186994536
 20
165.2237793312
 11
143.3186994536
 21
165.2237793312
  0
LINE
  5
744
100
AcDbEntity
  8
30338430_AXIS
100
AcDbLine
 62
3
  6
CENTER
 10
122.5186994536
 20
165.2237793312
 11
113.5186994536
 21
165.2237793312
  0
LINE
  5
745
100
AcDbEntity
  8
30338430_AXIS
100
AcDbLine
 62
3
  6
CENTER
 10
262.5186994536
 20
165.2237793312
 11
82.6186994536
 21
165.2237793312
  0
LINE
  5
746
100
AcDbEntity
  8
30338430_AXIS
100
AcDbLine
 62
3
  6
CENTER
 10
122.5186994536
 20
165.2237793312
 11
131.5186994536
 21
165.2237793312
  0
LINE
  5
747
100
AcDbEntity
  8
30338430_AXIS
100
AcDbLine
 62
3
  6
CENTER
 10
152.5186994536
 20
165.2237793312
 11
161.7186994536
 21
165.2237793312
  0
LINE
  5
748
100
AcDbEntity
  8
30252542_HP_HL
100
AcDbLine
 62
6
  6
HIDDEN
 10
197.1419481077
 20
165.2237793312
 11
202.0186994536
 21
165.2237793312
  0
LINE
  5
749
100
AcDbEntity
  8
30338430_HL
100
AcDbLine
 62
6
  6
HIDDEN
 10
255.5186994536
 20
158.2237793312
 11
256.6058551964
 21
158.1286655282
  0
LINE
  5
74A
100
AcDbEntity
  8
30338430_HL
100
AcDbLine
 62
6
  6
HIDDEN
 10
166.5186994536
 20
170.7237793312
 11
166.0186994536
 21
171.2237793312
  0
LINE
  5
74B
100
AcDbEntity
  8
30338430_CL
100
AcDbLine
 62
9
  6
CONTINUOUS
 10
176.4686994536
 20
182.2237793312
 11
176.4686994536
 21
148.2237793312
  0
LINE
  5
74C
100
AcDbEntity
  8
30252542_HP_HL
100
AcDbLine
 62
6
  6
HIDDEN
 10
197.1419481077
 20
167.7237793312
 11
210.3954507996
 21
167.7237793312
  0
LINE
  5
74D
100
AcDbEntity
  8
30252542_HP_HL
100
AcDbLine
 62
6
  6
HIDDEN
 10
206.0249172363
 20
169.0737793312
 11
208.2186994536
 21
169.0737793312
  0
LINE
  5
74E
100
AcDbEntity
  8
30252542_HP_HL
100
AcDbLine
 62
6
  6
HIDDEN
 10
197.0186994536
 20
169.6087793312
 11
204.8839107003
 21
169.6087793312
  0
LINE
  5
74F
100
AcDbEntity
  8
30338430_HL
100
AcDbLine
 62
6
  6
HIDDEN
 10
193.0195600727
 20
169.7237793312
 11
208.4186994536
 21
169.7237793312
  0
LINE
  5
750
100
AcDbEntity
  8
30252542_HP_HL
100
AcDbLine
 62
6
  6
HIDDEN
 10
209.0186994536
 20
170.1237793312
 11
210.5186994536
 21
170.1237793312
  0
LINE
  5
751
100
AcDbEntity
  8
30338430_HL
100
AcDbLine
 62
6
  6
HIDDEN
 10
209.0186994536
 20
170.2237793312
 11
192.5186994536
 21
170.2237793312
  0
LINE
  5
752
100
AcDbEntity
  8
30252542_HP_HL
100
AcDbLine
 62
6
  6
HIDDEN
 10
197.6336994536
 20
170.2237793312
 11
203.8186994536
 21
170.2237793312
  0
LINE
  5
753
100
AcDbEntity
  8
30338430_HL
100
AcDbLine
 62
6
  6
HIDDEN
 10
166.5186994536
 20
170.7237793312
 11
192.4186994536
 21
170.7237793312
  0
LINE
  5
754
100
AcDbEntity
  8
30338430_HL
100
AcDbLine
 62
6
  6
HIDDEN
 10
221.5186994536
 20
172.2237793312
 11
255.5186994536
 21
172.2237793312
  0
LINE
  5
755
100
AcDbEntity
  8
30338430_HL
100
AcDbLine
 62
6
  6
HIDDEN
 10
209.0186994536
 20
172.3737793312
 11
221.5186994536
 21
172.3737793312
  0
LINE
  5
756
100
AcDbEntity
  8
30338430_CL
100
AcDbLine
 62
7
  6
CONTINUOUS
 10
155.6436994536
 20
117.601184067
 11
154.2711041894
 21
115.2237793312
  0
LINE
  5
757
100
AcDbEntity
  8
30338430_HL
100
AcDbLine
 62
6
  6
HIDDEN
 10
202.0186994536
 20
173.5737793312
 11
199.5186994536
 21
172.0716277836
  0
LINE
  5
758
100
AcDbEntity
  8
30338430_HL
100
AcDbLine
 62
6
  6
HIDDEN
 10
202.0186994536
 20
173.5737793312
 11
197.0186994536
 21
173.5737793312
  0
LINE
  5
759
100
AcDbEntity
  8
30338430_CL
100
AcDbLine
 62
7
  6
CONTINUOUS
 10
152.4686994536
 20
175.2237793312
 11
166.4686994536
 21
175.2237793312
  0
LINE
  5
75A
100
AcDbEntity
  8
30338430_CL
100
AcDbLine
 62
7
  6
CONTINUOUS
 10
95.6186994536
 20
175.2337793312
 11
89.1186994536
 21
175.2337793312
  0
LINE
  5
75B
100
AcDbEntity
  8
30338430_HL
100
AcDbLine
 62
6
  6
HIDDEN
 10
202.5186994536
 20
175.5737793312
 11
196.5186994536
 21
175.5737793312
  0
LINE
  5
75C
100
AcDbEntity
  8
30338430_HL
100
AcDbLine
 62
6
  6
HIDDEN
 10
166.4686994536
 20
176.2237793312
 11
152.4686994536
 21
176.2237793312
  0
LINE
  5
75D
100
AcDbEntity
  8
30338430_HL
100
AcDbLine
 62
6
  6
HIDDEN
 10
160.4186994536
 20
176.4737793312
 11
150.0186994536
 21
176.4737793312
  0
LINE
  5
75E
100
AcDbEntity
  8
30338430_HL
100
AcDbLine
 62
6
  6
HIDDEN
 10
160.4186994536
 20
177.2237793312
 11
150.0186994536
 21
177.2237793312
  0
LINE
  5
75F
100
AcDbEntity
  8
30338430_HL
100
AcDbLine
 62
6
  6
HIDDEN
 10
166.0186994536
 20
178.2237793312
 11
160.4186994536
 21
178.2237793312
  0
LINE
  5
760
100
AcDbEntity
  8
30338430_HL
100
AcDbLine
 62
6
  6
HIDDEN
 10
202.0186994536
 20
156.8737793312
 11
199.5186994536
 21
158.3759308788
  0
LINE
  5
761
100
AcDbEntity
  8
30338430_HL
100
AcDbLine
 62
6
  6
HIDDEN
 10
139.5186994536
 20
210.6237793312
 11
139.8186994536
 21
210.3237793312
  0
LINE
  5
762
100
AcDbEntity
  8
30338430_HL
100
AcDbLine
 62
6
  6
HIDDEN
 10
139.0186994536
 20
215.2237793312
 11
139.5186994536
 21
214.7237793312
  0
LINE
  5
763
100
AcDbEntity
  8
30338430_HL
100
AcDbLine
 62
6
  6
HIDDEN
 10
143.9186994536
 20
210.3237793312
 11
144.5186994536
 21
209.7237793312
  0
LINE
  5
764
100
AcDbEntity
  8
30338430_CL
100
AcDbLine
 62
7
  6
CONTINUOUS
 10
155.6436994536
 20
212.8463745954
 11
154.2711041894
 21
215.2237793312
  0
LINE
  5
765
100
AcDbEntity
  8
30338430_HL
100
AcDbLine
 62
6
  6
HIDDEN
 10
192.4186994536
 20
170.7237793312
 11
192.4186994536
 21
159.7237793312
  0
LINE
  5
766
100
AcDbEntity
  8
30338430_HL
100
AcDbLine
 62
6
  6
HIDDEN
 10
192.5186994536
 20
170.2237793312
 11
192.5186994536
 21
160.2237793312
  0
LINE
  5
767
100
AcDbEntity
  8
30338430_HL
100
AcDbLine
 62
6
  6
HIDDEN
 10
193.0195600727
 20
169.7237793312
 11
193.0195600727
 21
160.7237793312
  0
LINE
  5
768
100
AcDbEntity
  8
30338430_HL
100
AcDbLine
 62
6
  6
HIDDEN
 10
192.4186994536
 20
159.7237793312
 11
193.0195600727
 21
160.7237793312
  0
LINE
  5
769
100
AcDbEntity
  8
30338430_HL
100
AcDbLine
 62
6
  6
HIDDEN
 10
142.4088291422
 20
115.2239090197
 11
146.0086994536
 21
118.8237793312
  0
LINE
  5
76A
100
AcDbEntity
  8
30252542_HP_HL
100
AcDbLine
 62
6
  6
HIDDEN
 10
197.0186994536
 20
169.6087793312
 11
197.6336994536
 21
170.2237793312
  0
LINE
  5
76B
100
AcDbEntity
  8
30252542_HP_HL
100
AcDbLine
 62
6
  6
HIDDEN
 10
197.0186994536
 20
162.2137793312
 11
197.528692006
 21
162.7237718836
  0
LINE
  5
76C
100
AcDbEntity
  8
30338430_HL
100
AcDbLine
 62
6
  6
HIDDEN
 10
197.0186994536
 20
156.8737793312
 11
199.5186994536
 21
158.3759308788
  0
LINE
  5
76D
100
AcDbEntity
  8
30252542_HP_HL
100
AcDbLine
 62
6
  6
HIDDEN
 10
203.8186994536
 20
160.2237793312
 11
205.6249172363
 21
161.2665996542
  0
LINE
  5
76E
100
AcDbEntity
  8
30338430_CL
100
AcDbLine
 62
7
  6
CONTINUOUS
 10
195.5186994536
 20
182.0737793312
 11
197.0186994536
 21
182.0737793312
  0
LINE
  5
76F
100
AcDbEntity
  8
30338430_CL
100
AcDbLine
 62
7
  6
CONTINUOUS
 10
202.0186994536
 20
182.0737793312
 11
203.5186994536
 21
182.0737793312
  0
LINE
  5
770
100
AcDbEntity
  8
30338430_CL
100
AcDbLine
 62
7
  6
CONTINUOUS
 10
176.4686994536
 20
182.2237793312
 11
195.5186994536
 21
182.2237793312
  0
LINE
  5
771
100
AcDbEntity
  8
30338430_CL
100
AcDbLine
 62
7
  6
CONTINUOUS
 10
203.5186994536
 20
182.2237793312
 11
213.046982877
 21
182.2237793312
  0
LINE
  5
772
100
AcDbEntity
  8
30338430_CL
100
AcDbLine
 62
7
  6
CONTINUOUS
 10
213.046982877
 20
182.2237793312
 11
256.5971585494
 21
178.7963061733
  0
LINE
  5
773
100
AcDbEntity
  8
30252542_HP_HL
100
AcDbLine
 62
6
  6
HIDDEN
 10
203.8186994536
 20
170.2237793312
 11
205.6249172363
 21
169.1809590082
  0
LINE
  5
774
100
AcDbEntity
  8
30338430_HL
100
AcDbLine
 62
6
  6
HIDDEN
 10
197.0186994536
 20
173.5737793312
 11
199.5186994536
 21
172.0716277836
  0
LINE
  5
775
100
AcDbEntity
  8
30252542_HP_HL
100
AcDbLine
 62
6
  6
HIDDEN
 10
197.0186994536
 20
160.8387793312
 11
197.6336994536
 21
160.2237793312
  0
LINE
  5
776
100
AcDbEntity
  8
30252542_HP_HL
100
AcDbLine
 62
6
  6
HIDDEN
 10
197.0186994536
 20
168.2337793312
 11
197.528692006
 21
167.7237867788
  0
LINE
  5
777
100
AcDbEntity
  8
30338430_HL
100
AcDbLine
 62
6
  6
HIDDEN
 10
192.4186994536
 20
170.7237793312
 11
193.0195600727
 21
169.7237793312
  0
LINE
  5
778
100
AcDbEntity
  8
30338430_CL
100
AcDbLine
 62
7
  6
CONTINUOUS
 10
195.5186994536
 20
182.2237793312
 11
195.5186994536
 21
148.2237793312
  0
LINE
  5
779
100
AcDbEntity
  8
30338430_HL
100
AcDbLine
 62
6
  6
HIDDEN
 10
196.5186994536
 20
154.8737793312
 11
196.5186994536
 21
148.3737793393
  0
LINE
  5
77A
100
AcDbEntity
  8
30338430_HL
100
AcDbLine
 62
6
  6
HIDDEN
 10
196.5186994536
 20
175.5737793312
 11
196.5186994536
 21
182.0737793231
  0
LINE
  5
77B
100
AcDbEntity
  8
30338430_HL
100
AcDbLine
 62
6
  6
HIDDEN
 10
197.0186994536
 20
182.0737793312
 11
197.0186994536
 21
173.5737793312
  0
LINE
  5
77C
100
AcDbEntity
  8
30252542_HP_HL
100
AcDbLine
 62
6
  6
HIDDEN
 10
197.0186994536
 20
169.6087793312
 11
197.0186994536
 21
160.8387793312
  0
LINE
  5
77D
100
AcDbEntity
  8
30338430_HL
100
AcDbLine
 62
6
  6
HIDDEN
 10
197.0186994536
 20
148.3737793312
 11
197.0186994536
 21
156.8737793312
  0
LINE
  5
77E
100
AcDbEntity
  8
30252542_HP_HL
100
AcDbLine
 62
6
  6
HIDDEN
 10
197.6336994536
 20
170.2237793312
 11
197.6336994536
 21
160.2237793312
  0
LINE
  5
77F
100
AcDbEntity
  8
30338430_CL
100
AcDbLine
 62
30
  6
CONTINUOUS
 10
199.5186994536
 20
148.5599945657
 11
199.5186994536
 21
149.1311575561
  0
LINE
  5
780
100
AcDbEntity
  8
30338430_CL
100
AcDbLine
 62
30
  6
CONTINUOUS
 10
199.5186994536
 20
160.2287793312
 11
199.5186994536
 21
170.2187793283
  0
LINE
  5
781
100
AcDbEntity
  8
30338430_CL
100
AcDbLine
 62
30
  6
CONTINUOUS
 10
199.5186994536
 20
181.3164010878
 11
199.5186994536
 21
181.8875640965
  0
LINE
  5
782
100
AcDbEntity
  8
30338430_AXIS
100
AcDbLine
 62
3
  6
CENTER
 10
199.5186994536
 20
146.3877541119
 11
199.5186994536
 21
187.0637793312
  0
LINE
  5
783
100
AcDbEntity
  8
30252542_HP_HL
100
AcDbLine
 62
6
  6
HIDDEN
 10
210.0087069013
 20
167.7237867788
 11
210.5186994536
 21
168.2337793312
  0
LINE
  5
784
100
AcDbEntity
  8
30338430_HL
100
AcDbLine
 62
6
  6
HIDDEN
 10
89.1186994536
 20
191.7237793312
 11
107.5153237807
 21
191.7237793312
  0
LINE
  5
785
100
AcDbEntity
  8
30338430_HL
100
AcDbLine
 62
6
  6
HIDDEN
 10
137.5186994536
 20
191.7237793312
 11
146.8186994536
 21
191.7237793312
  0
LINE
  5
786
100
AcDbEntity
  8
30338430_CL
100
AcDbLine
 62
7
  6
CONTINUOUS
 10
135.0186994536
 20
203.1060308342
 11
135.6379430676
 21
202.9401050079
  0
LINE
  5
787
100
AcDbEntity
  8
30252542_HP_HL
100
AcDbLine
 62
6
  6
HIDDEN
 10
210.0087069013
 20
162.7237718836
 11
210.5186994536
 21
162.2137793312
  0
LINE
  5
788
100
AcDbEntity
  8
30338430_HL
100
AcDbLine
 62
6
  6
HIDDEN
 10
202.0186994536
 20
182.0737793312
 11
202.0186994536
 21
173.5737793312
  0
LINE
  5
789
100
AcDbEntity
  8
30338430_HL
100
AcDbLine
 62
6
  6
HIDDEN
 10
202.0186994536
 20
148.3737793312
 11
202.0186994536
 21
156.8737793312
  0
LINE
  5
78A
100
AcDbEntity
  8
30252542_HP_HL
100
AcDbLine
 62
6
  6
HIDDEN
 10
202.0186994536
 20
162.7237793312
 11
202.0186994536
 21
167.7237793312
  0
LINE
  5
78B
100
AcDbEntity
  8
30338430_HL
100
AcDbLine
 62
6
  6
HIDDEN
 10
202.5186994536
 20
154.8737793312
 11
202.5186994536
 21
148.3737793393
  0
LINE
  5
78C
100
AcDbEntity
  8
30338430_HL
100
AcDbLine
 62
6
  6
HIDDEN
 10
202.5186994536
 20
175.5737793312
 11
202.5186994536
 21
182.0737793231
  0
LINE
  5
78D
100
AcDbEntity
  8
30338430_CL
100
AcDbLine
 62
7
  6
CONTINUOUS
 10
203.5186994536
 20
182.2237793312
 11
203.5186994536
 21
148.2237793312
  0
LINE
  5
78E
100
AcDbEntity
  8
30252542_HP_HL
100
AcDbLine
 62
6
  6
HIDDEN
 10
203.8186994536
 20
170.2237793312
 11
203.8186994536
 21
160.2237793312
  0
LINE
  5
78F
100
AcDbEntity
  8
30252542_HP_HL
100
AcDbLine
 62
6
  6
HIDDEN
 10
204.8839107003
 20
169.6087793312
 11
204.8839107003
 21
160.8387793312
  0
LINE
  5
790
100
AcDbEntity
  8
30252542_HP_HL
100
AcDbLine
 62
6
  6
HIDDEN
 10
205.5186994536
 20
167.7237793312
 11
205.5186994536
 21
162.7237793312
  0
LINE
  5
791
100
AcDbEntity
  8
30252542_HP_CL
100
AcDbLine
 62
9
  6
CONTINUOUS
 10
205.6249172363
 20
161.2665996542
 11
205.6249172363
 21
169.1809590082
  0
LINE
  5
792
100
AcDbEntity
  8
30252542_HP_CL
100
AcDbLine
 62
9
  6
CONTINUOUS
 10
206.0249172363
 20
161.3737793312
 11
206.0249172363
 21
169.0737793312
  0
LINE
  5
793
100
AcDbEntity
  8
30338430_HL
100
AcDbLine
 62
6
  6
HIDDEN
 10
208.4186994536
 20
169.7237793312
 11
209.0186994536
 21
170.7630098157
  0
LINE
  5
794
100
AcDbEntity
  8
30338430_HL
100
AcDbLine
 62
6
  6
HIDDEN
 10
110.9794253958
 20
196.7237793312
 11
127.7719051088
 21
196.7237793312
  0
LINE
  5
795
100
AcDbEntity
  8
30338430_HL
100
AcDbLine
 62
6
  6
HIDDEN
 10
208.4186994536
 20
160.7237793312
 11
209.0186994536
 21
159.6845488466
  0
LINE
  5
796
100
AcDbEntity
  8
30252542_HP_CL
100
AcDbLine
 62
9
  6
CONTINUOUS
 10
208.2186994536
 20
161.3737793312
 11
208.2186994536
 21
169.0737793312
  0
LINE
  5
797
100
AcDbEntity
  8
30338430_HL
100
AcDbLine
 62
6
  6
HIDDEN
 10
208.4186994536
 20
160.7237793312
 11
208.4186994536
 21
169.7237793312
  0
LINE
  5
798
100
AcDbEntity
  8
30338430_HL
100
AcDbLine
 62
6
  6
HIDDEN
 10
209.0186994536
 20
172.3737793312
 11
209.0186994536
 21
158.0737793312
  0
LINE
  5
799
100
AcDbEntity
  8
30252542_HP_HL
100
AcDbLine
 62
6
  6
HIDDEN
 10
209.0186994536
 20
160.3238003574
 11
209.0186994536
 21
170.1237583049
  0
LINE
  5
79A
100
AcDbEntity
  8
30252542_HP_HL
100
AcDbLine
 62
6
  6
HIDDEN
 10
210.5186994536
 20
160.3238003574
 11
210.5186994536
 21
170.1237583049
  0
LINE
  5
79B
100
AcDbEntity
  8
30338430_CL
100
AcDbLine
 62
7
  6
CONTINUOUS
 10
89.5186245696
 20
200.826467964
 11
135.0186994536
 21
203.1060308342
  0
LINE
  5
79C
100
AcDbEntity
  8
30338430_CL
100
AcDbLine
 62
7
  6
CONTINUOUS
 10
135.8967621127
 20
202.9060308342
 11
136.6186994536
 21
202.9060308342
  0
LINE
  5
79D
100
AcDbEntity
  8
30338430_CL
100
AcDbLine
 62
7
  6
CONTINUOUS
 10
213.046982877
 20
182.2237793312
 11
213.046982877
 21
148.2237793312
  0
LINE
  5
79E
100
AcDbEntity
  8
30338430_HL
100
AcDbLine
 62
6
  6
HIDDEN
 10
139.8186994536
 20
210.3237793312
 11
149.2186994536
 21
210.3237793312
  0
LINE
  5
79F
100
AcDbEntity
  8
30338430_HL
100
AcDbLine
 62
6
  6
HIDDEN
 10
139.5186994536
 20
210.6237793312
 11
149.5186994536
 21
210.6237793312
  0
LINE
  5
7A0
100
AcDbEntity
  8
30338430_CL
100
AcDbLine
 62
7
  6
CONTINUOUS
 10
158.6436994536
 20
211.2237793312
 11
156.3936994536
 21
211.2237793312
  0
LINE
  5
7A1
100
AcDbEntity
  8
30338430_HL
100
AcDbLine
 62
6
  6
HIDDEN
 10
221.5186994536
 20
172.3737793312
 11
221.5186994536
 21
158.0737793312
  0
LINE
  5
7A2
100
AcDbEntity
  8
30338430_HL
100
AcDbLine
 62
6
  6
HIDDEN
 10
139.5186994536
 20
214.7237793312
 11
149.5186994536
 21
214.7237793312
  0
LINE
  5
7A3
100
AcDbEntity
  8
30338430_CL
100
AcDbLine
 62
7
  6
CONTINUOUS
 10
137.7186994536
 20
215.2237793312
 11
139.0186994536
 21
215.2237793312
  0
LINE
  5
7A4
100
AcDbEntity
  8
30338430_CL
100
AcDbLine
 62
7
  6
CONTINUOUS
 10
150.0186994536
 20
215.2237793312
 11
154.2711041894
 21
215.2237793312
  0
LINE
  5
7A5
100
AcDbEntity
  8
30338430_CL
100
AcDbLine
 62
7
  6
CONTINUOUS
 10
160.7662947178
 20
215.2237793312
 11
166.4686994536
 21
215.2237793312
  0
LINE
  5
7A6
100
AcDbEntity
  8
30338430_HL
100
AcDbLine
 62
6
  6
HIDDEN
 10
255.5186994536
 20
172.2237793312
 11
255.5186994536
 21
158.2237793312
  0
LINE
  5
7A7
100
AcDbEntity
  8
30338430_CL
100
AcDbLine
 62
9
  6
CONTINUOUS
 10
256.5971585494
 20
178.7963061733
 11
256.5971585494
 21
151.6512524891
  0
LINE
  5
7A8
100
AcDbEntity
  8
30338430_CL
100
AcDbLine
 62
9
  6
CONTINUOUS
 10
256.6058551964
 20
172.3188931342
 11
256.6058551964
 21
158.1286655282
  0
LINE
  5
7A9
100
AcDbEntity
  8
30338430_CL
100
AcDbLine
 62
7
  6
CONTINUOUS
 10
257.5186994536
 20
177.7993888395
 11
257.5186994536
 21
152.6481698228
  0
CIRCLE
  5
7AA
100
AcDbEntity
  8
30338430_CL
100
AcDbCircle
 62
7
  6
CONTINUOUS
 10
122.5186994536
 20
165.2237793312
 40
6.0
  0
ARC
  5
7AB
100
AcDbEntity
  8
30338430_HL
100
AcDbCircle
 62
6
  6
HIDDEN
 10
95.6186994536
 20
157.2137793312
 40
2.0
100
AcDbArc
 50
358.5645873469
 51
360.0
  0
ARC
  5
7AC
100
AcDbEntity
  8
30338430_CL
100
AcDbCircle
 62
7
  6
CONTINUOUS
 10
95.6186994536
 20
157.2137793312
 40
2.0
100
AcDbArc
 50
270.0
 51
358.5645873469
  0
ARC
  5
7AD
100
AcDbEntity
  8
30338430_CL
100
AcDbCircle
 62
7
  6
CONTINUOUS
 10
89.6186994536
 20
131.6185853836
 40
2.0
100
AcDbArc
 50
180.0
 51
267.131868059
  0
ARC
  5
7AE
100
AcDbEntity
  8
30338430_HL
100
AcDbCircle
 62
6
  6
HIDDEN
 10
110.9794253958
 20
134.7237793312
 40
1.0
100
AcDbArc
 50
210.0
 51
270.0
  0
ARC
  5
7AF
100
AcDbEntity
  8
30338430_HL
100
AcDbCircle
 62
6
  6
HIDDEN
 10
146.0085088953
 20
61.5163017728
 40
53.8293424305
100
AcDbArc
 50
86.2996935355
 51
89.7276167153
  0
ARC
  5
7B0
100
AcDbEntity
  8
30338430_HL
100
AcDbCircle
 62
6
  6
HIDDEN
 10
146.0227413818
 20
61.6816726576
 40
53.6639399695
100
AcDbArc
 50
90.179351922
 51
93.8594969029
  0
ARC
  5
7B1
100
AcDbEntity
  8
30338430_HL
100
AcDbCircle
 62
6
  6
HIDDEN
 10
146.0186477795
 20
61.9559509221
 40
53.389650656
100
AcDbArc
 50
89.7362542711
 51
89.9999445452
  0
ARC
  5
7B2
100
AcDbEntity
  8
30338430_HL
100
AcDbCircle
 62
6
  6
HIDDEN
 10
146.0187343218
 20
61.9681836936
 40
53.3774178846
100
AcDbArc
 50
90.0000374277
 51
90.1760134263
  0
ARC
  5
7B3
100
AcDbEntity
  8
30338430_HL
100
AcDbCircle
 62
6
  6
HIDDEN
 10
127.7719051088
 20
145.7237793312
 40
12.0
100
AcDbArc
 50
270.0
 51
324.3146652873
  0
ARC
  5
7B4
100
AcDbEntity
  8
30338430_HL
100
AcDbCircle
 62
6
  6
HIDDEN
 10
152.4686994536
 20
166.2237793312
 40
10.0
100
AcDbArc
 50
90.0
 51
180.0
  0
ARC
  5
7B5
100
AcDbEntity
  8
30338430_HL
100
AcDbCircle
 62
6
  6
HIDDEN
 10
152.4686994536
 20
164.2237793312
 40
10.0
100
AcDbArc
 50
180.0
 51
270.0
  0
ARC
  5
7B6
100
AcDbEntity
  8
30338430_CL
100
AcDbCircle
 62
7
  6
CONTINUOUS
 10
152.4686994536
 20
165.2237793312
 40
10.0
100
AcDbArc
 50
90.0
 51
270.0
  0
ARC
  5
7B7
100
AcDbEntity
  8
30338430_CL
100
AcDbCircle
 62
7
  6
CONTINUOUS
 10
152.4686994536
 20
123.7237793312
 40
10.0
100
AcDbArc
 50
90.0
 51
164.5127260012
  0
CIRCLE
  5
7B8
100
AcDbEntity
  8
30338430_CL
100
AcDbCircle
 62
7
  6
CONTINUOUS
 10
152.5186994536
 20
165.2237793312
 40
6.2
  0
CIRCLE
  5
7B9
100
AcDbEntity
  8
30338430_CL
100
AcDbCircle
 62
7
  6
CONTINUOUS
 10
152.5186994536
 20
165.2237793312
 40
6.0
  0
ARC
  5
7BA
100
AcDbEntity
  8
30338430_HL
100
AcDbCircle
 62
6
  6
HIDDEN
 10
148.0186994536
 20
140.3237793312
 40
2.0
100
AcDbArc
 50
233.1301023542
 51
360.0
  0
ARC
  5
7BB
100
AcDbEntity
  8
30338430_HL
100
AcDbCircle
 62
6
  6
HIDDEN
 10
136.6186994536
 20
126.5415278281
 40
1.0
100
AcDbArc
 50
352.0
 51
25.8320854947
  0
ARC
  5
7BC
100
AcDbEntity
  8
30338430_CL
100
AcDbCircle
 62
7
  6
CONTINUOUS
 10
135.8967621127
 20
126.5415278281
 40
1.0
100
AcDbArc
 50
90.0
 51
105.0
  0
ARC
  5
7BD
100
AcDbEntity
  8
30338430_CL
100
AcDbCircle
 62
7
  6
CONTINUOUS
 10
136.6186994536
 20
126.5415278281
 40
1.0
100
AcDbArc
 50
25.8320854947
 51
90.0
  0
ARC
  5
7BE
100
AcDbEntity
  8
30338430_CL
100
AcDbCircle
 62
7
  6
CONTINUOUS
 10
156.3936994536
 20
118.4737793312
 40
0.75
100
AcDbArc
 50
90.0
 51
180.0
  0
CIRCLE
  5
7BF
100
AcDbEntity
  8
30338430_CL
100
AcDbCircle
 62
7
  6
CONTINUOUS
 10
152.5186994536
 20
165.2237793312
 40
0.1
  0
ARC
  5
7C0
100
AcDbEntity
  8
30338430_CL
100
AcDbCircle
 62
7
  6
CONTINUOUS
 10
-87.0790804296
 20
234.6582469219
 40
264.520422391
100
AcDbArc
 50
335.8400764706
 51
336.5770705491
  0
ARC
  5
7C1
100
AcDbEntity
  8
30338430_HL
100
AcDbCircle
 62
6
  6
HIDDEN
 10
144.65003185
 20
272.0467798714
 40
57.1013598345
100
AcDbArc
 50
264.3402942584
 51
265.4673246233
  0
ARC
  5
7C2
100
AcDbEntity
  8
30338430_HL
100
AcDbCircle
 62
6
  6
HIDDEN
 10
144.4146535704
 20
271.7432142651
 40
56.7965831324
100
AcDbArc
 50
274.1695522364
 51
275.6625143361
  0
ARC
  5
7C3
100
AcDbEntity
  8
30338430_HL
100
AcDbCircle
 62
6
  6
HIDDEN
 10
127.7719051088
 20
184.7237793312
 40
12.0
100
AcDbArc
 50
35.6853347127
 51
90.0
  0
ARC
  5
7C4
100
AcDbEntity
  8
30338430_HL
100
AcDbCircle
 62
6
  6
HIDDEN
 10
148.0186994536
 20
190.1237793312
 40
2.0
100
AcDbArc
 50
0.0
 51
126.8698976458
  0
ARC
  5
7C5
100
AcDbEntity
  8
30338430_HL
100
AcDbCircle
 62
6
  6
HIDDEN
 10
95.6186994536
 20
173.2337793312
 40
2.0
100
AcDbArc
 50
0.0
 51
1.4354127969
  0
ARC
  5
7C6
100
AcDbEntity
  8
30338430_CL
100
AcDbCircle
 62
7
  6
CONTINUOUS
 10
95.6186994536
 20
173.2337793312
 40
2.0
100
AcDbArc
 50
1.4354127969
 51
90.0
  0
ARC
  5
7C7
100
AcDbEntity
  8
30338430_CL
100
AcDbCircle
 62
7
  6
CONTINUOUS
 10
89.6186994536
 20
198.8289732788
 40
2.0
100
AcDbArc
 50
92.868131941
 51
180.0
  0
ARC
  5
7C8
100
AcDbEntity
  8
30338430_HL
100
AcDbCircle
 62
6
  6
HIDDEN
 10
110.9794253958
 20
195.7237793312
 40
1.0
100
AcDbArc
 50
90.0
 51
150.0
  0
ARC
  5
7C9
100
AcDbEntity
  8
30338430_HL
100
AcDbCircle
 62
6
  6
HIDDEN
 10
136.6186994536
 20
203.9060308342
 40
1.0
100
AcDbArc
 50
334.1679145053
 51
8.0
  0
ARC
  5
7CA
100
AcDbEntity
  8
30338430_CL
100
AcDbCircle
 62
7
  6
CONTINUOUS
 10
135.8967621127
 20
203.9060308342
 40
1.0
100
AcDbArc
 50
255.0
 51
270.0
  0
ARC
  5
7CB
100
AcDbEntity
  8
30338430_CL
100
AcDbCircle
 62
7
  6
CONTINUOUS
 10
136.6186994536
 20
203.9060308342
 40
1.0
100
AcDbArc
 50
270.0
 51
334.1679145053
  0
ARC
  5
7CC
100
AcDbEntity
  8
30338430_CL
100
AcDbCircle
 62
7
  6
CONTINUOUS
 10
156.3936994536
 20
211.9737793312
 40
0.75
100
AcDbArc
 50
180.0
 51
270.0
  0
ARC
  5
7CD
100
AcDbEntity
  8
30338430_HL
100
AcDbCircle
 62
6
  6
HIDDEN
 10
199.5186994536
 20
165.2237793312
 40
3.0
100
AcDbArc
 50
194.9193025188
 51
195.0
  0
ARC
  5
7CE
100
AcDbEntity
  8
30338430_HL
100
AcDbCircle
 62
6
  6
HIDDEN
 10
199.579901775
 20
131.1266265764
 40
17.4362850252
100
AcDbArc
 50
94.9397342582
 51
98.4466951285
  0
ARC
  5
7CF
100
AcDbEntity
  8
30338430_HL
100
AcDbCircle
 62
6
  6
HIDDEN
 10
199.5206108451
 20
131.7941360292
 40
16.7661494827
100
AcDbArc
 50
90.5867330617
 51
94.9342907596
  0
ARC
  5
7D0
100
AcDbEntity
  8
30338430_HL
100
AcDbCircle
 62
6
  6
HIDDEN
 10
199.5187090448
 20
131.8940156437
 40
16.6662556534
100
AcDbArc
 50
90.0000329728
 51
90.5837115209
  0
ARC
  5
7D1
100
AcDbEntity
  8
30338430_HL
100
AcDbCircle
 62
6
  6
HIDDEN
 10
199.5186868863
 20
131.9044277426
 40
16.6558435546
100
AcDbArc
 50
89.8050337093
 51
89.9999567685
  0
ARC
  5
7D2
100
AcDbEntity
  8
30338430_CL
100
AcDbCircle
 62
7
  6
CONTINUOUS
 10
176.4686994536
 20
138.2237793312
 40
10.0
100
AcDbArc
 50
90.0
 51
180.0
  0
ARC
  5
7D3
100
AcDbEntity
  8
30338430_HL
100
AcDbCircle
 62
6
  6
HIDDEN
 10
199.5186994536
 20
165.2237793312
 40
3.0
100
AcDbArc
 50
255.0
 51
255.0854977157
  0
ARC
  5
7D4
100
AcDbEntity
  8
30338430_CL
100
AcDbCircle
 62
3
  6
CONTINUOUS
 10
199.5186994536
 20
165.2237793312
 40
3.0
100
AcDbArc
 50
255.0854977157
 51
194.9193025188
  0
CIRCLE
  5
7D5
100
AcDbEntity
  8
30338430_CL
100
AcDbCircle
 62
7
  6
CONTINUOUS
 10
199.5186994536
 20
165.2237793312
 40
2.5
  0
ARC
  5
7D6
100
AcDbEntity
  8
30338430_HL
100
AcDbCircle
 62
6
  6
HIDDEN
 10
256.5186994536
 20
157.1324708301
 40
1.0
100
AcDbArc
 50
0.0
 51
85.0
  0
ARC
  5
7D7
100
AcDbEntity
  8
30338430_CL
100
AcDbCircle
 62
7
  6
CONTINUOUS
 10
256.5186994536
 20
152.6481698228
 40
1.0
100
AcDbArc
 50
274.5
 51
360.0
  0
ARC
  5
7D8
100
AcDbEntity
  8
30252542_HP_HL
100
AcDbCircle
 62
6
  6
HIDDEN
 10
206.0249172363
 20
160.5737793312
 40
0.8
100
AcDbArc
 50
90.0
 51
120.0
  0
ARC
  5
7D9
100
AcDbEntity
  8
30252542_HP_HL
100
AcDbCircle
 62
6
  6
HIDDEN
 10
208.2186994536
 20
160.5737793312
 40
0.8
100
AcDbArc
 50
0.0
 51
90.0
  0
ARC
  5
7DA
100
AcDbEntity
  8
30338430_CL
100
AcDbCircle
 62
7
  6
CONTINUOUS
 10
158.6436994536
 20
118.4737793312
 40
0.75
100
AcDbArc
 50
0.0
 51
90.0
  0
ARC
  5
7DB
100
AcDbEntity
  8
30338430_CL
100
AcDbCircle
 62
7
  6
CONTINUOUS
 10
402.1164793368
 20
234.6582469219
 40
264.520422391
100
AcDbArc
 50
203.4229294509
 51
204.1599235294
  0
ARC
  5
7DC
100
AcDbEntity
  8
30338430_HL
100
AcDbCircle
 62
6
  6
HIDDEN
 10
199.4574971348
 20
199.3209320673
 40
17.4362850063
100
AcDbArc
 50
274.9397340529
 51
278.4466951293
  0
ARC
  5
7DD
100
AcDbEntity
  8
30338430_HL
100
AcDbCircle
 62
6
  6
HIDDEN
 10
199.5167880624
 20
198.6534226235
 40
16.766149473
100
AcDbArc
 50
270.58673301
 51
274.934290551
  0
ARC
  5
7DE
100
AcDbEntity
  8
30338430_HL
100
AcDbCircle
 62
6
  6
HIDDEN
 10
199.5186898626
 20
198.5535430021
 40
16.6662556369
100
AcDbArc
 50
270.0000329724
 51
270.5837114699
  0
ARC
  5
7DF
100
AcDbEntity
  8
30338430_HL
100
AcDbCircle
 62
6
  6
HIDDEN
 10
199.518712021
 20
198.5431309401
 40
16.6558435749
100
AcDbArc
 50
269.8050337155
 51
269.9999567685
  0
ARC
  5
7E0
100
AcDbEntity
  8
30338430_CL
100
AcDbCircle
 62
7
  6
CONTINUOUS
 10
176.4686994536
 20
192.2237793312
 40
10.0
100
AcDbArc
 50
180.0
 51
270.0
  0
ARC
  5
7E1
100
AcDbEntity
  8
30338430_HL
100
AcDbCircle
 62
6
  6
HIDDEN
 10
256.5186994536
 20
173.3150878323
 40
1.0
100
AcDbArc
 50
275.0
 51
360.0
  0
ARC
  5
7E2
100
AcDbEntity
  8
30338430_CL
100
AcDbCircle
 62
7
  6
CONTINUOUS
 10
256.5186994536
 20
177.7993888395
 40
1.0
100
AcDbArc
 50
0.0
 51
85.5
  0
ARC
  5
7E3
100
AcDbEntity
  8
30252542_HP_HL
100
AcDbCircle
 62
6
  6
HIDDEN
 10
206.0249172363
 20
169.8737793312
 40
0.8
100
AcDbArc
 50
240.0
 51
270.0
  0
ARC
  5
7E4
100
AcDbEntity
  8
30252542_HP_HL
100
AcDbCircle
 62
6
  6
HIDDEN
 10
208.2186994536
 20
169.8737793312
 40
0.8
100
AcDbArc
 50
270.0
 51
360.0
  0
ARC
  5
7E5
100
AcDbEntity
  8
30338430_CL
100
AcDbCircle
 62
7
  6
CONTINUOUS
 10
158.6436994536
 20
211.9737793312
 40
0.75
100
AcDbArc
 50
270.0
 51
360.0
  0
SPLINE
  5
7E6
100
AcDbEntity
  8
30252542_HP_HL
100
AcDbSpline
 62
6
  6
HIDDEN
 70
0
 71
3
 72
15
 73
11
 74
0
 42
0.0000001
 43
0.0000001
 44
0.0000000001
 40
0.0
 40
0.0
 40
0.0
 40
0.0
 40
0.126812495
 40
0.2523288371
 40
0.3765810707
 40
0.5000000582
 40
0.6234190356
 40
0.7476712706
 40
0.8731875969
 40
1.0
 40
1.0
 40
1.0
 40
1.0
 10
210.3954507996
 20
162.7237793312
 30
0.0
 10
210.339528748
 20
162.8206391657
 30
0.0
 10
210.2353937423
 20
163.0176782535
 30
0.0
 10
210.1104030166
 20
163.3261776828
 30
0.0
 10
210.0280825121
 20
163.646123111
 30
0.0
 10
209.9990405119
 20
163.9737794783
 30
0.0
 10
210.028082586
 20
164.3014358371
 30
0.0
 10
210.1104030948
 20
164.6213812399
 30
0.0
 10
210.2353938027
 20
164.9298805768
 30
0.0
 10
210.3395287885
 20
165.1269195668
 30
0.0
 10
210.3954507996
 20
165.2237793312
 30
0.0
  0
SPLINE
  5
7E7
100
AcDbEntity
  8
30252542_HP_HL
100
AcDbSpline
 62
6
  6
HIDDEN
 70
0
 71
3
 72
15
 73
11
 74
0
 42
0.0000001
 43
0.0000001
 44
0.0000000001
 40
0.0
 40
0.0
 40
0.0
 40
0.0
 40
0.1268123969
 40
0.2523287379
 40
0.3765809926
 40
0.4999999925
 40
0.6234189813
 40
0.7476712065
 40
0.8731875237
 40
1.0
 40
1.0
 40
1.0
 40
1.0
 10
210.3954507996
 20
165.2237793312
 30
0.0
 10
210.3395287913
 20
165.3206390909
 30
0.0
 10
210.2353937987
 20
165.5176780857
 30
0.0
 10
210.1104030855
 20
165.8261774477
 30
0.0
 10
210.02808257
 20
166.1461229007
 30
0.0
 10
209.9990405073
 20
166.4737793008
 30
0.0
 10
210.0280825445
 20
166.8014356777
 30
0.0
 10
210.1104030452
 20
167.1213810768
 30
0.0
 10
210.2353937677
 20
167.4298804581
 30
0.0
 10
210.3395287563
 20
167.6269195109
 30
0.0
 10
210.3954507996
 20
167.7237793312
 30
0.0
  0
SPLINE
  5
7E8
100
AcDbEntity
  8
30252542_HP_HL
100
AcDbSpline
 62
6
  6
HIDDEN
 70
0
 71
3
 72
15
 73
11
 74
0
 42
0.0000001
 43
0.0000001
 44
0.0000000001
 40
0.0
 40
0.0
 40
0.0
 40
0.0
 40
0.126812495
 40
0.2523288371
 40
0.3765810707
 40
0.5000000582
 40
0.6234190356
 40
0.7476712706
 40
0.8731875969
 40
1.0
 40
1.0
 40
1.0
 40
1.0
 10
197.1419481077
 20
162.7237793312
 30
0.0
 10
197.1978701592
 20
162.8206391657
 30
0.0
 10
197.302005165
 20
163.0176782535
 30
0.0
 10
197.4269958907
 20
163.3261776828
 30
0.0
 10
197.5093163951
 20
163.646123111
 30
0.0
 10
197.5383583954
 20
163.9737794783
 30
0.0
 10
197.5093163212
 20
164.3014358371
 30
0.0
 10
197.4269958124
 20
164.6213812399
 30
0.0
 10
197.3020051046
 20
164.9298805768
 30
0.0
 10
197.1978701187
 20
165.1269195668
 30
0.0
 10
197.1419481077
 20
165.2237793312
 30
0.0
  0
SPLINE
  5
7E9
100
AcDbEntity
  8
30252542_HP_HL
100
AcDbSpline
 62
6
  6
HIDDEN
 70
0
 71
3
 72
15
 73
11
 74
0
 42
0.0000001
 43
0.0000001
 44
0.0000000001
 40
0.0
 40
0.0
 40
0.0
 40
0.0
 40
0.1268123969
 40
0.2523287379
 40
0.3765809926
 40
0.4999999925
 40
0.6234189813
 40
0.7476712065
 40
0.8731875237
 40
1.0
 40
1.0
 40
1.0
 40
1.0
 10
197.1419481077
 20
165.2237793312
 30
0.0
 10
197.197870116
 20
165.3206390909
 30
0.0
 10
197.3020051086
 20
165.5176780857
 30
0.0
 10
197.4269958218
 20
165.8261774477
 30
0.0
 10
197.5093163373
 20
166.1461229007
 30
0.0
 10
197.5383583999
 20
166.4737793008
 30
0.0
 10
197.5093163627
 20
166.8014356777
 30
0.0
 10
197.4269958621
 20
167.1213810768
 30
0.0
 10
197.3020051396
 20
167.4298804581
 30
0.0
 10
197.197870151
 20
167.6269195109
 30
0.0
 10
197.1419481077
 20
167.7237793312
 30
0.0
  0
SPLINE
  5
7EA
100
AcDbEntity
  8
30338430_HL
100
AcDbSpline
 62
6
  6
HIDDEN
 70
0
 71
3
 72
31
 73
27
 74
0
 42
0.0000001
 43
0.0000001
 44
0.0000000001
 40
0.0
 40
0.0
 40
0.0
 40
0.0
 40
0.0416666542
 40
0.0833333083
 40
0.1249999625
 40
0.1666666167
 40
0.2083332708
 40
0.249999925
 40
0.2916665792
 40
0.3333332333
 40
0.3749998875
 40
0.4166665417
 40
0.4583331959
 40
0.49999985
 40
0.5416665042
 40
0.5833331584
 40
0.6249998125
 40
0.6666664667
 40
0.7083331209
 40
0.749999775
 40
0.7916664292
 40
0.8333330834
 40
0.8749997375
 40
0.9166663917
 40
0.9583330459
 40
1.0
 40
1.0
 40
1.0
 40
1.0
 10
199.5186994536
 20
148.642992257
 30
0.0
 10
199.5836847946
 20
148.6429893563
 30
0.0
 10
199.7136932654
 20
148.6422283168
 30
0.0
 10
199.9079640286
 20
148.6387998444
 30
0.0
 10
200.1007625641
 20
148.6331480543
 30
0.0
 10
200.2913267291
 20
148.6253593119
 30
0.0
 10
200.4789132341
 20
148.6155573
 30
0.0
 10
200.6627166658
 20
148.6039018237
 30
0.0
 10
200.8419652997
 20
148.5905837727
 30
0.0
 10
201.015815246
 20
148.5758304954
 30
0.0
 10
201.1835033854
 20
148.5598912533
 30
0.0
 10
201.3441696911
 20
148.5430498904
 30
0.0
 10
201.4971017835
 20
148.5255966172
 30
0.0
 10
201.6414735651
 20
148.5078511058
 30
0.0
 10
201.7766719354
 20
148.49011909
 30
0.0
 10
201.9019625169
 20
148.4727276668
 30
0.0
 10
202.0168647793
 20
148.4559700093
 30
0.0
 10
202.1207824607
 20
148.440150441
 30
0.0
 10
202.2133747367
 20
148.4255253294
 30
0.0
 10
202.2942043507
 20
148.4123511473
 30
0.0
 10
202.3630517667
 20
148.4008315159
 30
0.0
 10
202.4196329169
 20
148.3911591633
 30
0.0
 10
202.4638184411
 20
148.3834773913
 30
0.0
 10
202.4954529928
 20
148.3779085314
 30
0.0
 10
202.5144708983
 20
148.374532962
 30
0.0
 10
202.5186994834
 20
148.3737793259
 30
0.0
 10
202.5186994536
 20
148.3737793312
 30
0.0
  0
SPLINE
  5
7EB
100
AcDbEntity
  8
30338430_HL
100
AcDbSpline
 62
6
  6
HIDDEN
 70
0
 71
3
 72
31
 73
27
 74
0
 42
0.0000001
 43
0.0000001
 44
0.0000000001
 40
0.0
 40
0.0
 40
0.0
 40
0.0
 40
0.0416663792
 40
0.0833330584
 40
0.1249997375
 40
0.1666664167
 40
0.2083330959
 40
0.249999775
 40
0.2916664542
 40
0.3333331334
 40
0.3749998125
 40
0.4166664917
 40
0.4583331709
 40
0.49999985
 40
0.5416665292
 40
0.5833332084
 40
0.6249998875
 40
0.6666665667
 40
0.7083332458
 40
0.749999925
 40
0.7916666042
 40
0.8333332833
 40
0.8749999625
 40
0.9166666417
 40
0.9583333208
 40
1.0
 40
1.0
 40
1.0
 40
1.0
 10
196.5186994536
 20
148.3737793312
 30
0.0
 10
196.5186994834
 20
148.3737793365
 30
0.0
 10
196.5229280962
 20
148.3745329773
 30
0.0
 10
196.5419453934
 20
148.3779084396
 30
0.0
 10
196.5735804437
 20
148.3834773869
 30
0.0
 10
196.6177650061
 20
148.3911589941
 30
0.0
 10
196.6743470829
 20
148.4008315054
 30
0.0
 10
196.7431931706
 20
148.412350919
 30
0.0
 10
196.8240240714
 20
148.4255253126
 30
0.0
 10
196.9166147138
 20
148.440150173
 30
0.0
 10
197.0205339908
 20
148.4559699879
 30
0.0
 10
197.1354343648
 20
148.4727273792
 30
0.0
 10
197.2607268051
 20
148.4901190666
 30
0.0
 10
197.3959230914
 20
148.5078508205
 30
0.0
 10
197.5402969343
 20
148.5255965941
 30
0.0
 10
197.6932268417
 20
148.5430496309
 30
0.0
 10
197.8538953158
 20
148.5598912325
 30
0.0
 10
198.0215813128
 20
148.5758302843
 30
0.0
 10
198.1954333923
 20
148.5905837562
 30
0.0
 10
198.3746801241
 20
148.6039016776
 30
0.0
 10
198.5584854752
 20
148.6155572901
 30
0.0
 10
198.7460705261
 20
148.6253592342
 30
0.0
 10
198.9366361781
 20
148.633148051
 30
0.0
 10
199.1294339523
 20
148.6387998217
 30
0.0
 10
199.3237056123
 20
148.6422283193
 30
0.0
 10
199.4537141062
 20
148.6429893575
 30
0.0
 10
199.5186994536
 20
148.642992257
 30
0.0
  0
LINE
  5
7EC
100
AcDbEntity
  8
30338430_HL
100
AcDbLine
 62
6
  6
HIDDEN
 10
142.4106216716
 20
115.2239087357
 11
142.4089123256
 21
115.2237936924
  0
SPLINE
  5
7ED
100
AcDbEntity
  8
30338430_HL
100
AcDbSpline
 62
6
  6
HIDDEN
 70
0
 71
3
 72
31
 73
27
 74
0
 42
0.0000001
 43
0.0000001
 44
0.0000000001
 40
0.0
 40
0.0
 40
0.0
 40
0.0
 40
0.0416666667
 40
0.0833333333
 40
0.125
 40
0.1666666667
 40
0.2083333333
 40
0.25
 40
0.2916666667
 40
0.3333333333
 40
0.375
 40
0.4166666667
 40
0.4583333333
 40
0.5
 40
0.5416666667
 40
0.5833333333
 40
0.625
 40
0.6666666667
 40
0.7083333333
 40
0.75
 40
0.7916666667
 40
0.8333333333
 40
0.875
 40
0.9166666667
 40
0.9583333333
 40
1.0
 40
1.0
 40
1.0
 40
1.0
 10
202.5186994536
 20
182.0737793312
 30
0.0
 10
202.5186994543
 20
182.0737793313
 30
0.0
 10
202.5144708567
 20
182.0730256932
 30
0.0
 10
202.4954535139
 20
182.0696502228
 30
0.0
 10
202.4638184636
 20
182.0640812755
 30
0.0
 10
202.4196339011
 20
182.0563996683
 30
0.0
 10
202.3630518243
 20
182.046727157
 30
0.0
 10
202.2942057367
 20
182.0352077434
 30
0.0
 10
202.2133748359
 20
182.0220333498
 30
0.0
 10
202.1207841934
 20
182.0074084894
 30
0.0
 10
202.0168649164
 20
181.9915886745
 30
0.0
 10
201.9019645425
 20
181.9748312832
 30
0.0
 10
201.7766721021
 20
181.9574395958
 30
0.0
 10
201.6414758159
 20
181.9397078419
 30
0.0
 10
201.4971019729
 20
181.9219620683
 30
0.0
 10
201.3441720656
 20
181.9045090315
 30
0.0
 10
201.1835035915
 20
181.8876674299
 30
0.0
 10
201.0158175945
 20
181.8717283781
 30
0.0
 10
200.841965515
 20
181.8569749062
 30
0.0
 10
200.6627187832
 20
181.8436569848
 30
0.0
 10
200.4789134321
 20
181.8320013723
 30
0.0
 10
200.2913283811
 20
181.8221994282
 30
0.0
 10
200.1007627292
 20
181.8144106114
 30
0.0
 10
199.907964955
 20
181.8087588406
 30
0.0
 10
199.7136932949
 20
181.8053303431
 30
0.0
 10
199.583684801
 20
181.8045693049
 30
0.0
 10
199.5186994536
 20
181.8045664054
 30
0.0
  0
SPLINE
  5
7EE
100
AcDbEntity
  8
30338430_HL
100
AcDbSpline
 62
6
  6
HIDDEN
 70
0
 71
3
 72
31
 73
27
 74
0
 42
0.0000001
 43
0.0000001
 44
0.0000000001
 40
0.0
 40
0.0
 40
0.0
 40
0.0
 40
0.0416666667
 40
0.0833333333
 40
0.125
 40
0.1666666667
 40
0.2083333333
 40
0.25
 40
0.2916666667
 40
0.3333333333
 40
0.375
 40
0.4166666667
 40
0.4583333333
 40
0.5
 40
0.5416666667
 40
0.5833333333
 40
0.625
 40
0.6666666667
 40
0.7083333333
 40
0.75
 40
0.7916666667
 40
0.8333333333
 40
0.875
 40
0.9166666667
 40
0.9583333333
 40
1.0
 40
1.0
 40
1.0
 40
1.0
 10
199.5186994536
 20
181.8045664054
 30
0.0
 10
199.4537141127
 20
181.8045693061
 30
0.0
 10
199.3237056418
 20
181.8053303456
 30
0.0
 10
199.1294348786
 20
181.808758818
 30
0.0
 10
198.9366363432
 20
181.8144106081
 30
0.0
 10
198.7460721782
 20
181.8221993504
 30
0.0
 10
198.5584856732
 20
181.8320013624
 30
0.0
 10
198.3746822414
 20
181.8436568386
 30
0.0
 10
198.1954336075
 20
181.8569748896
 30
0.0
 10
198.0215836613
 20
181.8717281669
 30
0.0
 10
197.8538955219
 20
181.8876674091
 30
0.0
 10
197.6932292162
 20
181.904508772
 30
0.0
 10
197.5402971238
 20
181.9219620452
 30
0.0
 10
197.3959253421
 20
181.9397075566
 30
0.0
 10
197.2607269719
 20
181.9574395724
 30
0.0
 10
197.1354363904
 20
181.9748309956
 30
0.0
 10
197.020534128
 20
181.9915886531
 30
0.0
 10
196.9166164465
 20
182.0074082214
 30
0.0
 10
196.8240241706
 20
182.022033333
 30
0.0
 10
196.7431945566
 20
182.0352075151
 30
0.0
 10
196.6743471405
 20
182.0467271465
 30
0.0
 10
196.6177659904
 20
182.0563994991
 30
0.0
 10
196.5735804662
 20
182.064081271
 30
0.0
 10
196.5419459145
 20
182.0696501309
 30
0.0
 10
196.5229280546
 20
182.0730256923
 30
0.0
 10
196.5186994543
 20
182.073779331
 30
0.0
 10
196.5186994536
 20
182.0737793312
 30
0.0
  0
LINE
  5
7EF
100
AcDbEntity
  8
30338430_HL
100
AcDbLine
 62
6
  6
HIDDEN
 10
197.0186994536
 20
182.0737793312
 11
197.0194199245
 21
182.0736724009
  0
SPLINE
  5
7F0
100
AcDbEntity
  8
30338430_HL
100
AcDbSpline
 62
6
  6
HIDDEN
 70
0
 71
3
 72
10
 73
6
 74
0
 42
0.0000001
 43
0.0000001
 44
0.0000000001
 40
0.0
 40
0.0
 40
0.0
 40
0.0
 40
0.3012657761
 40
0.622040138
 40
1.0
 40
1.0
 40
1.0
 40
1.0
 10
197.0194199245
 20
182.0736724009
 30
0.0
 10
197.2629476195
 20
182.0375431109
 30
0.0
 10
197.7673966454
 20
181.9734047162
 30
0.0
 10
198.5820853513
 20
181.9062853112
 30
0.0
 10
199.153170121
 20
181.8884345749
 30
0.0
 10
199.462035566
 20
181.8873837947
 30
0.0
  0
LINE
  5
7F1
100
AcDbEntity
  8
30338430_HL
100
AcDbLine
 62
6
  6
HIDDEN
 10
202.0186994536
 20
148.3737793312
 11
202.0179294555
 21
148.3738936091
  0
SPLINE
  5
7F2
100
AcDbEntity
  8
30338430_HL
100
AcDbSpline
 62
6
  6
HIDDEN
 70
0
 71
3
 72
10
 73
6
 74
0
 42
0.0000001
 43
0.0000001
 44
0.0000000001
 40
0.0
 40
0.0
 40
0.0
 40
0.0
 40
0.3015450902
 40
0.6222226577
 40
1.0
 40
1.0
 40
1.0
 40
1.0
 10
202.0179294555
 20
148.3738936091
 30
0.0
 10
201.7741807342
 20
148.4100542267
 30
0.0
 10
201.2695923766
 20
148.4742003226
 30
0.0
 10
200.454918065
 20
148.541289287
 30
0.0
 10
199.8840733411
 20
148.5591246162
 30
0.0
 10
199.575363343
 20
148.5601748676
 30
0.0
  0
LINE
  5
7F3
100
AcDbEntity
  8
30338430_HL
100
AcDbLine
 62
6
  6
HIDDEN
 10
149.6286992283
 20
115.2237793808
 11
149.6182093387
 21
115.2244847267
  0
LINE
  5
7F4
100
AcDbEntity
  8
30338430_HL
100
AcDbLine
 62
6
  6
HIDDEN
 10
149.6182093387
 20
115.2244847267
 11
149.482527937
 21
115.2334247244
  0
SPLINE
  5
7F5
100
AcDbEntity
  8
30338430_CL
100
AcDbSpline
 62
3
  6
CONTINUOUS
 70
0
 71
3
 72
31
 73
27
 74
0
 42
0.0000001
 43
0.0000001
 44
0.0000000001
 40
0.0
 40
0.0
 40
0.0
 40
0.0
 40
0.0416663792
 40
0.0833330584
 40
0.1249997375
 40
0.1666664167
 40
0.2083330959
 40
0.249999775
 40
0.2916664542
 40
0.3333331334
 40
0.3749998125
 40
0.4166664917
 40
0.4583331709
 40
0.49999985
 40
0.5416665292
 40
0.5833332084
 40
0.6249998875
 40
0.6666665667
 40
0.7083332458
 40
0.749999925
 40
0.7916666042
 40
0.8333332833
 40
0.8749999625
 40
0.9166666417
 40
0.9583333208
 40
1.0
 40
1.0
 40
1.0
 40
1.0
 10
202.5186994536
 20
148.3737793312
 30
0.0
 10
202.5186994239
 20
148.3737793365
 30
0.0
 10
202.5144708111
 20
148.3745329773
 30
0.0
 10
202.4954535139
 20
148.3779084396
 30
0.0
 10
202.4638184636
 20
148.3834773869
 30
0.0
 10
202.4196339011
 20
148.3911589941
 30
0.0
 10
202.3630518243
 20
148.4008315054
 30
0.0
 10
202.2942057367
 20
148.412350919
 30
0.0
 10
202.2133748359
 20
148.4255253126
 30
0.0
 10
202.1207841934
 20
148.440150173
 30
0.0
 10
202.0168649164
 20
148.4559699879
 30
0.0
 10
201.9019645425
 20
148.4727273792
 30
0.0
 10
201.7766721021
 20
148.4901190666
 30
0.0
 10
201.6414758159
 20
148.5078508205
 30
0.0
 10
201.4971019729
 20
148.5255965941
 30
0.0
 10
201.3441720656
 20
148.5430496309
 30
0.0
 10
201.1835035915
 20
148.5598912325
 30
0.0
 10
201.0158175945
 20
148.5758302843
 30
0.0
 10
200.841965515
 20
148.5905837562
 30
0.0
 10
200.6627187832
 20
148.6039016776
 30
0.0
 10
200.4789134321
 20
148.6155572901
 30
0.0
 10
200.2913283811
 20
148.6253592342
 30
0.0
 10
200.1007627292
 20
148.633148051
 30
0.0
 10
199.907964955
 20
148.6387998217
 30
0.0
 10
199.7136932949
 20
148.6422283193
 30
0.0
 10
199.583684801
 20
148.6429893575
 30
0.0
 10
199.5186994536
 20
148.642992257
 30
0.0
  0
SPLINE
  5
7F6
100
AcDbEntity
  8
30338430_CL
100
AcDbSpline
 62
3
  6
CONTINUOUS
 70
0
 71
3
 72
31
 73
27
 74
0
 42
0.0000001
 43
0.0000001
 44
0.0000000001
 40
0.0
 40
0.0
 40
0.0
 40
0.0
 40
0.0416666542
 40
0.0833333083
 40
0.1249999625
 40
0.1666666167
 40
0.2083332708
 40
0.249999925
 40
0.2916665792
 40
0.3333332333
 40
0.3749998875
 40
0.4166665417
 40
0.4583331959
 40
0.49999985
 40
0.5416665042
 40
0.5833331584
 40
0.6249998125
 40
0.6666664667
 40
0.7083331209
 40
0.749999775
 40
0.7916664292
 40
0.8333330834
 40
0.8749997375
 40
0.9166663917
 40
0.9583330459
 40
1.0
 40
1.0
 40
1.0
 40
1.0
 10
199.5186994536
 20
148.642992257
 30
0.0
 10
199.4537141127
 20
148.6429893563
 30
0.0
 10
199.3237056418
 20
148.6422283168
 30
0.0
 10
199.1294348786
 20
148.6387998444
 30
0.0
 10
198.9366363432
 20
148.6331480543
 30
0.0
 10
198.7460721782
 20
148.6253593119
 30
0.0
 10
198.5584856732
 20
148.6155573
 30
0.0
 10
198.3746822414
 20
148.6039018237
 30
0.0
 10
198.1954336075
 20
148.5905837727
 30
0.0
 10
198.0215836613
 20
148.5758304954
 30
0.0
 10
197.8538955219
 20
148.5598912533
 30
0.0
 10
197.6932292162
 20
148.5430498904
 30
0.0
 10
197.5402971238
 20
148.5255966172
 30
0.0
 10
197.3959253421
 20
148.5078511058
 30
0.0
 10
197.2607269719
 20
148.49011909
 30
0.0
 10
197.1354363904
 20
148.4727276668
 30
0.0
 10
197.020534128
 20
148.4559700093
 30
0.0
 10
196.9166164465
 20
148.440150441
 30
0.0
 10
196.8240241706
 20
148.4255253294
 30
0.0
 10
196.7431945566
 20
148.4123511473
 30
0.0
 10
196.6743471405
 20
148.4008315159
 30
0.0
 10
196.6177659904
 20
148.3911591633
 30
0.0
 10
196.5735804662
 20
148.3834773913
 30
0.0
 10
196.5419459145
 20
148.3779085314
 30
0.0
 10
196.522928009
 20
148.374532962
 30
0.0
 10
196.5186994239
 20
148.3737793259
 30
0.0
 10
196.5186994536
 20
148.3737793312
 30
0.0
  0
SPLINE
  5
7F7
100
AcDbEntity
  8
30338430_CL
100
AcDbSpline
 62
3
  6
CONTINUOUS
 70
0
 71
3
 72
31
 73
27
 74
0
 42
0.0000001
 43
0.0000001
 44
0.0000000001
 40
0.0
 40
0.0
 40
0.0
 40
0.0
 40
0.0416666667
 40
0.0833333333
 40
0.125
 40
0.1666666667
 40
0.2083333333
 40
0.25
 40
0.2916666667
 40
0.3333333333
 40
0.375
 40
0.4166666667
 40
0.4583333333
 40
0.5
 40
0.5416666667
 40
0.5833333333
 40
0.625
 40
0.6666666667
 40
0.7083333333
 40
0.75
 40
0.7916666667
 40
0.8333333333
 40
0.875
 40
0.9166666667
 40
0.9583333333
 40
1.0
 40
1.0
 40
1.0
 40
1.0
 10
199.5186994536
 20
181.8045664054
 30
0.0
 10
199.5836847946
 20
181.8045693061
 30
0.0
 10
199.7136932654
 20
181.8053303456
 30
0.0
 10
199.9079640286
 20
181.808758818
 30
0.0
 10
200.1007625641
 20
181.8144106081
 30
0.0
 10
200.2913267291
 20
181.8221993504
 30
0.0
 10
200.4789132341
 20
181.8320013624
 30
0.0
 10
200.6627166658
 20
181.8436568386
 30
0.0
 10
200.8419652997
 20
181.8569748896
 30
0.0
 10
201.015815246
 20
181.8717281669
 30
0.0
 10
201.1835033854
 20
181.8876674091
 30
0.0
 10
201.3441696911
 20
181.904508772
 30
0.0
 10
201.4971017835
 20
181.9219620452
 30
0.0
 10
201.6414735651
 20
181.9397075566
 30
0.0
 10
201.7766719354
 20
181.9574395724
 30
0.0
 10
201.9019625169
 20
181.9748309956
 30
0.0
 10
202.0168647793
 20
181.9915886531
 30
0.0
 10
202.1207824607
 20
182.0074082214
 30
0.0
 10
202.2133747367
 20
182.022033333
 30
0.0
 10
202.2942043507
 20
182.0352075151
 30
0.0
 10
202.3630517667
 20
182.0467271465
 30
0.0
 10
202.4196329169
 20
182.0563994991
 30
0.0
 10
202.4638184411
 20
182.064081271
 30
0.0
 10
202.4954529928
 20
182.0696501309
 30
0.0
 10
202.5144708526
 20
182.0730256923
 30
0.0
 10
202.5186994529
 20
182.073779331
 30
0.0
 10
202.5186994536
 20
182.0737793312
 30
0.0
  0
SPLINE
  5
7F8
100
AcDbEntity
  8
30338430_CL
100
AcDbSpline
 62
3
  6
CONTINUOUS
 70
0
 71
3
 72
31
 73
27
 74
0
 42
0.0000001
 43
0.0000001
 44
0.0000000001
 40
0.0
 40
0.0
 40
0.0
 40
0.0
 40
0.0416666667
 40
0.0833333333
 40
0.125
 40
0.1666666667
 40
0.2083333333
 40
0.25
 40
0.2916666667
 40
0.3333333333
 40
0.375
 40
0.4166666667
 40
0.4583333333
 40
0.5
 40
0.5416666667
 40
0.5833333333
 40
0.625
 40
0.6666666667
 40
0.7083333333
 40
0.75
 40
0.7916666667
 40
0.8333333333
 40
0.875
 40
0.9166666667
 40
0.9583333333
 40
1.0
 40
1.0
 40
1.0
 40
1.0
 10
196.5186994536
 20
182.0737793312
 30
0.0
 10
196.5186994529
 20
182.0737793313
 30
0.0
 10
196.5229280505
 20
182.0730256932
 30
0.0
 10
196.5419453934
 20
182.0696502228
 30
0.0
 10
196.5735804437
 20
182.0640812755
 30
0.0
 10
196.6177650061
 20
182.0563996683
 30
0.0
 10
196.6743470829
 20
182.046727157
 30
0.0
 10
196.7431931706
 20
182.0352077434
 30
0.0
 10
196.8240240714
 20
182.0220333498
 30
0.0
 10
196.9166147138
 20
182.0074084894
 30
0.0
 10
197.0205339908
 20
181.9915886745
 30
0.0
 10
197.1354343647
 20
181.9748312832
 30
0.0
 10
197.2607268051
 20
181.9574395958
 30
0.0
 10
197.3959230914
 20
181.9397078419
 30
0.0
 10
197.5402969343
 20
181.9219620683
 30
0.0
 10
197.6932268417
 20
181.9045090315
 30
0.0
 10
197.8538953158
 20
181.8876674299
 30
0.0
 10
198.0215813128
 20
181.8717283781
 30
0.0
 10
198.1954333923
 20
181.8569749062
 30
0.0
 10
198.3746801241
 20
181.8436569848
 30
0.0
 10
198.5584854752
 20
181.8320013723
 30
0.0
 10
198.7460705261
 20
181.8221994282
 30
0.0
 10
198.9366361781
 20
181.8144106114
 30
0.0
 10
199.1294339523
 20
181.8087588406
 30
0.0
 10
199.3237056123
 20
181.8053303431
 30
0.0
 10
199.4537141062
 20
181.8045693049
 30
0.0
 10
199.5186994536
 20
181.8045664054
 30
0.0
  0
SPLINE
  5
7F9
100
AcDbEntity
  8
30338430_CL
100
AcDbSpline
 62
7
  6
CONTINUOUS
 70
0
 71
3
 72
25
 73
21
 74
0
 42
0.0000001
 43
0.0000001
 44
0.0000000001
 40
0.0
 40
0.0
 40
0.0
 40
0.0
 40
0.1918259322
 40
0.3769388938
 40
0.5487018041
 40
0.700656462
 40
0.767275612
 40
0.8266908569
 40
0.8782377752
 40
0.921315296
 40
0.9395114783
 40
0.9554016053
 40
0.9689353284
 40
0.9800692728
 40
0.9887672955
 40
0.9950008131
 40
0.9971865665
 40
0.9987491719
 40
0.9996872743
 40
1.0
 40
1.0
 40
1.0
 40
1.0
 10
146.0186994536
 20
115.3456015782
 30
0.0
 10
146.2497039464
 20
115.3456015782
 30
0.0
 10
146.7036344861
 20
115.3426537719
 30
0.0
 10
147.3642973354
 20
115.329937984
 30
0.0
 10
147.9767652439
 20
115.3107674298
 30
0.0
 10
148.4464151027
 20
115.2909453836
 30
0.0
 10
148.7807712919
 20
115.2743793665
 30
0.0
 10
148.994314287
 20
115.2628967384
 30
0.0
 10
149.1795086103
 20
115.2522503675
 30
0.0
 10
149.3151253328
 20
115.244025218
 30
0.0
 10
149.4078627171
 20
115.2382106976
 30
0.0
 10
149.465102412
 20
115.2345571708
 30
0.0
 10
149.5138113231
 20
115.2313989753
 30
0.0
 10
149.5539893847
 20
115.2287648851
 30
0.0
 10
149.5850929414
 20
115.226694491
 30
0.0
 10
149.606111604
 20
115.2253078044
 30
0.0
 10
149.6174974396
 20
115.2245205584
 30
0.0
 10
149.6241290488
 20
115.2241138322
 30
0.0
 10
149.6257410777
 20
115.223936375
 30
0.0
 10
149.6290758041
 20
115.2237833739
 30
0.0
 10
149.6286992283
 20
115.2237793808
 30
0.0
  0
SPLINE
  5
7FA
100
AcDbEntity
  8
30338430_CL
100
AcDbSpline
 62
7
  6
CONTINUOUS
 70
0
 71
3
 72
10
 73
6
 74
0
 42
0.0000001
 43
0.0000001
 44
0.0000000001
 40
0.0
 40
0.0
 40
0.0
 40
0.0
 40
0.2941947342
 40
0.6182082364
 40
1.0
 40
1.0
 40
1.0
 40
1.0
 10
197.0186994536
 20
148.3737793312
 30
0.0
 10
197.2620928825
 20
148.409913941
 30
0.0
 10
197.7751349149
 20
148.4751504442
 30
0.0
 10
198.6089697517
 20
148.5432691657
 30
0.0
 10
199.1993993525
 20
148.5602712972
 30
0.0
 10
199.5186994536
 20
148.5602712972
 30
0.0
  0
SPLINE
  5
7FB
100
AcDbEntity
  8
30338430_CL
100
AcDbSpline
 62
7
  6
CONTINUOUS
 70
0
 71
3
 72
10
 73
6
 74
0
 42
0.0000001
 43
0.0000001
 44
0.0000000001
 40
0.0
 40
0.0
 40
0.0
 40
0.0
 40
0.2941947341
 40
0.6182082363
 40
1.0
 40
1.0
 40
1.0
 40
1.0
 10
202.0186994536
 20
182.0737793312
 30
0.0
 10
201.7753060249
 20
182.0376447214
 30
0.0
 10
201.2622639926
 20
181.9724082182
 30
0.0
 10
200.4284291558
 20
181.9042894966
 30
0.0
 10
199.8379995548
 20
181.8872873652
 30
0.0
 10
199.5186994536
 20
181.8872873652
 30
0.0
  0
SPLINE
  5
7FC
100
AcDbEntity
  8
30338430_CL
100
AcDbSpline
 62
7
  6
CONTINUOUS
 70
0
 71
3
 72
13
 73
9
 74
0
 42
0.0000001
 43
0.0000001
 44
0.0000000001
 40
0.0
 40
0.0
 40
0.0
 40
0.0
 40
0.1513672505
 40
0.3129717935
 40
0.5000000002
 40
0.6870282068
 40
0.8486327496
 40
1.0
 40
1.0
 40
1.0
 40
1.0
 10
150.0186994536
 20
215.2237793312
 30
0.0
 10
149.4654941374
 20
215.1689313683
 30
0.0
 10
148.3199978007
 20
215.0722296266
 30
0.0
 10
146.4860562297
 20
214.9739396737
 30
0.0
 10
144.5186994517
 20
214.9370118217
 30
0.0
 10
142.5513426745
 20
214.9739396738
 30
0.0
 10
140.7174011048
 20
215.0722296268
 30
0.0
 10
139.5719047693
 20
215.1689313684
 30
0.0
 10
139.0186994536
 20
215.2237793312
 30
0.0
  0
SPLINE
  5
7FD
100
AcDbEntity
  8
30338430_CL
100
AcDbSpline
 62
7
  6
CONTINUOUS
 70
0
 71
3
 72
22
 73
18
 74
0
 42
0.0000001
 43
0.0000001
 44
0.0000000001
 40
0.0
 40
0.0
 40
0.0
 40
0.0
 40
0.0012508303
 40
0.0049991912
 40
0.0112327109
 40
0.0199307353
 40
0.0310646815
 40
0.0445984062
 40
0.0786847126
 40
0.1217622353
 40
0.1733091551
 40
0.2327244006
 40
0.2993435509
 40
0.4512982079
 40
0.6230611158
 40
0.8081740735
 40
1.0
 40
1.0
 40
1.0
 40
1.0
 10
142.4086996789
 20
115.2237793808
 30
0.0
 10
142.4101981955
 20
115.2239323131
 30
0.0
 10
142.4162154972
 20
115.2242106231
 30
0.0
 10
142.42970172
 20
115.2252380819
 30
0.0
 10
142.4521526401
 20
115.2266683205
 30
0.0
 10
142.4834704161
 20
115.2287752623
 30
0.0
 10
142.5235654437
 20
115.2313952638
 30
0.0
 10
142.5941707283
 20
115.2359771407
 30
0.0
 10
142.7031750954
 20
115.2428657011
 30
0.0
 10
142.8578895346
 20
115.2522507472
 30
0.0
 10
143.0430849525
 20
115.2628966155
 30
0.0
 10
143.2566275896
 20
115.2743794093
 30
0.0
 10
143.5909839228
 20
115.2909453587
 30
0.0
 10
144.0606336916
 20
115.3107674427
 30
0.0
 10
144.6731016194
 20
115.3299379815
 30
0.0
 10
145.333764441
 20
115.3426537731
 30
0.0
 10
145.7876949691
 20
115.3456015782
 30
0.0
 10
146.0186994536
 20
115.3456015782
 30
0.0
  0
SPLINE
  5
7FE
100
AcDbEntity
  8
30338430_CL
100
AcDbSpline
 62
7
  6
CONTINUOUS
 70
0
 71
3
 72
10
 73
6
 74
0
 42
0.0000001
 43
0.0000001
 44
0.0000000001
 40
0.0
 40
0.0
 40
0.0
 40
0.0
 40
0.3817917641
 40
0.7058052661
 40
1.0
 40
1.0
 40
1.0
 40
1.0
 10
199.5186994536
 20
148.5602712972
 30
0.0
 10
199.8379995552
 20
148.5602712972
 30
0.0
 10
200.4284291563
 20
148.5432691657
 30
0.0
 10
201.262263993
 20
148.4751504441
 30
0.0
 10
201.775306025
 20
148.409913941
 30
0.0
 10
202.0186994536
 20
148.3737793312
 30
0.0
  0
SPLINE
  5
7FF
100
AcDbEntity
  8
30338430_CL
100
AcDbSpline
 62
7
  6
CONTINUOUS
 70
0
 71
3
 72
10
 73
6
 74
0
 42
0.0000001
 43
0.0000001
 44
0.0000000001
 40
0.0
 40
0.0
 40
0.0
 40
0.0
 40
0.3817917643
 40
0.7058052662
 40
1.0
 40
1.0
 40
1.0
 40
1.0
 10
199.5186994536
 20
181.8872873652
 30
0.0
 10
199.199399352
 20
181.8872873652
 30
0.0
 10
198.6089697508
 20
181.9042894967
 30
0.0
 10
197.775134914
 20
181.9724082183
 30
0.0
 10
197.2620928822
 20
182.0376447214
 30
0.0
 10
197.0186994536
 20
182.0737793312
 30
0.0
  0
SPLINE
  5
800
100
AcDbEntity
  8
30338430_CL
100
AcDbSpline
 62
7
  6
CONTINUOUS
 70
0
 71
3
 72
21
 73
17
 74
0
 42
0.0000001
 43
0.0000001
 44
0.0000000001
 40
0.0
 40
0.0
 40
0.0
 40
0.0
 40
0.0627012962
 40
0.1253451328
 40
0.1879220963
 40
0.2504282583
 40
0.3751141303
 40
0.4996328927
 40
0.5619631373
 40
0.6243282261
 40
0.6867523801
 40
0.7492534724
 40
0.8118394914
 40
0.8745060235
 40
0.9372356674
 40
1.0
 40
1.0
 40
1.0
 40
1.0
 10
122.5186994536
 20
171.7237793312
 30
0.0
 10
122.7488112618
 20
171.7337252689
 30
0.0
 10
123.2099904095
 20
171.7328801447
 30
0.0
 10
123.8982705649
 20
171.6695852304
 30
0.0
 10
124.5774929705
 20
171.5448284834
 30
0.0
 10
125.4622635292
 20
171.2980794325
 30
0.0
 10
126.5194254168
 20
170.8405662177
 30
0.0
 10
127.472441004
 20
170.1934146835
 30
0.0
 10
128.1470012614
 20
169.5725913046
 30
0.0
 10
128.6040511259
 20
169.0575242021
 30
0.0
 10
129.0054364689
 20
168.4971915048
 30
0.0
 10
129.3449607341
 20
167.8963122528
 30
0.0
 10
129.6166172929
 20
167.2608139151
 30
0.0
 10
129.8150540825
 20
166.5978135947
 30
0.0
 10
129.9359825994
 20
165.9157812983
 30
0.0
 10
129.9630685003
 20
165.4543375395
 30
0.0
 10
129.9630685003
 20
165.2237793312
 30
0.0
  0
SPLINE
  5
801
100
AcDbEntity
  8
30338430_CL
100
AcDbSpline
 62
7
  6
CONTINUOUS
 70
0
 71
3
 72
21
 73
17
 74
0
 42
0.0000001
 43
0.0000001
 44
0.0000000001
 40
0.0
 40
0.0
 40
0.0
 40
0.0
 40
0.0625435103
 40
0.125078605
 40
0.1875991205
 40
0.250102116
 40
0.3125886874
 40
0.3750636069
 40
0.4375342774
 40
0.5000091643
 40
0.5624960101
 40
0.6250003343
 40
0.6875241945
 40
0.7500654856
 40
0.8750548612
 40
1.0
 40
1.0
 40
1.0
 40
1.0
 10
115.7846709649
 20
165.2237793312
 30
0.0
 10
115.7846709649
 20
165.4390463961
 30
0.0
 10
115.8079711599
 20
165.8699127108
 30
0.0
 10
115.912199727
 20
166.5083357406
 30
0.0
 10
116.08388222
 20
167.131918085
 30
0.0
 10
116.3201424573
 20
167.7337648986
 30
0.0
 10
116.6172554533
 20
168.3077924384
 30
0.0
 10
116.9708736128
 20
168.8486522948
 30
0.0
 10
117.3762376476
 20
169.3517826841
 30
0.0
 10
117.8283498071
 20
169.8133513303
 30
0.0
 10
118.3221078453
 20
170.2301849073
 30
0.0
 10
118.8523666303
 20
170.5996800085
 30
0.0
 10
119.4140643911
 20
170.9197480031
 30
0.0
 10
120.1975976737
 20
171.2781650955
 30
0.0
 10
121.2310761991
 20
171.5955163524
 30
0.0
 10
122.089054798
 20
171.7052091455
 30
0.0
 10
122.5186994536
 20
171.7237793312
 30
0.0
  0
SPLINE
  5
802
100
AcDbEntity
  8
30338430_CL
100
AcDbSpline
 62
7
  6
CONTINUOUS
 70
0
 71
3
 72
26
 73
22
 74
0
 42
0.0000001
 43
0.0000001
 44
0.0000000001
 40
0.0
 40
0.0
 40
0.0
 40
0.0
 40
0.0167534364
 40
0.0334785667
 40
0.0500830523
 40
0.0665121926
 40
0.0988045723
 40
0.1305849684
 40
0.1620363751
 40
0.1932803517
 40
0.2243906235
 40
0.255412414
 40
0.3172894975
 40
0.3790595589
 40
0.4407933289
 40
0.5025351609
 40
0.5643173844
 40
0.6261670857
 40
0.7501298243
 40
0.8746651062
 40
1.0
 40
1.0
 40
1.0
 40
1.0
 10
95.6186994536
 20
181.3199596666
 30
0.0
 10
95.6430227781
 20
181.3254927769
 30
0.0
 10
95.6925176784
 20
181.3330732783
 30
0.0
 10
95.7673963227
 20
181.3326021887
 30
0.0
 10
95.840776166
 20
181.3204698566
 30
0.0
 10
95.9337959909
 20
181.2911560191
 30
0.0
 10
96.0408126165
 20
181.2353117085
 30
0.0
 10
96.1557058335
 20
181.1509859104
 30
0.0
 10
96.2603511598
 20
181.0567270554
 30
0.0
 10
96.3573060324
 20
180.9560785818
 30
0.0
 10
96.448332362
 20
180.8509202059
 30
0.0
 10
96.563159172
 20
180.7062744646
 30
0.0
 10
96.6967202895
 20
180.5184637385
 30
0.0
 10
96.8440513935
 20
180.284920936
 30
0.0
 10
96.9796245637
 20
180.0445994856
 30
0.0
 10
97.103826709
 20
179.7982003955
 30
0.0
 10
97.2165266375
 20
179.5461303495
 30
0.0
 10
97.3509071813
 20
179.2027287044
 30
0.0
 10
97.4873754114
 20
178.7603138647
 30
0.0
 10
97.5930735788
 20
178.2126967107
 30
0.0
 10
97.6186994536
 20
177.8402761261
 30
0.0
 10
97.6186994536
 20
177.6536609933
 30
0.0
  0
SPLINE
  5
803
100
AcDbEntity
  8
30338430_CL
100
AcDbSpline
 62
7
  6
CONTINUOUS
 70
0
 71
3
 72
10
 73
6
 74
0
 42
0.0000001
 43
0.0000001
 44
0.0000000001
 40
0.0
 40
0.0
 40
0.0
 40
0.0
 40
0.4997944526
 40
0.7499121152
 40
1.0
 40
1.0
 40
1.0
 40
1.0
 10
89.1186994536
 20
180.1624736175
 30
0.0
 10
89.1795264109
 20
180.2006622251
 30
0.0
 10
89.2756701228
 20
180.2511611482
 30
0.0
 10
89.4122488132
 20
180.2966715917
 30
0.0
 10
89.4829848355
 20
180.3108036231
 30
0.0
 10
89.5186245696
 20
180.3154242264
 30
0.0
  0
SPLINE
  5
804
100
AcDbEntity
  8
30338430_CL
100
AcDbSpline
 62
7
  6
CONTINUOUS
 70
0
 71
3
 72
13
 73
9
 74
0
 42
0.0000001
 43
0.0000001
 44
0.0000000001
 40
0.0
 40
0.0
 40
0.0
 40
0.0
 40
0.2500860425
 40
0.5001475588
 40
0.6251609675
 40
0.7501523058
 40
0.8751074508
 40
1.0
 40
1.0
 40
1.0
 40
1.0
 10
89.5186245696
 20
180.3154242264
 30
0.0
 10
90.0298755186
 20
180.3817066461
 30
0.0
 10
91.051637684
 20
180.5196620062
 30
0.0
 10
92.3263398481
 20
180.7096134874
 30
0.0
 10
93.3436381523
 20
180.8762712363
 30
0.0
 10
94.1048968249
 20
181.0103169082
 30
0.0
 10
94.863809239
 20
181.1557824925
 30
0.0
 10
95.3676582809
 20
181.2628524039
 30
0.0
 10
95.6186994536
 20
181.3199596666
 30
0.0
  0
SPLINE
  5
805
100
AcDbEntity
  8
30338430_CL
100
AcDbSpline
 62
7
  6
CONTINUOUS
 70
0
 71
3
 72
13
 73
9
 74
0
 42
0.0000001
 43
0.0000001
 44
0.0000000001
 40
0.0
 40
0.0
 40
0.0
 40
0.0
 40
0.2500860425
 40
0.5001475588
 40
0.6251609675
 40
0.7501523058
 40
0.8751074508
 40
1.0
 40
1.0
 40
1.0
 40
1.0
 10
89.5186245696
 20
150.132134436
 30
0.0
 10
90.0298755186
 20
150.0658520163
 30
0.0
 10
91.051637684
 20
149.9278966561
 30
0.0
 10
92.3263398481
 20
149.737945175
 30
0.0
 10
93.3436381523
 20
149.5712874261
 30
0.0
 10
94.1048968249
 20
149.4372417542
 30
0.0
 10
94.863809239
 20
149.2917761699
 30
0.0
 10
95.3676582809
 20
149.1847062584
 30
0.0
 10
95.6186994536
 20
149.1275989957
 30
0.0
  0
SPLINE
  5
806
100
AcDbEntity
  8
30338430_CL
100
AcDbSpline
 62
7
  6
CONTINUOUS
 70
0
 71
3
 72
21
 73
17
 74
0
 42
0.0000001
 43
0.0000001
 44
0.0000000001
 40
0.0
 40
0.0
 40
0.0
 40
0.0
 40
0.1249451374
 40
0.24993452
 40
0.312475815
 40
0.3749996787
 40
0.4375040047
 40
0.4999908515
 40
0.5624657378
 40
0.6249364063
 40
0.6874113226
 40
0.749897891
 40
0.8124008844
 40
0.8749213982
 40
0.9374564911
 40
1.0
 40
1.0
 40
1.0
 40
1.0
 10
122.5186994536
 20
158.7237793312
 30
0.0
 10
122.0890548029
 20
158.7423495166
 30
0.0
 10
121.2310761851
 20
158.8520423117
 30
0.0
 10
120.1975976282
 20
159.1693935804
 30
0.0
 10
119.4140643046
 20
159.5278107028
 30
0.0
 10
118.8523665211
 20
159.847878722
 30
0.0
 10
118.3221077249
 20
160.2173738454
 30
0.0
 10
117.8283496919
 20
160.6342074408
 30
0.0
 10
117.3762375461
 20
161.0957760926
 30
0.0
 10
116.9708735343
 20
161.5989064749
 30
0.0
 10
116.6172554024
 20
162.1397663149
 30
0.0
 10
116.3201424271
 20
162.713793833
 30
0.0
 10
116.083882204
 20
163.315640627
 30
0.0
 10
115.9121997202
 20
163.9392229539
 30
0.0
 10
115.8079711589
 20
164.5776459672
 30
0.0
 10
115.7846709649
 20
165.0085122709
 30
0.0
 10
115.7846709649
 20
165.2237793312
 30
0.0
  0
SPLINE
  5
807
100
AcDbEntity
  8
30338430_CL
100
AcDbSpline
 62
7
  6
CONTINUOUS
 70
0
 71
3
 72
21
 73
17
 74
0
 42
0.0000001
 43
0.0000001
 44
0.0000000001
 40
0.0
 40
0.0
 40
0.0
 40
0.0
 40
0.062764332
 40
0.125493976
 40
0.1881605081
 40
0.250746527
 40
0.3132476194
 40
0.3756717735
 40
0.4380368624
 40
0.5003671069
 40
0.6248858695
 40
0.7495717416
 40
0.8120779037
 40
0.8746548671
 40
0.9372987043
 40
1.0
 40
1.0
 40
1.0
 40
1.0
 10
129.9630685003
 20
165.2237793312
 30
0.0
 10
129.9630685003
 20
164.993221125
 30
0.0
 10
129.9359825997
 20
164.5317773681
 30
0.0
 10
129.8150540839
 20
163.8497450734
 30
0.0
 10
129.6166172949
 20
163.1867447529
 30
0.0
 10
129.3449607366
 20
162.5512464147
 30
0.0
 10
129.0054364719
 20
161.950367162
 30
0.0
 10
128.6040511288
 20
161.3900344637
 30
0.0
 10
128.1470012643
 20
160.8749673607
 30
0.0
 10
127.4724410068
 20
160.254143981
 30
0.0
 10
126.5194254193
 20
159.606992446
 30
0.0
 10
125.4622635307
 20
159.1494792304
 30
0.0
 10
124.5774929713
 20
158.9027301791
 30
0.0
 10
123.8982705636
 20
158.7779734317
 30
0.0
 10
123.209990408
 20
158.7146785177
 30
0.0
 10
122.7488112602
 20
158.7138333935
 30
0.0
 10
122.5186994536
 20
158.7237793312
 30
0.0
  0
SPLINE
  5
808
100
AcDbEntity
  8
30338430_CL
100
AcDbSpline
 62
7
  6
CONTINUOUS
 70
0
 71
3
 72
26
 73
22
 74
0
 42
0.0000001
 43
0.0000001
 44
0.0000000001
 40
0.0
 40
0.0
 40
0.0
 40
0.0
 40
0.1253352375
 40
0.2498707536
 40
0.3738335216
 40
0.4356831862
 40
0.4974653407
 40
0.5592070976
 40
0.6209407941
 40
0.682710778
 40
0.7445877707
 40
0.7756095086
 40
0.8067197168
 40
0.8379636093
 40
0.8694148968
 40
0.9011950433
 40
0.9334870111
 40
0.949915912
 40
0.9665206331
 40
0.9832462382
 40
1.0
 40
1.0
 40
1.0
 40
1.0
 10
97.6186994536
 20
152.793897669
 30
0.0
 10
97.6186994536
 20
152.6072820251
 30
0.0
 10
97.5930734448
 20
152.2348605798
 30
0.0
 10
97.4873749093
 20
151.6872425754
 30
0.0
 10
97.3509064132
 20
151.2448274645
 30
0.0
 10
97.2165257314
 20
150.9014259953
 30
0.0
 10
97.1038257708
 20
150.6493562621
 30
0.0
 10
96.9796237713
 20
150.4029574624
 30
0.0
 10
96.8440506356
 20
150.1626363785
 30
0.0
 10
96.6967196014
 20
149.9290939585
 30
0.0
 10
96.5631585489
 20
149.7412835929
 30
0.0
 10
96.4483319165
 20
149.5966381068
 30
0.0
 10
96.3573057966
 20
149.4914799437
 30
0.0
 10
96.2603512257
 20
149.390831738
 30
0.0
 10
96.1557064989
 20
149.2965732166
 30
0.0
 10
96.0408141339
 20
149.2122482329
 30
0.0
 10
95.9337989815
 20
149.1564041375
 30
0.0
 10
95.8407800247
 20
149.1270896681
 30
0.0
 10
95.7673995728
 20
149.1149565569
 30
0.0
 10
95.6925193732
 20
149.114485351
 30
0.0
 10
95.6430232505
 20
149.122065778
 30
0.0
 10
95.6186994536
 20
149.1275989957
 30
0.0
  0
SPLINE
  5
809
100
AcDbEntity
  8
30338430_CL
100
AcDbSpline
 62
7
  6
CONTINUOUS
 70
0
 71
3
 72
34
 73
30
 74
0
 42
0.0000001
 43
0.0000001
 44
0.0000000001
 40
0.0
 40
0.0
 40
0.0
 40
0.0
 40
0.0614460994
 40
0.1215860203
 40
0.1802164097
 40
0.2088756237
 40
0.2370260726
 40
0.2645914777
 40
0.2914671298
 40
0.317513533
 40
0.3425862532
 40
0.3547934748
 40
0.3668911691
 40
0.3791381235
 40
0.3919508206
 40
0.4057103318
 40
0.4205004756
 40
0.4361295079
 40
0.4523400437
 40
0.4857491676
 40
0.5198353653
 40
0.5542218104
 40
0.5887435957
 40
0.6578912895
 40
0.7269529333
 40
0.7957694461
 40
0.8642462183
 40
0.9323283973
 40
1.0
 40
1.0
 40
1.0
 40
1.0
 10
89.1186994536
 20
150.2850850448
 30
0.0
 10
89.0802146232
 20
150.2243320141
 30
0.0
 10
89.0032092412
 20
150.1046531875
 30
0.0
 10
88.8857630365
 20
149.9294347727
 30
0.0
 10
88.7859583299
 20
149.7886299394
 30
0.0
 10
88.7044333928
 20
149.680871351
 30
0.0
 10
88.6427113008
 20
149.6037616443
 30
0.0
 10
88.5795313783
 20
149.5305663179
 30
0.0
 10
88.5142310568
 20
149.4625627117
 30
0.0
 10
88.4458388894
 20
149.4019540514
 30
0.0
 10
88.3839826527
 20
149.3602389505
 30
0.0
 10
88.3308238687
 20
149.3370839988
 30
0.0
 10
88.2890472877
 20
149.3267127347
 30
0.0
 10
88.2451393695
 20
149.3256838014
 30
0.0
 10
88.2004516488
 20
149.3363915544
 30
0.0
 10
88.1572323476
 20
149.3591122912
 30
0.0
 10
88.1169079303
 20
149.3918669935
 30
0.0
 10
88.0798209008
 20
149.4320844807
 30
0.0
 10
88.03405294
 20
149.4933336385
 30
0.0
 10
87.9843734308
 20
149.5780648364
 30
0.0
 10
87.9330249497
 20
149.6857603327
 30
0.0
 10
87.887582547
 20
149.7974731756
 30
0.0
 10
87.8333164145
 20
149.9497063716
 30
0.0
 10
87.7755718487
 20
150.1436029307
 30
0.0
 10
87.7192908672
 20
150.3793823114
 30
0.0
 10
87.6751307288
 20
150.616932394
 30
0.0
 10
87.6430045478
 20
150.8552512939
 30
0.0
 10
87.6232566865
 20
151.0935703171
 30
0.0
 10
87.6186994536
 20
151.2524891186
 30
0.0
 10
87.6186994536
 20
151.3316921755
 30
0.0
  0
SPLINE
  5
80A
100
AcDbEntity
  8
30338430_CL
100
AcDbSpline
 62
7
  6
CONTINUOUS
 70
0
 71
3
 72
10
 73
6
 74
0
 42
0.0000001
 43
0.0000001
 44
0.0000000001
 40
0.0
 40
0.0
 40
0.0
 40
0.0
 40
0.2500909485
 40
0.5002094871
 40
1.0
 40
1.0
 40
1.0
 40
1.0
 10
89.5186245696
 20
150.132134436
 30
0.0
 10
89.4829844043
 20
150.1367550952
 30
0.0
 10
89.4122478869
 20
150.1508875611
 30
0.0
 10
89.2756693494
 20
150.1963982985
 30
0.0
 10
89.1795259222
 20
150.2468967441
 30
0.0
 10
89.1186994536
 20
150.2850850448
 30
0.0
  0
SPLINE
  5
80B
100
AcDbEntity
  8
30338430_CL
100
AcDbSpline
 62
7
  6
CONTINUOUS
 70
0
 71
3
 72
15
 73
11
 74
0
 42
0.0000001
 43
0.0000001
 44
0.0000000001
 40
0.0
 40
0.0
 40
0.0
 40
0.0
 40
0.0625620363
 40
0.1251265436
 40
0.2499780371
 40
0.3749500898
 40
0.5000039912
 40
0.6251057005
 40
0.7502342696
 40
1.0
 40
1.0
 40
1.0
 40
1.0
 10
156.3936994536
 20
131.7013987475
 30
0.0
 10
156.3645760462
 20
131.7013987475
 30
0.0
 10
156.3062170267
 20
131.6967007323
 30
0.0
 10
156.1927352002
 20
131.6692186276
 30
0.0
 10
156.0607074739
 20
131.6034275193
 30
0.0
 10
155.9278902214
 20
131.4880181639
 30
0.0
 10
155.8216196145
 20
131.3481689887
 30
0.0
 10
155.7409991716
 20
131.1923109129
 30
0.0
 10
155.6658481939
 20
130.9714177497
 30
0.0
 10
155.6436994536
 20
130.7956928461
 30
0.0
 10
155.6436994536
 20
130.6794237865
 30
0.0
  0
SPLINE
  5
80C
100
AcDbEntity
  8
30338430_CL
100
AcDbSpline
 62
7
  6
CONTINUOUS
 70
0
 71
3
 72
34
 73
30
 74
0
 42
0.0000001
 43
0.0000001
 44
0.0000000001
 40
0.0
 40
0.0
 40
0.0
 40
0.0
 40
0.0676716408
 40
0.135753831
 40
0.2042305973
 40
0.2730471009
 40
0.3421087359
 40
0.4112564189
 40
0.4457782007
 40
0.480164643
 40
0.5142507497
 40
0.5476596414
 40
0.5638701086
 40
0.5794991429
 40
0.5942893713
 40
0.6080486971
 40
0.6208609333
 40
0.6331076469
 40
0.6452056292
 40
0.6574130619
 40
0.6824859075
 40
0.7085324926
 40
0.7354081631
 40
0.7629736429
 40
0.7911241388
 40
0.8197833864
 40
0.8784138377
 40
0.9385538301
 40
1.0
 40
1.0
 40
1.0
 40
1.0
 10
87.6186994536
 20
179.1158664869
 30
0.0
 10
87.6186994536
 20
179.19506959
 30
0.0
 10
87.6232566926
 20
179.3539884525
 30
0.0
 10
87.6430045614
 20
179.5923075316
 30
0.0
 10
87.6751307787
 20
179.8306264263
 30
0.0
 10
87.7192908736
 20
180.0681764944
 30
0.0
 10
87.7755719269
 20
180.3039558291
 30
0.0
 10
87.8333165173
 20
180.4978523584
 30
0.0
 10
87.8875826642
 20
180.650085527
 30
0.0
 10
87.9330247695
 20
180.7617983714
 30
0.0
 10
87.9843733707
 20
180.8694934125
 30
0.0
 10
88.034052775
 20
180.9542240914
 30
0.0
 10
88.0798202053
 20
181.0154732369
 30
0.0
 10
88.1169071587
 20
181.0556907478
 30
0.0
 10
88.1572310367
 20
181.0884461083
 30
0.0
 10
88.2004500271
 20
181.1111657013
 30
0.0
 10
88.2451361715
 20
181.1218755011
 30
0.0
 10
88.2890436838
 20
181.1208460925
 30
0.0
 10
88.3308207528
 20
181.1104757793
 30
0.0
 10
88.3839802767
 20
181.0873205893
 30
0.0
 10
88.4458378584
 20
181.0456064291
 30
0.0
 10
88.5142296563
 20
180.984996675
 30
0.0
 10
88.5795308842
 20
180.91699355
 30
0.0
 10
88.6427105772
 20
180.8437977698
 30
0.0
 10
88.7044328505
 20
180.7666879887
 30
0.0
 10
88.785957914
 20
180.6589292775
 30
0.0
 10
88.8857628252
 20
180.5181243473
 30
0.0
 10
89.0032090786
 20
180.3429056705
 30
0.0
 10
89.0802145782
 20
180.2232267193
 30
0.0
 10
89.1186994536
 20
180.1624736175
 30
0.0
  0
SPLINE
  5
80D
100
AcDbEntity
  8
30338430_CL
100
AcDbSpline
 62
7
  6
CONTINUOUS
 70
0
 71
3
 72
15
 73
11
 74
0
 42
0.0000001
 43
0.0000001
 44
0.0000000001
 40
0.0
 40
0.0
 40
0.0
 40
0.0
 40
0.2497657348
 40
0.3748943018
 40
0.499996009
 40
0.6250499133
 40
0.7500219648
 40
0.8748734576
 40
0.9374379647
 40
1.0
 40
1.0
 40
1.0
 40
1.0
 10
159.3936994536
 20
130.6794237865
 30
0.0
 10
159.3936994536
 20
130.7956928482
 30
0.0
 10
159.3715507126
 20
130.9714177528
 30
0.0
 10
159.2963997344
 20
131.1923109159
 30
0.0
 10
159.2157792913
 20
131.3481689909
 30
0.0
 10
159.1095086843
 20
131.4880181658
 30
0.0
 10
158.9766914309
 20
131.6034275209
 30
0.0
 10
158.8446637053
 20
131.6692186284
 30
0.0
 10
158.7311818795
 20
131.6967007321
 30
0.0
 10
158.6728228606
 20
131.7013987475
 30
0.0
 10
158.6436994536
 20
131.7013987475
 30
0.0
  0
ENDSEC
  0
SECTION
  2
OBJECTS
  0
DICTIONARY
  5
C
100
AcDbDictionary
280
0
281
1
  3
ACAD_GROUP
350
D
  3
ACAD_MLINESTYLE
350
17
  3
ACAD_LAYOUT
350
1A
  3
ACAD_PLOTSETTINGS
350
19
  3
ACAD_PLOTSTYLENAME
350
E
  0
DICTIONARY
  5
D
102
{ACAD_REACTORS
330
C
102
}
100
AcDbDictionary
280
0
281
1
  0
ACDBDICTIONARYWDFLT
  5
E
102
{ACAD_REACTORS
330
C
102
}
100
AcDbDictionary
281
1
  3
Normal
350
F
100
AcDbDictionaryWithDefault
340
F
  0
DICTIONARY
  5
17
102
{ACAD_REACTORS
330
C
102
}
100
AcDbDictionary
280
0
281
1
  3
Standard
350
18
  0
DICTIONARY
  5
19
102
{ACAD_REACTORS
330
C
102
}
100
AcDbDictionary
281
1
  0
DICTIONARY
  5
1A
102
{ACAD_REACTORS
330
C
102
}
100
AcDbDictionary
281
1
  3
Model
350
80E
  3
Layout1
350
80F
  0
ACDBPLACEHOLDER
  5
F
102
{ACAD_REACTORS
330
E
102
}
  0
MLINESTYLE
  5
18
102
{ACAD_REACTORS
330
17
102
}
100
AcDbMlineStyle
  2
STANDARD
 70
0
  3

 62
256
 51
90.0
 52
90.0
 71
2
 49
0.5
 62
256
  6
BYLAYER
 49
-0.5
 62
256
  6
BYLAYER
  0
LAYOUT
  5
80E
102
{ACAD_REACTORS
330
1A
102
}
100
AcDbPlotSettings
  1

  2
none_device
  4
ISO_A3_(420.00_x_297.00_MM)
  6

 40
0.0
 41
0.0
 42
0.0
 43
0.0
 44
420.0
 45
297.0
 46
0.0
 47
0.0
 48
0.0
 49
0.0
140
0.0
141
0.0
142
1.0
143
1.0
 70
1024
 72
1
 73
0
 74
0
  7

 75
0
147
1.0
148
0.0
149
0.0
100
AcDbLayout
  1
Model
 70
0
 71
0
 10
0.0
 20
0.0
 11
420.0
 21
297.0
 12
0.0
 22
0.0
 32
0.0
 14
0.0
 24
0.0
 34
0.0
 15
0.0
 25
0.0
 35
0.0
146
0.0
 13
0.0
 23
0.0
 33
0.0
 16
1.0
 26
0.0
 36
0.0
 17
0.0
 27
1.0
 37
0.0
 76
0
330
218
345
0
346
0
  0
LAYOUT
  5
80F
102
{ACAD_REACTORS
330
1A
102
}
100
AcDbPlotSettings
  1

  2
none_device
  4
ISO_A3_(420.00_x_297.00_MM)
  6

 40
0.0
 41
0.0
 42
0.0
 43
0.0
 44
420.0
 45
297.0
 46
0.0
 47
0.0
 48
0.0
 49
0.0
140
0.0
141
0.0
142
1.0
143
1.0
 70
0
 72
1
 73
0
 74
0
  7

 75
0
147
1.0
148
0.0
149
0.0
100
AcDbLayout
  1
Layout1
 70
0
 71
1
 10
0.0
 20
0.0
 11
420.0
 21
297.0
 12
0.0
 22
0.0
 32
0.0
 14
0.0
 24
0.0
 34
0.0
 15
0.0
 25
0.0
 35
0.0
146
0.0
 13
0.0
 23
0.0
 33
0.0
 16
1.0
 26
0.0
 36
0.0
 17
0.0
 27
1.0
 37
0.0
 76
0
330
219
345
0
346
0
  0
ENDSEC
  0
EOF
