999
DXF file: 388782-000-00-ed1.dxf
999
Pro/ENGINEER 2011220 by Parametric Technology Corporation
  0
SECTION
  2
HEADER
  9
$ACADVER
  1
AC1015
  9
$DWGCODEPAGE
  3
ANSI_1252
  9
$EXTMAX
 10
594.0
 20
420.0
 30
0.0
  9
$EXTMIN
 10
0.0
 20
0.0
 30
0.0
  9
$LIMMIN
 10
0.0
 20
0.0
  9
$LIMMAX
 10
594.0
 20
420.0
  9
$VIEWCTR
 10
297.0
 20
210.0
  9
$VIEWSIZE
 40
420.0
  9
$CLAYER
  8
0
  9
$LTSCALE
 40
32.67
  9
$CELTYPE
  6
BYLAYER
  9
$DIMSCALE
 40
1.0
  9
$DIMASZ
 40
3.5
  9
$DIMEXO
 40
3.7125
  9
$DIMDLI
 40
22.572
  9
$DIMEXE
 40
10.692
  9
$DIMCEN
 40
5.346
  9
$DIMLFAC
 40
0.5
  9
$DIMBLK
  1
_FILLED
  9
$DIMTXT
 40
3.5
  9
$DIMTOL
 70
1
  9
$DIMLIM
 70
0
  9
$DIMTFAC
 40
1.0
  9
$DIMTP
 40
0.005
  9
$DIMTM
 40
0.005
  9
$PDMODE
 70
3
  9
$PDSIZE
 40
0.3125
  9
$HANDSEED
  5
894
  9
$TILEMODE
 70
1
  9
$MEASUREMENT
 70
1
  9
$INSUNITS
 70
4
  0
ENDSEC
  0
SECTION
  2
CLASSES
  0
CLASS
  1
ACDBDICTIONARYWDFLT
  2
AcDbDictionaryWithDefault
  3
AutoCAD 2000
 90
0
280
0
281
0
  0
CLASS
  1
ACDBPLACEHOLDER
  2
AcDbPlaceHolder
  3
AutoCAD 2000
 90
0
280
0
281
0
  0
CLASS
  1
LAYOUT
  2
AcDbLayout
  3
AutoCAD 2000
 90
0
280
0
281
0
  0
ENDSEC
  0
SECTION
  2
TABLES
  0
TABLE
  2
VPORT
  5
8
100
AcDbSymbolTable
 70
2
  0
VPORT
  5
1F4
100
AcDbSymbolTableRecord
100
AcDbViewportTableRecord
  2
*ACTIVE
 70
0
 10
0.0
 20
0.0
 11
1.0
 21
1.0
 12
297.0
 22
210.0
 13
0.0
 23
0.0
 14
1.0
 24
1.0
 15
0.0
 25
0.0
 16
0.0
 26
0.0
 36
1.0
 17
0.0
 27
0.0
 37
0.0
 40
420.0
 41
1.4142857143
 42
50.0
 43
0.0
 44
0.0
 50
0.0
 51
0.0
 71
0
 72
100
 73
1
 74
1
 75
0
 76
0
 77
0
 78
0
  0
ENDTAB
  0
TABLE
  2
LTYPE
  5
5
100
AcDbSymbolTable
 70
6
  0
LTYPE
  5
14
100
AcDbSymbolTableRecord
100
AcDbLinetypeTableRecord
  2
BYBLOCK
 70
0
  3

 72
65
 73
0
 40
0.0
  0
LTYPE
  5
15
100
AcDbSymbolTableRecord
100
AcDbLinetypeTableRecord
  2
BYLAYER
 70
0
  3

 72
65
 73
0
 40
0.0
  0
LTYPE
  5
16
100
AcDbSymbolTableRecord
100
AcDbLinetypeTableRecord
  2
CONTINUOUS
 70
64
  3
Solid line
 72
65
 73
0
 40
0.0
  0
LTYPE
  5
1F5
100
AcDbSymbolTableRecord
100
AcDbLinetypeTableRecord
  2
CENTER
 70
64
  3
____ _ ____ _ ____ _ ____ _ ____ _ ____ _ ____
 72
65
 73
4
 40
0.6
 49
0.375
 74
0
 49
-0.075
 74
0
 49
0.075
 74
0
 49
-0.075
 74
0
  0
LTYPE
  5
1F6
100
AcDbSymbolTableRecord
100
AcDbLinetypeTableRecord
  2
HIDDEN
 70
64
  3
- - - - - - - - - - - - - - - - - - - -
 72
65
 73
2
 40
0.2
 49
0.1
 74
0
 49
-0.1
 74
0
  0
LTYPE
  5
1F7
100
AcDbSymbolTableRecord
100
AcDbLinetypeTableRecord
  2
PHANTOM
 70
64
  3
_____ _ _ _____ _ _ _____ _ _ _____
 72
65
 73
6
 40
0.8
 49
0.45
 74
0
 49
-0.05
 74
0
 49
0.1
 74
0
 49
-0.05
 74
0
 49
0.1
 74
0
 49
-0.05
 74
0
  0
LTYPE
  5
1F8
100
AcDbSymbolTableRecord
100
AcDbLinetypeTableRecord
  2
DOT
 70
64
  3
. . . . . . . . . . . . . . . . . . . .
 72
65
 73
2
 40
0.2
 49
0.1
 74
0
 49
-0.1
 74
0
  0
LTYPE
  5
1F9
100
AcDbSymbolTableRecord
100
AcDbLinetypeTableRecord
  2
DASHED
 70
64
  3
- - - - - - - - - - - - - - - - - - - -
 72
65
 73
2
 40
0.2
 49
0.1
 74
0
 49
-0.1
 74
0
  0
ENDTAB
  0
TABLE
  2
LAYER
  5
2
100
AcDbSymbolTable
 70
36
  0
LAYER
  5
10
100
AcDbSymbolTableRecord
100
AcDbLayerTableRecord
  2
0
 70
0
 62
7
  6
CONTINUOUS
370
-3
390
F
  0
LAYER
  5
1FA
100
AcDbSymbolTableRecord
100
AcDbLayerTableRecord
  2
DEFAULT_1
 70
0
 62
7
  6
CENTER
370
-3
390
F
  0
LAYER
  5
1FB
100
AcDbSymbolTableRecord
100
AcDbLayerTableRecord
  2
DEFAULT_2
 70
0
 62
6
  6
HIDDEN
370
-3
390
F
  0
LAYER
  5
1FC
100
AcDbSymbolTableRecord
100
AcDbLayerTableRecord
  2
DEFAULT_3
 70
0
 62
7
  6
PHANTOM
370
-3
390
F
  0
LAYER
  5
1FD
100
AcDbSymbolTableRecord
100
AcDbLayerTableRecord
  2
BUSHING
 70
0
 62
7
  6
CONTINUOUS
370
-3
390
F
  0
LAYER
  5
1FE
100
AcDbSymbolTableRecord
100
AcDbLayerTableRecord
  2
COOLANT_SCREW
 70
0
 62
7
  6
CONTINUOUS
370
-3
390
F
  0
LAYER
  5
1FF
100
AcDbSymbolTableRecord
100
AcDbLayerTableRecord
  2
COLLECTION01
 70
0
 62
7
  6
CONTINUOUS
370
-3
390
F
  0
LAYER
  5
200
100
AcDbSymbolTableRecord
100
AcDbLayerTableRecord
  2
COLLECTION02
 70
0
 62
7
  6
CONTINUOUS
370
-3
390
F
  0
LAYER
  5
201
100
AcDbSymbolTableRecord
100
AcDbLayerTableRecord
  2
COLLECTION03
 70
0
 62
7
  6
CONTINUOUS
370
-3
390
F
  0
LAYER
  5
202
100
AcDbSymbolTableRecord
100
AcDbLayerTableRecord
  2
DICHT
 70
0
 62
7
  6
CONTINUOUS
370
-3
390
F
  0
LAYER
  5
203
100
AcDbSymbolTableRecord
100
AcDbLayerTableRecord
  2
COLLECTION12
 70
0
 62
7
  6
CONTINUOUS
370
-3
390
F
  0
LAYER
  5
204
100
AcDbSymbolTableRecord
100
AcDbLayerTableRecord
  2
COLLECTION04
 70
0
 62
7
  6
CONTINUOUS
370
-3
390
F
  0
LAYER
  5
205
100
AcDbSymbolTableRecord
100
AcDbLayerTableRecord
  2
HLP_AZ
 70
0
 62
7
  6
CONTINUOUS
370
-3
390
F
  0
LAYER
  5
206
100
AcDbSymbolTableRecord
100
AcDbLayerTableRecord
  2
HLP_BUSHING_AZ
 70
0
 62
7
  6
CONTINUOUS
370
-3
390
F
  0
LAYER
  5
207
100
AcDbSymbolTableRecord
100
AcDbLayerTableRecord
  2
COLLECTION06
 70
0
 62
7
  6
CONTINUOUS
370
-3
390
F
  0
LAYER
  5
208
100
AcDbSymbolTableRecord
100
AcDbLayerTableRecord
  2
COLLECTION07
 70
0
 62
7
  6
CONTINUOUS
370
-3
390
F
  0
LAYER
  5
209
100
AcDbSymbolTableRecord
100
AcDbLayerTableRecord
  2
PARALLEL_PIN
 70
0
 62
7
  6
CONTINUOUS
370
-3
390
F
  0
LAYER
  5
20A
100
AcDbSymbolTableRecord
100
AcDbLayerTableRecord
  2
PLUGS
 70
0
 62
7
  6
CONTINUOUS
370
-3
390
F
  0
LAYER
  5
20B
100
AcDbSymbolTableRecord
100
AcDbLayerTableRecord
  2
SPHERE
 70
0
 62
7
  6
CONTINUOUS
370
-3
390
F
  0
LAYER
  5
20C
100
AcDbSymbolTableRecord
100
AcDbLayerTableRecord
  2
COLLECTION09
 70
0
 62
7
  6
CONTINUOUS
370
-3
390
F
  0
LAYER
  5
20D
100
AcDbSymbolTableRecord
100
AcDbLayerTableRecord
  2
COLLECTION10
 70
0
 62
7
  6
CONTINUOUS
370
-3
390
F
  0
LAYER
  5
20E
100
AcDbSymbolTableRecord
100
AcDbLayerTableRecord
  2
COLLECTION13
 70
0
 62
7
  6
CONTINUOUS
370
-3
390
F
  0
LAYER
  5
20F
100
AcDbSymbolTableRecord
100
AcDbLayerTableRecord
  2
THREADED_OIL_BORE
 70
0
 62
7
  6
CONTINUOUS
370
-3
390
F
  0
LAYER
  5
210
100
AcDbSymbolTableRecord
100
AcDbLayerTableRecord
  2
THREADED_PIN_OIL_BORE
 70
0
 62
7
  6
CONTINUOUS
370
-3
390
F
  0
LAYER
  5
211
100
AcDbSymbolTableRecord
100
AcDbLayerTableRecord
  2
THREADED_PIN_PRESSURE
 70
0
 62
7
  6
CONTINUOUS
370
-3
390
F
  0
LAYER
  5
212
100
AcDbSymbolTableRecord
100
AcDbLayerTableRecord
  2
COLLECTION15
 70
0
 62
7
  6
CONTINUOUS
370
-3
390
F
  0
LAYER
  5
213
100
AcDbSymbolTableRecord
100
AcDbLayerTableRecord
  2
THREAD_PRESSURE
 70
0
 62
7
  6
CONTINUOUS
370
-3
390
F
  0
LAYER
  5
214
100
AcDbSymbolTableRecord
100
AcDbLayerTableRecord
  2
COLLECTION16
 70
0
 62
7
  6
CONTINUOUS
370
-3
390
F
  0
LAYER
  5
215
100
AcDbSymbolTableRecord
100
AcDbLayerTableRecord
  2
COLLECTION17
 70
0
 62
7
  6
CONTINUOUS
370
-3
390
F
  0
LAYER
  5
216
100
AcDbSymbolTableRecord
100
AcDbLayerTableRecord
  2
388782-000-00-ED1_FORMAT
 70
0
 62
7
  6
CONTINUOUS
370
-3
390
F
  0
LAYER
  5
217
100
AcDbSymbolTableRecord
100
AcDbLayerTableRecord
  2
30526677#AF0_HATCH
 70
0
 62
7
  6
CONTINUOUS
370
-3
390
F
  0
LAYER
  5
218
100
AcDbSymbolTableRecord
100
AcDbLayerTableRecord
  2
30370460_HP_HATCH
 70
0
 62
7
  6
CONTINUOUS
370
-3
390
F
  0
LAYER
  5
219
100
AcDbSymbolTableRecord
100
AcDbLayerTableRecord
  2
388782-000-00-ED1_HATCH
 70
0
 62
7
  6
CONTINUOUS
370
-3
390
F
  0
LAYER
  5
21A
100
AcDbSymbolTableRecord
100
AcDbLayerTableRecord
  2
388782-000-00-ED1_CL
 70
0
 62
7
  6
CONTINUOUS
370
-3
390
F
  0
LAYER
  5
21B
100
AcDbSymbolTableRecord
100
AcDbLayerTableRecord
  2
388782-000-00-ED1_TEXT
 70
0
 62
7
  6
CONTINUOUS
370
-3
390
F
  0
LAYER
  5
21C
100
AcDbSymbolTableRecord
100
AcDbLayerTableRecord
  2
30339317_TEXT
 70
0
 62
7
  6
CONTINUOUS
370
-3
390
F
  0
LAYER
  5
21D
100
AcDbSymbolTableRecord
100
AcDbLayerTableRecord
  2
30526677_CL
 70
0
 62
7
  6
CONTINUOUS
370
-3
390
F
  0
LAYER
  5
21E
100
AcDbSymbolTableRecord
100
AcDbLayerTableRecord
  2
30526677_HL
 70
0
 62
7
  6
CONTINUOUS
370
-3
390
F
  0
LAYER
  5
21F
100
AcDbSymbolTableRecord
100
AcDbLayerTableRecord
  2
30526677_AXIS
 70
0
 62
7
  6
CONTINUOUS
370
-3
390
F
  0
LAYER
  5
220
100
AcDbSymbolTableRecord
100
AcDbLayerTableRecord
  2
30252542_HP_HL
 70
0
 62
7
  6
CONTINUOUS
370
-3
390
F
  0
LAYER
  5
221
100
AcDbSymbolTableRecord
100
AcDbLayerTableRecord
  2
30252542_HP_CL
 70
0
 62
7
  6
CONTINUOUS
370
-3
390
F
  0
LAYER
  5
222
100
AcDbSymbolTableRecord
100
AcDbLayerTableRecord
  2
30339317_HL
 70
0
 62
7
  6
CONTINUOUS
370
-3
390
F
  0
LAYER
  5
223
100
AcDbSymbolTableRecord
100
AcDbLayerTableRecord
  2
30273804_AXIS
 70
0
 62
7
  6
CONTINUOUS
370
-3
390
F
  0
LAYER
  5
224
100
AcDbSymbolTableRecord
100
AcDbLayerTableRecord
  2
10007041_HP_CL
 70
0
 62
7
  6
CONTINUOUS
370
-3
390
F
  0
LAYER
  5
225
100
AcDbSymbolTableRecord
100
AcDbLayerTableRecord
  2
30252542_HP_AXIS
 70
0
 62
7
  6
CONTINUOUS
370
-3
390
F
  0
LAYER
  5
226
100
AcDbSymbolTableRecord
100
AcDbLayerTableRecord
  2
30339317_CL
 70
0
 62
7
  6
CONTINUOUS
370
-3
390
F
  0
LAYER
  5
227
100
AcDbSymbolTableRecord
100
AcDbLayerTableRecord
  2
30339317_AXIS
 70
0
 62
7
  6
CONTINUOUS
370
-3
390
F
  0
LAYER
  5
228
100
AcDbSymbolTableRecord
100
AcDbLayerTableRecord
  2
30336621_HP_CL
 70
0
 62
7
  6
CONTINUOUS
370
-3
390
F
  0
ENDTAB
  0
TABLE
  2
STYLE
  5
3
100
AcDbSymbolTable
 70
1
  0
STYLE
  5
11
100
AcDbSymbolTableRecord
100
AcDbTextStyleTableRecord
  2
STANDARD
 70
0
 40
0.0
 41
0.7
 50
0.0
 71
0
 42
0.2
  3
TXT.SHX
  4

  0
STYLE
  5
229
100
AcDbSymbolTableRecord
100
AcDbTextStyleTableRecord
  2
TEXTSTYLE_1
 70
0
 40
0.0
 41
0.8
 50
0.0
 71
0
 42
0.2
  3
gdt
  4

  0
STYLE
  5
22A
100
AcDbSymbolTableRecord
100
AcDbTextStyleTableRecord
  2
TEXTSTYLE_2
 70
0
 40
0.0
 41
0.675
 50
0.0
 71
0
 42
0.2
  3
TXT.SHX
  4

  0
STYLE
  5
22B
100
AcDbSymbolTableRecord
100
AcDbTextStyleTableRecord
  2
TEXTSTYLE_3
 70
0
 40
0.0
 41
0.7
 50
0.0
 71
0
 42
0.2
  3
gdt
  4

  0
ENDTAB
  0
TABLE
  2
VIEW
  5
6
100
AcDbSymbolTable
 70
0
  0
ENDTAB
  0
TABLE
  2
UCS
  5
7
100
AcDbSymbolTable
 70
0
  0
ENDTAB
  0
TABLE
  2
APPID
  5
9
100
AcDbSymbolTable
 70
1
  0
APPID
  5
22C
100
AcDbSymbolTableRecord
100
AcDbRegAppTableRecord
  2
ACAD
 70
0
  0
ENDTAB
  0
TABLE
  2
BLOCK_RECORD
  5
1
100
AcDbSymbolTable
 70
0
  0
BLOCK_RECORD
  5
22D
100
AcDbSymbolTableRecord
100
AcDbBlockTableRecord
  2
*Model_Space
  0
BLOCK_RECORD
  5
22E
100
AcDbSymbolTableRecord
100
AcDbBlockTableRecord
  2
*Paper_Space
  0
BLOCK_RECORD
  5
22F
100
AcDbSymbolTableRecord
100
AcDbBlockTableRecord
  2
_FILLED
  0
BLOCK_RECORD
  5
230
100
AcDbSymbolTableRecord
100
AcDbBlockTableRecord
  2
_NONE
  0
BLOCK_RECORD
  5
231
100
AcDbSymbolTableRecord
100
AcDbBlockTableRecord
  2
_DOT
  0
BLOCK_RECORD
  5
232
100
AcDbSymbolTableRecord
100
AcDbBlockTableRecord
  2
*D0
  0
BLOCK_RECORD
  5
233
100
AcDbSymbolTableRecord
100
AcDbBlockTableRecord
  2
*D1
  0
BLOCK_RECORD
  5
234
100
AcDbSymbolTableRecord
100
AcDbBlockTableRecord
  2
*D2
  0
BLOCK_RECORD
  5
235
100
AcDbSymbolTableRecord
100
AcDbBlockTableRecord
  2
*D3
  0
BLOCK_RECORD
  5
236
100
AcDbSymbolTableRecord
100
AcDbBlockTableRecord
  2
*D4
  0
BLOCK_RECORD
  5
237
100
AcDbSymbolTableRecord
100
AcDbBlockTableRecord
  2
*D5
  0
BLOCK_RECORD
  5
238
100
AcDbSymbolTableRecord
100
AcDbBlockTableRecord
  2
*D6
  0
BLOCK_RECORD
  5
239
100
AcDbSymbolTableRecord
100
AcDbBlockTableRecord
  2
*D7
  0
BLOCK_RECORD
  5
23A
100
AcDbSymbolTableRecord
100
AcDbBlockTableRecord
  2
*D8
  0
BLOCK_RECORD
  5
23B
100
AcDbSymbolTableRecord
100
AcDbBlockTableRecord
  2
*D9
  0
BLOCK_RECORD
  5
23C
100
AcDbSymbolTableRecord
100
AcDbBlockTableRecord
  2
*D10
  0
BLOCK_RECORD
  5
23D
100
AcDbSymbolTableRecord
100
AcDbBlockTableRecord
  2
*D11
  0
BLOCK_RECORD
  5
23E
100
AcDbSymbolTableRecord
100
AcDbBlockTableRecord
  2
*D12
  0
BLOCK_RECORD
  5
23F
100
AcDbSymbolTableRecord
100
AcDbBlockTableRecord
  2
*D13
  0
BLOCK_RECORD
  5
240
100
AcDbSymbolTableRecord
100
AcDbBlockTableRecord
  2
BOMBALLOON_BL8
  0
BLOCK_RECORD
  5
241
100
AcDbSymbolTableRecord
100
AcDbBlockTableRecord
  2
BOMBALLOON_BL7
  0
BLOCK_RECORD
  5
242
100
AcDbSymbolTableRecord
100
AcDbBlockTableRecord
  2
GEOM_TOLERANCE_SYMBOLS_BL6
  0
BLOCK_RECORD
  5
243
100
AcDbSymbolTableRecord
100
AcDbBlockTableRecord
  2
GEOM_TOLERANCE_SYMBOLS_BL5
  0
BLOCK_RECORD
  5
244
100
AcDbSymbolTableRecord
100
AcDbBlockTableRecord
  2
GEOM_TOLERANCE_SYMBOLS_BL4
  0
BLOCK_RECORD
  5
245
100
AcDbSymbolTableRecord
100
AcDbBlockTableRecord
  2
BARCODEBOX_BL3
  0
BLOCK_RECORD
  5
246
100
AcDbSymbolTableRecord
100
AcDbBlockTableRecord
  2
HATCHING_BL0
  0
BLOCK_RECORD
  5
247
100
AcDbSymbolTableRecord
100
AcDbBlockTableRecord
  2
HATCHING_BL1
  0
BLOCK_RECORD
  5
248
100
AcDbSymbolTableRecord
100
AcDbBlockTableRecord
  2
HATCHING_BL2
  0
ENDTAB
  0
TABLE
  2
DIMSTYLE
  5
A
100
AcDbSymbolTable
 70
1
100
AcDbDimStyleTable
 71
0
  0
DIMSTYLE
105
249
100
AcDbSymbolTableRecord
100
AcDbDimStyleTableRecord
  2
STANDARD
 70
0
  3

  4

 40
1.0
 41
3.5
 42
0.0625
 43
0.38
 44
0.18
 45
0.0
 46
0.0
 47
0.005
 48
0.005
140
3.5
141
0.09
142
0.0
143
25.4
144
1.0
145
0.0
146
1.0
147
0.09
 71
1.0
 72
0.0
 73
0
 74
0
 75
0
 76
0
 77
1
 78
8
170
0
171
2
172
0
173
0
174
0
175
0
176
0
177
0
178
2
270
2
271
3
272
3
273
2
274
2
275
0
280
0
281
0
282
0
283
1
284
8
285
0
286
0
287
3
288
0
340
11
341
22F
342
22F
343
22F
344
22F
  0
DIMSTYLE
105
24A
100
AcDbSymbolTableRecord
100
AcDbDimStyleTableRecord
  2
DIMSTYLE_1
 70
0
  3

  4

 40
1.0
 41
3.5
 42
0.0625
 43
0.38
 44
0.18
 45
0.0
 46
0.0
 47
0.15
 48
0.15
140
3.5
141
0.09
142
0.0
143
25.4
144
1.0
145
0.0
146
1.0
147
0.09
 71
0.0
 72
0.0
 73
0
 74
0
 75
0
 76
0
 77
1
 78
8
170
0
171
2
172
0
173
0
174
0
175
0
176
0
177
0
178
2
270
2
271
3
272
3
273
2
274
2
275
0
280
0
281
0
282
0
283
1
284
8
285
0
286
0
287
3
288
0
340
11
341
22F
342
22F
343
22F
344
22F
  0
DIMSTYLE
105
24B
100
AcDbSymbolTableRecord
100
AcDbDimStyleTableRecord
  2
DIMSTYLE_2
 70
0
  3

  4

 40
1.0
 41
3.5
 42
0.0625
 43
0.38
 44
0.18
 45
0.0
 46
0.0
 47
0.1
 48
0.1
140
3.5
141
0.09
142
0.0
143
25.4
144
1.0
145
0.0
146
1.0
147
0.09
 71
0.0
 72
0.0
 73
0
 74
0
 75
0
 76
0
 77
1
 78
8
170
0
171
2
172
0
173
0
174
0
175
0
176
0
177
0
178
2
270
2
271
3
272
3
273
2
274
2
275
0
280
0
281
0
282
0
283
1
284
8
285
0
286
0
287
3
288
0
340
11
341
22F
342
22F
343
22F
344
22F
  0
DIMSTYLE
105
24C
100
AcDbSymbolTableRecord
100
AcDbDimStyleTableRecord
  2
DIMSTYLE_3
 70
0
  3

  4

 40
1.0
 41
3.5
 42
0.0625
 43
0.38
 44
0.18
 45
0.0
 46
0.0
 47
0.05
 48
0.05
140
3.5
141
0.09
142
0.0
143
25.4
144
1.0
145
0.0
146
1.0
147
0.09
 71
0.0
 72
0.0
 73
0
 74
0
 75
0
 76
0
 77
1
 78
8
170
0
171
2
172
0
173
0
174
0
175
0
176
0
177
0
178
2
270
2
271
3
272
3
273
2
274
2
275
0
280
0
281
0
282
0
283
1
284
8
285
0
286
0
287
3
288
0
340
11
341
22F
342
22F
343
22F
344
22F
  0
DIMSTYLE
105
24D
100
AcDbSymbolTableRecord
100
AcDbDimStyleTableRecord
  2
DIMSTYLE_4
 70
0
  3

  4

 40
1.0
 41
3.5
 42
0.0625
 43
0.38
 44
0.18
 45
0.0
 46
0.0
 47
0.5
 48
0.5
140
3.5
141
0.09
142
0.0
143
25.4
144
1.0
145
0.0
146
1.0
147
0.09
 71
0.0
 72
0.0
 73
0
 74
0
 75
0
 76
0
 77
1
 78
8
170
0
171
2
172
0
173
0
174
0
175
0
176
0
177
0
178
2
270
2
271
3
272
3
273
2
274
2
275
0
280
0
281
0
282
0
283
1
284
8
285
0
286
0
287
3
288
0
340
11
341
22F
342
22F
343
22F
344
22F
  0
ENDTAB
  0
ENDSEC
  0
SECTION
  2
BLOCKS
  0
BLOCK
  5
20
100
AcDbEntity
  8
0
100
AcDbBlockBegin
  2
*Model_Space
 70
0
 10
0.0
 20
0.0
 30
0.0
  3
*Model_Space
  1

  0
ENDBLK
  5
21
100
AcDbEntity
  8
0
100
AcDbBlockEnd
  0
BLOCK
  5
1C
100
AcDbEntity
  8
0
100
AcDbBlockBegin
  2
*Paper_Space
 70
0
 10
0.0
 20
0.0
 30
0.0
  3
*Paper_Space
  1

  0
ENDBLK
  5
1D
100
AcDbEntity
  8
0
100
AcDbBlockEnd
  0
BLOCK
  5
24E
100
AcDbEntity
  8
388782-000-00-ED1_CL
100
AcDbBlockBegin
 62
3
  6
CONTINUOUS
  2
BOMBALLOON_BL8
 70
64
 10
84.0106567052
 20
277.8408739877
  3
BOMBALLOON_BL8
  1

  0
CIRCLE
  5
24F
100
AcDbEntity
  8
388782-000-00-ED1_CL
100
AcDbCircle
 62
3
  6
CONTINUOUS
 10
84.0106567052
 20
277.8408739877
 40
6.125
  0
LINE
  5
250
100
AcDbEntity
  8
388782-000-00-ED1_CL
100
AcDbLine
 62
3
  6
CONTINUOUS
 10
77.8856567052
 20
277.8408739877
 11
90.1356567052
 21
277.8408739877
  0
TEXT
  5
251
100
AcDbEntity
  8
388782-000-00-ED1_CL
100
AcDbText
 62
2
  6
CONTINUOUS
 10
82.5308389968
 20
278.779676071
  7
STANDARD
 40
3.5
  1
2
 41
0.7857142857
 72
0
100
AcDbText
  0
TEXT
  5
252
100
AcDbEntity
  8
388782-000-00-ED1_CL
100
AcDbText
 62
2
  6
CONTINUOUS
 10
83.0060994135
 20
273.666394821
  7
STANDARD
 40
3.5
  1
1
 41
0.5714285714
 72
0
100
AcDbText
  0
ENDBLK
  5
253
100
AcDbEntity
  8
0
  6
BYBLOCK
 62
0
100
AcDbBlockEnd
  0
BLOCK
  5
254
100
AcDbEntity
  8
388782-000-00-ED1_CL
100
AcDbBlockBegin
 62
3
  6
CONTINUOUS
  2
BOMBALLOON_BL7
 70
64
 10
347.5044348506
 20
171.3408739877
  3
BOMBALLOON_BL7
  1

  0
CIRCLE
  5
255
100
AcDbEntity
  8
388782-000-00-ED1_CL
100
AcDbCircle
 62
3
  6
CONTINUOUS
 10
347.5044348506
 20
171.3408739877
 40
6.125
  0
LINE
  5
256
100
AcDbEntity
  8
388782-000-00-ED1_CL
100
AcDbLine
 62
3
  6
CONTINUOUS
 10
341.3794348506
 20
171.3408739877
 11
353.6294348506
 21
171.3408739877
  0
TEXT
  5
257
100
AcDbEntity
  8
388782-000-00-ED1_CL
100
AcDbText
 62
2
  6
CONTINUOUS
 10
346.3996171422
 20
172.279676071
  7
STANDARD
 40
3.5
  1
1
 41
0.5714285714
 72
0
100
AcDbText
  0
TEXT
  5
258
100
AcDbEntity
  8
388782-000-00-ED1_CL
100
AcDbText
 62
2
  6
CONTINUOUS
 10
346.4998775589
 20
167.166394821
  7
STANDARD
 40
3.5
  1
1
 41
0.5714285714
 72
0
100
AcDbText
  0
ENDBLK
  5
259
100
AcDbEntity
  8
0
  6
BYBLOCK
 62
0
100
AcDbBlockEnd
  0
BLOCK
  5
25A
100
AcDbEntity
  8
388782-000-00-ED1_CL
100
AcDbBlockBegin
 62
3
  6
CONTINUOUS
  2
GEOM_TOLERANCE_SYMBOLS_BL6
 70
64
 10
479.0245287111
 20
161.341135075
  3
GEOM_TOLERANCE_SYMBOLS_BL6
  1

  0
LINE
  5
25B
100
AcDbEntity
  8
388782-000-00-ED1_CL
100
AcDbLine
 62
3
  6
CONTINUOUS
 10
463.5061113161
 20
164.8408742117
 11
463.5061113161
 21
157.8408739877
  0
LINE
  5
25C
100
AcDbEntity
  8
388782-000-00-ED1_CL
100
AcDbLine
 62
3
  6
CONTINUOUS
 10
463.5061113161
 20
157.8408739877
 11
485.5061120201
 21
157.8408739877
  0
LINE
  5
25D
100
AcDbEntity
  8
388782-000-00-ED1_CL
100
AcDbLine
 62
3
  6
CONTINUOUS
 10
492.5061122441
 20
157.8408739877
 11
492.5061122441
 21
164.8408742117
  0
LINE
  5
25E
100
AcDbEntity
  8
388782-000-00-ED1_CL
100
AcDbLine
 62
3
  6
CONTINUOUS
 10
485.5061120201
 20
164.8408742117
 11
463.5061113161
 21
164.8408742117
  0
LINE
  5
25F
100
AcDbEntity
  8
388782-000-00-ED1_CL
100
AcDbLine
 62
3
  6
CONTINUOUS
 10
470.5061115401
 20
164.8408742117
 11
470.5061115401
 21
157.8408739877
  0
LINE
  5
260
100
AcDbEntity
  8
388782-000-00-ED1_CL
100
AcDbLine
 62
3
  6
CONTINUOUS
 10
485.5061120201
 20
164.8408742117
 11
485.5061120201
 21
157.8408739877
  0
LINE
  5
261
100
AcDbEntity
  8
388782-000-00-ED1_CL
100
AcDbLine
 62
3
  6
CONTINUOUS
 10
485.5061120201
 20
164.8408742117
 11
492.5061122441
 21
164.8408742117
  0
LINE
  5
262
100
AcDbEntity
  8
388782-000-00-ED1_CL
100
AcDbLine
 62
3
  6
CONTINUOUS
 10
485.5061120201
 20
157.8408739877
 11
492.5061122441
 21
157.8408739877
  0
LINE
  5
263
100
AcDbEntity
  8
388782-000-00-ED1_CL
100
AcDbLine
 62
3
  6
CONTINUOUS
 10
458.5061113161
 20
161.3408739877
 11
463.5061113161
 21
161.3408739877
  0
LINE
  5
264
100
AcDbEntity
  8
388782-000-00-ED1_CL
100
AcDbLine
 62
3
  6
CONTINUOUS
 10
492.5429458821
 20
164.8413961622
 11
499.5429461061
 21
164.8413961622
  0
LINE
  5
265
100
AcDbEntity
  8
388782-000-00-ED1_CL
100
AcDbLine
 62
3
  6
CONTINUOUS
 10
499.5429458821
 20
164.8413961622
 11
499.5429458821
 21
157.8413959382
  0
LINE
  5
266
100
AcDbEntity
  8
388782-000-00-ED1_CL
100
AcDbLine
 62
3
  6
CONTINUOUS
 10
492.5429458821
 20
157.8413961622
 11
499.5429461061
 21
157.8413961622
  0
TEXT
  5
267
100
AcDbEntity
  8
388782-000-00-ED1_CL
100
AcDbText
 62
2
  6
CONTINUOUS
 10
464.7561113561
 20
160.1408740613
  7
TEXTSTYLE_3
 40
2.4000000768
  1
h
 41
1.0
 72
0
100
AcDbText
  0
TEXT
  5
268
100
AcDbEntity
  8
388782-000-00-ED1_CL
100
AcDbText
 62
2
  6
CONTINUOUS
 10
471.6311115761
 20
159.5908740437
  7
STANDARD
 40
3.500000112
  1
0.003
 41
0.7285714286
 72
0
100
AcDbText
  0
TEXT
  5
269
100
AcDbEntity
  8
388782-000-00-ED1_CL
100
AcDbText
 62
2
  6
CONTINUOUS
 10
487.5061120841
 20
159.5908740437
  7
STANDARD
 40
3.500000112
  1
A
 41
0.8571428571
 72
0
100
AcDbText
  0
TEXT
  5
26A
100
AcDbEntity
  8
388782-000-00-ED1_CL
100
AcDbText
 62
2
  6
CONTINUOUS
 10
494.6679459941
 20
159.5913960827
  7
STANDARD
 40
3.5
  1
B
 41
0.7857142857
 72
0
100
AcDbText
  0
ENDBLK
  5
26B
100
AcDbEntity
  8
0
  6
BYBLOCK
 62
0
100
AcDbBlockEnd
  0
BLOCK
  5
26C
100
AcDbEntity
  8
388782-000-00-ED1_CL
100
AcDbBlockBegin
 62
3
  6
CONTINUOUS
  2
GEOM_TOLERANCE_SYMBOLS_BL5
 70
64
 10
273.4052225475
 20
260.7186492044
  3
GEOM_TOLERANCE_SYMBOLS_BL5
  1

  0
LINE
  5
26D
100
AcDbEntity
  8
388782-000-00-ED1_CL
100
AcDbLine
 62
3
  6
CONTINUOUS
 10
275.3564658908
 20
254.501706354
 11
272.3602238629
 21
254.351594028
  0
LINE
  5
26E
100
AcDbEntity
  8
388782-000-00-ED1_CL
100
AcDbLine
 62
3
  6
CONTINUOUS
 10
269.7344758013
 20
266.73572138
 11
276.7257071996
 21
267.0859834742
  0
LINE
  5
26F
100
AcDbEntity
  8
388782-000-00-ED1_CL
100
AcDbLine
 62
3
  6
CONTINUOUS
 10
276.7257071996
 20
267.0859834742
 11
277.0759692938
 21
260.0947520758
  0
LINE
  5
270
100
AcDbEntity
  8
388782-000-00-ED1_CL
100
AcDbLine
 62
3
  6
CONTINUOUS
 10
277.0759692938
 20
260.0947520758
 11
270.0847378954
 21
259.7444899817
  0
LINE
  5
271
100
AcDbEntity
  8
388782-000-00-ED1_CL
100
AcDbLine
 62
3
  6
CONTINUOUS
 10
270.0847378954
 20
259.7444899817
 11
269.7344758013
 21
266.73572138
  0
LINE
  5
272
100
AcDbEntity
  8
388782-000-00-ED1_CL
100
AcDbLine
 62
3
  6
CONTINUOUS
 10
272.3546531606
 20
254.3513149346
 11
273.7304659207
 21
256.9233790009
  0
LINE
  5
273
100
AcDbEntity
  8
388782-000-00-ED1_CL
100
AcDbLine
 62
3
  6
CONTINUOUS
 10
273.7304659207
 20
256.9233790009
 11
275.3508951885
 21
254.5014272607
  0
LINE
  5
274
100
AcDbEntity
  8
388782-000-00-ED1_CL
100
AcDbLine
 62
3
  6
CONTINUOUS
 10
273.7304659207
 20
256.9233790009
 11
273.5803535946
 21
259.9196210288
  0
LINE
  5
275
100
AcDbEntity
  8
388782-000-00-ED1_CL
100
AcDbLine
 62
3
  6
CONTINUOUS
 10
272.457313246
 20
254.3564582255
 11
272.4487570026
 21
254.5272408437
  0
LINE
  5
276
100
AcDbEntity
  8
388782-000-00-ED1_CL
100
AcDbLine
 62
3
  6
CONTINUOUS
 10
272.5571879803
 20
254.3614619697
 11
272.5403076396
 21
254.6983935692
  0
LINE
  5
277
100
AcDbEntity
  8
388782-000-00-ED1_CL
100
AcDbLine
 62
3
  6
CONTINUOUS
 10
272.6570627146
 20
254.3664657139
 11
272.6318582766
 21
254.8695462948
  0
LINE
  5
278
100
AcDbEntity
  8
388782-000-00-ED1_CL
100
AcDbLine
 62
3
  6
CONTINUOUS
 10
272.7569374488
 20
254.3714694581
 11
272.7234089136
 21
255.0406990203
  0
LINE
  5
279
100
AcDbEntity
  8
388782-000-00-ED1_CL
100
AcDbLine
 62
3
  6
CONTINUOUS
 10
272.8568121831
 20
254.3764732023
 11
272.8149595506
 21
255.2118517458
  0
LINE
  5
27A
100
AcDbEntity
  8
388782-000-00-ED1_CL
100
AcDbLine
 62
3
  6
CONTINUOUS
 10
272.9566869174
 20
254.3814769465
 11
272.9065101876
 21
255.3830044713
  0
LINE
  5
27B
100
AcDbEntity
  8
388782-000-00-ED1_CL
100
AcDbLine
 62
3
  6
CONTINUOUS
 10
273.0565616516
 20
254.3864806907
 11
272.9980608246
 21
255.5541571968
  0
LINE
  5
27C
100
AcDbEntity
  8
388782-000-00-ED1_CL
100
AcDbLine
 62
3
  6
CONTINUOUS
 10
273.1564363859
 20
254.3914844349
 11
273.0896114617
 21
255.7253099223
  0
LINE
  5
27D
100
AcDbEntity
  8
388782-000-00-ED1_CL
100
AcDbLine
 62
3
  6
CONTINUOUS
 10
273.2563111201
 20
254.3964881791
 11
273.1811620987
 21
255.8964626478
  0
LINE
  5
27E
100
AcDbEntity
  8
388782-000-00-ED1_CL
100
AcDbLine
 62
3
  6
CONTINUOUS
 10
273.3561858544
 20
254.4014919233
 11
273.2727127357
 21
256.0676153733
  0
LINE
  5
27F
100
AcDbEntity
  8
388782-000-00-ED1_CL
100
AcDbLine
 62
3
  6
CONTINUOUS
 10
273.4560605887
 20
254.4064956675
 11
273.3642633727
 21
256.2387680988
  0
LINE
  5
280
100
AcDbEntity
  8
388782-000-00-ED1_CL
100
AcDbLine
 62
3
  6
CONTINUOUS
 10
273.5559353229
 20
254.4114994117
 11
273.4558140097
 21
256.4099208244
  0
LINE
  5
281
100
AcDbEntity
  8
388782-000-00-ED1_CL
100
AcDbLine
 62
3
  6
CONTINUOUS
 10
273.6558100572
 20
254.4165031559
 11
273.5473646467
 21
256.5810735499
  0
LINE
  5
282
100
AcDbEntity
  8
388782-000-00-ED1_CL
100
AcDbLine
 62
3
  6
CONTINUOUS
 10
273.7556847914
 20
254.4215069001
 11
273.6389152837
 21
256.7522262754
  0
LINE
  5
283
100
AcDbEntity
  8
388782-000-00-ED1_CL
100
AcDbLine
 62
3
  6
CONTINUOUS
 10
273.8555595257
 20
254.4265106443
 11
273.7304659207
 21
256.9233790009
  0
LINE
  5
284
100
AcDbEntity
  8
388782-000-00-ED1_CL
100
AcDbLine
 62
3
  6
CONTINUOUS
 10
273.95543426
 20
254.4315143885
 11
273.8386957627
 21
256.7616147947
  0
LINE
  5
285
100
AcDbEntity
  8
388782-000-00-ED1_CL
100
AcDbLine
 62
3
  6
CONTINUOUS
 10
274.0553089942
 20
254.4365181327
 11
273.9469256047
 21
256.5998505885
  0
LINE
  5
286
100
AcDbEntity
  8
388782-000-00-ED1_CL
100
AcDbLine
 62
3
  6
CONTINUOUS
 10
274.1551837285
 20
254.4415218769
 11
274.0551554467
 21
256.4380863824
  0
LINE
  5
287
100
AcDbEntity
  8
388782-000-00-ED1_CL
100
AcDbLine
 62
3
  6
CONTINUOUS
 10
274.2550584628
 20
254.4465256211
 11
274.1633852886
 21
256.2763221762
  0
LINE
  5
288
100
AcDbEntity
  8
388782-000-00-ED1_CL
100
AcDbLine
 62
3
  6
CONTINUOUS
 10
274.354933197
 20
254.4515293653
 11
274.2716151306
 21
256.11455797
  0
LINE
  5
289
100
AcDbEntity
  8
388782-000-00-ED1_CL
100
AcDbLine
 62
3
  6
CONTINUOUS
 10
274.4548079313
 20
254.4565331095
 11
274.3798449726
 21
255.9527937639
  0
LINE
  5
28A
100
AcDbEntity
  8
388782-000-00-ED1_CL
100
AcDbLine
 62
3
  6
CONTINUOUS
 10
274.5546826655
 20
254.4615368537
 11
274.4880748146
 21
255.7910295577
  0
LINE
  5
28B
100
AcDbEntity
  8
388782-000-00-ED1_CL
100
AcDbLine
 62
3
  6
CONTINUOUS
 10
274.6545573998
 20
254.4665405979
 11
274.5963046566
 21
255.6292653515
  0
LINE
  5
28C
100
AcDbEntity
  8
388782-000-00-ED1_CL
100
AcDbLine
 62
3
  6
CONTINUOUS
 10
274.7544321341
 20
254.4715443421
 11
274.7045344986
 21
255.4675011454
  0
LINE
  5
28D
100
AcDbEntity
  8
388782-000-00-ED1_CL
100
AcDbLine
 62
3
  6
CONTINUOUS
 10
274.8543068683
 20
254.4765480864
 11
274.8127643406
 21
255.3057369392
  0
LINE
  5
28E
100
AcDbEntity
  8
388782-000-00-ED1_CL
100
AcDbLine
 62
3
  6
CONTINUOUS
 10
274.9541816026
 20
254.4815518306
 11
274.9209941826
 21
255.143972733
  0
LINE
  5
28F
100
AcDbEntity
  8
388782-000-00-ED1_CL
100
AcDbLine
 62
3
  6
CONTINUOUS
 10
275.0540563369
 20
254.4865555748
 11
275.0292240246
 21
254.9822085269
  0
LINE
  5
290
100
AcDbEntity
  8
388782-000-00-ED1_CL
100
AcDbLine
 62
3
  6
CONTINUOUS
 10
275.1539310711
 20
254.491559319
 11
275.1374538666
 21
254.8204443207
  0
LINE
  5
291
100
AcDbEntity
  8
388782-000-00-ED1_CL
100
AcDbLine
 62
3
  6
CONTINUOUS
 10
275.2538058054
 20
254.4965630632
 11
275.2456837086
 21
254.6586801145
  0
TEXT
  5
292
100
AcDbEntity
  8
388782-000-00-ED1_CL
100
AcDbText
 62
2
  6
CONTINUOUS
 10
272.3975043249
 20
261.6097129113
  7
STANDARD
 40
3.5
  1
A
 50
2.868131941
 41
0.8571428571
 72
0
100
AcDbText
  0
ENDBLK
  5
293
100
AcDbEntity
  8
0
  6
BYBLOCK
 62
0
100
AcDbBlockEnd
  0
BLOCK
  5
294
100
AcDbEntity
  8
388782-000-00-ED1_CL
100
AcDbBlockBegin
 62
3
  6
CONTINUOUS
  2
GEOM_TOLERANCE_SYMBOLS_BL4
 70
64
 10
292.2560518567
 20
271.3482283618
  3
GEOM_TOLERANCE_SYMBOLS_BL4
  1

  0
LINE
  5
295
100
AcDbEntity
  8
388782-000-00-ED1_CL
100
AcDbLine
 62
3
  6
CONTINUOUS
 10
298.5060518567
 20
269.8482283618
 11
296.0060518567
 21
271.3482283618
  0
LINE
  5
296
100
AcDbEntity
  8
388782-000-00-ED1_CL
100
AcDbLine
 62
3
  6
CONTINUOUS
 10
296.0060518567
 20
271.3482283618
 11
298.5060518567
 21
272.8482283618
  0
LINE
  5
297
100
AcDbEntity
  8
388782-000-00-ED1_CL
100
AcDbLine
 62
3
  6
CONTINUOUS
 10
298.5060518567
 20
272.8482283618
 11
298.5060518567
 21
269.8482283618
  0
LINE
  5
298
100
AcDbEntity
  8
388782-000-00-ED1_CL
100
AcDbLine
 62
3
  6
CONTINUOUS
 10
296.0060518567
 20
271.3482283618
 11
293.0060518567
 21
271.3482283618
  0
LINE
  5
299
100
AcDbEntity
  8
388782-000-00-ED1_CL
100
AcDbLine
 62
3
  6
CONTINUOUS
 10
293.0060518567
 20
267.8482283618
 11
293.0060518567
 21
274.8482283618
  0
LINE
  5
29A
100
AcDbEntity
  8
388782-000-00-ED1_CL
100
AcDbLine
 62
3
  6
CONTINUOUS
 10
293.0060518567
 20
274.8482283618
 11
286.0060518567
 21
274.8482283618
  0
LINE
  5
29B
100
AcDbEntity
  8
388782-000-00-ED1_CL
100
AcDbLine
 62
3
  6
CONTINUOUS
 10
286.0060518567
 20
274.8482283618
 11
286.0060518567
 21
267.8482283618
  0
LINE
  5
29C
100
AcDbEntity
  8
388782-000-00-ED1_CL
100
AcDbLine
 62
3
  6
CONTINUOUS
 10
286.0060518567
 20
267.8482283618
 11
293.0060518567
 21
267.8482283618
  0
LINE
  5
29D
100
AcDbEntity
  8
388782-000-00-ED1_CL
100
AcDbLine
 62
3
  6
CONTINUOUS
 10
298.5060518567
 20
272.7454395172
 11
298.3347371157
 21
272.7454395172
  0
LINE
  5
29E
100
AcDbEntity
  8
388782-000-00-ED1_CL
100
AcDbLine
 62
3
  6
CONTINUOUS
 10
298.5060518567
 20
272.6454395172
 11
298.168070449
 21
272.6454395172
  0
LINE
  5
29F
100
AcDbEntity
  8
388782-000-00-ED1_CL
100
AcDbLine
 62
3
  6
CONTINUOUS
 10
298.5060518567
 20
272.5454395172
 11
298.0014037824
 21
272.5454395172
  0
LINE
  5
2A0
100
AcDbEntity
  8
388782-000-00-ED1_CL
100
AcDbLine
 62
3
  6
CONTINUOUS
 10
298.5060518567
 20
272.4454395172
 11
297.8347371157
 21
272.4454395172
  0
LINE
  5
2A1
100
AcDbEntity
  8
388782-000-00-ED1_CL
100
AcDbLine
 62
3
  6
CONTINUOUS
 10
298.5060518567
 20
272.3454395172
 11
297.668070449
 21
272.3454395172
  0
LINE
  5
2A2
100
AcDbEntity
  8
388782-000-00-ED1_CL
100
AcDbLine
 62
3
  6
CONTINUOUS
 10
298.5060518567
 20
272.2454395172
 11
297.5014037824
 21
272.2454395172
  0
LINE
  5
2A3
100
AcDbEntity
  8
388782-000-00-ED1_CL
100
AcDbLine
 62
3
  6
CONTINUOUS
 10
298.5060518567
 20
272.1454395172
 11
297.3347371157
 21
272.1454395172
  0
LINE
  5
2A4
100
AcDbEntity
  8
388782-000-00-ED1_CL
100
AcDbLine
 62
3
  6
CONTINUOUS
 10
298.5060518567
 20
272.0454395172
 11
297.168070449
 21
272.0454395172
  0
LINE
  5
2A5
100
AcDbEntity
  8
388782-000-00-ED1_CL
100
AcDbLine
 62
3
  6
CONTINUOUS
 10
298.5060518567
 20
271.9454395172
 11
297.0014037824
 21
271.9454395172
  0
LINE
  5
2A6
100
AcDbEntity
  8
388782-000-00-ED1_CL
100
AcDbLine
 62
3
  6
CONTINUOUS
 10
298.5060518567
 20
271.8454395172
 11
296.8347371157
 21
271.8454395172
  0
LINE
  5
2A7
100
AcDbEntity
  8
388782-000-00-ED1_CL
100
AcDbLine
 62
3
  6
CONTINUOUS
 10
298.5060518567
 20
271.7454395172
 11
296.668070449
 21
271.7454395172
  0
LINE
  5
2A8
100
AcDbEntity
  8
388782-000-00-ED1_CL
100
AcDbLine
 62
3
  6
CONTINUOUS
 10
298.5060518567
 20
271.6454395172
 11
296.5014037824
 21
271.6454395172
  0
LINE
  5
2A9
100
AcDbEntity
  8
388782-000-00-ED1_CL
100
AcDbLine
 62
3
  6
CONTINUOUS
 10
298.5060518567
 20
271.5454395172
 11
296.3347371157
 21
271.5454395172
  0
LINE
  5
2AA
100
AcDbEntity
  8
388782-000-00-ED1_CL
100
AcDbLine
 62
3
  6
CONTINUOUS
 10
298.5060518567
 20
271.4454395172
 11
296.168070449
 21
271.4454395172
  0
LINE
  5
2AB
100
AcDbEntity
  8
388782-000-00-ED1_CL
100
AcDbLine
 62
3
  6
CONTINUOUS
 10
298.5060518567
 20
271.3454395172
 11
296.0106999311
 21
271.3454395172
  0
LINE
  5
2AC
100
AcDbEntity
  8
388782-000-00-ED1_CL
100
AcDbLine
 62
3
  6
CONTINUOUS
 10
298.5060518567
 20
271.2454395172
 11
296.1773665978
 21
271.2454395172
  0
LINE
  5
2AD
100
AcDbEntity
  8
388782-000-00-ED1_CL
100
AcDbLine
 62
3
  6
CONTINUOUS
 10
298.5060518567
 20
271.1454395172
 11
296.3440332644
 21
271.1454395172
  0
LINE
  5
2AE
100
AcDbEntity
  8
388782-000-00-ED1_CL
100
AcDbLine
 62
3
  6
CONTINUOUS
 10
298.5060518567
 20
271.0454395172
 11
296.5106999311
 21
271.0454395172
  0
LINE
  5
2AF
100
AcDbEntity
  8
388782-000-00-ED1_CL
100
AcDbLine
 62
3
  6
CONTINUOUS
 10
298.5060518567
 20
270.9454395172
 11
296.6773665978
 21
270.9454395172
  0
LINE
  5
2B0
100
AcDbEntity
  8
388782-000-00-ED1_CL
100
AcDbLine
 62
3
  6
CONTINUOUS
 10
298.5060518567
 20
270.8454395172
 11
296.8440332644
 21
270.8454395172
  0
LINE
  5
2B1
100
AcDbEntity
  8
388782-000-00-ED1_CL
100
AcDbLine
 62
3
  6
CONTINUOUS
 10
298.5060518567
 20
270.7454395172
 11
297.0106999311
 21
270.7454395172
  0
LINE
  5
2B2
100
AcDbEntity
  8
388782-000-00-ED1_CL
100
AcDbLine
 62
3
  6
CONTINUOUS
 10
298.5060518567
 20
270.6454395172
 11
297.1773665978
 21
270.6454395172
  0
LINE
  5
2B3
100
AcDbEntity
  8
388782-000-00-ED1_CL
100
AcDbLine
 62
3
  6
CONTINUOUS
 10
298.5060518567
 20
270.5454395172
 11
297.3440332644
 21
270.5454395172
  0
LINE
  5
2B4
100
AcDbEntity
  8
388782-000-00-ED1_CL
100
AcDbLine
 62
3
  6
CONTINUOUS
 10
298.5060518567
 20
270.4454395172
 11
297.5106999311
 21
270.4454395172
  0
LINE
  5
2B5
100
AcDbEntity
  8
388782-000-00-ED1_CL
100
AcDbLine
 62
3
  6
CONTINUOUS
 10
298.5060518567
 20
270.3454395172
 11
297.6773665978
 21
270.3454395172
  0
LINE
  5
2B6
100
AcDbEntity
  8
388782-000-00-ED1_CL
100
AcDbLine
 62
3
  6
CONTINUOUS
 10
298.5060518567
 20
270.2454395172
 11
297.8440332644
 21
270.2454395172
  0
LINE
  5
2B7
100
AcDbEntity
  8
388782-000-00-ED1_CL
100
AcDbLine
 62
3
  6
CONTINUOUS
 10
298.5060518567
 20
270.1454395172
 11
298.0106999311
 21
270.1454395172
  0
LINE
  5
2B8
100
AcDbEntity
  8
388782-000-00-ED1_CL
100
AcDbLine
 62
3
  6
CONTINUOUS
 10
298.5060518567
 20
270.0454395172
 11
298.1773665978
 21
270.0454395172
  0
LINE
  5
2B9
100
AcDbEntity
  8
388782-000-00-ED1_CL
100
AcDbLine
 62
3
  6
CONTINUOUS
 10
298.5060518567
 20
269.9454395172
 11
298.3440332644
 21
269.9454395172
  0
TEXT
  5
2BA
100
AcDbEntity
  8
388782-000-00-ED1_CL
100
AcDbText
 62
2
  6
CONTINUOUS
 10
288.5310518567
 20
269.5982283618
  7
STANDARD
 40
3.5
  1
B
 41
0.7857142857
 72
0
100
AcDbText
  0
ENDBLK
  5
2BB
100
AcDbEntity
  8
0
  6
BYBLOCK
 62
0
100
AcDbBlockEnd
  0
BLOCK
  5
2BC
100
AcDbEntity
  8
388782-000-00-ED1_FORMAT
100
AcDbBlockBegin
 62
3
  6
CONTINUOUS
  2
BARCODEBOX_BL3
 70
64
 10
74.5
 20
46.5
  3
BARCODEBOX_BL3
  1

  0
LINE
  5
2BD
100
AcDbEntity
  8
388782-000-00-ED1_FORMAT
100
AcDbLine
 62
3
  6
CONTINUOUS
 10
35.0
 20
83.0
 11
40.0
 21
83.0
  0
LINE
  5
2BE
100
AcDbEntity
  8
388782-000-00-ED1_FORMAT
100
AcDbLine
 62
3
  6
CONTINUOUS
 10
40.0
 20
83.0
 11
40.0
 21
78.0
  0
LINE
  5
2BF
100
AcDbEntity
  8
388782-000-00-ED1_FORMAT
100
AcDbLine
 62
3
  6
CONTINUOUS
 10
122.0
 20
65.0
 11
127.0
 21
65.0
  0
LINE
  5
2C0
100
AcDbEntity
  8
388782-000-00-ED1_FORMAT
100
AcDbLine
 62
3
  6
CONTINUOUS
 10
127.0
 20
65.0
 11
127.0
 21
60.0
  0
LINE
  5
2C1
100
AcDbEntity
  8
388782-000-00-ED1_FORMAT
100
AcDbLine
 62
3
  6
CONTINUOUS
 10
78.5
 20
65.0
 11
88.5
 21
65.0
  0
LINE
  5
2C2
100
AcDbEntity
  8
388782-000-00-ED1_FORMAT
100
AcDbLine
 62
3
  6
CONTINUOUS
 10
127.0
 20
42.5
 11
127.0
 21
32.5
  0
LINE
  5
2C3
100
AcDbEntity
  8
388782-000-00-ED1_FORMAT
100
AcDbLine
 62
3
  6
CONTINUOUS
 10
127.0
 20
10.0
 11
127.0
 21
15.0
  0
LINE
  5
2C4
100
AcDbEntity
  8
388782-000-00-ED1_FORMAT
100
AcDbLine
 62
3
  6
CONTINUOUS
 10
27.0
 20
83.0
 11
22.0
 21
83.0
  0
LINE
  5
2C5
100
AcDbEntity
  8
388782-000-00-ED1_FORMAT
100
AcDbLine
 62
3
  6
CONTINUOUS
 10
45.0
 20
65.0
 11
35.0
 21
65.0
  0
LINE
  5
2C6
100
AcDbEntity
  8
388782-000-00-ED1_FORMAT
100
AcDbLine
 62
3
  6
CONTINUOUS
 10
40.0
 20
65.0
 11
40.0
 21
70.0
  0
LINE
  5
2C7
100
AcDbEntity
  8
388782-000-00-ED1_FORMAT
100
AcDbLine
 62
3
  6
CONTINUOUS
 10
22.0
 20
65.0
 11
27.0
 21
65.0
  0
TEXT
  5
2C8
100
AcDbEntity
  8
388782-000-00-ED1_FORMAT
100
AcDbText
 62
2
  6
CONTINUOUS
 10
126.0
 20
11.0
  7
STANDARD
 40
2.0
  1
BARCODE-ZONE
 50
90.0
 41
0.7876984127
 72
0
100
AcDbText
  0
ENDBLK
  5
2C9
100
AcDbEntity
  8
0
  6
BYBLOCK
 62
0
100
AcDbBlockEnd
  0
BLOCK
  5
2CA
100
AcDbEntity
  8
0
100
AcDbBlockBegin
  2
HATCHING_BL0
 70
64
 10
103.756540974
 20
250.8528705886
  3
HATCHING_BL0
  1

  0
HATCH
  5
2CB
100
AcDbEntity
  8
30526677#AF0_HATCH
100
AcDbHatch
 62
3
  6
CONTINUOUS
 10
0.0
 20
0.0
 30
0.0
210
0.0
220
0.0
230
1.0
  2
default__1
 70
0
 71
0
 91
2
 92
1
 93
7
 72
1
 10
100.0506567052
 20
250.9608739877
 11
99.5106567052
 21
250.4208739877
 72
1
 10
99.5106567052
 20
250.4208739877
 11
99.5106567052
 21
245.4660797909
 72
4
 94
3
 73
0
 74
0
 95
30
 96
26
 40
0.0
 40
0.0
 40
0.0
 40
0.0
 40
0.0434782609
 40
0.0869565217
 40
0.1304347826
 40
0.1739130435
 40
0.2173913043
 40
0.2608695652
 40
0.3043478261
 40
0.347826087
 40
0.3913043478
 40
0.4347826087
 40
0.4782608696
 40
0.5217391304
 40
0.5652173913
 40
0.6086956522
 40
0.652173913
 40
0.6956521739
 40
0.7391304348
 40
0.7826086957
 40
0.8260869565
 40
0.8695652174
 40
0.9130434783
 40
0.9565217391
 40
1.0
 40
1.0
 40
1.0
 40
1.0
 10
99.5106567052
 20
245.4660797909
 10
99.3131510254
 20
245.4892840719
 10
98.9466932643
 20
245.5380356636
 10
98.4869505745
 20
245.6192873258
 10
98.1043023657
 20
245.7053777055
 10
97.7869768264
 20
245.794015215
 10
97.520482679
 20
245.8841012238
 10
97.2930401118
 20
245.9755259143
 10
97.0967808131
 20
246.0681537717
 10
96.9260591846
 20
246.1618823083
 10
96.7764789494
 20
246.2567710253
 10
96.644522483
 20
246.3530837851
 10
96.5277498744
 20
246.4509243867
 10
96.4244683471
 20
246.5501957302
 10
96.3319123529
 20
246.6523791972
 10
96.2474084057
 20
246.7600782802
 10
96.1689245147
 20
246.8758792837
 10
96.0951469717
 20
247.0026425163
 10
96.0263467455
 20
247.1418519862
 10
95.9629212025
 20
247.2950853675
 10
95.9050408237
 20
247.4653891261
 10
95.8532837191
 20
247.6562148235
 10
95.8086850085
 20
247.8723208288
 10
95.7723185528
 20
248.1185915237
 10
95.7555910536
 20
248.3115650629
 10
95.7489374523
 20
248.4145264947
 72
2
 10
114.0106567052
 20
231.3408739877
 40
25.0
 50
125.7323759704
 51
136.9257071115
 73
1
 72
1
 10
99.4106567052
 20
251.634715418
 11
99.4106567052
 21
251.3408739877
 72
1
 10
99.4106567052
 20
251.3408739877
 11
100.0506567052
 21
251.3408739877
 72
1
 10
100.0506567052
 20
251.3408739877
 11
100.0506567052
 21
250.9608739877
 97
0
 92
1
 93
7
 72
1
 10
109.5106567052
 20
250.4208739877
 11
108.9706567052
 21
250.9608739877
 72
1
 10
108.9706567052
 20
250.9608739877
 11
108.9706567052
 21
251.3408739877
 72
1
 10
108.9706567052
 20
251.3408739877
 11
109.6106567052
 21
251.3408739877
 72
1
 10
109.6106567052
 20
251.3408739877
 11
109.6106567052
 21
255.9506281514
 72
2
 10
114.0106567052
 20
231.3408739877
 40
25.0
 50
95.1574086997
 51
100.1368571726
 73
1
 72
4
 94
3
 73
0
 74
0
 95
38
 96
34
 40
0.0
 40
0.0
 40
0.0
 40
0.0
 40
0.0322580645
 40
0.064516129
 40
0.0967741935
 40
0.1290322581
 40
0.1612903226
 40
0.1935483871
 40
0.2258064516
 40
0.2580645161
 40
0.2903225806
 40
0.3225806452
 40
0.3548387097
 40
0.3870967742
 40
0.4193548387
 40
0.4516129032
 40
0.4838709677
 40
0.5161290323
 40
0.5483870968
 40
0.5806451613
 40
0.6129032258
 40
0.6451612903
 40
0.6774193548
 40
0.7096774194
 40
0.7419354839
 40
0.7741935484
 40
0.8064516129
 40
0.8387096774
 40
0.8709677419
 40
0.9032258065
 40
0.935483871
 40
0.9677419355
 40
1.0
 40
1.0
 40
1.0
 40
1.0
 10
111.763350301
 20
256.2396613864
 10
111.7652611506
 20
256.1246415684
 10
111.7621515648
 20
255.8696471252
 10
111.737827672
 20
255.4160175646
 10
111.6904412417
 20
254.8800705307
 10
111.620906038
 20
254.2467213285
 10
111.5369948456
 20
253.507938902
 10
111.4680631602
 20
252.7896346531
 10
111.4312865072
 20
252.1860537353
 10
111.4211882404
 20
251.64823581
 10
111.4351111998
 20
251.0343894735
 10
111.4682316918
 20
250.3514798675
 10
111.4967237328
 20
249.7805082003
 10
111.5106980486
 20
249.2903547895
 10
111.5079230503
 20
248.8702391758
 10
111.4892287539
 20
248.5159269601
 10
111.4578305679
 20
248.2182075554
 10
111.4168428582
 20
247.965396369
 10
111.3675998704
 20
247.7436390282
 10
111.3109260356
 20
247.5456383022
 10
111.2472756919
 20
247.366146566
 10
111.176783308
 20
247.2014186806
 10
111.099459758
 20
247.0488123
 10
111.0147337092
 20
246.9057326013
 10
110.9228184846
 20
246.7715767626
 10
110.8217869278
 20
246.6431384705
 10
110.7047199042
 20
246.5127131284
 10
110.5682741986
 20
246.378936645
 10
110.4108563837
 20
246.242708851
 10
110.2294836237
 20
246.1039000014
 10
110.0214902469
 20
245.9632526632
 10
109.7843770397
 20
245.8215387995
 10
109.6053079528
 20
245.7280327053
 10
109.5106567052
 20
245.6813820425
 72
1
 10
109.5106567052
 20
245.6813820425
 11
109.5106567052
 21
250.4208739877
 97
0
 75
0
 76
0
 52
45.0
 41
3.0
 77
0
 78
1
 53
45.0
 43
0.0
 44
0.0
 45
-2.1213203436
 46
2.1213203436
 79
0
 98
1
 10
0.0
 20
0.0
  0
ENDBLK
  5
2CC
100
AcDbEntity
  8
0
  6
BYBLOCK
 62
0
100
AcDbBlockEnd
  0
BLOCK
  5
2CD
100
AcDbEntity
  8
0
100
AcDbBlockBegin
  2
HATCHING_BL1
 70
64
 10
0.0
 20
0.0
  3
HATCHING_BL1
  1

  0
ENDBLK
  5
2CE
100
AcDbEntity
  8
0
  6
BYBLOCK
 62
0
100
AcDbBlockEnd
  0
BLOCK
  5
2CF
100
AcDbEntity
  8
0
100
AcDbBlockBegin
  2
HATCHING_BL2
 70
64
 10
341.1457750482
 20
211.3408739877
  3
HATCHING_BL2
  1

  0
SOLID
  5
2D0
100
AcDbEntity
  8
388782-000-00-ED1_HATCH
100
AcDbTrace
 62
7
  6
CONTINUOUS
 10
331.5060518567
 20
291.3408739877
 11
341.5060518567
 21
292.8408739877
 12
341.5060518567
 22
289.8408739877
 13
341.5060518567
 23
289.8408739877
  0
TEXT
  5
2D1
100
AcDbEntity
  8
388782-000-00-ED1_HATCH
100
AcDbText
 62
7
  6
CONTINUOUS
 10
344.5354982397
 20
293.8408739877
  7
STANDARD
 40
5.0
  1
A
 41
0.8571428571
 72
0
100
AcDbText
  0
SOLID
  5
2D2
100
AcDbEntity
  8
388782-000-00-ED1_HATCH
100
AcDbTrace
 62
7
  6
CONTINUOUS
 10
331.5060518567
 20
131.3408739877
 11
341.5060518567
 21
132.8408739877
 12
341.5060518567
 22
129.8408739877
 13
341.5060518567
 23
129.8408739877
  0
TEXT
  5
2D3
100
AcDbEntity
  8
388782-000-00-ED1_HATCH
100
AcDbText
 62
7
  6
CONTINUOUS
 10
344.5354982397
 20
123.8408739877
  7
STANDARD
 40
5.0
  1
A
 41
0.8571428571
 72
0
100
AcDbText
  0
LINE
  5
2D4
100
AcDbEntity
  8
388782-000-00-ED1_HATCH
100
AcDbLine
 62
7
  6
CONTINUOUS
 10
331.5060518567
 20
131.3408739877
 11
350.7854982397
 21
131.3408739877
  0
LINE
  5
2D5
100
AcDbEntity
  8
388782-000-00-ED1_HATCH
100
AcDbLine
 62
7
  6
CENTER
 10
331.5060518567
 20
291.3408739877
 11
331.5060518567
 21
276.3408739877
  0
LINE
  5
2D6
100
AcDbEntity
  8
388782-000-00-ED1_HATCH
100
AcDbLine
 62
9
  6
CENTER
 10
331.5060518567
 20
276.3408739877
 11
331.5060518567
 21
146.3408739877
  0
LINE
  5
2D7
100
AcDbEntity
  8
388782-000-00-ED1_HATCH
100
AcDbLine
 62
7
  6
CENTER
 10
331.5060518567
 20
146.3408739877
 11
331.5060518567
 21
131.3408739877
  0
LINE
  5
2D8
100
AcDbEntity
  8
388782-000-00-ED1_HATCH
100
AcDbLine
 62
7
  6
CONTINUOUS
 10
331.5060518567
 20
291.3408739877
 11
350.7854982397
 21
291.3408739877
  0
ENDBLK
  5
2D9
100
AcDbEntity
  8
0
  6
BYBLOCK
 62
0
100
AcDbBlockEnd
  0
BLOCK
  5
2DA
100
AcDbEntity
  8
0
100
AcDbBlockBegin
  2
_FILLED
 70
64
 10
0.0
 20
0.0
  3
_FILLED
  1

  0
SOLID
  5
2DB
100
AcDbEntity
  8
0
  6
BYBLOCK
 62
0
100
AcDbTrace
 10
0.0
 20
0.0
 11
-1.0
 21
0.125
 12
-1.0
 22
-0.125
 13
-1.0
 23
-0.125
  0
ENDBLK
  5
2DC
100
AcDbEntity
  8
0
  6
BYBLOCK
 62
0
100
AcDbBlockEnd
  0
BLOCK
  5
2DD
100
AcDbEntity
  8
0
100
AcDbBlockBegin
  2
_NONE
 70
64
 10
0.0
 20
0.0
  3
_NONE
  1

  0
ENDBLK
  5
2DE
100
AcDbEntity
  8
0
  6
BYBLOCK
 62
0
100
AcDbBlockEnd
  0
BLOCK
  5
2DF
100
AcDbEntity
  8
0
100
AcDbBlockBegin
  2
_DOT
 70
64
 10
0.0
 20
0.0
  3
_DOT
  1

  0
LWPOLYLINE
  5
2E0
100
AcDbEntity
  8
0
  6
BYBLOCK
 62
0
100
AcDbPolyline
 90
2
 70
1
 43
0.125
 10
-0.0625
 20
0.0
 42
1.0
 10
0.0625
 20
0.0
 42
1.0
  0
LINE
  5
2E1
100
AcDbEntity
  8
0
  6
BYBLOCK
 62
0
100
AcDbLine
 10
-0.125
 20
0.0
 11
-1.0
 21
0.0
  0
ENDBLK
  5
2E2
100
AcDbEntity
  8
0
  6
BYBLOCK
 62
0
100
AcDbBlockEnd
  0
BLOCK
  5
2E3
100
AcDbEntity
  8
0
100
AcDbBlockBegin
 62
3
  6
CONTINUOUS
  2
*D0
 70
65
 10
0.0
 20
0.0
  3
*D0
  1

  0
TEXT
  5
2E4
100
AcDbEntity
  8
0
100
AcDbText
 62
2
  6
CONTINUOUS
 10
392.7560518567
 20
142.2158739877
  7
STANDARD
 40
3.5
  1
46
 41
0.7857142857
 72
1
 11
395.5060518567
 21
142.2158739877
100
AcDbText
  0
LINE
  5
2E5
100
AcDbEntity
  8
0
100
AcDbLine
 62
3
  6
CONTINUOUS
 10
418.5060518567
 20
217.4555857087
 11
418.5060518567
 21
139.8408739877
  0
LINE
  5
2E6
100
AcDbEntity
  8
0
100
AcDbLine
 62
3
  6
CONTINUOUS
 10
372.5060518567
 20
226.358532694
 11
372.5060518567
 21
139.8408739877
  0
LINE
  5
2E7
100
AcDbEntity
  8
0
100
AcDbLine
 62
3
  6
CONTINUOUS
 10
418.5060518567
 20
141.3408739877
 11
395.5060518567
 21
141.3408739877
  0
LINE
  5
2E8
100
AcDbEntity
  8
0
100
AcDbLine
 62
3
  6
CONTINUOUS
 10
372.5060518567
 20
141.3408739877
 11
395.5060518567
 21
141.3408739877
  0
INSERT
  5
2E9
100
AcDbEntity
  8
0
100
AcDbBlockReference
 62
3
  6
CONTINUOUS
  2
_FILLED
 10
418.5060518567
 20
141.3408739877
 41
3.5
 42
3.5
 43
3.5
  0
INSERT
  5
2EA
100
AcDbEntity
  8
0
100
AcDbBlockReference
 62
3
  6
CONTINUOUS
  2
_FILLED
 10
372.5060518567
 20
141.3408739877
 41
3.5
 42
3.5
 43
3.5
 50
180.0
  0
ENDBLK
  5
2EB
100
AcDbEntity
  8
0
  6
BYBLOCK
 62
0
100
AcDbBlockEnd
  0
BLOCK
  5
2EC
100
AcDbEntity
  8
0
100
AcDbBlockBegin
 62
3
  6
CONTINUOUS
  2
*D1
 70
65
 10
0.0
 20
0.0
  3
*D1
  1

  0
TEXT
  5
2ED
100
AcDbEntity
  8
0
100
AcDbText
 62
2
  6
CONTINUOUS
 10
361.2262389469
 20
152.2158739877
  7
STANDARD
 40
3.5
  1
10
 41
0.6785714286
 72
2
 11
365.9762389469
 21
152.2158739877
100
AcDbText
  0
TEXT
  5
2EE
100
AcDbEntity
  8
0
100
AcDbText
 62
2
  6
CONTINUOUS
 10
335.0595722802
 20
146.0908739877
  7
STANDARD
 40
3.5
  1
VERSTELLWEG
 41
0.803030303
 72
2
 11
365.9762389469
 21
146.0908739877
100
AcDbText
  0
LINE
  5
2EF
100
AcDbEntity
  8
0
100
AcDbLine
 62
3
  6
CONTINUOUS
 10
372.5060518567
 20
231.3408739877
 11
372.5060518567
 21
149.8408739877
  0
LINE
  5
2F0
100
AcDbEntity
  8
0
100
AcDbLine
 62
3
  6
CONTINUOUS
 10
382.5060518567
 20
231.3408739877
 11
382.5060518567
 21
149.8408739877
  0
LINE
  5
2F1
100
AcDbEntity
  8
0
100
AcDbLine
 62
3
  6
CONTINUOUS
 10
372.5060518567
 20
151.3408739877
 11
377.5060518567
 21
151.3408739877
  0
LINE
  5
2F2
100
AcDbEntity
  8
0
100
AcDbLine
 62
3
  6
CONTINUOUS
 10
377.5060518567
 20
151.3408739877
 11
335.0595722802
 21
151.3408739877
  0
LINE
  5
2F3
100
AcDbEntity
  8
0
100
AcDbLine
 62
3
  6
CONTINUOUS
 10
382.5060518567
 20
151.3408739877
 11
377.5060518567
 21
151.3408739877
  0
INSERT
  5
2F4
100
AcDbEntity
  8
0
100
AcDbBlockReference
 62
3
  6
CONTINUOUS
  2
_FILLED
 10
372.5060518567
 20
151.3408739877
 41
3.5
 42
3.5
 43
3.5
 50
180.0
  0
INSERT
  5
2F5
100
AcDbEntity
  8
0
100
AcDbBlockReference
 62
3
  6
CONTINUOUS
  2
_FILLED
 10
382.5060518567
 20
151.3408739877
 41
3.5
 42
3.5
 43
3.5
  0
ENDBLK
  5
2F6
100
AcDbEntity
  8
0
  6
BYBLOCK
 62
0
100
AcDbBlockEnd
  0
BLOCK
  5
2F7
100
AcDbEntity
  8
0
100
AcDbBlockBegin
 62
3
  6
CONTINUOUS
  2
*D2
 70
65
 10
0.0
 20
0.0
  3
*D2
  1

  0
TEXT
  5
2F8
100
AcDbEntity
  8
0
100
AcDbText
 62
2
  6
CONTINUOUS
 10
423.5060518567
 20
172.2158739877
  7
STANDARD
 40
3.5
  1
(
 41
0.4285714286
 72
0
100
AcDbText
  0
TEXT
  5
2F9
100
AcDbEntity
  8
0
100
AcDbText
 62
2
  6
CONTINUOUS
 10
425.0060518567
 20
172.2158739877
  7
STANDARD
 40
3.5
  1
3.9
 41
0.6904761905
 72
0
100
AcDbText
  0
TEXT
  5
2FA
100
AcDbEntity
  8
0
100
AcDbText
 62
2
  6
CONTINUOUS
 10
432.2560518567
 20
172.2158739877
  7
STANDARD
 40
3.5
  1
)
 41
0.4285714286
 72
0
100
AcDbText
  0
LINE
  5
2FB
100
AcDbEntity
  8
0
100
AcDbLine
 62
3
  6
CONTINUOUS
 10
418.5060518567
 20
217.4555857087
 11
418.5060518567
 21
169.8408739877
  0
LINE
  5
2FC
100
AcDbEntity
  8
0
100
AcDbLine
 62
3
  6
CONTINUOUS
 10
414.6060518567
 20
223.2296688844
 11
414.6060518567
 21
169.8408739877
  0
LINE
  5
2FD
100
AcDbEntity
  8
0
100
AcDbLine
 62
3
  6
CONTINUOUS
 10
418.5060518567
 20
171.3408739877
 11
433.7560518567
 21
171.3408739877
  0
LINE
  5
2FE
100
AcDbEntity
  8
0
100
AcDbLine
 62
3
  6
CONTINUOUS
 10
433.7560518567
 20
171.3408739877
 11
416.5560518567
 21
171.3408739877
  0
LINE
  5
2FF
100
AcDbEntity
  8
0
100
AcDbLine
 62
3
  6
CONTINUOUS
 10
414.6060518567
 20
171.3408739877
 11
408.6060518567
 21
171.3408739877
  0
LINE
  5
300
100
AcDbEntity
  8
0
100
AcDbLine
 62
3
  6
CONTINUOUS
 10
408.6060518567
 20
171.3408739877
 11
416.5560518567
 21
171.3408739877
  0
INSERT
  5
301
100
AcDbEntity
  8
0
100
AcDbBlockReference
 62
3
  6
CONTINUOUS
  2
_FILLED
 10
418.5060518567
 20
171.3408739877
 41
3.5
 42
3.5
 43
3.5
 50
180.0
  0
INSERT
  5
302
100
AcDbEntity
  8
0
100
AcDbBlockReference
 62
3
  6
CONTINUOUS
  2
_FILLED
 10
414.6060518567
 20
171.3408739877
 41
3.5
 42
3.5
 43
3.5
  0
ENDBLK
  5
303
100
AcDbEntity
  8
0
  6
BYBLOCK
 62
0
100
AcDbBlockEnd
  0
BLOCK
  5
304
100
AcDbEntity
  8
0
100
AcDbBlockBegin
 62
3
  6
CONTINUOUS
  2
*D3
 70
65
 10
0.0
 20
0.0
  3
*D3
  1

  0
TEXT
  5
305
100
AcDbEntity
  8
0
100
AcDbText
 62
2
  6
CONTINUOUS
 10
394.5560518567
 20
162.2158739877
  7
STANDARD
 40
3.5
  1
(
 41
0.4285714286
 72
1
 11
395.3060518567
 21
162.2158739877
100
AcDbText
  0
TEXT
  5
306
100
AcDbEntity
  8
0
100
AcDbText
 62
2
  6
CONTINUOUS
 10
396.0560518567
 20
162.2158739877
  7
STANDARD
 40
3.5
  1
34.9
 41
0.7142857143
 72
1
 11
401.0560518567
 21
162.2158739877
100
AcDbText
  0
TEXT
  5
307
100
AcDbEntity
  8
0
100
AcDbText
 62
2
  6
CONTINUOUS
 10
406.0560518567
 20
162.2158739877
  7
STANDARD
 40
3.5
  1
)
 41
0.4285714286
 72
1
 11
406.8060518567
 21
162.2158739877
100
AcDbText
  0
LINE
  5
308
100
AcDbEntity
  8
0
100
AcDbLine
 62
3
  6
CONTINUOUS
 10
418.5060518567
 20
217.482785023
 11
418.5060518567
 21
159.8408739877
  0
LINE
  5
309
100
AcDbEntity
  8
0
100
AcDbLine
 62
3
  6
CONTINUOUS
 10
383.6060518567
 20
223.2718739877
 11
383.6060518567
 21
159.8408739877
  0
LINE
  5
30A
100
AcDbEntity
  8
0
100
AcDbLine
 62
3
  6
CONTINUOUS
 10
418.5060518567
 20
161.3408739877
 11
401.0560518567
 21
161.3408739877
  0
LINE
  5
30B
100
AcDbEntity
  8
0
100
AcDbLine
 62
3
  6
CONTINUOUS
 10
383.6060518567
 20
161.3408739877
 11
401.0560518567
 21
161.3408739877
  0
INSERT
  5
30C
100
AcDbEntity
  8
0
100
AcDbBlockReference
 62
3
  6
CONTINUOUS
  2
_FILLED
 10
418.5060518567
 20
161.3408739877
 41
3.5
 42
3.5
 43
3.5
  0
INSERT
  5
30D
100
AcDbEntity
  8
0
100
AcDbBlockReference
 62
3
  6
CONTINUOUS
  2
_FILLED
 10
383.6060518567
 20
161.3408739877
 41
3.5
 42
3.5
 43
3.5
 50
180.0
  0
ENDBLK
  5
30E
100
AcDbEntity
  8
0
  6
BYBLOCK
 62
0
100
AcDbBlockEnd
  0
BLOCK
  5
30F
100
AcDbEntity
  8
0
100
AcDbBlockBegin
 62
3
  6
CONTINUOUS
  2
*D4
 70
65
 10
0.0
 20
0.0
  3
*D4
  1

  0
TEXT
  5
310
100
AcDbEntity
  8
0
100
AcDbText
 62
2
  6
CONTINUOUS
 10
423.6310518567
 20
152.2158739877
  7
STANDARD
 40
3.5
  1
2.5
 41
0.6904761905
 72
1
 11
427.2560518567
 21
152.2158739877
100
AcDbText
  0
TEXT
  5
311
100
AcDbEntity
  8
0
100
AcDbText
 62
2
  6
CONTINUOUS
 10
430.8810518567
 20
152.2158739877
  7
STANDARD
 40
3.5
  1
d1
 41
0.6428571429
 72
1
 11
433.1310518567
 21
152.2158739877
100
AcDbText
  0
TEXT
  5
312
100
AcDbEntity
  8
0
100
AcDbText
 62
2
  6
CONTINUOUS
 10
435.3810518567
 20
152.2158739877
  7
STANDARD
 40
3.5
  1
-50max.
 41
0.7346938776
 72
1
 11
444.3810518567
 21
152.2158739877
100
AcDbText
  0
LINE
  5
313
100
AcDbEntity
  8
0
100
AcDbLine
 62
3
  6
CONTINUOUS
 10
418.5060518567
 20
217.5780145421
 11
418.5060518567
 21
149.8408739877
  0
LINE
  5
314
100
AcDbEntity
  8
0
100
AcDbLine
 62
3
  6
CONTINUOUS
 10
458.5060518567
 20
225.3408739877
 11
458.5060518567
 21
149.8408739877
  0
LINE
  5
315
100
AcDbEntity
  8
0
100
AcDbLine
 62
3
  6
CONTINUOUS
 10
418.5060518567
 20
151.3408739877
 11
438.5060518567
 21
151.3408739877
  0
LINE
  5
316
100
AcDbEntity
  8
0
100
AcDbLine
 62
3
  6
CONTINUOUS
 10
458.5060518567
 20
151.3408739877
 11
438.5060518567
 21
151.3408739877
  0
INSERT
  5
317
100
AcDbEntity
  8
0
100
AcDbBlockReference
 62
3
  6
CONTINUOUS
  2
_FILLED
 10
418.5060518567
 20
151.3408739877
 41
3.5
 42
3.5
 43
3.5
 50
180.0
  0
INSERT
  5
318
100
AcDbEntity
  8
0
100
AcDbBlockReference
 62
3
  6
CONTINUOUS
  2
_FILLED
 10
458.5060518567
 20
151.3408739877
 41
3.5
 42
3.5
 43
3.5
  0
ENDBLK
  5
319
100
AcDbEntity
  8
0
  6
BYBLOCK
 62
0
100
AcDbBlockEnd
  0
BLOCK
  5
31A
100
AcDbEntity
  8
0
100
AcDbBlockBegin
 62
3
  6
CONTINUOUS
  2
*D5
 70
65
 10
0.0
 20
0.0
  3
*D5
  1

  0
TEXT
  5
31B
100
AcDbEntity
  8
0
100
AcDbText
 62
2
  6
CONTINUOUS
 10
477.6310518567
 20
260.6535987485
  7
TEXTSTYLE_3
 40
3.5
  1
n
 50
90.0
 41
1.0
 72
0
100
AcDbText
  0
TEXT
  5
31C
100
AcDbEntity
  8
0
100
AcDbText
 62
2
  6
CONTINUOUS
 10
477.6310518567
 20
265.3202654152
  7
STANDARD
 40
3.5
  1
12
 50
90.0
 41
0.6785714286
 72
0
100
AcDbText
  0
TEXT
  5
31D
100
AcDbEntity
  8
0
100
AcDbText
 62
2
  6
CONTINUOUS
 10
483.7560518567
 20
260.6535987485
  7
STANDARD
 40
3.5
  1
d1
 50
90.0
 41
0.6428571429
 72
0
100
AcDbText
  0
LINE
  5
31E
100
AcDbEntity
  8
0
100
AcDbLine
 62
3
  6
CONTINUOUS
 10
418.5060518567
 20
237.3408739877
 11
480.0060518567
 21
237.3408739877
  0
LINE
  5
31F
100
AcDbEntity
  8
0
100
AcDbLine
 62
3
  6
CONTINUOUS
 10
418.5060518567
 20
225.3408739877
 11
480.0060518567
 21
225.3408739877
  0
LINE
  5
320
100
AcDbEntity
  8
0
100
AcDbLine
 62
3
  6
CONTINUOUS
 10
478.5060518567
 20
237.3408739877
 11
478.5060518567
 21
270.0702654152
  0
LINE
  5
321
100
AcDbEntity
  8
0
100
AcDbLine
 62
3
  6
CONTINUOUS
 10
478.5060518567
 20
270.0702654152
 11
478.5060518567
 21
231.3408739877
  0
LINE
  5
322
100
AcDbEntity
  8
0
100
AcDbLine
 62
3
  6
CONTINUOUS
 10
478.5060518567
 20
225.3408739877
 11
478.5060518567
 21
219.3408739877
  0
LINE
  5
323
100
AcDbEntity
  8
0
100
AcDbLine
 62
3
  6
CONTINUOUS
 10
478.5060518567
 20
219.3408739877
 11
478.5060518567
 21
231.3408739877
  0
INSERT
  5
324
100
AcDbEntity
  8
0
100
AcDbBlockReference
 62
3
  6
CONTINUOUS
  2
_FILLED
 10
478.5060518567
 20
237.3408739877
 41
3.5
 42
3.5
 43
3.5
 50
270.0
  0
INSERT
  5
325
100
AcDbEntity
  8
0
100
AcDbBlockReference
 62
3
  6
CONTINUOUS
  2
_FILLED
 10
478.5060518567
 20
225.3408739877
 41
3.5
 42
3.5
 43
3.5
 50
90.0
  0
ENDBLK
  5
326
100
AcDbEntity
  8
0
  6
BYBLOCK
 62
0
100
AcDbBlockEnd
  0
BLOCK
  5
327
100
AcDbEntity
  8
0
100
AcDbBlockBegin
 62
3
  6
CONTINUOUS
  2
*D6
 70
65
 10
0.0
 20
0.0
  3
*D6
  1

  0
TEXT
  5
328
100
AcDbEntity
  8
0
100
AcDbText
 62
2
  6
CONTINUOUS
 10
348.750598363
 20
302.2158739877
  7
STANDARD
 40
3.5
  1
120
 41
0.7142857143
 72
1
 11
352.500598363
 21
302.2158739877
100
AcDbText
  0
LINE
  5
329
100
AcDbEntity
  8
0
100
AcDbLine
 62
3
  6
CONTINUOUS
 10
298.5060518567
 20
263.0058696672
 11
298.5060518567
 21
302.8408739877
  0
LINE
  5
32A
100
AcDbEntity
  8
0
100
AcDbLine
 62
3
  6
CONTINUOUS
 10
418.5060518567
 20
245.2792704562
 11
418.5060518567
 21
302.8408739877
  0
LINE
  5
32B
100
AcDbEntity
  8
0
100
AcDbLine
 62
3
  6
CONTINUOUS
 10
298.5060518567
 20
301.3408739877
 11
358.5060518567
 21
301.3408739877
  0
LINE
  5
32C
100
AcDbEntity
  8
0
100
AcDbLine
 62
3
  6
CONTINUOUS
 10
418.5060518567
 20
301.3408739877
 11
358.5060518567
 21
301.3408739877
  0
INSERT
  5
32D
100
AcDbEntity
  8
0
100
AcDbBlockReference
 62
3
  6
CONTINUOUS
  2
_FILLED
 10
298.5060518567
 20
301.3408739877
 41
3.5
 42
3.5
 43
3.5
 50
180.0
  0
INSERT
  5
32E
100
AcDbEntity
  8
0
100
AcDbBlockReference
 62
3
  6
CONTINUOUS
  2
_FILLED
 10
418.5060518567
 20
301.3408739877
 41
3.5
 42
3.5
 43
3.5
  0
ENDBLK
  5
32F
100
AcDbEntity
  8
0
  6
BYBLOCK
 62
0
100
AcDbBlockEnd
  0
BLOCK
  5
330
100
AcDbEntity
  8
0
100
AcDbBlockBegin
 62
3
  6
CONTINUOUS
  2
*D7
 70
65
 10
0.0
 20
0.0
  3
*D7
  1

  0
TEXT
  5
331
100
AcDbEntity
  8
0
100
AcDbText
 62
2
  6
CONTINUOUS
 10
405.7560518567
 20
272.2158739877
  7
STANDARD
 40
3.5
  1
20
 41
0.7857142857
 72
1
 11
408.5060518567
 21
272.2158739877
100
AcDbText
  0
LINE
  5
332
100
AcDbEntity
  8
0
100
AcDbLine
 62
3
  6
CONTINUOUS
 10
398.5060518567
 20
247.1408739877
 11
398.5060518567
 21
272.8408739877
  0
LINE
  5
333
100
AcDbEntity
  8
0
100
AcDbLine
 62
3
  6
CONTINUOUS
 10
418.5060518567
 20
244.3773202386
 11
418.5060518567
 21
272.8408739877
  0
LINE
  5
334
100
AcDbEntity
  8
0
100
AcDbLine
 62
3
  6
CONTINUOUS
 10
398.5060518567
 20
271.3408739877
 11
408.5060518567
 21
271.3408739877
  0
LINE
  5
335
100
AcDbEntity
  8
0
100
AcDbLine
 62
3
  6
CONTINUOUS
 10
418.5060518567
 20
271.3408739877
 11
408.5060518567
 21
271.3408739877
  0
INSERT
  5
336
100
AcDbEntity
  8
0
100
AcDbBlockReference
 62
3
  6
CONTINUOUS
  2
_FILLED
 10
398.5060518567
 20
271.3408739877
 41
3.5
 42
3.5
 43
3.5
 50
180.0
  0
INSERT
  5
337
100
AcDbEntity
  8
0
100
AcDbBlockReference
 62
3
  6
CONTINUOUS
  2
_FILLED
 10
418.5060518567
 20
271.3408739877
 41
3.5
 42
3.5
 43
3.5
  0
ENDBLK
  5
338
100
AcDbEntity
  8
0
  6
BYBLOCK
 62
0
100
AcDbBlockEnd
  0
BLOCK
  5
339
100
AcDbEntity
  8
0
100
AcDbBlockBegin
 62
3
  6
CONTINUOUS
  2
*D8
 70
65
 10
0.0
 20
0.0
  3
*D8
  1

  0
TEXT
  5
33A
100
AcDbEntity
  8
0
100
AcDbText
 62
2
  6
CONTINUOUS
 10
487.6310518567
 20
226.2575406543
  7
TEXTSTYLE_3
 40
3.5
  1
n
 50
90.0
 41
1.0
 72
1
 11
487.6310518567
 21
228.5908739877
100
AcDbText
  0
TEXT
  5
33B
100
AcDbEntity
  8
0
100
AcDbText
 62
2
  6
CONTINUOUS
 10
487.6310518567
 20
230.924207321
  7
STANDARD
 40
3.5
  1
28
 50
90.0
 41
0.7857142857
 72
1
 11
487.6310518567
 21
233.674207321
100
AcDbText
  0
LINE
  5
33C
100
AcDbEntity
  8
0
100
AcDbLine
 62
3
  6
CONTINUOUS
 10
418.5060518567
 20
217.3408739877
 11
490.0060518567
 21
217.3408739877
  0
LINE
  5
33D
100
AcDbEntity
  8
0
100
AcDbLine
 62
3
  6
CONTINUOUS
 10
418.5060518567
 20
245.3408739877
 11
490.0060518567
 21
245.3408739877
  0
LINE
  5
33E
100
AcDbEntity
  8
0
100
AcDbLine
 62
3
  6
CONTINUOUS
 10
488.5060518567
 20
217.3408739877
 11
488.5060518567
 21
231.3408739877
  0
LINE
  5
33F
100
AcDbEntity
  8
0
100
AcDbLine
 62
3
  6
CONTINUOUS
 10
488.5060518567
 20
245.3408739877
 11
488.5060518567
 21
231.3408739877
  0
INSERT
  5
340
100
AcDbEntity
  8
0
100
AcDbBlockReference
 62
3
  6
CONTINUOUS
  2
_FILLED
 10
488.5060518567
 20
217.3408739877
 41
3.5
 42
3.5
 43
3.5
 50
270.0
  0
INSERT
  5
341
100
AcDbEntity
  8
0
100
AcDbBlockReference
 62
3
  6
CONTINUOUS
  2
_FILLED
 10
488.5060518567
 20
245.3408739877
 41
3.5
 42
3.5
 43
3.5
 50
90.0
  0
ENDBLK
  5
342
100
AcDbEntity
  8
0
  6
BYBLOCK
 62
0
100
AcDbBlockEnd
  0
BLOCK
  5
343
100
AcDbEntity
  8
0
100
AcDbBlockBegin
 62
3
  6
CONTINUOUS
  2
*D9
 70
65
 10
0.0
 20
0.0
  3
*D9
  1

  0
TEXT
  5
344
100
AcDbEntity
  8
0
100
AcDbText
 62
2
  6
CONTINUOUS
 10
335.3909779421
 20
274.2252562978
  7
STANDARD
 40
3.5
  1
30
 50
8.7243173069
 41
0.75
 72
1
 11
337.9856056424
 21
274.623417191
100
AcDbText
  0
TEXT
  5
345
100
AcDbEntity
  8
0
100
AcDbText
 62
2
  6
CONTINUOUS
 10
340.5802333427
 20
275.0215780843
  7
TEXTSTYLE_3
 40
3.5
  1
~
 50
8.7243173069
 41
1.0
 72
1
 11
341.7334012095
 21
275.1985384813
100
AcDbText
  0
LINE
  5
346
100
AcDbEntity
  8
0
100
AcDbLine
 62
3
  6
CONTINUOUS
 10
343.5060518567
 20
246.3408739877
 11
343.5060518567
 21
273.1335200166
  0
LINE
  5
347
100
AcDbEntity
  8
0
100
AcDbLine
 62
3
  6
CONTINUOUS
 10
342.640026453
 20
247.8408739877
 11
330.1097288423
 21
269.5439860833
  0
ARC
  5
348
100
AcDbEntity
  8
0
100
AcDbCircle
 62
3
  6
CONTINUOUS
 10
343.5060518567
 20
246.3408739877
 40
25.2926460289
100
AcDbArc
 50
90.0
 51
105.0
  0
ARC
  5
349
100
AcDbEntity
  8
0
100
AcDbCircle
 62
3
  6
CONTINUOUS
 10
343.5060518567
 20
246.3408739877
 40
25.2926460289
100
AcDbArc
 50
105.0
 51
120.0
  0
SOLID
  5
34A
100
AcDbEntity
  8
0
100
AcDbTrace
 62
3
  6
CONTINUOUS
 10
340.0446727407
 20
270.9550947333
 11
343.5060518567
 21
271.6335200166
 12
339.9841797207
 22
271.8280011398
 13
339.9841797207
 23
271.8280011398
  0
SOLID
  5
34B
100
AcDbEntity
  8
0
100
AcDbTrace
 62
3
  6
CONTINUOUS
 10
333.8125190194
 20
270.1743096389
 11
330.8597288423
 21
268.2449479776
 12
334.1965837306
 22
269.3881040057
 13
334.1965837306
 23
269.3881040057
  0
ENDBLK
  5
34C
100
AcDbEntity
  8
0
  6
BYBLOCK
 62
0
100
AcDbBlockEnd
  0
BLOCK
  5
34D
100
AcDbEntity
  8
0
100
AcDbBlockBegin
 62
3
  6
CONTINUOUS
  2
*D10
 70
65
 10
0.0
 20
0.0
  3
*D10
  1

  0
TEXT
  5
34E
100
AcDbEntity
  8
0
100
AcDbText
 62
2
  6
CONTINUOUS
 10
497.6310518567
 20
226.3825406543
  7
TEXTSTYLE_3
 40
3.5
  1
n
 50
90.0
 41
1.0
 72
1
 11
497.6310518567
 21
228.7158739877
100
AcDbText
  0
TEXT
  5
34F
100
AcDbEntity
  8
0
100
AcDbText
 62
2
  6
CONTINUOUS
 10
497.6310518567
 20
231.049207321
  7
STANDARD
 40
3.5
  1
32
 50
90.0
 41
0.75
 72
1
 11
497.6310518567
 21
233.674207321
100
AcDbText
  0
LINE
  5
350
100
AcDbEntity
  8
0
100
AcDbLine
 62
3
  6
CONTINUOUS
 10
343.5060518567
 20
215.3408739877
 11
500.0060518567
 21
215.3408739877
  0
LINE
  5
351
100
AcDbEntity
  8
0
100
AcDbLine
 62
3
  6
CONTINUOUS
 10
398.5732622533
 20
247.3408739877
 11
500.0060518567
 21
247.3408739877
  0
LINE
  5
352
100
AcDbEntity
  8
0
100
AcDbLine
 62
3
  6
CONTINUOUS
 10
498.5060518567
 20
215.3408739877
 11
498.5060518567
 21
231.3408739877
  0
LINE
  5
353
100
AcDbEntity
  8
0
100
AcDbLine
 62
3
  6
CONTINUOUS
 10
498.5060518567
 20
247.3408739877
 11
498.5060518567
 21
231.3408739877
  0
INSERT
  5
354
100
AcDbEntity
  8
0
100
AcDbBlockReference
 62
3
  6
CONTINUOUS
  2
_FILLED
 10
498.5060518567
 20
215.3408739877
 41
3.5
 42
3.5
 43
3.5
 50
270.0
  0
INSERT
  5
355
100
AcDbEntity
  8
0
100
AcDbBlockReference
 62
3
  6
CONTINUOUS
  2
_FILLED
 10
498.5060518567
 20
247.3408739877
 41
3.5
 42
3.5
 43
3.5
 50
90.0
  0
ENDBLK
  5
356
100
AcDbEntity
  8
0
  6
BYBLOCK
 62
0
100
AcDbBlockEnd
  0
BLOCK
  5
357
100
AcDbEntity
  8
0
100
AcDbBlockBegin
 62
3
  6
CONTINUOUS
  2
*D11
 70
65
 10
0.0
 20
0.0
  3
*D11
  1

  0
TEXT
  5
358
100
AcDbEntity
  8
0
100
AcDbText
 62
2
  6
CONTINUOUS
 10
507.6310518567
 20
226.3825406543
  7
TEXTSTYLE_3
 40
3.5
  1
n
 50
90.0
 41
1.0
 72
1
 11
507.6310518567
 21
228.7158739877
100
AcDbText
  0
TEXT
  5
359
100
AcDbEntity
  8
0
100
AcDbText
 62
2
  6
CONTINUOUS
 10
507.6310518567
 20
231.049207321
  7
STANDARD
 40
3.5
  1
50
 50
90.0
 41
0.75
 72
1
 11
507.6310518567
 21
233.674207321
100
AcDbText
  0
LINE
  5
35A
100
AcDbEntity
  8
0
100
AcDbLine
 62
3
  6
CONTINUOUS
 10
337.5016090572
 20
206.3408739877
 11
510.0060518567
 21
206.3408739877
  0
LINE
  5
35B
100
AcDbEntity
  8
0
100
AcDbLine
 62
3
  6
CONTINUOUS
 10
337.5016090572
 20
256.3408739877
 11
510.0060518567
 21
256.3408739877
  0
LINE
  5
35C
100
AcDbEntity
  8
0
100
AcDbLine
 62
3
  6
CONTINUOUS
 10
508.5060518567
 20
206.3408739877
 11
508.5060518567
 21
231.3408739877
  0
LINE
  5
35D
100
AcDbEntity
  8
0
100
AcDbLine
 62
3
  6
CONTINUOUS
 10
508.5060518567
 20
256.3408739877
 11
508.5060518567
 21
231.3408739877
  0
INSERT
  5
35E
100
AcDbEntity
  8
0
100
AcDbBlockReference
 62
3
  6
CONTINUOUS
  2
_FILLED
 10
508.5060518567
 20
206.3408739877
 41
3.5
 42
3.5
 43
3.5
 50
270.0
  0
INSERT
  5
35F
100
AcDbEntity
  8
0
100
AcDbBlockReference
 62
3
  6
CONTINUOUS
  2
_FILLED
 10
508.5060518567
 20
256.3408739877
 41
3.5
 42
3.5
 43
3.5
 50
90.0
  0
ENDBLK
  5
360
100
AcDbEntity
  8
0
  6
BYBLOCK
 62
0
100
AcDbBlockEnd
  0
BLOCK
  5
361
100
AcDbEntity
  8
0
100
AcDbBlockBegin
 62
3
  6
CONTINUOUS
  2
*D12
 70
65
 10
0.0
 20
0.0
  3
*D12
  1

  0
TEXT
  5
362
100
AcDbEntity
  8
0
100
AcDbText
 62
2
  6
CONTINUOUS
 10
378.3810518567
 20
282.2158739877
  7
STANDARD
 40
3.5
  1
75
 41
0.75
 72
1
 11
381.0060518567
 21
282.2158739877
100
AcDbText
  0
LINE
  5
363
100
AcDbEntity
  8
0
100
AcDbLine
 62
3
  6
CONTINUOUS
 10
418.5060518567
 20
247.3408739877
 11
418.5060518567
 21
282.8408739877
  0
LINE
  5
364
100
AcDbEntity
  8
0
100
AcDbLine
 62
3
  6
CONTINUOUS
 10
343.5060518567
 20
247.3408739877
 11
343.5060518567
 21
282.8408739877
  0
LINE
  5
365
100
AcDbEntity
  8
0
100
AcDbLine
 62
3
  6
CONTINUOUS
 10
418.5060518567
 20
281.3408739877
 11
381.0060518567
 21
281.3408739877
  0
LINE
  5
366
100
AcDbEntity
  8
0
100
AcDbLine
 62
3
  6
CONTINUOUS
 10
343.5060518567
 20
281.3408739877
 11
381.0060518567
 21
281.3408739877
  0
INSERT
  5
367
100
AcDbEntity
  8
0
100
AcDbBlockReference
 62
3
  6
CONTINUOUS
  2
_FILLED
 10
418.5060518567
 20
281.3408739877
 41
3.5
 42
3.5
 43
3.5
  0
INSERT
  5
368
100
AcDbEntity
  8
0
100
AcDbBlockReference
 62
3
  6
CONTINUOUS
  2
_FILLED
 10
343.5060518567
 20
281.3408739877
 41
3.5
 42
3.5
 43
3.5
 50
180.0
  0
ENDBLK
  5
369
100
AcDbEntity
  8
0
  6
BYBLOCK
 62
0
100
AcDbBlockEnd
  0
BLOCK
  5
36A
100
AcDbEntity
  8
0
100
AcDbBlockBegin
 62
3
  6
CONTINUOUS
  2
*D13
 70
65
 10
0.0
 20
0.0
  3
*D13
  1

  0
TEXT
  5
36B
100
AcDbEntity
  8
0
100
AcDbText
 62
2
  6
CONTINUOUS
 10
255.7310518567
 20
225.2158739877
  7
STANDARD
 40
3.5
  1
M
 50
90.0
 41
0.8571428571
 72
1
 11
255.7310518567
 21
226.7158739877
100
AcDbText
  0
TEXT
  5
36C
100
AcDbEntity
  8
0
100
AcDbText
 62
2
  6
CONTINUOUS
 10
255.7310518567
 20
228.2158739877
  7
STANDARD
 40
3.5
  1
10
 50
90.0
 41
0.6785714286
 72
1
 11
255.7310518567
 21
230.5908739877
100
AcDbText
  0
TEXT
  5
36D
100
AcDbEntity
  8
0
100
AcDbText
 62
2
  6
CONTINUOUS
 10
255.7310518567
 20
232.9658739877
  7
STANDARD
 40
3.5
  1
x1
 50
90.0
 41
0.6428571429
 72
1
 11
255.7310518567
 21
235.2158739877
100
AcDbText
  0
LINE
  5
36E
100
AcDbEntity
  8
0
100
AcDbLine
 62
3
  6
CONTINUOUS
 10
356.0060518567
 20
226.3408739877
 11
255.1060518567
 21
226.3408739877
  0
LINE
  5
36F
100
AcDbEntity
  8
0
100
AcDbLine
 62
3
  6
CONTINUOUS
 10
356.0060518567
 20
236.3408739877
 11
255.1060518567
 21
236.3408739877
  0
LINE
  5
370
100
AcDbEntity
  8
0
100
AcDbLine
 62
3
  6
CONTINUOUS
 10
256.6060518567
 20
226.3408739877
 11
256.6060518567
 21
220.3408739877
  0
LINE
  5
371
100
AcDbEntity
  8
0
100
AcDbLine
 62
3
  6
CONTINUOUS
 10
256.6060518567
 20
220.3408739877
 11
256.6060518567
 21
231.3408739877
  0
LINE
  5
372
100
AcDbEntity
  8
0
100
AcDbLine
 62
3
  6
CONTINUOUS
 10
256.6060518567
 20
236.3408739877
 11
256.6060518567
 21
242.3408739877
  0
LINE
  5
373
100
AcDbEntity
  8
0
100
AcDbLine
 62
3
  6
CONTINUOUS
 10
256.6060518567
 20
242.3408739877
 11
256.6060518567
 21
231.3408739877
  0
INSERT
  5
374
100
AcDbEntity
  8
0
100
AcDbBlockReference
 62
3
  6
CONTINUOUS
  2
_FILLED
 10
256.6060518567
 20
226.3408739877
 41
3.5
 42
3.5
 43
3.5
 50
90.0
  0
INSERT
  5
375
100
AcDbEntity
  8
0
100
AcDbBlockReference
 62
3
  6
CONTINUOUS
  2
_FILLED
 10
256.6060518567
 20
236.3408739877
 41
3.5
 42
3.5
 43
3.5
 50
270.0
  0
ENDBLK
  5
376
100
AcDbEntity
  8
0
  6
BYBLOCK
 62
0
100
AcDbBlockEnd
  0
ENDSEC
  0
SECTION
  2
ENTITIES
  0
TEXT
  5
377
100
AcDbEntity
  8
388782-000-00-ED1_FORMAT
100
AcDbText
 62
90
  6
CONTINUOUS
 10
6.0
 20
383.25
  7
TEXTSTYLE_2
 40
3.5
  1
A
 41
0.8571428571
 72
1
 11
7.5
 21
383.25
100
AcDbText
  0
TEXT
  5
378
100
AcDbEntity
  8
388782-000-00-ED1_FORMAT
100
AcDbText
 62
90
  6
CONTINUOUS
 10
585.0
 20
383.25
  7
TEXTSTYLE_2
 40
3.5
  1
A
 41
0.8571428571
 72
1
 11
586.5
 21
383.25
100
AcDbText
  0
TEXT
  5
379
100
AcDbEntity
  8
388782-000-00-ED1_FORMAT
100
AcDbText
 62
90
  6
CONTINUOUS
 10
6.125
 20
333.25
  7
TEXTSTYLE_2
 40
3.5
  1
B
 41
0.7857142857
 72
1
 11
7.5
 21
333.25
100
AcDbText
  0
TEXT
  5
37A
100
AcDbEntity
  8
388782-000-00-ED1_FORMAT
100
AcDbText
 62
90
  6
CONTINUOUS
 10
585.125
 20
333.25
  7
TEXTSTYLE_2
 40
3.5
  1
B
 41
0.7857142857
 72
1
 11
586.5
 21
333.25
100
AcDbText
  0
TEXT
  5
37B
100
AcDbEntity
  8
388782-000-00-ED1_FORMAT
100
AcDbText
 62
90
  6
CONTINUOUS
 10
6.0416666667
 20
283.25
  7
TEXTSTYLE_2
 40
3.5
  1
C
 41
0.8333333333
 72
1
 11
7.5
 21
283.25
100
AcDbText
  0
TEXT
  5
37C
100
AcDbEntity
  8
388782-000-00-ED1_FORMAT
100
AcDbText
 62
90
  6
CONTINUOUS
 10
585.0416666667
 20
283.25
  7
TEXTSTYLE_2
 40
3.5
  1
C
 41
0.8333333333
 72
1
 11
586.5
 21
283.25
100
AcDbText
  0
TEXT
  5
37D
100
AcDbEntity
  8
388782-000-00-ED1_FORMAT
100
AcDbText
 62
90
  6
CONTINUOUS
 10
5.9166666667
 20
233.25
  7
TEXTSTYLE_2
 40
3.5
  1
D
 41
0.9047619048
 72
1
 11
7.5
 21
233.25
100
AcDbText
  0
TEXT
  5
37E
100
AcDbEntity
  8
388782-000-00-ED1_FORMAT
100
AcDbText
 62
90
  6
CONTINUOUS
 10
584.9166666667
 20
233.25
  7
TEXTSTYLE_2
 40
3.5
  1
D
 41
0.9047619048
 72
1
 11
586.5
 21
233.25
100
AcDbText
  0
TEXT
  5
37F
100
AcDbEntity
  8
388782-000-00-ED1_FORMAT
100
AcDbText
 62
90
  6
CONTINUOUS
 10
6.25
 20
183.25
  7
TEXTSTYLE_2
 40
3.5
  1
E
 41
0.7142857143
 72
1
 11
7.5
 21
183.25
100
AcDbText
  0
TEXT
  5
380
100
AcDbEntity
  8
388782-000-00-ED1_FORMAT
100
AcDbText
 62
90
  6
CONTINUOUS
 10
585.25
 20
183.25
  7
TEXTSTYLE_2
 40
3.5
  1
E
 41
0.7142857143
 72
1
 11
586.5
 21
183.25
100
AcDbText
  0
TEXT
  5
381
100
AcDbEntity
  8
388782-000-00-ED1_FORMAT
100
AcDbText
 62
90
  6
CONTINUOUS
 10
585.25
 20
133.3098861881
  7
TEXTSTYLE_2
 40
3.5
  1
F
 41
0.7142857143
 72
1
 11
586.5
 21
133.3098861881
100
AcDbText
  0
TEXT
  5
382
100
AcDbEntity
  8
388782-000-00-ED1_FORMAT
100
AcDbText
 62
90
  6
CONTINUOUS
 10
6.25
 20
133.25
  7
TEXTSTYLE_2
 40
3.5
  1
F
 41
0.7142857143
 72
1
 11
7.5
 21
133.25
100
AcDbText
  0
TEXT
  5
383
100
AcDbEntity
  8
388782-000-00-ED1_FORMAT
100
AcDbText
 62
90
  6
CONTINUOUS
 10
6.125
 20
83.25
  7
TEXTSTYLE_2
 40
3.5
  1
G
 41
0.7857142857
 72
1
 11
7.5
 21
83.25
100
AcDbText
  0
TEXT
  5
384
100
AcDbEntity
  8
388782-000-00-ED1_FORMAT
100
AcDbText
 62
90
  6
CONTINUOUS
 10
585.125
 20
83.3098861881
  7
TEXTSTYLE_2
 40
3.5
  1
G
 41
0.7857142857
 72
1
 11
586.5
 21
83.3098861881
100
AcDbText
  0
TEXT
  5
385
100
AcDbEntity
  8
388782-000-00-ED1_FORMAT
100
AcDbText
 62
90
  6
CONTINUOUS
 10
585.125
 20
33.3098861881
  7
TEXTSTYLE_2
 40
3.5
  1
H
 41
0.7857142857
 72
1
 11
586.5
 21
33.3098861881
100
AcDbText
  0
TEXT
  5
386
100
AcDbEntity
  8
388782-000-00-ED1_FORMAT
100
AcDbText
 62
90
  6
CONTINUOUS
 10
6.125
 20
33.25
  7
TEXTSTYLE_2
 40
3.5
  1
H
 41
0.7857142857
 72
1
 11
7.5
 21
33.25
100
AcDbText
  0
TEXT
  5
387
100
AcDbEntity
  8
388782-000-00-ED1_FORMAT
100
AcDbText
 62
90
  6
CONTINUOUS
 10
21.0
 20
410.75
  7
TEXTSTYLE_2
 40
3.5
  1
1
 41
0.5714285714
 72
1
 11
22.0
 21
410.75
100
AcDbText
  0
TEXT
  5
388
100
AcDbEntity
  8
388782-000-00-ED1_FORMAT
100
AcDbText
 62
90
  6
CONTINUOUS
 10
21.0
 20
5.75
  7
TEXTSTYLE_2
 40
3.5
  1
1
 41
0.5714285714
 72
1
 11
22.0
 21
5.75
100
AcDbText
  0
TEXT
  5
389
100
AcDbEntity
  8
388782-000-00-ED1_FORMAT
100
AcDbText
 62
90
  6
CONTINUOUS
 10
70.625
 20
5.75
  7
TEXTSTYLE_2
 40
3.5
  1
2
 41
0.7857142857
 72
1
 11
72.0
 21
5.75
100
AcDbText
  0
TEXT
  5
38A
100
AcDbEntity
  8
388782-000-00-ED1_FORMAT
100
AcDbText
 62
90
  6
CONTINUOUS
 10
70.625
 20
410.75
  7
TEXTSTYLE_2
 40
3.5
  1
2
 41
0.7857142857
 72
1
 11
72.0
 21
410.75
100
AcDbText
  0
TEXT
  5
38B
100
AcDbEntity
  8
388782-000-00-ED1_FORMAT
100
AcDbText
 62
90
  6
CONTINUOUS
 10
120.75
 20
410.75
  7
TEXTSTYLE_2
 40
3.5
  1
3
 41
0.7142857143
 72
1
 11
122.0
 21
410.75
100
AcDbText
  0
TEXT
  5
38C
100
AcDbEntity
  8
388782-000-00-ED1_FORMAT
100
AcDbText
 62
90
  6
CONTINUOUS
 10
120.75
 20
5.75
  7
TEXTSTYLE_2
 40
3.5
  1
3
 41
0.7142857143
 72
1
 11
122.0
 21
5.75
100
AcDbText
  0
TEXT
  5
38D
100
AcDbEntity
  8
388782-000-00-ED1_FORMAT
100
AcDbText
 62
90
  6
CONTINUOUS
 10
170.625
 20
5.75
  7
TEXTSTYLE_2
 40
3.5
  1
4
 41
0.7857142857
 72
1
 11
172.0
 21
5.75
100
AcDbText
  0
TEXT
  5
38E
100
AcDbEntity
  8
388782-000-00-ED1_FORMAT
100
AcDbText
 62
90
  6
CONTINUOUS
 10
170.625
 20
410.75
  7
TEXTSTYLE_2
 40
3.5
  1
4
 41
0.7857142857
 72
1
 11
172.0
 21
410.75
100
AcDbText
  0
TEXT
  5
38F
100
AcDbEntity
  8
388782-000-00-ED1_FORMAT
100
AcDbText
 62
90
  6
CONTINUOUS
 10
220.75
 20
410.75
  7
TEXTSTYLE_2
 40
3.5
  1
5
 41
0.7142857143
 72
1
 11
222.0
 21
410.75
100
AcDbText
  0
TEXT
  5
390
100
AcDbEntity
  8
388782-000-00-ED1_FORMAT
100
AcDbText
 62
90
  6
CONTINUOUS
 10
220.75
 20
5.75
  7
TEXTSTYLE_2
 40
3.5
  1
5
 41
0.7142857143
 72
1
 11
222.0
 21
5.75
100
AcDbText
  0
TEXT
  5
391
100
AcDbEntity
  8
388782-000-00-ED1_FORMAT
100
AcDbText
 62
90
  6
CONTINUOUS
 10
270.625
 20
5.8098861881
  7
TEXTSTYLE_2
 40
3.5
  1
6
 41
0.7857142857
 72
1
 11
272.0
 21
5.8098861881
100
AcDbText
  0
TEXT
  5
392
100
AcDbEntity
  8
388782-000-00-ED1_FORMAT
100
AcDbText
 62
90
  6
CONTINUOUS
 10
270.625
 20
410.75
  7
TEXTSTYLE_2
 40
3.5
  1
6
 41
0.7857142857
 72
1
 11
272.0
 21
410.75
100
AcDbText
  0
TEXT
  5
393
100
AcDbEntity
  8
388782-000-00-ED1_FORMAT
100
AcDbText
 62
90
  6
CONTINUOUS
 10
320.625
 20
410.75
  7
TEXTSTYLE_2
 40
3.5
  1
7
 41
0.7857142857
 72
1
 11
322.0
 21
410.75
100
AcDbText
  0
TEXT
  5
394
100
AcDbEntity
  8
388782-000-00-ED1_FORMAT
100
AcDbText
 62
90
  6
CONTINUOUS
 10
320.625
 20
5.8098861881
  7
TEXTSTYLE_2
 40
3.5
  1
7
 41
0.7857142857
 72
1
 11
322.0
 21
5.8098861881
100
AcDbText
  0
TEXT
  5
395
100
AcDbEntity
  8
388782-000-00-ED1_FORMAT
100
AcDbText
 62
90
  6
CONTINUOUS
 10
370.625
 20
5.8098861881
  7
TEXTSTYLE_2
 40
3.5
  1
8
 41
0.7857142857
 72
1
 11
372.0
 21
5.8098861881
100
AcDbText
  0
TEXT
  5
396
100
AcDbEntity
  8
388782-000-00-ED1_FORMAT
100
AcDbText
 62
90
  6
CONTINUOUS
 10
370.625
 20
410.75
  7
TEXTSTYLE_2
 40
3.5
  1
8
 41
0.7857142857
 72
1
 11
372.0
 21
410.75
100
AcDbText
  0
TEXT
  5
397
100
AcDbEntity
  8
388782-000-00-ED1_FORMAT
100
AcDbText
 62
90
  6
CONTINUOUS
 10
420.625
 20
410.75
  7
TEXTSTYLE_2
 40
3.5
  1
9
 41
0.7857142857
 72
1
 11
422.0
 21
410.75
100
AcDbText
  0
TEXT
  5
398
100
AcDbEntity
  8
388782-000-00-ED1_FORMAT
100
AcDbText
 62
90
  6
CONTINUOUS
 10
420.625
 20
5.8098861881
  7
TEXTSTYLE_2
 40
3.5
  1
9
 41
0.7857142857
 72
1
 11
422.0
 21
5.8098861881
100
AcDbText
  0
TEXT
  5
399
100
AcDbEntity
  8
388782-000-00-ED1_FORMAT
100
AcDbText
 62
90
  6
CONTINUOUS
 10
469.625
 20
5.8098861881
  7
TEXTSTYLE_2
 40
3.5
  1
10
 41
0.6785714286
 72
1
 11
472.0
 21
5.8098861881
100
AcDbText
  0
TEXT
  5
39A
100
AcDbEntity
  8
388782-000-00-ED1_FORMAT
100
AcDbText
 62
90
  6
CONTINUOUS
 10
469.625
 20
410.75
  7
TEXTSTYLE_2
 40
3.5
  1
10
 41
0.6785714286
 72
1
 11
472.0
 21
410.75
100
AcDbText
  0
TEXT
  5
39B
100
AcDbEntity
  8
388782-000-00-ED1_FORMAT
100
AcDbText
 62
90
  6
CONTINUOUS
 10
520.0
 20
410.75
  7
TEXTSTYLE_2
 40
3.5
  1
11
 41
0.5714285714
 72
1
 11
522.0
 21
410.75
100
AcDbText
  0
TEXT
  5
39C
100
AcDbEntity
  8
388782-000-00-ED1_FORMAT
100
AcDbText
 62
90
  6
CONTINUOUS
 10
520.0
 20
5.8098861881
  7
TEXTSTYLE_2
 40
3.5
  1
11
 41
0.5714285714
 72
1
 11
522.0
 21
5.8098861881
100
AcDbText
  0
TEXT
  5
39D
100
AcDbEntity
  8
388782-000-00-ED1_FORMAT
100
AcDbText
 62
90
  6
CONTINUOUS
 10
569.625
 20
5.8098861881
  7
TEXTSTYLE_2
 40
3.5
  1
12
 41
0.6785714286
 72
1
 11
572.0
 21
5.8098861881
100
AcDbText
  0
TEXT
  5
39E
100
AcDbEntity
  8
388782-000-00-ED1_FORMAT
100
AcDbText
 62
90
  6
CONTINUOUS
 10
569.625
 20
410.75
  7
TEXTSTYLE_2
 40
3.5
  1
12
 41
0.6785714286
 72
1
 11
572.0
 21
410.75
100
AcDbText
  0
TEXT
  5
39F
100
AcDbEntity
  8
388782-000-00-ED1_FORMAT
100
AcDbText
 62
2
  6
CONTINUOUS
 10
399.052859216
 20
61.7772685196
  7
STANDARD
 40
1.4
  1
DIE ZEICHNUNGEN,  MODELLE  ETC. BLEIBEN  UNSER  AUSSCHLIESSLICHES
 41
0.7549450549
 72
0
100
AcDbText
  0
TEXT
  5
3A0
100
AcDbEntity
  8
388782-000-00-ED1_FORMAT
100
AcDbText
 62
2
  6
CONTINUOUS
 10
399.052859216
 20
58.9772685196
  7
STANDARD
 40
1.4
  1
EIGENTUM. SIE WERDEN NUR ZU DEM VEREINBARTEN  ZWECK ANVERTRAUT
 41
0.7976190476
 72
0
100
AcDbText
  0
TEXT
  5
3A1
100
AcDbEntity
  8
388782-000-00-ED1_FORMAT
100
AcDbText
 62
2
  6
CONTINUOUS
 10
399.052859216
 20
56.1772685196
  7
STANDARD
 40
1.4
  1
UND DUERFEN ZU KEINEM ANDEREN  ZWECK VERWENDET WERDEN. KOPIEN
 41
0.8040593286
 72
0
100
AcDbText
  0
TEXT
  5
3A2
100
AcDbEntity
  8
388782-000-00-ED1_FORMAT
100
AcDbText
 62
2
  6
CONTINUOUS
 10
399.052859216
 20
53.3772685196
  7
STANDARD
 40
1.4
  1
ODER  SONSTIGE  VERVIELFAELTIGUNGEN  DUERFEN  NUR ZU DEM VEREIN-
 41
0.7689732143
 72
0
100
AcDbText
  0
TEXT
  5
3A3
100
AcDbEntity
  8
388782-000-00-ED1_FORMAT
100
AcDbText
 62
2
  6
CONTINUOUS
 10
399.052859216
 20
50.5772685196
  7
STANDARD
 40
1.4
  1
BARTEN ZWECK ANGEFERTIGT WERDEN. WEDER ORIGINALE NOCH VERVIEL-
 41
0.7949308756
 72
0
100
AcDbText
  0
TEXT
  5
3A4
100
AcDbEntity
  8
388782-000-00-ED1_FORMAT
100
AcDbText
 62
2
  6
CONTINUOUS
 10
399.052859216
 20
47.7772685196
  7
STANDARD
 40
1.4
  1
FAELTIGUNGEN  DUERFEN  DRITTEN  AUSGEHAENDIGT ODER IN SONSTIGER
 41
0.776266062
 72
0
100
AcDbText
  0
TEXT
  5
3A5
100
AcDbEntity
  8
388782-000-00-ED1_FORMAT
100
AcDbText
 62
2
  6
CONTINUOUS
 10
399.052859216
 20
44.9772685196
  7
STANDARD
 40
1.4
  1
WEISE ZUGAENGLICH GEMACHT WERDEN.
 41
0.803030303
 72
0
100
AcDbText
  0
TEXT
  5
3A6
100
AcDbEntity
  8
388782-000-00-ED1_FORMAT
100
AcDbText
 62
2
  6
CONTINUOUS
 10
399.1601887232
 20
39.3782684954
  7
STANDARD
 40
1.8
  1
MASSE OHNE TOLERANZANGABE
 41
0.7857142857
 72
1
 11
416.8387601518
 21
39.3782684954
100
AcDbText
  0
TEXT
  5
3A7
100
AcDbEntity
  8
388782-000-00-ED1_FORMAT
100
AcDbText
 62
2
  6
CONTINUOUS
 10
410.0244744375
 20
36.6782684954
  7
STANDARD
 40
1.8
  1
ISO 2768-F
 41
0.7571428571
 72
1
 11
416.8387601518
 21
36.6782684954
100
AcDbText
  0
TEXT
  5
3A8
100
AcDbEntity
  8
388782-000-00-ED1_FORMAT
100
AcDbText
 62
2
  6
CONTINUOUS
 10
436.1543918493
 20
39.5917689246
  7
STANDARD
 40
1.8
  1
UNBEMASSTE EINZELHEITEN
 41
0.7608695652
 72
1
 11
451.9043918493
 21
39.5917689246
100
AcDbText
  0
TEXT
  5
3A9
100
AcDbEntity
  8
388782-000-00-ED1_FORMAT
100
AcDbText
 62
2
  6
CONTINUOUS
 10
441.3829632779
 20
36.8917689246
  7
STANDARD
 40
1.8
  1
NACH WERKSNORM
 41
0.8350340136
 72
1
 11
451.9043918493
 21
36.8917689246
100
AcDbText
  0
TEXT
  5
3AA
100
AcDbEntity
  8
388782-000-00-ED1_FORMAT
100
AcDbText
 62
2
  6
CONTINUOUS
 10
324.0633352048
 20
38.7910826699
  7
STANDARD
 40
2.0
  1
ZUSAETZLICH ZU VA-NR. 07.05.01 BESCHRIFTET MIT:
 41
0.7507598784
 72
1
 11
359.3490494905
 21
38.7910826699
100
AcDbText
  0
TEXT
  5
3AB
100
AcDbEntity
  8
388782-000-00-ED1_FORMAT
100
AcDbText
 62
2
  6
CONTINUOUS
 10
398.7601485216
 20
20.7999881218
  7
STANDARD
 40
2.5
  1
TECHNISCHE SPEZIFIKATION:
 41
0.7466666667
 72
0
100
AcDbText
  0
TEXT
  5
3AC
100
AcDbEntity
  8
388782-000-00-ED1_FORMAT
100
AcDbText
 62
2
  6
CONTINUOUS
 10
398.8199729078
 20
31.7602142735
  7
STANDARD
 40
2.5
  1
BENENNUNG:
 41
0.7285714286
 72
0
100
AcDbText
  0
TEXT
  5
3AD
100
AcDbEntity
  8
388782-000-00-ED1_FORMAT
100
AcDbText
 62
2
  6
CONTINUOUS
 10
398.5262320502
 20
11.090392271
  7
STANDARD
 40
1.6
  1
ERSATZ F. ZCHNR.:
 41
0.7380952381
 72
0
100
AcDbText
  0
TEXT
  5
3AE
100
AcDbEntity
  8
388782-000-00-ED1_FORMAT
100
AcDbText
 62
2
  6
CONTINUOUS
 10
474.4889728079
 20
10.8414909668
  7
STANDARD
 40
1.6
  1
ERSETZT D. ZCHNR.:
 41
0.7473544974
 72
0
100
AcDbText
  0
TEXT
  5
3AF
100
AcDbEntity
  8
388782-000-00-ED1_FORMAT
100
AcDbText
 62
2
  6
CONTINUOUS
 10
553.4985174426
 20
60.5649091272
  7
STANDARD
 40
2.5
  1
DATUM
 41
0.8523809524
 72
0
100
AcDbText
  0
TEXT
  5
3B0
100
AcDbEntity
  8
388782-000-00-ED1_FORMAT
100
AcDbText
 62
2
  6
CONTINUOUS
 10
572.0389151108
 20
60.5649091272
  7
STANDARD
 40
2.5
  1
NAME
 41
0.8035714286
 72
0
100
AcDbText
  0
TEXT
  5
3B1
100
AcDbEntity
  8
388782-000-00-ED1_FORMAT
100
AcDbText
 62
2
  6
CONTINUOUS
 10
540.6248879544
 20
54.9911733789
  7
STANDARD
 40
2.0
  1
GEZ.
 41
0.7142857143
 72
0
100
AcDbText
  0
TEXT
  5
3B2
100
AcDbEntity
  8
388782-000-00-ED1_FORMAT
100
AcDbText
 62
2
  6
CONTINUOUS
 10
540.6248879544
 20
48.9031498945
  7
STANDARD
 40
2.0
  1
GEPR.
 41
0.7285714286
 72
0
100
AcDbText
  0
TEXT
  5
3B3
100
AcDbEntity
  8
388782-000-00-ED1_FORMAT
100
AcDbText
 62
2
  6
CONTINUOUS
 10
540.6248879544
 20
42.81512641
  7
STANDARD
 40
2.0
  1
FREIG.
 41
0.7023809524
 72
0
100
AcDbText
  0
TEXT
  5
3B4
100
AcDbEntity
  8
388782-000-00-ED1_FORMAT
100
AcDbText
 62
2
  6
CONTINUOUS
 10
474.5448884682
 20
20.8921136985
  7
STANDARD
 40
2.5
  1
MATERIALNUMMER:
 41
0.7571428571
 72
0
100
AcDbText
  0
TEXT
  5
3B5
100
AcDbEntity
  8
388782-000-00-ED1_FORMAT
100
AcDbText
 62
2
  6
CONTINUOUS
 10
519.5006365734
 20
20.8921136985
  7
STANDARD
 40
2.5
  1
ZEICHNUNGSNUMMER:
 41
0.7549019608
 72
0
100
AcDbText
  0
TEXT
  5
3B6
100
AcDbEntity
  8
388782-000-00-ED1_FORMAT
100
AcDbText
 62
2
  6
CONTINUOUS
 10
574.7988683895
 20
32.099050911
  7
STANDARD
 40
2.0
  1
ORIGIN
 41
0.7380952381
 72
0
100
AcDbText
  0
TEXT
  5
3B7
100
AcDbEntity
  8
388782-000-00-ED1_FORMAT
100
AcDbText
 62
2
  6
CONTINUOUS
 10
574.2297444284
 20
20.8982033286
  7
STANDARD
 40
2.5
  1
INDEX
 41
0.780952381
 72
0
100
AcDbText
  0
TEXT
  5
3B8
100
AcDbEntity
  8
388782-000-00-ED1_FORMAT
100
AcDbText
 62
2
  6
CONTINUOUS
 10
540.825463913
 20
36.6922403956
  7
STANDARD
 40
2.0
  1
MASSSTAB: 
 41
0.7714285714
 72
0
100
AcDbText
  0
TEXT
  5
3B9
100
AcDbEntity
  8
388782-000-00-ED1_FORMAT
100
AcDbText
 62
2
  6
CONTINUOUS
 10
556.2540353416
 20
36.6922403956
  7
STANDARD
 40
2.0
  1
2:1
 41
0.5714285714
 72
0
100
AcDbText
  0
TEXT
  5
3BA
100
AcDbEntity
  8
388782-000-00-ED1_FORMAT
100
AcDbText
 62
2
  6
CONTINUOUS
 10
322.8803169507
 20
67.4938842456
  7
STANDARD
 40
2.0
  1
POS
 41
0.7857142857
 72
0
100
AcDbText
  0
TEXT
  5
3BB
100
AcDbEntity
  8
388782-000-00-ED1_FORMAT
100
AcDbText
 62
2
  6
CONTINUOUS
 10
330.2800702762
 20
67.4938842456
  7
STANDARD
 40
2.0
  1
TYP
 41
0.8333333333
 72
0
100
AcDbText
  0
TEXT
  5
3BC
100
AcDbEntity
  8
388782-000-00-ED1_FORMAT
100
AcDbText
 62
2
  6
CONTINUOUS
 10
337.3397241606
 20
67.542169307
  7
STANDARD
 40
2.0
  1
MENGE
 41
0.7714285714
 72
0
100
AcDbText
  0
TEXT
  5
3BD
100
AcDbEntity
  8
388782-000-00-ED1_FORMAT
100
AcDbText
 62
2
  6
CONTINUOUS
 10
346.6578430416
 20
67.5584943666
  7
STANDARD
 40
2.0
  1
ME
 41
0.7857142857
 72
0
100
AcDbText
  0
TEXT
  5
3BE
100
AcDbEntity
  8
388782-000-00-ED1_FORMAT
100
AcDbText
 62
2
  6
CONTINUOUS
 10
355.2151619684
 20
67.5584943666
  7
STANDARD
 40
2.0
  1
MATERIALNUMMER
 41
0.7857142857
 72
0
100
AcDbText
  0
TEXT
  5
3BF
100
AcDbEntity
  8
388782-000-00-ED1_FORMAT
100
AcDbText
 62
2
  6
CONTINUOUS
 10
431.4509114
 20
67.6477358999
  7
STANDARD
 40
2.0
  1
BENENNUNG
 41
0.7698412698
 72
0
100
AcDbText
  0
TEXT
  5
3C0
100
AcDbEntity
  8
388782-000-00-ED1_FORMAT
100
AcDbText
 62
2
  6
CONTINUOUS
 10
495.8093221703
 20
67.4559309473
  7
STANDARD
 40
2.0
  1
TECHNISCHE SPEZIFIKATION
 41
0.7628968254
 72
1
 11
514.1188459798
 21
67.4559309473
100
AcDbText
  0
TEXT
  5
3C1
100
AcDbEntity
  8
388782-000-00-ED1_FORMAT
100
AcDbText
 62
2
  6
CONTINUOUS
 10
552.8634464094
 20
67.8395408525
  7
STANDARD
 40
2.0
  1
KUNDENNUMMER
 41
0.7956349206
 72
0
100
AcDbText
  0
TEXT
  5
3C2
100
AcDbEntity
  8
388782-000-00-ED1_FORMAT
100
AcDbText
 62
2
  6
CONTINUOUS
 10
552.4398073431
 20
10.7992833474
  7
STANDARD
 40
1.6
  1
BLATT   V.   BLAETTERN
 41
0.7781385281
 72
0
100
AcDbText
  0
TEXT
  5
3C3
100
AcDbEntity
  8
388782-000-00-ED1_FORMAT
100
AcDbText
 62
2
  6
CONTINUOUS
 10
440.0791789452
 20
406.4479115896
  7
STANDARD
 40
2.0
  1
INDEX
 41
0.780952381
 72
1
 11
443.98394085
 21
406.4479115896
100
AcDbText
  0
TEXT
  5
3C4
100
AcDbEntity
  8
388782-000-00-ED1_FORMAT
100
AcDbText
 62
2
  6
CONTINUOUS
 10
441.8410837071
 20
403.4479115896
  7
STANDARD
 40
2.0
  1
NR.
 41
0.7142857143
 72
1
 11
443.98394085
 21
403.4479115896
100
AcDbText
  0
TEXT
  5
3C5
100
AcDbEntity
  8
388782-000-00-ED1_FORMAT
100
AcDbText
 62
2
  6
CONTINUOUS
 10
484.3389608877
 20
404.9588187055
  7
STANDARD
 40
2.0
  1
ART DER AENDERUNG
 41
0.799719888
 72
1
 11
497.9341989829
 21
404.9588187055
100
AcDbText
  0
TEXT
  5
3C6
100
AcDbEntity
  8
388782-000-00-ED1_FORMAT
100
AcDbText
 62
2
  6
CONTINUOUS
 10
553.9980886349
 20
405.0962301998
  7
STANDARD
 40
2.0
  1
DATUM
 41
0.8523809524
 72
0
100
AcDbText
  0
TEXT
  5
3C7
100
AcDbEntity
  8
388782-000-00-ED1_FORMAT
100
AcDbText
 62
2
  6
CONTINUOUS
 10
571.8615828868
 20
405.0962301998
  7
STANDARD
 40
2.0
  1
NAME
 41
0.8035714286
 72
0
100
AcDbText
  0
TEXT
  5
3C8
100
AcDbEntity
  8
388782-000-00-ED1_FORMAT
100
AcDbText
 62
2
  6
CONTINUOUS
 10
14.8036303207
 20
149.3181813679
  7
STANDARD
 40
3.0
  1
VORGANGS-NR.:
 50
90.0
 41
0.7399267399
 72
0
100
AcDbText
  0
TEXT
  5
3C9
100
AcDbEntity
  8
388782-000-00-ED1_FORMAT
100
AcDbText
 62
2
  6
CONTINUOUS
 10
14.8036303207
 20
94.5008795839
  7
STANDARD
 40
3.0
  1
PROJEKT-NR.:
 50
90.0
 41
0.7142857143
 72
0
100
AcDbText
  0
TEXT
  5
3CA
100
AcDbEntity
  8
388782-000-00-ED1_FORMAT
100
AcDbText
 62
2
  6
CONTINUOUS
 10
14.8036303207
 20
10.7957298757
  7
STANDARD
 40
3.0
  1
KUNDE:
 50
90.0
 41
0.7222222222
 72
0
100
AcDbText
  0
TEXT
  5
3CB
100
AcDbEntity
  8
388782-000-00-ED1_FORMAT
100
AcDbText
 62
2
  6
CONTINUOUS
 10
424.2753764397
 20
402.6763744954
  7
STANDARD
 40
2.0
  1
TEILE-
 41
0.7142857143
 72
1
 11
428.5610907254
 21
402.6763744954
100
AcDbText
  0
TEXT
  5
3CC
100
AcDbEntity
  8
388782-000-00-ED1_FORMAT
100
AcDbText
 62
2
  6
CONTINUOUS
 10
421.370614535
 20
396.6763744954
  7
STANDARD
 40
2.0
  1
ZUORDNUNG
 41
0.7989417989
 72
1
 11
428.5610907254
 21
396.6763744954
100
AcDbText
  0
TEXT
  5
3CD
100
AcDbEntity
  8
388782-000-00-ED1_FORMAT
100
AcDbText
 62
2
  6
CONTINUOUS
 10
417.0441261495
 20
382.8819915703
  7
STANDARD
 40
2.0
  1
DURCHMESSER
 41
0.7943722944
 72
1
 11
425.7822213876
 21
382.8819915703
100
AcDbText
  0
TEXT
  5
3CE
100
AcDbEntity
  8
388782-000-00-ED1_FORMAT
100
AcDbText
 62
2
  6
CONTINUOUS
 10
411.6345849887
 20
392.6715109892
  7
STANDARD
 40
2.0
  1
ZUBEHOER
 50
90.0
 41
0.7678571429
 72
1
 11
411.6345849887
 21
398.8143681321
100
AcDbText
  0
TEXT
  5
3CF
100
AcDbEntity
  8
388782-000-00-ED1_FORMAT
100
AcDbText
 62
2
  6
CONTINUOUS
 10
508.8050541544
 20
48.3349997707
  7
TEXTSTYLE_2
 40
1.7999998622
  1
Dr. Kress KG
 41
0.7361111111
 72
0
100
AcDbText
  0
TEXT
  5
3D0
100
AcDbEntity
  8
388782-000-00-ED1_FORMAT
100
AcDbText
 62
7
  6
CONTINUOUS
 10
508.8050541544
 20
57.9849990253
  7
TEXTSTYLE_2
 40
2.4999998086
  1
MAPAL
 41
0.8
 72
0
100
AcDbText
  0
TEXT
  5
3D1
100
AcDbEntity
  8
388782-000-00-ED1_FORMAT
100
AcDbText
 62
2
  6
CONTINUOUS
 10
508.8050541544
 20
53.3349993813
  7
TEXTSTYLE_2
 40
1.7999998622
  1
Präzisionswerkzeuge
 41
0.7034461153
 72
0
100
AcDbText
  0
TEXT
  5
3D2
100
AcDbEntity
  8
388782-000-00-ED1_FORMAT
100
AcDbText
 62
2
  6
CONTINUOUS
 10
572.8843769111
 20
36.6958859551
  7
STANDARD
 40
2.0
  1
A2
 41
0.8214285714
 72
0
100
AcDbText
  0
TEXT
  5
3D3
100
AcDbEntity
  8
388782-000-00-ED1_FORMAT
100
AcDbText
 62
2
  6
CONTINUOUS
 10
559.68656955
 20
10.8834999063
  7
STANDARD
 40
1.6
  1
1
 41
0.5714285714
 72
0
100
AcDbText
  0
TEXT
  5
3D4
100
AcDbEntity
  8
388782-000-00-ED1_FORMAT
100
AcDbText
 62
2
  6
CONTINUOUS
 10
565.5081284587
 20
10.8645026074
  7
STANDARD
 40
1.6
  1
1
 41
0.5714285714
 72
0
100
AcDbText
  0
TEXT
  5
3D5
100
AcDbEntity
  8
388782-000-00-ED1_FORMAT
100
AcDbText
 62
2
  6
CONTINUOUS
 10
209.9272470292
 20
33.7195113364
  7
STANDARD
 40
1.9999995576
  1
MASCH.-NR.:
 41
0.7186147186
 72
0
100
AcDbText
  0
TEXT
  5
3D6
100
AcDbEntity
  8
388782-000-00-ED1_FORMAT
100
AcDbText
 62
2
  6
CONTINUOUS
 10
247.2212717219
 20
33.7441600748
  7
STANDARD
 40
1.9999995184
  1
STATION:
 41
0.7410714286
 72
0
100
AcDbText
  0
TEXT
  5
3D7
100
AcDbEntity
  8
388782-000-00-ED1_FORMAT
100
AcDbText
 62
2
  6
CONTINUOUS
 10
285.2119838415
 20
33.7441600748
  7
STANDARD
 40
1.9999995184
  1
SPINDEL:
 41
0.7023809524
 72
0
100
AcDbText
  0
TEXT
  5
3D8
100
AcDbEntity
  8
388782-000-00-ED1_FORMAT
100
AcDbText
 62
2
  6
CONTINUOUS
 10
209.5637934423
 20
28.4328782508
  7
STANDARD
 40
1.9999995576
  1
WERKST.-BEN.:
 41
0.7527472527
 72
0
100
AcDbText
  0
TEXT
  5
3D9
100
AcDbEntity
  8
388782-000-00-ED1_FORMAT
100
AcDbText
 62
2
  6
CONTINUOUS
 10
209.7506861989
 20
17.6578228212
  7
STANDARD
 40
1.9999995184
  1
WERKSTOFF:
 41
0.7857142857
 72
0
100
AcDbText
  0
TEXT
  5
3DA
100
AcDbEntity
  8
388782-000-00-ED1_FORMAT
100
AcDbText
 62
2
  6
CONTINUOUS
 10
285.2058357142
 20
11.6643349189
  7
STANDARD
 40
1.9999995184
  1
BOHRUNGS-NR.:
 41
0.7307692308
 72
0
100
AcDbText
  0
TEXT
  5
3DB
100
AcDbEntity
  8
388782-000-00-ED1_FORMAT
100
AcDbText
 62
2
  6
CONTINUOUS
 10
209.8681736631
 20
23.0622461562
  7
STANDARD
 40
1.9999995576
  1
WERKST.-NR.:
 41
0.755952381
 72
0
100
AcDbText
  0
TEXT
  5
3DC
100
AcDbEntity
  8
388782-000-00-ED1_FORMAT
100
AcDbText
 62
2
  6
CONTINUOUS
 10
247.140018325
 20
11.6643346781
  7
STANDARD
 40
2.0
  1
OP-NR.:
 41
0.6836734694
 72
0
100
AcDbText
  0
TEXT
  5
3DD
100
AcDbEntity
  8
388782-000-00-ED1_FORMAT
100
AcDbText
 62
2
  6
CONTINUOUS
 10
209.9309878223
 20
11.9091309314
  7
STANDARD
 40
2.0
  1
TOOL-NR.:
 41
0.6984126984
 72
0
100
AcDbText
  0
INSERT
  5
3DE
100
AcDbEntity
  8
388782-000-00-ED1_FORMAT
100
AcDbBlockReference
 62
3
  6
CONTINUOUS
  2
BARCODEBOX_BL3
 10
74.5
 20
46.5
  0
DIMENSION
  5
3DF
100
AcDbEntity
  8
0
100
AcDbDimension
 62
3
  6
CONTINUOUS
  2
*D0
 10
372.5060518567
 20
141.3408739877
 11
392.7560518567
 21
143.9658739877
 70
160
 71
2
 42
46.0
  3
DIMSTYLE_1
100
AcDbAlignedDimension
 13
418.5060518567
 23
217.4555857087
 14
372.5060518567
 24
226.358532694
 50
180.0
100
AcDbRotatedDimension
  0
DIMENSION
  5
3E0
100
AcDbEntity
  8
0
100
AcDbDimension
 62
3
  6
CONTINUOUS
  2
*D1
 10
382.5060518567
 20
151.3408739877
 11
332.6845722802
 21
150.9033739877
 70
160
 71
3
 42
10.0
  1
<>\PVERSTELLWEG
  3
DIMSTYLE_2
100
AcDbAlignedDimension
 13
372.5060518567
 23
231.3408739877
 14
382.5060518567
 24
231.3408739877
100
AcDbRotatedDimension
  0
DIMENSION
  5
3E1
100
AcDbEntity
  8
0
100
AcDbDimension
 62
3
  6
CONTINUOUS
  2
*D2
 10
414.6060518567
 20
171.3408739877
 11
428.6310518567
 21
173.9658739877
 70
160
 71
1
 42
3.9
  1
(<>)
  3
DIMSTYLE_3
100
AcDbAlignedDimension
 13
418.5060518567
 23
217.4555857087
 14
414.6060518567
 24
223.2296688844
 50
180.0
100
AcDbRotatedDimension
  0
DIMENSION
  5
3E2
100
AcDbEntity
  8
0
100
AcDbDimension
 62
3
  6
CONTINUOUS
  2
*D3
 10
383.6060518567
 20
161.3408739877
 11
398.9310518567
 21
163.9658739877
 70
160
 71
2
 42
34.9
  1
(<>)
  3
DIMSTYLE_1
100
AcDbAlignedDimension
 13
418.5060518567
 23
217.482785023
 14
383.6060518567
 24
223.2718739877
 50
180.0
100
AcDbRotatedDimension
  0
DIMENSION
  5
3E3
100
AcDbEntity
  8
0
100
AcDbDimension
 62
3
  6
CONTINUOUS
  2
*D4
 10
458.5060518567
 20
151.3408739877
 11
432.1935518567
 21
153.9658739877
 70
160
 71
2
 42
40.0
  1
2.5-50max.
  3
DIMSTYLE_1
100
AcDbAlignedDimension
 13
418.5060518567
 23
217.5780145421
 14
458.5060518567
 24
225.3408739877
100
AcDbRotatedDimension
  0
DIMENSION
  5
3E4
100
AcDbEntity
  8
0
100
AcDbDimension
 62
3
  6
CONTINUOUS
  2
*D5
 10
478.5060518567
 20
225.3408739877
 11
478.9435518567
 21
265.3619320819
 70
160
 71
1
 42
12.0
  1
%%c<>\Pd1
  3
DIMSTYLE_2
100
AcDbAlignedDimension
 13
418.5060518567
 23
237.3408739877
 14
418.5060518567
 24
225.3408739877
 50
270.0
100
AcDbRotatedDimension
  0
DIMENSION
  5
3E5
100
AcDbEntity
  8
0
100
AcDbDimension
 62
3
  6
CONTINUOUS
  2
*D6
 10
418.5060518567
 20
301.3408739877
 11
348.750598363
 21
303.9658739877
 70
160
 71
2
 42
120.0
  3
DIMSTYLE_1
100
AcDbAlignedDimension
 13
298.5060518567
 23
263.0058696672
 14
418.5060518567
 24
245.2792704562
100
AcDbRotatedDimension
  0
INSERT
  5
3E6
100
AcDbEntity
  8
388782-000-00-ED1_CL
100
AcDbBlockReference
 62
3
  6
CONTINUOUS
  2
GEOM_TOLERANCE_SYMBOLS_BL4
 10
292.2560518567
 20
271.3482283618
  0
DIMENSION
  5
3E7
100
AcDbEntity
  8
0
100
AcDbDimension
 62
3
  6
CONTINUOUS
  2
*D7
 10
418.5060518567
 20
271.3408739877
 11
405.7560518567
 21
273.9658739877
 70
160
 71
2
 42
20.0
  3
DIMSTYLE_2
100
AcDbAlignedDimension
 13
398.5060518567
 23
247.1408739877
 14
418.5060518567
 24
244.3773202386
100
AcDbRotatedDimension
  0
DIMENSION
  5
3E8
100
AcDbEntity
  8
0
100
AcDbDimension
 62
3
  6
CONTINUOUS
  2
*D8
 10
488.5060518567
 20
245.3408739877
 11
487.0199056311
 21
229.0686324677
 70
160
 71
2
 42
28.0
  1
%%c<>
  3
DIMSTYLE_2
100
AcDbAlignedDimension
 13
418.5060518567
 23
217.3408739877
 14
418.5060518567
 24
245.3408739877
 50
90.0
100
AcDbRotatedDimension
  0
DIMENSION
  5
3E9
100
AcDbEntity
  8
0
100
AcDbDimension
 62
3
  6
CONTINUOUS
  2
*D9
 10
330.1097288423
 20
269.5439860833
 11
340.3227834631
 21
275.3081321981
 70
162
 71
2
 42
0.5235987756
  3
DIMSTYLE_4
100
AcDb2LineAngularDimension
 13
343.5060518567
 23
273.1335200166
 14
343.5060518567
 24
246.3408739877
 15
342.640026453
 25
247.8408739877
 16
336.9598333634
 26
270.7716940022
  0
DIMENSION
  5
3EA
100
AcDbEntity
  8
0
100
AcDbDimension
 62
3
  6
CONTINUOUS
  2
*D10
 10
498.5060518567
 20
247.3408739877
 11
496.9919010301
 21
229.1245072592
 70
160
 71
2
 42
32.0
  1
%%c<>
  3
DIMSTYLE_1
100
AcDbAlignedDimension
 13
343.5060518567
 23
215.3408739877
 14
398.5732622533
 24
247.3408739877
 50
90.0
100
AcDbRotatedDimension
  0
DIMENSION
  5
3EB
100
AcDbEntity
  8
0
100
AcDbDimension
 62
3
  6
CONTINUOUS
  2
*D11
 10
508.5060518567
 20
256.3408739877
 11
506.9919010301
 21
229.1245072592
 70
160
 71
2
 42
50.0
  1
%%c<>
  3
DIMSTYLE_1
100
AcDbAlignedDimension
 13
337.5016090572
 23
206.3408739877
 14
337.5016090572
 24
256.3408739877
 50
90.0
100
AcDbRotatedDimension
  0
DIMENSION
  5
3EC
100
AcDbEntity
  8
0
100
AcDbDimension
 62
3
  6
CONTINUOUS
  2
*D12
 10
343.5060518567
 20
281.3408739877
 11
378.3810518567
 21
283.9658739877
 70
160
 71
2
 42
75.0
  3
DIMSTYLE_1
100
AcDbAlignedDimension
 13
418.5060518567
 23
247.3408739877
 14
343.5060518567
 24
247.3408739877
 50
180.0
100
AcDbRotatedDimension
  0
DIMENSION
  5
3ED
100
AcDbEntity
  8
0
100
AcDbDimension
 62
3
  6
CONTINUOUS
  2
*D13
 10
256.6060518567
 20
236.3408739877
 11
254.849194488
 21
229.6646302434
 70
160
 71
2
 42
10.0
  1
M<>x1
  3
DIMSTYLE_2
100
AcDbAlignedDimension
 13
356.0060518567
 23
226.3408739877
 14
356.0060518567
 24
236.3408739877
 50
90.0
100
AcDbRotatedDimension
  0
LINE
  5
3EE
100
AcDbEntity
  8
388782-000-00-ED1_FORMAT
100
AcDbLine
 62
3
  6
CONTINUOUS
 10
438.9013369791
 20
410.0
 11
584.0013369791
 21
410.0
  0
LINE
  5
3EF
100
AcDbEntity
  8
388782-000-00-ED1_FORMAT
100
AcDbLine
 62
3
  6
CONTINUOUS
 10
438.9013369791
 20
410.0
 11
438.9013369791
 21
348.0
  0
LINE
  5
3F0
100
AcDbEntity
  8
388782-000-00-ED1_FORMAT
100
AcDbLine
 62
3
  6
CONTINUOUS
 10
438.9013369791
 20
348.0
 11
584.0013369791
 21
348.0
  0
LINE
  5
3F1
100
AcDbEntity
  8
388782-000-00-ED1_FORMAT
100
AcDbLine
 62
3
  6
CONTINUOUS
 10
584.0013369791
 20
410.0
 11
584.0013369791
 21
348.0
  0
LINE
  5
3F2
100
AcDbEntity
  8
388782-000-00-ED1_FORMAT
100
AcDbLine
 62
3
  6
CONTINUOUS
 10
10.0
 20
10.0
 11
10.0
 21
210.0
  0
LINE
  5
3F3
100
AcDbEntity
  8
388782-000-00-ED1_FORMAT
100
AcDbLine
 62
3
  6
CONTINUOUS
 10
10.0
 20
10.0
 11
16.0
 21
10.0
  0
LINE
  5
3F4
100
AcDbEntity
  8
388782-000-00-ED1_FORMAT
100
AcDbLine
 62
3
  6
CONTINUOUS
 10
16.0
 20
10.0
 11
16.0
 21
210.0
  0
LINE
  5
3F5
100
AcDbEntity
  8
388782-000-00-ED1_FORMAT
100
AcDbLine
 62
3
  6
CONTINUOUS
 10
10.0
 20
210.0
 11
16.0
 21
210.0
  0
LINE
  5
3F6
100
AcDbEntity
  8
388782-000-00-ED1_FORMAT
100
AcDbLine
 62
3
  6
CONTINUOUS
 10
321.0000280969
 20
64.9999941242
 11
584.0000380969
 21
64.9999941242
  0
LINE
  5
3F7
100
AcDbEntity
  8
388782-000-00-ED1_FORMAT
100
AcDbLine
 62
3
  6
CONTINUOUS
 10
321.0000280969
 20
64.9999941242
 11
321.0000280969
 21
84.4999941242
  0
LINE
  5
3F8
100
AcDbEntity
  8
388782-000-00-ED1_FORMAT
100
AcDbLine
 62
3
  6
CONTINUOUS
 10
321.0000280969
 20
72.4999941242
 11
584.0000380969
 21
72.4999941242
  0
LINE
  5
3F9
100
AcDbEntity
  8
388782-000-00-ED1_FORMAT
100
AcDbLine
 62
3
  6
CONTINUOUS
 10
321.0000280969
 20
78.4999941242
 11
584.0000380969
 21
78.4999941242
  0
LINE
  5
3FA
100
AcDbEntity
  8
388782-000-00-ED1_FORMAT
100
AcDbLine
 62
3
  6
CONTINUOUS
 10
321.0000280969
 20
84.4999941242
 11
584.0000380969
 21
84.4999941242
  0
LINE
  5
3FB
100
AcDbEntity
  8
388782-000-00-ED1_FORMAT
100
AcDbLine
 62
3
  6
CONTINUOUS
 10
328.5000280969
 20
64.9999941242
 11
328.5000280969
 21
84.4999941242
  0
LINE
  5
3FC
100
AcDbEntity
  8
388782-000-00-ED1_FORMAT
100
AcDbLine
 62
3
  6
CONTINUOUS
 10
336.0000280969
 20
64.9999941242
 11
336.0000280969
 21
84.4999941242
  0
LINE
  5
3FD
100
AcDbEntity
  8
388782-000-00-ED1_FORMAT
100
AcDbLine
 62
3
  6
CONTINUOUS
 10
345.3988380969
 20
64.9999941242
 11
345.3988380969
 21
84.4999941242
  0
LINE
  5
3FE
100
AcDbEntity
  8
388782-000-00-ED1_FORMAT
100
AcDbLine
 62
3
  6
CONTINUOUS
 10
350.3988380969
 20
64.9999941242
 11
350.3988380969
 21
84.4999941242
  0
LINE
  5
3FF
100
AcDbEntity
  8
388782-000-00-ED1_FORMAT
100
AcDbLine
 62
3
  6
CONTINUOUS
 10
382.0000380969
 20
64.9999941242
 11
382.0000380969
 21
84.4999941242
  0
LINE
  5
400
100
AcDbEntity
  8
388782-000-00-ED1_FORMAT
100
AcDbLine
 62
3
  6
CONTINUOUS
 10
488.0000380969
 20
64.9999941242
 11
488.0000380969
 21
84.4999941242
  0
LINE
  5
401
100
AcDbEntity
  8
388782-000-00-ED1_FORMAT
100
AcDbLine
 62
3
  6
CONTINUOUS
 10
540.0000380969
 20
64.9999941242
 11
540.0000380969
 21
84.4999941242
  0
LINE
  5
402
100
AcDbEntity
  8
388782-000-00-ED1_FORMAT
100
AcDbLine
 62
3
  6
CONTINUOUS
 10
584.0000380969
 20
64.9999941242
 11
584.0000380969
 21
84.4999941242
  0
TEXT
  5
403
100
AcDbEntity
  8
388782-000-00-ED1_FORMAT
100
AcDbText
 62
2
  6
CONTINUOUS
 10
322.2250280969
 20
74.2499941242
  7
STANDARD
 40
2.0
  1
1
 41
0.5714285714
 72
0
100
AcDbText
  0
TEXT
  5
404
100
AcDbEntity
  8
388782-000-00-ED1_FORMAT
100
AcDbText
 62
2
  6
CONTINUOUS
 10
337.2250280969
 20
74.2499941242
  7
STANDARD
 40
2.0
  1
1
 41
0.5714285714
 72
0
100
AcDbText
  0
TEXT
  5
405
100
AcDbEntity
  8
388782-000-00-ED1_FORMAT
100
AcDbText
 62
2
  6
CONTINUOUS
 10
351.6238380969
 20
74.2499941242
  7
STANDARD
 40
2.0
  1
30252542
 41
0.7589285714
 72
0
100
AcDbText
  0
TEXT
  5
406
100
AcDbEntity
  8
388782-000-00-ED1_FORMAT
100
AcDbText
 62
2
  6
CONTINUOUS
 10
383.2250380969
 20
74.2499941242
  7
STANDARD
 40
2.0
  1
ANSCHLAGSCHRAUBE
 41
0.7916666667
 72
0
100
AcDbText
  0
TEXT
  5
407
100
AcDbEntity
  8
388782-000-00-ED1_FORMAT
100
AcDbText
 62
2
  6
CONTINUOUS
 10
489.2250380969
 20
74.2499941242
  7
STANDARD
 40
2.0
  1
M10X1 SW5
 41
0.8095238095
 72
0
100
AcDbText
  0
TEXT
  5
408
100
AcDbEntity
  8
388782-000-00-ED1_FORMAT
100
AcDbText
 62
2
  6
CONTINUOUS
 10
580.522180954
 20
76.7199941242
  7
STANDARD
 40
0.03
  1
30252542_HP
 41
0.7662337662
 72
2
 11
580.7750380969
 21
76.7199941242
100
AcDbText
  0
TEXT
  5
409
100
AcDbEntity
  8
388782-000-00-ED1_FORMAT
100
AcDbText
 62
2
  6
CONTINUOUS
 10
581.7257523826
 20
76.7199941242
  7
STANDARD
 40
0.03
  1
KA
 41
0.8214285714
 72
2
 11
581.7750380969
 21
76.7199941242
100
AcDbText
  0
TEXT
  5
40A
100
AcDbEntity
  8
388782-000-00-ED1_FORMAT
100
AcDbText
 62
2
  6
CONTINUOUS
 10
582.7278952398
 20
76.7199941242
  7
STANDARD
 40
0.03
  1
HP
 41
0.7857142857
 72
2
 11
582.7750380969
 21
76.7199941242
100
AcDbText
  0
TEXT
  5
40B
100
AcDbEntity
  8
388782-000-00-ED1_FORMAT
100
AcDbText
 62
2
  6
CONTINUOUS
 10
322.2250280969
 20
80.2499941242
  7
STANDARD
 40
2.0
  1
2
 41
0.7857142857
 72
0
100
AcDbText
  0
TEXT
  5
40C
100
AcDbEntity
  8
388782-000-00-ED1_FORMAT
100
AcDbText
 62
2
  6
CONTINUOUS
 10
337.2250280969
 20
80.2499941242
  7
STANDARD
 40
2.0
  1
1
 41
0.5714285714
 72
0
100
AcDbText
  0
TEXT
  5
40D
100
AcDbEntity
  8
388782-000-00-ED1_FORMAT
100
AcDbText
 62
2
  6
CONTINUOUS
 10
351.6238380969
 20
80.2499941242
  7
STANDARD
 40
2.0
  1
10007041
 41
0.7321428571
 72
0
100
AcDbText
  0
TEXT
  5
40E
100
AcDbEntity
  8
388782-000-00-ED1_FORMAT
100
AcDbText
 62
2
  6
CONTINUOUS
 10
383.2250380969
 20
80.2499941242
  7
STANDARD
 40
2.0
  1
GEWINDESTIFT
 41
0.8134920635
 72
0
100
AcDbText
  0
TEXT
  5
40F
100
AcDbEntity
  8
388782-000-00-ED1_FORMAT
100
AcDbText
 62
2
  6
CONTINUOUS
 10
489.2250380969
 20
80.2499941242
  7
STANDARD
 40
2.0
  1
ISO 4026-M10X1X12-45H
 41
0.7482993197
 72
0
100
AcDbText
  0
TEXT
  5
410
100
AcDbEntity
  8
388782-000-00-ED1_FORMAT
100
AcDbText
 62
2
  6
CONTINUOUS
 10
580.5286095255
 20
82.7199941242
  7
STANDARD
 40
0.03
  1
10007041_HP
 41
0.7467532468
 72
2
 11
580.7750380969
 21
82.7199941242
100
AcDbText
  0
TEXT
  5
411
100
AcDbEntity
  8
388782-000-00-ED1_FORMAT
100
AcDbText
 62
2
  6
CONTINUOUS
 10
581.7236095255
 20
82.7199941242
  7
STANDARD
 40
0.03
  1
MA
 41
0.8571428571
 72
2
 11
581.7750380969
 21
82.7199941242
100
AcDbText
  0
TEXT
  5
412
100
AcDbEntity
  8
388782-000-00-ED1_FORMAT
100
AcDbText
 62
2
  6
CONTINUOUS
 10
582.7278952398
 20
82.7199941242
  7
STANDARD
 40
0.03
  1
HP
 41
0.7857142857
 72
2
 11
582.7750380969
 21
82.7199941242
100
AcDbText
  0
LINE
  5
413
100
AcDbEntity
  8
388782-000-00-ED1_FORMAT
100
AcDbLine
 62
3
  6
CONTINUOUS
 10
209.0000087989
 20
37.9999902659
 11
321.0000087989
 21
37.9999902659
  0
LINE
  5
414
100
AcDbEntity
  8
388782-000-00-ED1_FORMAT
100
AcDbLine
 62
3
  6
CONTINUOUS
 10
209.0000087989
 20
37.9999902659
 11
209.0000087989
 21
10.0000002659
  0
LINE
  5
415
100
AcDbEntity
  8
388782-000-00-ED1_FORMAT
100
AcDbLine
 62
3
  6
CONTINUOUS
 10
209.0000087989
 20
10.0000002659
 11
321.0000087989
 21
10.0000002659
  0
LINE
  5
416
100
AcDbEntity
  8
388782-000-00-ED1_FORMAT
100
AcDbLine
 62
3
  6
CONTINUOUS
 10
321.0000087989
 20
37.9999902659
 11
321.0000087989
 21
10.0000002659
  0
LINE
  5
417
100
AcDbEntity
  8
388782-000-00-ED1_FORMAT
100
AcDbLine
 62
3
  6
CONTINUOUS
 10
321.0000280969
 20
64.9999941242
 11
583.9999980969
 21
64.9999941242
  0
LINE
  5
418
100
AcDbEntity
  8
388782-000-00-ED1_FORMAT
100
AcDbLine
 62
3
  6
CONTINUOUS
 10
321.0000280969
 20
64.9999941242
 11
321.0000280969
 21
9.9999941242
  0
LINE
  5
419
100
AcDbEntity
  8
388782-000-00-ED1_FORMAT
100
AcDbLine
 62
3
  6
CONTINUOUS
 10
321.0000280969
 20
9.9999941242
 11
583.9999980969
 21
9.9999941242
  0
LINE
  5
41A
100
AcDbEntity
  8
388782-000-00-ED1_FORMAT
100
AcDbLine
 62
3
  6
CONTINUOUS
 10
583.9999980969
 20
64.9999941242
 11
583.9999980969
 21
9.9999941242
  0
TEXT
  5
41B
100
AcDbEntity
  8
388782-000-00-ED1_FORMAT
100
AcDbText
 62
2
  6
CONTINUOUS
 10
358.5178852398
 20
60.7499941242
  7
STANDARD
 40
2.5
  1
 
 41
0.7857142857
 72
1
 11
359.5000280969
 21
60.7499941242
100
AcDbText
  0
TEXT
  5
41C
100
AcDbEntity
  8
388782-000-00-ED1_FORMAT
100
AcDbText
 62
2
  6
CONTINUOUS
 10
328.1309804778
 20
58.2497441242
  7
STANDARD
 40
2.5
  1
AUSWUCHTGUETE DIN ISO 1940-G 
 41
0.7939244663
 72
1
 11
356.9107423826
 21
58.2497441242
100
AcDbText
  0
TEXT
  5
41D
100
AcDbEntity
  8
388782-000-00-ED1_FORMAT
100
AcDbText
 62
2
  6
CONTINUOUS
 10
385.6905042874
 20
58.2497441242
  7
STANDARD
 40
2.5
  1
2.5
 41
0.6904761905
 72
1
 11
388.2797900017
 21
58.2497441242
100
AcDbText
  0
TEXT
  5
41E
100
AcDbEntity
  8
388782-000-00-ED1_FORMAT
100
AcDbText
 62
2
  6
CONTINUOUS
 10
358.5178852398
 20
56.5796741242
  7
STANDARD
 40
2.5
  1
 
 41
0.7857142857
 72
1
 11
359.5000280969
 21
56.5796741242
100
AcDbText
  0
TEXT
  5
41F
100
AcDbEntity
  8
388782-000-00-ED1_FORMAT
100
AcDbText
 62
2
  6
CONTINUOUS
 10
341.732170954
 20
52.8296741242
  7
STANDARD
 40
2.5
  1
(KOMPLETT MONTIERT)
 41
0.7481203008
 72
1
 11
359.5000280969
 21
52.8296741242
100
AcDbText
  0
TEXT
  5
420
100
AcDbEntity
  8
388782-000-00-ED1_FORMAT
100
AcDbText
 62
2
  6
CONTINUOUS
 10
552.1225280969
 20
54.9546741242
  7
STANDARD
 40
2.0
  1
14.01.14
 41
0.6517857143
 72
0
100
AcDbText
  0
TEXT
  5
421
100
AcDbEntity
  8
388782-000-00-ED1_FORMAT
100
AcDbText
 62
2
  6
CONTINUOUS
 10
572.7344773826
 20
54.9546741242
  7
STANDARD
 40
2.0
  1
SIK
 41
0.7380952381
 72
1
 11
574.9487630969
 21
54.9546741242
100
AcDbText
  0
TEXT
  5
422
100
AcDbEntity
  8
388782-000-00-ED1_FORMAT
100
AcDbText
 62
2
  6
CONTINUOUS
 10
331.8512185731
 20
46.8296741242
  7
STANDARD
 40
2.5
  1
FUER NENNDREHZAHL 
 41
0.7724867725
 72
1
 11
349.232170954
 21
46.8296741242
100
AcDbText
  0
TEXT
  5
423
100
AcDbEntity
  8
388782-000-00-ED1_FORMAT
100
AcDbText
 62
2
  6
CONTINUOUS
 10
366.613123335
 20
46.8296741242
  7
STANDARD
 40
2.5
  1
25000
 41
0.7714285714
 72
1
 11
371.4345519064
 21
46.8296741242
100
AcDbText
  0
TEXT
  5
424
100
AcDbEntity
  8
388782-000-00-ED1_FORMAT
100
AcDbText
 62
2
  6
CONTINUOUS
 10
376.2559804778
 20
46.8296741242
  7
STANDARD
 40
2.5
  1
 MIN
 41
0.7678571429
 72
1
 11
380.0952661921
 21
46.8296741242
100
AcDbText
  0
TEXT
  5
425
100
AcDbEntity
  8
388782-000-00-ED1_FORMAT
100
AcDbText
 62
2
  6
CONTINUOUS
 10
383.9345519064
 20
48.7046741242
  7
STANDARD
 40
2.5
  1
-1
 41
0.6428571429
 72
1
 11
385.5416947636
 21
48.7046741242
100
AcDbText
  0
TEXT
  5
426
100
AcDbEntity
  8
388782-000-00-ED1_FORMAT
100
AcDbText
 62
7
  6
CONTINUOUS
 10
399.2250280969
 20
25.9999941242
  7
STANDARD
 40
3.0
  1
DEHNSPANNFUTTER, HSK, LANGE SCHLANKE AUSFUEHRUNG
 41
0.7728174603
 72
0
100
AcDbText
  0
TEXT
  5
427
100
AcDbEntity
  8
388782-000-00-ED1_FORMAT
100
AcDbText
 62
2
  6
CONTINUOUS
 10
576.5952361921
 20
25.9999941242
  7
STANDARD
 40
2.0
  1
EHD
 41
0.8015873016
 72
1
 11
578.9999980969
 21
25.9999941242
100
AcDbText
  0
TEXT
  5
428
100
AcDbEntity
  8
388782-000-00-ED1_FORMAT
100
AcDbText
 62
7
  6
CONTINUOUS
 10
399.2250280969
 20
15.2499941242
  7
STANDARD
 40
3.0
  1
MHC-HSK-A063-12-120-1-0-A
 41
0.7476190476
 72
0
100
AcDbText
  0
TEXT
  5
429
100
AcDbEntity
  8
388782-000-00-ED1_FORMAT
100
AcDbText
 62
7
  6
CONTINUOUS
 10
475.2250280969
 20
15.2499941242
  7
STANDARD
 40
3.0
  1
30273804
 41
0.7678571429
 72
0
100
AcDbText
  0
TEXT
  5
42A
100
AcDbEntity
  8
388782-000-00-ED1_FORMAT
100
AcDbText
 62
7
  6
CONTINUOUS
 10
520.2250280969
 20
15.2499941242
  7
STANDARD
 40
3.0
  1
388782-000-00-ED1
 41
0.7591036415
 72
0
100
AcDbText
  0
TEXT
  5
42B
100
AcDbEntity
  8
388782-000-00-ED1_FORMAT
100
AcDbText
 62
2
  6
CONTINUOUS
 10
576.6428552398
 20
15.2499941242
  7
STANDARD
 40
3.0
  1
00
 41
0.7857142857
 72
1
 11
578.9999980969
 21
15.2499941242
100
AcDbText
  0
LINE
  5
42C
100
AcDbEntity
  8
388782-000-00-ED1_FORMAT
100
AcDbLine
 62
3
  6
CONTINUOUS
 10
15.9999998068
 20
9.9999999122
 11
15.9999998068
 21
144.9999999122
  0
LINE
  5
42D
100
AcDbEntity
  8
388782-000-00-ED1_FORMAT
100
AcDbLine
 62
3
  6
CONTINUOUS
 10
15.9999998068
 20
9.9999999122
 11
21.9999998068
 21
9.9999999122
  0
LINE
  5
42E
100
AcDbEntity
  8
388782-000-00-ED1_FORMAT
100
AcDbLine
 62
3
  6
CONTINUOUS
 10
21.9999998068
 20
9.9999999122
 11
21.9999998068
 21
144.9999999122
  0
LINE
  5
42F
100
AcDbEntity
  8
388782-000-00-ED1_FORMAT
100
AcDbLine
 62
3
  6
CONTINUOUS
 10
15.9999998068
 20
79.9999999122
 11
21.9999998068
 21
79.9999999122
  0
LINE
  5
430
100
AcDbEntity
  8
388782-000-00-ED1_FORMAT
100
AcDbLine
 62
3
  6
CONTINUOUS
 10
15.9999998068
 20
144.9999999122
 11
21.9999998068
 21
144.9999999122
  0
TEXT
  5
431
100
AcDbEntity
  8
388782-000-00-ED1_FORMAT
100
AcDbText
 62
2
  6
CONTINUOUS
 10
21.2499998068
 20
11.2249999122
  7
STANDARD
 40
3.5
  1
AEHNLICH:
 50
90.0
 41
0.7116402116
 72
0
100
AcDbText
  0
TEXT
  5
432
100
AcDbEntity
  8
388782-000-00-ED1_FORMAT
100
AcDbText
 62
2
  6
CONTINUOUS
 10
21.2499998068
 20
81.2249999122
  7
STANDARD
 40
3.5
  1
SKIZZE:
 50
90.0
 41
0.693877551
 72
0
100
AcDbText
  0
LINE
  5
433
100
AcDbEntity
  8
388782-000-00-ED1_FORMAT
100
AcDbLine
 62
3
  6
CONTINUOUS
 10
540.0000047006
 20
34.9999973292
 11
469.0000047006
 21
34.9999973292
  0
LINE
  5
434
100
AcDbEntity
  8
388782-000-00-ED1_FORMAT
100
AcDbLine
 62
3
  6
CONTINUOUS
 10
540.0000047006
 20
34.9999973292
 11
540.0000047006
 21
43.4999973292
  0
LINE
  5
435
100
AcDbEntity
  8
388782-000-00-ED1_FORMAT
100
AcDbLine
 62
3
  6
CONTINUOUS
 10
540.0000047006
 20
43.4999973292
 11
469.0000047006
 21
43.4999973292
  0
LINE
  5
436
100
AcDbEntity
  8
388782-000-00-ED1_FORMAT
100
AcDbLine
 62
3
  6
CONTINUOUS
 10
469.0000047006
 20
34.9999973292
 11
469.0000047006
 21
43.4999973292
  0
TEXT
  5
437
100
AcDbEntity
  8
388782-000-00-ED1_FORMAT
100
AcDbText
 62
2
  6
CONTINUOUS
 10
478.9642904149
 20
37.9999973292
  7
STANDARD
 40
2.5
  1
PATENTRECHTLICH GESCHUETZT
 41
0.7857142857
 72
1
 11
504.5000047006
 21
37.9999973292
100
AcDbText
  0
TEXT
  5
438
100
AcDbEntity
  8
388782-000-00-ED1_TEXT
100
AcDbText
 62
2
  6
CONTINUOUS
 10
206.6060518567
 20
308.8408739877
  7
STANDARD
 40
5.0
  1
TRENNSTELLE HSK-A63
 41
0.7731829574
 72
0
100
AcDbText
  0
TEXT
  5
439
100
AcDbEntity
  8
388782-000-00-ED1_TEXT
100
AcDbText
 62
2
  6
CONTINUOUS
 10
206.6060518567
 20
301.3408739877
  7
STANDARD
 40
5.0
  1
(AEHNLICH DIN 69893-1)
 41
0.7251082251
 72
0
100
AcDbText
  0
TEXT
  5
43A
100
AcDbEntity
  8
388782-000-00-ED1_TEXT
100
AcDbText
 62
2
  6
CONTINUOUS
 10
206.6060518567
 20
293.8408739877
  7
STANDARD
 40
5.0
  1
NACH MN609 BLATT 2-4
 41
0.7952380952
 72
0
100
AcDbText
  0
TEXT
  5
43B
100
AcDbEntity
  8
30339317_TEXT
100
AcDbText
 62
2
  6
CONTINUOUS
 10
463.5060518567
 20
149.5908739877
  7
STANDARD
 40
3.5
  1
FUER SCHAFTE MIT TOLERANZFELD h6
 41
0.7790178571
 72
0
100
AcDbText
  0
LEADER
  5
43C
100
AcDbEntity
  8
30339317_TEXT
100
AcDbLeader
 62
3
  6
CONTINUOUS
  3
STANDARD
 71
1
 72
0
 73
3
 75
0
 76
3
 10
458.5060518567
 20
225.3408739877
 30
0.0
 10
458.5060518567
 20
151.3408739877
 30
0.0
 10
463.5060518567
 20
151.3408739877
 30
0.0
1001
ACAD
1000
DSTYLE
1002
{
1070
77
1070
0
1070
341
1005
230
1002
}
  0
TEXT
  5
43D
100
AcDbEntity
  8
388782-000-00-ED1_TEXT
100
AcDbText
 62
2
  6
CONTINUOUS
 10
71.8677995623
 20
290.3408739877
  7
STANDARD
 40
5.0
  1
A-A
 41
0.8095238095
 72
2
 11
84.0106567052
 21
290.3408739877
100
AcDbText
  0
INSERT
  5
43E
100
AcDbEntity
  8
388782-000-00-ED1_CL
100
AcDbBlockReference
 62
3
  6
CONTINUOUS
  2
GEOM_TOLERANCE_SYMBOLS_BL5
 10
273.4052225475
 20
260.7186492044
  0
LEADER
  5
43F
100
AcDbEntity
  8
388782-000-00-ED1_CL
100
AcDbLeader
 62
3
  6
CONTINUOUS
  3
STANDARD
 71
1
 72
0
 73
2
 75
0
 76
3
 10
458.5060518567
 20
225.3408739877
 30
0.0
 10
458.5060518567
 20
161.3408739877
 30
0.0
 10
458.5061113161
 20
161.3408739877
 30
0.0
340
440
1001
ACAD
1000
DSTYLE
1002
{
1070
77
1070
0
1070
341
1005
230
1002
}
  0
INSERT
  5
440
102
{ACAD_REACTORS
330
43F
102
}
100
AcDbEntity
  8
388782-000-00-ED1_CL
100
AcDbBlockReference
 62
3
  6
CONTINUOUS
  2
GEOM_TOLERANCE_SYMBOLS_BL6
 10
479.0245287111
 20
161.341135075
  0
LEADER
  5
441
100
AcDbEntity
  8
388782-000-00-ED1_CL
100
AcDbLeader
 62
3
  6
CONTINUOUS
  3
STANDARD
 71
1
 72
0
 73
2
 75
0
 76
2
 10
365.8060518567
 20
231.4219397653
 30
0.0
 10
349.2892344744
 20
177.2000646573
 30
0.0
340
442
1001
ACAD
1000
DSTYLE
1002
{
1070
77
1070
0
1070
341
1005
231
1002
}
  0
INSERT
  5
442
102
{ACAD_REACTORS
330
441
102
}
100
AcDbEntity
  8
388782-000-00-ED1_CL
100
AcDbBlockReference
 62
3
  6
CONTINUOUS
  2
BOMBALLOON_BL7
 10
347.5044348506
 20
171.3408739877
  0
LEADER
  5
443
100
AcDbEntity
  8
388782-000-00-ED1_CL
100
AcDbLeader
 62
3
  6
CONTINUOUS
  3
STANDARD
 71
1
 72
0
 73
2
 75
0
 76
2
 10
102.9975794152
 20
250.4208739877
 30
0.0
 10
87.4975452461
 20
272.8052773693
 30
0.0
340
444
1001
ACAD
1000
DSTYLE
1002
{
1070
77
1070
0
1070
341
1005
231
1002
}
  0
INSERT
  5
444
102
{ACAD_REACTORS
330
443
102
}
100
AcDbEntity
  8
388782-000-00-ED1_CL
100
AcDbBlockReference
 62
3
  6
CONTINUOUS
  2
BOMBALLOON_BL8
 10
84.0106567052
 20
277.8408739877
  0
LINE
  5
445
100
AcDbEntity
  8
388782-000-00-ED1_FORMAT
100
AcDbLine
 62
6
  6
HIDDEN
 10
-0.0
 20
420.0
 11
-0.0
 21
0.0
  0
LINE
  5
446
100
AcDbEntity
  8
388782-000-00-ED1_FORMAT
100
AcDbLine
 62
7
  6
CONTINUOUS
 10
5.0
 20
415.0
 11
5.0
 21
5.0
  0
LINE
  5
447
100
AcDbEntity
  8
388782-000-00-ED1_FORMAT
100
AcDbLine
 62
3
  6
CONTINUOUS
 10
10.0
 20
410.0
 11
10.0
 21
10.0
  0
LINE
  5
448
100
AcDbEntity
  8
388782-000-00-ED1_FORMAT
100
AcDbLine
 62
3
  6
CONTINUOUS
 10
15.9999998068
 20
9.9999999122
 11
15.9999998068
 21
209.9999964
  0
LINE
  5
449
100
AcDbEntity
  8
388782-000-00-ED1_FORMAT
100
AcDbLine
 62
3
  6
CONTINUOUS
 10
47.0
 20
10.0
 11
47.0
 21
5.0
  0
LINE
  5
44A
100
AcDbEntity
  8
388782-000-00-ED1_FORMAT
100
AcDbLine
 62
3
  6
CONTINUOUS
 10
47.0
 20
410.0
 11
47.0
 21
415.0
  0
LINE
  5
44B
100
AcDbEntity
  8
388782-000-00-ED1_FORMAT
100
AcDbLine
 62
6
  6
HIDDEN
 10
-0.0
 20
0.0
 11
594.0
 21
0.0
  0
LINE
  5
44C
100
AcDbEntity
  8
388782-000-00-ED1_FORMAT
100
AcDbLine
 62
7
  6
CONTINUOUS
 10
5.0
 20
5.0
 11
589.0
 21
5.0
  0
LINE
  5
44D
100
AcDbEntity
  8
388782-000-00-ED1_FORMAT
100
AcDbLine
 62
3
  6
CONTINUOUS
 10
97.0
 20
10.0
 11
97.0
 21
5.0
  0
LINE
  5
44E
100
AcDbEntity
  8
388782-000-00-ED1_FORMAT
100
AcDbLine
 62
3
  6
CONTINUOUS
 10
97.0
 20
410.0
 11
97.0
 21
415.0
  0
LINE
  5
44F
100
AcDbEntity
  8
388782-000-00-ED1_FORMAT
100
AcDbLine
 62
90
  6
CONTINUOUS
 10
486.2079074361
 20
51.4102390916
 11
484.7759922626
 21
51.0971516522
  0
LINE
  5
450
100
AcDbEntity
  8
388782-000-00-ED1_FORMAT
100
AcDbLine
 62
90
  6
CONTINUOUS
 10
495.735738738
 20
56.8851989996
 11
497.4244593118
 21
57.2541030852
  0
LINE
  5
451
100
AcDbEntity
  8
388782-000-00-ED1_FORMAT
100
AcDbLine
 62
90
  6
CONTINUOUS
 10
492.9722196624
 20
53.9466578122
 11
493.1567899608
 21
53.9852167692
  0
LINE
  5
452
100
AcDbEntity
  8
388782-000-00-ED1_FORMAT
100
AcDbLine
 62
90
  6
CONTINUOUS
 10
493.4917203551
 20
52.9019305668
 11
493.3296720276
 21
52.868304013
  0
LINE
  5
453
100
AcDbEntity
  8
388782-000-00-ED1_FORMAT
100
AcDbLine
 62
90
  6
CONTINUOUS
 10
486.8827731071
 20
51.5341747816
 11
486.6780001736
 21
51.4975460613
  0
LINE
  5
454
100
AcDbEntity
  8
388782-000-00-ED1_FORMAT
100
AcDbLine
 62
90
  6
CONTINUOUS
 10
487.0814425255
 20
51.5666340381
 11
486.8827731071
 21
51.5341747816
  0
LINE
  5
455
100
AcDbEntity
  8
388782-000-00-ED1_FORMAT
100
AcDbLine
 62
90
  6
CONTINUOUS
 10
487.2753512021
 20
51.5952557095
 11
487.0814425255
 21
51.5666340381
  0
LINE
  5
456
100
AcDbEntity
  8
388782-000-00-ED1_FORMAT
100
AcDbLine
 62
3
  6
CONTINUOUS
 10
10.0
 20
10.0
 11
209.0001087989
 21
10.0
  0
LINE
  5
457
100
AcDbEntity
  8
388782-000-00-ED1_FORMAT
100
AcDbLine
 62
7
  6
CONTINUOUS
 10
209.0001087989
 20
10.0
 11
584.0
 21
10.0
  0
LINE
  5
458
100
AcDbEntity
  8
388782-000-00-ED1_FORMAT
100
AcDbLine
 62
7
  6
CONTINUOUS
 10
584.0
 20
13.4999996261
 11
398.0000178708
 21
13.4999996261
  0
LINE
  5
459
100
AcDbEntity
  8
388782-000-00-ED1_FORMAT
100
AcDbLine
 62
7
  6
CONTINUOUS
 10
321.0000698625
 20
15.9999979141
 11
209.0001087989
 21
15.9999979141
  0
LINE
  5
45A
100
AcDbEntity
  8
388782-000-00-ED1_FORMAT
100
AcDbLine
 62
7
  6
CONTINUOUS
 10
584.0
 20
24.2499984776
 11
398.0000178708
 21
24.2499984776
  0
LINE
  5
45B
100
AcDbEntity
  8
388782-000-00-ED1_FORMAT
100
AcDbLine
 62
90
  6
CONTINUOUS
 10
493.3296720276
 20
52.868304013
 11
493.1589872263
 21
52.8447558885
  0
LINE
  5
45C
100
AcDbEntity
  8
388782-000-00-ED1_FORMAT
100
AcDbLine
 62
90
  6
CONTINUOUS
 10
487.4658724277
 20
51.6203487862
 11
487.2753512021
 21
51.5952557095
  0
LINE
  5
45D
100
AcDbEntity
  8
388782-000-00-ED1_FORMAT
100
AcDbLine
 62
90
  6
CONTINUOUS
 10
487.6543489758
 20
51.6422413322
 11
487.4658724277
 21
51.6203487862
  0
LINE
  5
45E
100
AcDbEntity
  8
388782-000-00-ED1_FORMAT
100
AcDbLine
 62
90
  6
CONTINUOUS
 10
487.8421846548
 20
51.6612499672
 11
487.6543489758
 21
51.6422413322
  0
LINE
  5
45F
100
AcDbEntity
  8
388782-000-00-ED1_FORMAT
100
AcDbLine
 62
90
  6
CONTINUOUS
 10
488.0306917204
 20
51.6776989405
 11
487.8421846548
 21
51.6612499672
  0
LINE
  5
460
100
AcDbEntity
  8
388782-000-00-ED1_FORMAT
100
AcDbLine
 62
90
  6
CONTINUOUS
 10
489.8962311284
 20
51.8283985445
 11
489.6792511645
 21
51.8104503952
  0
LINE
  5
461
100
AcDbEntity
  8
388782-000-00-ED1_FORMAT
100
AcDbLine
 62
90
  6
CONTINUOUS
 10
492.7601225107
 20
53.9302469859
 11
492.9722196624
 21
53.9466578122
  0
LINE
  5
462
100
AcDbEntity
  8
388782-000-00-ED1_FORMAT
100
AcDbLine
 62
90
  6
CONTINUOUS
 10
493.1589872263
 20
52.8447558885
 11
492.9797269861
 21
52.8313205258
  0
LINE
  5
463
100
AcDbEntity
  8
388782-000-00-ED1_FORMAT
100
AcDbLine
 62
90
  6
CONTINUOUS
 10
488.2212739812
 20
51.6919048721
 11
488.0306917204
 21
51.6776989405
  0
LINE
  5
464
100
AcDbEntity
  8
388782-000-00-ED1_FORMAT
100
AcDbLine
 62
90
  6
CONTINUOUS
 10
489.4688019619
 20
52.7755076944
 11
488.4483247451
 21
52.7013690587
  0
LINE
  5
465
100
AcDbEntity
  8
388782-000-00-ED1_FORMAT
100
AcDbLine
 62
90
  6
CONTINUOUS
 10
490.1106476159
 20
51.8401821434
 11
489.8962311284
 21
51.8283985445
  0
LINE
  5
466
100
AcDbEntity
  8
388782-000-00-ED1_FORMAT
100
AcDbLine
 62
90
  6
CONTINUOUS
 10
488.5569062797
 20
53.7608935137
 11
489.3363251654
 21
53.8016764391
  0
LINE
  5
467
100
AcDbEntity
  8
388782-000-00-ED1_FORMAT
100
AcDbLine
 62
90
  6
CONTINUOUS
 10
490.3231414961
 20
51.847224074
 11
490.1106476159
 21
51.8401821434
  0
LINE
  5
468
100
AcDbEntity
  8
388782-000-00-ED1_FORMAT
100
AcDbLine
 62
7
  6
CONTINUOUS
 10
321.0000698625
 20
31.9999913512
 11
209.0001087989
 21
31.9999913512
  0
LINE
  5
469
100
AcDbEntity
  8
388782-000-00-ED1_FORMAT
100
AcDbLine
 62
7
  6
CONTINUOUS
 10
398.0000178708
 20
34.9999973292
 11
584.0
 21
34.9999973292
  0
LINE
  5
46A
100
AcDbEntity
  8
388782-000-00-ED1_FORMAT
100
AcDbLine
 62
7
  6
CONTINUOUS
 10
209.0001087989
 20
37.9999902659
 11
321.0000698625
 21
37.9999902659
  0
LINE
  5
46B
100
AcDbEntity
  8
388782-000-00-ED1_FORMAT
100
AcDbLine
 62
7
  6
CONTINUOUS
 10
584.0
 20
40.954677693
 11
540.0000047006
 21
40.954677693
  0
LINE
  5
46C
100
AcDbEntity
  8
388782-000-00-ED1_FORMAT
100
AcDbLine
 62
7
  6
CONTINUOUS
 10
540.0000047006
 20
43.4999964211
 11
321.0000280969
 21
43.4999964211
  0
LINE
  5
46D
100
AcDbEntity
  8
388782-000-00-ED1_FORMAT
100
AcDbLine
 62
7
  6
CONTINUOUS
 10
584.0
 20
46.954677052
 11
540.0000047006
 21
46.954677052
  0
LINE
  5
46E
100
AcDbEntity
  8
388782-000-00-ED1_FORMAT
100
AcDbLine
 62
3
  6
CONTINUOUS
 10
147.0
 20
10.0
 11
147.0
 21
5.0
  0
LINE
  5
46F
100
AcDbEntity
  8
388782-000-00-ED1_FORMAT
100
AcDbLine
 62
3
  6
CONTINUOUS
 10
147.0
 20
410.0
 11
147.0
 21
415.0
  0
LINE
  5
470
100
AcDbEntity
  8
388782-000-00-ED1_FORMAT
100
AcDbLine
 62
90
  6
CONTINUOUS
 10
491.5046599603
 20
56.6184677578
 11
491.7463896781
 21
56.6283897847
  0
LINE
  5
471
100
AcDbEntity
  8
388782-000-00-ED1_FORMAT
100
AcDbLine
 62
90
  6
CONTINUOUS
 10
491.7463896781
 20
56.6283897847
 11
491.9648650032
 21
56.6358932936
  0
LINE
  5
472
100
AcDbEntity
  8
388782-000-00-ED1_FORMAT
100
AcDbLine
 62
90
  6
CONTINUOUS
 10
491.9648650032
 20
56.6358932936
 11
492.1660063452
 21
56.6412529429
  0
LINE
  5
473
100
AcDbEntity
  8
388782-000-00-ED1_FORMAT
100
AcDbLine
 62
90
  6
CONTINUOUS
 10
492.1660063452
 20
56.6412529429
 11
492.3558561842
 21
56.6447319465
  0
LINE
  5
474
100
AcDbEntity
  8
388782-000-00-ED1_FORMAT
100
AcDbLine
 62
90
  6
CONTINUOUS
 10
490.5344451909
 20
51.850951033
 11
490.3231414961
 21
51.847224074
  0
LINE
  5
475
100
AcDbEntity
  8
388782-000-00-ED1_FORMAT
100
AcDbLine
 62
90
  6
CONTINUOUS
 10
492.9797269861
 20
52.8313205258
 11
492.7919523422
 21
52.8280437011
  0
LINE
  5
476
100
AcDbEntity
  8
388782-000-00-ED1_FORMAT
100
AcDbLine
 62
90
  6
CONTINUOUS
 10
490.8694061027
 20
47.6402732547
 11
491.6933501314
 21
47.6402732547
  0
LINE
  5
477
100
AcDbEntity
  8
388782-000-00-ED1_FORMAT
100
AcDbLine
 62
90
  6
CONTINUOUS
 10
492.3100798205
 20
47.9302741481
 11
490.2669891566
 21
47.9302741481
  0
LINE
  5
478
100
AcDbEntity
  8
388782-000-00-ED1_FORMAT
100
AcDbLine
 62
90
  6
CONTINUOUS
 10
489.6645722106
 20
48.2202750414
 11
492.9268400272
 21
48.2202750414
  0
LINE
  5
479
100
AcDbEntity
  8
388782-000-00-ED1_FORMAT
100
AcDbLine
 62
90
  6
CONTINUOUS
 10
493.5435697163
 20
48.51027212
 11
489.0621552645
 21
48.51027212
  0
LINE
  5
47A
100
AcDbEntity
  8
388782-000-00-ED1_FORMAT
100
AcDbLine
 62
90
  6
CONTINUOUS
 10
488.4597383184
 20
48.8002730134
 11
494.1602994055
 21
48.8002730134
  0
LINE
  5
47B
100
AcDbEntity
  8
388782-000-00-ED1_FORMAT
100
AcDbLine
 62
90
  6
CONTINUOUS
 10
502.4875387582
 20
49.0902739067
 11
502.1043905942
 21
49.0902739067
  0
LINE
  5
47C
100
AcDbEntity
  8
388782-000-00-ED1_FORMAT
100
AcDbLine
 62
90
  6
CONTINUOUS
 10
494.7770596121
 20
49.0902739067
 11
487.8573213724
 21
49.0902739067
  0
LINE
  5
47D
100
AcDbEntity
  8
388782-000-00-ED1_FORMAT
100
AcDbLine
 62
90
  6
CONTINUOUS
 10
480.5294105564
 20
49.3802748
 11
481.1345130492
 21
49.3802748
  0
LINE
  5
47E
100
AcDbEntity
  8
388782-000-00-ED1_FORMAT
100
AcDbLine
 62
90
  6
CONTINUOUS
 10
487.2549044263
 20
49.3802748
 11
495.3937893013
 21
49.3802748
  0
LINE
  5
47F
100
AcDbEntity
  8
388782-000-00-ED1_FORMAT
100
AcDbLine
 62
90
  6
CONTINUOUS
 10
501.5346579718
 20
49.3802748
 11
502.1115011893
 21
49.3802748
  0
LINE
  5
480
100
AcDbEntity
  8
388782-000-00-ED1_FORMAT
100
AcDbLine
 62
90
  6
CONTINUOUS
 10
502.2963156283
 20
49.3802748
 11
502.8705038168
 21
49.3802748
  0
LINE
  5
481
100
AcDbEntity
  8
388782-000-00-ED1_FORMAT
100
AcDbLine
 62
90
  6
CONTINUOUS
 10
502.8858236398
 20
49.6702718786
 11
502.2963156283
 21
49.6702718786
  0
LINE
  5
482
100
AcDbEntity
  8
388782-000-00-ED1_FORMAT
100
AcDbLine
 62
90
  6
CONTINUOUS
 10
501.5367026493
 20
49.6702718786
 11
500.9648948318
 21
49.6702718786
  0
LINE
  5
483
100
AcDbEntity
  8
388782-000-00-ED1_FORMAT
100
AcDbLine
 62
90
  6
CONTINUOUS
 10
496.0105189904
 20
49.6702718786
 11
486.6524874802
 21
49.6702718786
  0
LINE
  5
484
100
AcDbEntity
  8
388782-000-00-ED1_FORMAT
100
AcDbLine
 62
90
  6
CONTINUOUS
 10
481.651694406
 20
49.6702718786
 11
481.1118995255
 21
49.6702718786
  0
LINE
  5
485
100
AcDbEntity
  8
388782-000-00-ED1_FORMAT
100
AcDbLine
 62
90
  6
CONTINUOUS
 10
480.8541480804
 20
49.6702718786
 11
480.2529823549
 21
49.6702718786
  0
LINE
  5
486
100
AcDbEntity
  8
388782-000-00-ED1_FORMAT
100
AcDbLine
 62
90
  6
CONTINUOUS
 10
480.2529823549
 20
49.960272772
 11
480.8542701507
 21
49.960272772
  0
LINE
  5
487
100
AcDbEntity
  8
388782-000-00-ED1_FORMAT
100
AcDbLine
 62
90
  6
CONTINUOUS
 10
481.6427222388
 20
49.960272772
 11
482.1689062805
 21
49.960272772
  0
LINE
  5
488
100
AcDbEntity
  8
388782-000-00-ED1_FORMAT
100
AcDbLine
 62
90
  6
CONTINUOUS
 10
486.0500705342
 20
49.960272772
 11
496.6272486795
 21
49.960272772
  0
LINE
  5
489
100
AcDbEntity
  8
388782-000-00-ED1_FORMAT
100
AcDbLine
 62
90
  6
CONTINUOUS
 10
500.3951316918
 20
49.960272772
 11
500.9619041094
 21
49.960272772
  0
LINE
  5
48A
100
AcDbEntity
  8
388782-000-00-ED1_FORMAT
100
AcDbLine
 62
90
  6
CONTINUOUS
 10
502.2963156283
 20
49.960272772
 11
502.8858236398
 21
49.960272772
  0
LINE
  5
48B
100
AcDbEntity
  8
388782-000-00-ED1_FORMAT
100
AcDbLine
 62
90
  6
CONTINUOUS
 10
502.8858236398
 20
50.2502736653
 11
502.2963156283
 21
50.2502736653
  0
LINE
  5
48C
100
AcDbEntity
  8
388782-000-00-ED1_FORMAT
100
AcDbLine
 62
90
  6
CONTINUOUS
 10
500.3871055694
 20
50.2502736653
 11
499.8253990694
 21
50.2502736653
  0
LINE
  5
48D
100
AcDbEntity
  8
388782-000-00-ED1_FORMAT
100
AcDbLine
 62
90
  6
CONTINUOUS
 10
497.2440088862
 20
50.2502736653
 11
485.4476230705
 21
50.2502736653
  0
LINE
  5
48E
100
AcDbEntity
  8
388782-000-00-ED1_FORMAT
100
AcDbLine
 62
90
  6
CONTINUOUS
 10
482.6563635186
 20
50.2502736653
 11
482.173544952
 21
50.2502736653
  0
LINE
  5
48F
100
AcDbEntity
  8
388782-000-00-ED1_FORMAT
100
AcDbLine
 62
90
  6
CONTINUOUS
 10
480.8543617034
 20
50.2502736653
 11
480.2529823549
 21
50.2502736653
  0
LINE
  5
490
100
AcDbEntity
  8
388782-000-00-ED1_FORMAT
100
AcDbLine
 62
90
  6
CONTINUOUS
 10
480.2529823549
 20
50.5402745586
 11
480.8544532561
 21
50.5402745586
  0
LINE
  5
491
100
AcDbEntity
  8
388782-000-00-ED1_FORMAT
100
AcDbLine
 62
90
  6
CONTINUOUS
 10
482.453391122
 20
50.5402745586
 11
482.6559362725
 21
50.5402745586
  0
LINE
  5
492
100
AcDbEntity
  8
388782-000-00-ED1_FORMAT
100
AcDbLine
 62
90
  6
CONTINUOUS
 10
484.8452061244
 20
50.5402745586
 11
497.8607385753
 21
50.5402745586
  0
LINE
  5
493
100
AcDbEntity
  8
388782-000-00-ED1_FORMAT
100
AcDbLine
 62
90
  6
CONTINUOUS
 10
499.2556359294
 20
50.5402745586
 11
499.8123070294
 21
50.5402745586
  0
LINE
  5
494
100
AcDbEntity
  8
388782-000-00-ED1_FORMAT
100
AcDbLine
 62
90
  6
CONTINUOUS
 10
502.2963156283
 20
50.5402745586
 11
502.8858236398
 21
50.5402745586
  0
LINE
  5
495
100
AcDbEntity
  8
388782-000-00-ED1_FORMAT
100
AcDbLine
 62
90
  6
CONTINUOUS
 10
502.8858236398
 20
50.8302716372
 11
502.2963156283
 21
50.8302716372
  0
LINE
  5
496
100
AcDbEntity
  8
388782-000-00-ED1_FORMAT
100
AcDbLine
 62
90
  6
CONTINUOUS
 10
499.407247246
 20
50.8302716372
 11
499.1310631851
 21
50.8302716372
  0
LINE
  5
497
100
AcDbEntity
  8
388782-000-00-ED1_FORMAT
100
AcDbLine
 62
90
  6
CONTINUOUS
 10
498.4774682644
 20
50.8302716372
 11
484.2427891784
 21
50.8302716372
  0
LINE
  5
498
100
AcDbEntity
  8
388782-000-00-ED1_FORMAT
100
AcDbLine
 62
90
  6
CONTINUOUS
 10
482.655539544
 20
50.8302716372
 11
482.453391122
 21
50.8302716372
  0
LINE
  5
499
100
AcDbEntity
  8
388782-000-00-ED1_FORMAT
100
AcDbLine
 62
90
  6
CONTINUOUS
 10
480.8545448089
 20
50.8302716372
 11
480.2529823549
 21
50.8302716372
  0
LINE
  5
49A
100
AcDbEntity
  8
388782-000-00-ED1_FORMAT
100
AcDbLine
 62
90
  6
CONTINUOUS
 10
480.2529823549
 20
51.1202725306
 11
480.8546363616
 21
51.1202725306
  0
LINE
  5
49B
100
AcDbEntity
  8
388782-000-00-ED1_FORMAT
100
AcDbLine
 62
90
  6
CONTINUOUS
 10
482.453391122
 20
51.1202725306
 11
482.655112298
 21
51.1202725306
  0
LINE
  5
49C
100
AcDbEntity
  8
388782-000-00-ED1_FORMAT
100
AcDbLine
 62
90
  6
CONTINUOUS
 10
483.6403722323
 20
51.1202725306
 11
484.7759922626
 21
51.1202725306
  0
LINE
  5
49D
100
AcDbEntity
  8
388782-000-00-ED1_FORMAT
100
AcDbLine
 62
90
  6
CONTINUOUS
 10
484.8817356627
 20
51.1202725306
 11
497.7463587012
 21
51.1202725306
  0
LINE
  5
49E
100
AcDbEntity
  8
388782-000-00-ED1_FORMAT
100
AcDbLine
 62
90
  6
CONTINUOUS
 10
498.5632836875
 20
51.1202725306
 11
499.0942284711
 21
51.1202725306
  0
LINE
  5
49F
100
AcDbEntity
  8
388782-000-00-ED1_FORMAT
100
AcDbLine
 62
90
  6
CONTINUOUS
 10
499.1310631851
 20
51.1202725306
 11
499.407247246
 21
51.1202725306
  0
LINE
  5
4A0
100
AcDbEntity
  8
388782-000-00-ED1_FORMAT
100
AcDbLine
 62
90
  6
CONTINUOUS
 10
501.970021708
 20
51.1202725306
 11
502.8858236398
 21
51.1202725306
  0
LINE
  5
4A1
100
AcDbEntity
  8
388782-000-00-ED1_FORMAT
100
AcDbLine
 62
90
  6
CONTINUOUS
 10
502.2166342379
 20
51.4102734239
 11
501.2521872903
 21
51.4102734239
  0
LINE
  5
4A2
100
AcDbEntity
  8
388782-000-00-ED1_FORMAT
100
AcDbLine
 62
90
  6
CONTINUOUS
 10
499.407247246
 20
51.4102734239
 11
498.5094201663
 21
51.4102734239
  0
LINE
  5
4A3
100
AcDbEntity
  8
388782-000-00-ED1_FORMAT
100
AcDbLine
 62
90
  6
CONTINUOUS
 10
496.9744776568
 20
51.4102734239
 11
486.2079074361
 21
51.4102734239
  0
LINE
  5
4A4
100
AcDbEntity
  8
388782-000-00-ED1_FORMAT
100
AcDbLine
 62
90
  6
CONTINUOUS
 10
484.7759922626
 20
51.4102734239
 11
483.7665624082
 21
51.4102734239
  0
LINE
  5
4A5
100
AcDbEntity
  8
388782-000-00-ED1_FORMAT
100
AcDbLine
 62
90
  6
CONTINUOUS
 10
483.5572118383
 20
51.4102734239
 11
483.0379552862
 21
51.4102734239
  0
LINE
  5
4A6
100
AcDbEntity
  8
388782-000-00-ED1_FORMAT
100
AcDbLine
 62
90
  6
CONTINUOUS
 10
482.6546850519
 20
51.4102734239
 11
482.453391122
 21
51.4102734239
  0
LINE
  5
4A7
100
AcDbEntity
  8
388782-000-00-ED1_FORMAT
100
AcDbLine
 62
90
  6
CONTINUOUS
 10
480.8547279143
 20
51.4102734239
 11
480.2529823549
 21
51.4102734239
  0
LINE
  5
4A8
100
AcDbEntity
  8
388782-000-00-ED1_FORMAT
100
AcDbLine
 62
90
  6
CONTINUOUS
 10
480.2529823549
 20
51.7002743172
 11
480.8548499846
 21
51.7002743172
  0
LINE
  5
4A9
100
AcDbEntity
  8
388782-000-00-ED1_FORMAT
100
AcDbLine
 62
90
  6
CONTINUOUS
 10
482.453391122
 20
51.7002743172
 11
483.4360570624
 21
51.7002743172
  0
LINE
  5
4AA
100
AcDbEntity
  8
388782-000-00-ED1_FORMAT
100
AcDbLine
 62
90
  6
CONTINUOUS
 10
483.8899144495
 20
51.7002743172
 11
484.7759922626
 21
51.7002743172
  0
LINE
  5
4AB
100
AcDbEntity
  8
388782-000-00-ED1_FORMAT
100
AcDbLine
 62
90
  6
CONTINUOUS
 10
486.2079074361
 20
51.7002743172
 11
486.7341219955
 21
51.7002743172
  0
LINE
  5
4AC
100
AcDbEntity
  8
388782-000-00-ED1_FORMAT
100
AcDbLine
 62
90
  6
CONTINUOUS
 10
488.2231355533
 20
51.7002743172
 11
494.5559597756
 21
51.7002743172
  0
LINE
  5
4AD
100
AcDbEntity
  8
388782-000-00-ED1_FORMAT
100
AcDbLine
 62
90
  6
CONTINUOUS
 10
496.0495509698
 20
51.7002743172
 11
496.9518946507
 21
51.7002743172
  0
LINE
  5
4AE
100
AcDbEntity
  8
388782-000-00-ED1_FORMAT
100
AcDbLine
 62
90
  6
CONTINUOUS
 10
498.4555871626
 20
51.7002743172
 11
499.407247246
 21
51.7002743172
  0
LINE
  5
4AF
100
AcDbEntity
  8
388782-000-00-ED1_FORMAT
100
AcDbLine
 62
90
  6
CONTINUOUS
 10
500.9321799905
 20
51.7002743172
 11
501.4721884941
 21
51.7002743172
  0
LINE
  5
4B0
100
AcDbEntity
  8
388782-000-00-ED1_FORMAT
100
AcDbLine
 62
90
  6
CONTINUOUS
 10
490.7452606044
 20
51.8527782728
 11
490.5344451909
 21
51.8527782728
  0
LINE
  5
4B1
100
AcDbEntity
  8
388782-000-00-ED1_FORMAT
100
AcDbLine
 62
90
  6
CONTINUOUS
 10
490.9563506761
 20
51.8541324903
 11
490.7452606044
 21
51.8541324903
  0
LINE
  5
4B2
100
AcDbEntity
  8
388782-000-00-ED1_FORMAT
100
AcDbLine
 62
90
  6
CONTINUOUS
 10
491.1683562751
 20
51.8564365672
 11
490.9563506761
 21
51.8564365672
  0
LINE
  5
4B3
100
AcDbEntity
  8
388782-000-00-ED1_FORMAT
100
AcDbLine
 62
90
  6
CONTINUOUS
 10
501.4483542674
 20
51.9902713958
 11
500.9321799905
 21
51.9902713958
  0
LINE
  5
4B4
100
AcDbEntity
  8
388782-000-00-ED1_FORMAT
100
AcDbLine
 62
90
  6
CONTINUOUS
 10
499.407247246
 20
51.9902713958
 11
498.4017541589
 21
51.9902713958
  0
LINE
  5
4B5
100
AcDbEntity
  8
388782-000-00-ED1_FORMAT
100
AcDbLine
 62
90
  6
CONTINUOUS
 10
496.3748988453
 20
51.9902713958
 11
496.103994325
 21
51.9902713958
  0
LINE
  5
4B6
100
AcDbEntity
  8
388782-000-00-ED1_FORMAT
100
AcDbLine
 62
90
  6
CONTINUOUS
 10
494.621969292
 20
51.9902713958
 11
492.7934477035
 21
51.9902713958
  0
LINE
  5
4B7
100
AcDbEntity
  8
388782-000-00-ED1_FORMAT
100
AcDbLine
 62
90
  6
CONTINUOUS
 10
491.5046599603
 20
51.9902713958
 11
491.1345122836
 21
51.9902713958
  0
LINE
  5
4B8
100
AcDbEntity
  8
388782-000-00-ED1_FORMAT
100
AcDbLine
 62
90
  6
CONTINUOUS
 10
489.6400360796
 20
51.9902713958
 11
488.2883821304
 21
51.9902713958
  0
LINE
  5
4B9
100
AcDbEntity
  8
388782-000-00-ED1_FORMAT
100
AcDbLine
 62
90
  6
CONTINUOUS
 10
486.8143832198
 20
51.9902713958
 11
486.2079074361
 21
51.9902713958
  0
LINE
  5
4BA
100
AcDbEntity
  8
388782-000-00-ED1_FORMAT
100
AcDbLine
 62
90
  6
CONTINUOUS
 10
484.7759922626
 20
51.9902713958
 11
484.0132664909
 21
51.9902713958
  0
LINE
  5
4BB
100
AcDbEntity
  8
388782-000-00-ED1_FORMAT
100
AcDbLine
 62
90
  6
CONTINUOUS
 10
483.3149328041
 20
51.9902713958
 11
482.453391122
 21
51.9902713958
  0
LINE
  5
4BC
100
AcDbEntity
  8
388782-000-00-ED1_FORMAT
100
AcDbLine
 62
90
  6
CONTINUOUS
 10
480.8549415374
 20
51.9902713958
 11
480.2529823549
 21
51.9902713958
  0
LINE
  5
4BD
100
AcDbEntity
  8
388782-000-00-ED1_FORMAT
100
AcDbLine
 62
90
  6
CONTINUOUS
 10
480.2529823549
 20
52.2802722892
 11
480.8550330901
 21
52.2802722892
  0
LINE
  5
4BE
100
AcDbEntity
  8
388782-000-00-ED1_FORMAT
100
AcDbLine
 62
90
  6
CONTINUOUS
 10
482.453391122
 20
52.2802722892
 11
483.1937780282
 21
52.2802722892
  0
LINE
  5
4BF
100
AcDbEntity
  8
388782-000-00-ED1_FORMAT
100
AcDbLine
 62
90
  6
CONTINUOUS
 10
484.1365880146
 20
52.2802722892
 11
484.7759922626
 21
52.2802722892
  0
LINE
  5
4C0
100
AcDbEntity
  8
388782-000-00-ED1_FORMAT
100
AcDbLine
 62
90
  6
CONTINUOUS
 10
486.2079074361
 20
52.2802722892
 11
486.8946444441
 21
52.2802722892
  0
LINE
  5
4C1
100
AcDbEntity
  8
388782-000-00-ED1_FORMAT
100
AcDbLine
 62
90
  6
CONTINUOUS
 10
488.3535981898
 20
52.2802722892
 11
489.576773145
 21
52.2802722892
  0
LINE
  5
4C2
100
AcDbEntity
  8
388782-000-00-ED1_FORMAT
100
AcDbLine
 62
90
  6
CONTINUOUS
 10
491.061178549
 20
52.2802722892
 11
491.5046599603
 21
52.2802722892
  0
LINE
  5
4C3
100
AcDbEntity
  8
388782-000-00-ED1_FORMAT
100
AcDbLine
 62
90
  6
CONTINUOUS
 10
492.7929289047
 20
52.2802722892
 11
494.6879482908
 21
52.2802722892
  0
LINE
  5
4C4
100
AcDbEntity
  8
388782-000-00-ED1_FORMAT
100
AcDbLine
 62
90
  6
CONTINUOUS
 10
498.3479211552
 20
52.2802722892
 11
499.407247246
 21
52.2802722892
  0
LINE
  5
4C5
100
AcDbEntity
  8
388782-000-00-ED1_FORMAT
100
AcDbLine
 62
90
  6
CONTINUOUS
 10
500.9321799905
 20
52.2802722892
 11
501.7005820313
 21
52.2802722892
  0
LINE
  5
4C6
100
AcDbEntity
  8
388782-000-00-ED1_FORMAT
100
AcDbLine
 62
90
  6
CONTINUOUS
 10
502.2963766634
 20
52.5702731825
 11
500.9321799905
 21
52.5702731825
  0
LINE
  5
4C7
100
AcDbEntity
  8
388782-000-00-ED1_FORMAT
100
AcDbLine
 62
90
  6
CONTINUOUS
 10
499.407247246
 20
52.5702731825
 11
498.2940576339
 21
52.5702731825
  0
LINE
  5
4C8
100
AcDbEntity
  8
388782-000-00-ED1_FORMAT
100
AcDbLine
 62
90
  6
CONTINUOUS
 10
494.7539272897
 20
52.5702731825
 11
492.7924101059
 21
52.5702731825
  0
LINE
  5
4C9
100
AcDbEntity
  8
388782-000-00-ED1_FORMAT
100
AcDbLine
 62
90
  6
CONTINUOUS
 10
491.5046599603
 20
52.5702731825
 11
490.9878753319
 21
52.5702731825
  0
LINE
  5
4CA
100
AcDbEntity
  8
388782-000-00-ED1_FORMAT
100
AcDbLine
 62
90
  6
CONTINUOUS
 10
489.513540728
 20
52.5702731825
 11
488.4188447669
 21
52.5702731825
  0
LINE
  5
4CB
100
AcDbEntity
  8
388782-000-00-ED1_FORMAT
100
AcDbLine
 62
90
  6
CONTINUOUS
 10
486.9749056684
 20
52.5702731825
 11
486.2079074361
 21
52.5702731825
  0
LINE
  5
4CC
100
AcDbEntity
  8
388782-000-00-ED1_FORMAT
100
AcDbLine
 62
90
  6
CONTINUOUS
 10
484.7759922626
 20
52.5702731825
 11
484.259940056
 21
52.5702731825
  0
LINE
  5
4CD
100
AcDbEntity
  8
388782-000-00-ED1_FORMAT
100
AcDbLine
 62
90
  6
CONTINUOUS
 10
483.0726537699
 20
52.5702731825
 11
482.453391122
 21
52.5702731825
  0
LINE
  5
4CE
100
AcDbEntity
  8
388782-000-00-ED1_FORMAT
100
AcDbLine
 62
90
  6
CONTINUOUS
 10
480.8551246428
 20
52.5702731825
 11
480.2529823549
 21
52.5702731825
  0
LINE
  5
4CF
100
AcDbEntity
  8
388782-000-00-ED1_FORMAT
100
AcDbLine
 62
90
  6
CONTINUOUS
 10
480.0443336893
 20
52.8602740758
 11
480.8552161955
 21
52.8602740758
  0
LINE
  5
4D0
100
AcDbEntity
  8
388782-000-00-ED1_FORMAT
100
AcDbLine
 62
90
  6
CONTINUOUS
 10
482.453391122
 20
52.8602740758
 11
482.951498994
 21
52.8602740758
  0
LINE
  5
4D1
100
AcDbEntity
  8
388782-000-00-ED1_FORMAT
100
AcDbLine
 62
90
  6
CONTINUOUS
 10
484.3832920973
 20
52.8602740758
 11
484.7759922626
 21
52.8602740758
  0
LINE
  5
4D2
100
AcDbEntity
  8
388782-000-00-ED1_FORMAT
100
AcDbLine
 62
90
  6
CONTINUOUS
 10
486.2079074361
 20
52.8602740758
 11
487.0551668928
 21
52.8602740758
  0
LINE
  5
4D3
100
AcDbEntity
  8
388782-000-00-ED1_FORMAT
100
AcDbLine
 62
90
  6
CONTINUOUS
 10
490.9145415973
 20
52.8602740758
 11
491.5046599603
 21
52.8602740758
  0
LINE
  5
4D4
100
AcDbEntity
  8
388782-000-00-ED1_FORMAT
100
AcDbLine
 62
90
  6
CONTINUOUS
 10
493.3046476155
 20
52.8602740758
 11
494.8199062886
 21
52.8602740758
  0
LINE
  5
4D5
100
AcDbEntity
  8
388782-000-00-ED1_FORMAT
100
AcDbLine
 62
90
  6
CONTINUOUS
 10
498.2402246302
 20
52.8602740758
 11
499.407247246
 21
52.8602740758
  0
LINE
  5
4D6
100
AcDbEntity
  8
388782-000-00-ED1_FORMAT
100
AcDbLine
 62
90
  6
CONTINUOUS
 10
500.9321799905
 20
52.8602740758
 11
502.8921712956
 21
52.8602740758
  0
LINE
  5
4D7
100
AcDbEntity
  8
388782-000-00-ED1_FORMAT
100
AcDbLine
 62
7
  6
CONTINUOUS
 10
584.0
 20
52.9546764111
 11
540.0000047006
 21
52.9546764111
  0
LINE
  5
4D8
100
AcDbEntity
  8
388782-000-00-ED1_FORMAT
100
AcDbLine
 62
90
  6
CONTINUOUS
 10
503.4879659277
 20
53.1502749692
 11
500.9321799905
 21
53.1502749692
  0
LINE
  5
4D9
100
AcDbEntity
  8
388782-000-00-ED1_FORMAT
100
AcDbLine
 62
90
  6
CONTINUOUS
 10
499.407247246
 20
53.1502749692
 11
498.1863916265
 21
53.1502749692
  0
LINE
  5
4DA
100
AcDbEntity
  8
388782-000-00-ED1_FORMAT
100
AcDbLine
 62
90
  6
CONTINUOUS
 10
494.885915805
 20
53.1502749692
 11
494.0720120587
 21
53.1502749692
  0
LINE
  5
4DB
100
AcDbEntity
  8
388782-000-00-ED1_FORMAT
100
AcDbLine
 62
90
  6
CONTINUOUS
 10
491.5046599603
 20
53.1502749692
 11
490.8412078627
 21
53.1502749692
  0
LINE
  5
4DC
100
AcDbEntity
  8
388782-000-00-ED1_FORMAT
100
AcDbLine
 62
90
  6
CONTINUOUS
 10
487.1354281171
 20
53.1502749692
 11
486.2079074361
 21
53.1502749692
  0
LINE
  5
4DD
100
AcDbEntity
  8
388782-000-00-ED1_FORMAT
100
AcDbLine
 62
90
  6
CONTINUOUS
 10
484.7759922626
 20
53.1502749692
 11
484.5066441386
 21
53.1502749692
  0
LINE
  5
4DE
100
AcDbEntity
  8
388782-000-00-ED1_FORMAT
100
AcDbLine
 62
90
  6
CONTINUOUS
 10
482.8303747357
 20
53.1502749692
 11
482.453391122
 21
53.1502749692
  0
LINE
  5
4DF
100
AcDbEntity
  8
388782-000-00-ED1_FORMAT
100
AcDbLine
 62
90
  6
CONTINUOUS
 10
480.8553077483
 20
53.1502749692
 11
479.4760659105
 21
53.1502749692
  0
LINE
  5
4E0
100
AcDbEntity
  8
388782-000-00-ED1_FORMAT
100
AcDbLine
 62
90
  6
CONTINUOUS
 10
478.9078286493
 20
53.4402720478
 11
480.8554298186
 21
53.4402720478
  0
LINE
  5
4E1
100
AcDbEntity
  8
388782-000-00-ED1_FORMAT
100
AcDbLine
 62
90
  6
CONTINUOUS
 10
482.453391122
 20
53.4402720478
 11
482.7092199598
 21
53.4402720478
  0
LINE
  5
4E2
100
AcDbEntity
  8
388782-000-00-ED1_FORMAT
100
AcDbLine
 62
90
  6
CONTINUOUS
 10
484.62999618
 20
53.4402720478
 11
484.7759922626
 21
53.4402720478
  0
LINE
  5
4E3
100
AcDbEntity
  8
388782-000-00-ED1_FORMAT
100
AcDbLine
 62
90
  6
CONTINUOUS
 10
486.2079074361
 20
53.4402720478
 11
487.215719859
 21
53.4402720478
  0
LINE
  5
4E4
100
AcDbEntity
  8
388782-000-00-ED1_FORMAT
100
AcDbLine
 62
90
  6
CONTINUOUS
 10
490.7678741281
 20
53.4402720478
 11
491.5046599603
 21
53.4402720478
  0
LINE
  5
4E5
100
AcDbEntity
  8
388782-000-00-ED1_FORMAT
100
AcDbLine
 62
90
  6
CONTINUOUS
 10
494.3908596905
 20
53.4402720478
 11
494.9518948038
 21
53.4402720478
  0
LINE
  5
4E6
100
AcDbEntity
  8
388782-000-00-ED1_FORMAT
100
AcDbLine
 62
90
  6
CONTINUOUS
 10
496.2457484646
 20
53.4402720478
 11
496.8289393379
 21
53.4402720478
  0
LINE
  5
4E7
100
AcDbEntity
  8
388782-000-00-ED1_FORMAT
100
AcDbLine
 62
90
  6
CONTINUOUS
 10
498.1325281053
 20
53.4402720478
 11
499.407247246
 21
53.4402720478
  0
LINE
  5
4E8
100
AcDbEntity
  8
388782-000-00-ED1_FORMAT
100
AcDbLine
 62
90
  6
CONTINUOUS
 10
500.9321799905
 20
53.4402720478
 11
504.0837605598
 21
53.4402720478
  0
LINE
  5
4E9
100
AcDbEntity
  8
388782-000-00-ED1_FORMAT
100
AcDbLine
 62
90
  6
CONTINUOUS
 10
504.6795551919
 20
53.7302729411
 11
500.9321799905
 21
53.7302729411
  0
LINE
  5
4EA
100
AcDbEntity
  8
388782-000-00-ED1_FORMAT
100
AcDbLine
 62
90
  6
CONTINUOUS
 10
499.407247246
 20
53.7302729411
 11
498.0786951016
 21
53.7302729411
  0
LINE
  5
4EB
100
AcDbEntity
  8
388782-000-00-ED1_FORMAT
100
AcDbLine
 62
90
  6
CONTINUOUS
 10
496.7844447124
 20
53.7302729411
 11
496.2876185785
 21
53.7302729411
  0
LINE
  5
4EC
100
AcDbEntity
  8
388782-000-00-ED1_FORMAT
100
AcDbLine
 62
90
  6
CONTINUOUS
 10
495.0178738027
 20
53.7302729411
 11
494.5930386301
 21
53.7302729411
  0
LINE
  5
4ED
100
AcDbEntity
  8
388782-000-00-ED1_FORMAT
100
AcDbLine
 62
90
  6
CONTINUOUS
 10
491.5046599603
 20
53.7302729411
 11
490.6945403934
 21
53.7302729411
  0
LINE
  5
4EE
100
AcDbEntity
  8
388782-000-00-ED1_FORMAT
100
AcDbLine
 62
90
  6
CONTINUOUS
 10
487.2959810833
 20
53.7302729411
 11
486.2079074361
 21
53.7302729411
  0
LINE
  5
4EF
100
AcDbEntity
  8
388782-000-00-ED1_FORMAT
100
AcDbLine
 62
90
  6
CONTINUOUS
 10
484.7759922626
 20
53.7302729411
 11
484.7533482213
 21
53.7302729411
  0
LINE
  5
4F0
100
AcDbEntity
  8
388782-000-00-ED1_FORMAT
100
AcDbLine
 62
90
  6
CONTINUOUS
 10
482.5880957015
 20
53.7302729411
 11
482.453391122
 21
53.7302729411
  0
LINE
  5
4F1
100
AcDbEntity
  8
388782-000-00-ED1_FORMAT
100
AcDbLine
 62
90
  6
CONTINUOUS
 10
480.8555213713
 20
53.7302729411
 11
478.3395608705
 21
53.7302729411
  0
LINE
  5
4F2
100
AcDbEntity
  8
388782-000-00-ED1_FORMAT
100
AcDbLine
 62
90
  6
CONTINUOUS
 10
477.7713236094
 20
54.0202738344
 11
480.855612924
 21
54.0202738344
  0
LINE
  5
4F3
100
AcDbEntity
  8
388782-000-00-ED1_FORMAT
100
AcDbLine
 62
90
  6
CONTINUOUS
 10
482.453391122
 20
54.0202738344
 11
482.4669409257
 21
54.0202738344
  0
LINE
  5
4F4
100
AcDbEntity
  8
388782-000-00-ED1_FORMAT
100
AcDbLine
 62
90
  6
CONTINUOUS
 10
486.2079074361
 20
54.0202738344
 11
487.3762423076
 21
54.0202738344
  0
LINE
  5
4F5
100
AcDbEntity
  8
388782-000-00-ED1_FORMAT
100
AcDbLine
 62
90
  6
CONTINUOUS
 10
488.6156526131
 20
54.0202738344
 11
489.2890839581
 21
54.0202738344
  0
LINE
  5
4F6
100
AcDbEntity
  8
388782-000-00-ED1_FORMAT
100
AcDbLine
 62
90
  6
CONTINUOUS
 10
490.6212371764
 20
54.0202738344
 11
491.5046599603
 21
54.0202738344
  0
LINE
  5
4F7
100
AcDbEntity
  8
388782-000-00-ED1_FORMAT
100
AcDbLine
 62
90
  6
CONTINUOUS
 10
492.7596952646
 20
54.0202738344
 11
493.2434903936
 21
54.0202738344
  0
LINE
  5
4F8
100
AcDbEntity
  8
388782-000-00-ED1_FORMAT
100
AcDbLine
 62
90
  6
CONTINUOUS
 10
494.7216702121
 20
54.0202738344
 11
495.0838528015
 21
54.0202738344
  0
LINE
  5
4F9
100
AcDbEntity
  8
388782-000-00-ED1_FORMAT
100
AcDbLine
 62
90
  6
CONTINUOUS
 10
496.3294886925
 20
54.0202738344
 11
496.7399500869
 21
54.0202738344
  0
LINE
  5
4FA
100
AcDbEntity
  8
388782-000-00-ED1_FORMAT
100
AcDbLine
 62
90
  6
CONTINUOUS
 10
498.0248620979
 20
54.0202738344
 11
499.407247246
 21
54.0202738344
  0
LINE
  5
4FB
100
AcDbEntity
  8
388782-000-00-ED1_FORMAT
100
AcDbLine
 62
90
  6
CONTINUOUS
 10
500.9321799905
 20
54.0202738344
 11
505.2753193065
 21
54.0202738344
  0
LINE
  5
4FC
100
AcDbEntity
  8
388782-000-00-ED1_FORMAT
100
AcDbLine
 62
3
  6
CONTINUOUS
 10
476.0615459082
 20
54.2349993124
 11
476.4356913874
 21
54.2349993124
  0
LINE
  5
4FD
100
AcDbEntity
  8
388782-000-00-ED1_FORMAT
100
AcDbLine
 62
90
  6
CONTINUOUS
 10
505.5333148922
 20
54.3102747278
 11
500.9321799905
 21
54.3102747278
  0
LINE
  5
4FE
100
AcDbEntity
  8
388782-000-00-ED1_FORMAT
100
AcDbLine
 62
90
  6
CONTINUOUS
 10
499.407247246
 20
54.3102747278
 11
497.9710290942
 21
54.3102747278
  0
LINE
  5
4FF
100
AcDbEntity
  8
388782-000-00-ED1_FORMAT
100
AcDbLine
 62
90
  6
CONTINUOUS
 10
496.6954554614
 20
54.3102747278
 11
496.3713893241
 21
54.3102747278
  0
LINE
  5
500
100
AcDbEntity
  8
388782-000-00-ED1_FORMAT
100
AcDbLine
 62
90
  6
CONTINUOUS
 10
495.149862318
 20
54.3102747278
 11
494.7964993079
 21
54.3102747278
  0
LINE
  5
501
100
AcDbEntity
  8
388782-000-00-ED1_FORMAT
100
AcDbLine
 62
90
  6
CONTINUOUS
 10
493.5667020388
 20
54.3102747278
 11
492.7583524913
 21
54.3102747278
  0
LINE
  5
502
100
AcDbEntity
  8
388782-000-00-ED1_FORMAT
100
AcDbLine
 62
90
  6
CONTINUOUS
 10
491.5046599603
 20
54.3102747278
 11
490.5479034418
 21
54.3102747278
  0
LINE
  5
503
100
AcDbEntity
  8
388782-000-00-ED1_FORMAT
100
AcDbLine
 62
90
  6
CONTINUOUS
 10
489.2264008574
 20
54.3102747278
 11
488.6813264362
 21
54.3102747278
  0
LINE
  5
504
100
AcDbEntity
  8
388782-000-00-ED1_FORMAT
100
AcDbLine
 62
90
  6
CONTINUOUS
 10
487.456503532
 20
54.3102747278
 11
486.2079074361
 21
54.3102747278
  0
LINE
  5
505
100
AcDbEntity
  8
388782-000-00-ED1_FORMAT
100
AcDbLine
 62
90
  6
CONTINUOUS
 10
480.8557044767
 20
54.3102747278
 11
477.5170206503
 21
54.3102747278
  0
LINE
  5
506
100
AcDbEntity
  8
388782-000-00-ED1_FORMAT
100
AcDbLine
 62
90
  6
CONTINUOUS
 10
478.1583475055
 20
54.6002718064
 11
480.8557960295
 21
54.6002718064
  0
LINE
  5
507
100
AcDbEntity
  8
388782-000-00-ED1_FORMAT
100
AcDbLine
 62
90
  6
CONTINUOUS
 10
486.2079074361
 20
54.6002718064
 11
487.5367647563
 21
54.6002718064
  0
LINE
  5
508
100
AcDbEntity
  8
388782-000-00-ED1_FORMAT
100
AcDbLine
 62
90
  6
CONTINUOUS
 10
488.7470002593
 20
54.6002718064
 11
489.1637177567
 21
54.6002718064
  0
LINE
  5
509
100
AcDbEntity
  8
388782-000-00-ED1_FORMAT
100
AcDbLine
 62
90
  6
CONTINUOUS
 10
490.4745697072
 20
54.6002718064
 11
491.5046599603
 21
54.6002718064
  0
LINE
  5
50A
100
AcDbEntity
  8
388782-000-00-ED1_FORMAT
100
AcDbLine
 62
90
  6
CONTINUOUS
 10
492.757009718
 20
54.6002718064
 11
493.6591397759
 21
54.6002718064
  0
LINE
  5
50B
100
AcDbEntity
  8
388782-000-00-ED1_FORMAT
100
AcDbLine
 62
90
  6
CONTINUOUS
 10
494.841024451
 20
54.6002718064
 11
495.2158413168
 21
54.6002718064
  0
LINE
  5
50C
100
AcDbEntity
  8
388782-000-00-ED1_FORMAT
100
AcDbLine
 62
90
  6
CONTINUOUS
 10
496.4132594381
 20
54.6002718064
 11
496.6509608359
 21
54.6002718064
  0
LINE
  5
50D
100
AcDbEntity
  8
388782-000-00-ED1_FORMAT
100
AcDbLine
 62
90
  6
CONTINUOUS
 10
497.9171655729
 20
54.6002718064
 11
499.407247246
 21
54.6002718064
  0
LINE
  5
50E
100
AcDbEntity
  8
388782-000-00-ED1_FORMAT
100
AcDbLine
 62
90
  6
CONTINUOUS
 10
500.9321799905
 20
54.6002718064
 11
504.8277180224
 21
54.6002718064
  0
LINE
  5
50F
100
AcDbEntity
  8
388782-000-00-ED1_FORMAT
100
AcDbLine
 62
90
  6
CONTINUOUS
 10
504.1221211526
 20
54.8902726997
 11
500.9321799905
 21
54.8902726997
  0
LINE
  5
510
100
AcDbEntity
  8
388782-000-00-ED1_FORMAT
100
AcDbLine
 62
90
  6
CONTINUOUS
 10
499.407247246
 20
54.8902726997
 11
497.8633325692
 21
54.8902726997
  0
LINE
  5
511
100
AcDbEntity
  8
388782-000-00-ED1_FORMAT
100
AcDbLine
 62
90
  6
CONTINUOUS
 10
496.6064662104
 20
54.8902726997
 11
496.455129552
 21
54.8902726997
  0
LINE
  5
512
100
AcDbEntity
  8
388782-000-00-ED1_FORMAT
100
AcDbLine
 62
90
  6
CONTINUOUS
 10
495.2818203157
 20
54.8902726997
 11
494.8535366571
 21
54.8902726997
  0
LINE
  5
513
100
AcDbEntity
  8
388782-000-00-ED1_FORMAT
100
AcDbLine
 62
90
  6
CONTINUOUS
 10
493.6711026656
 20
54.8902726997
 11
492.7556669446
 21
54.8902726997
  0
LINE
  5
514
100
AcDbEntity
  8
388782-000-00-ED1_FORMAT
100
AcDbLine
 62
90
  6
CONTINUOUS
 10
491.5046599603
 20
54.8902726997
 11
490.4012359725
 21
54.8902726997
  0
LINE
  5
515
100
AcDbEntity
  8
388782-000-00-ED1_FORMAT
100
AcDbLine
 62
90
  6
CONTINUOUS
 10
489.1010346561
 20
54.8902726997
 11
488.8126740824
 21
54.8902726997
  0
LINE
  5
516
100
AcDbEntity
  8
388782-000-00-ED1_FORMAT
100
AcDbLine
 62
90
  6
CONTINUOUS
 10
487.6170259806
 20
54.8902726997
 11
486.2079074361
 21
54.8902726997
  0
LINE
  5
517
100
AcDbEntity
  8
388782-000-00-ED1_FORMAT
100
AcDbLine
 62
90
  6
CONTINUOUS
 10
480.8558875822
 20
54.8902726997
 11
478.7997048783
 21
54.8902726997
  0
LINE
  5
518
100
AcDbEntity
  8
388782-000-00-ED1_FORMAT
100
AcDbLine
 62
90
  6
CONTINUOUS
 10
479.4410317335
 20
55.180273593
 11
480.8560096525
 21
55.180273593
  0
LINE
  5
519
100
AcDbEntity
  8
388782-000-00-ED1_FORMAT
100
AcDbLine
 62
90
  6
CONTINUOUS
 10
483.4869298612
 20
55.180273593
 11
483.6559667135
 21
55.180273593
  0
LINE
  5
51A
100
AcDbEntity
  8
388782-000-00-ED1_FORMAT
100
AcDbLine
 62
90
  6
CONTINUOUS
 10
486.2079074361
 20
55.180273593
 11
487.6973177225
 21
55.180273593
  0
LINE
  5
51B
100
AcDbEntity
  8
388782-000-00-ED1_FORMAT
100
AcDbLine
 62
90
  6
CONTINUOUS
 10
488.8783479055
 20
55.180273593
 11
489.0383515554
 21
55.180273593
  0
LINE
  5
51C
100
AcDbEntity
  8
388782-000-00-ED1_FORMAT
100
AcDbLine
 62
90
  6
CONTINUOUS
 10
490.3279022379
 20
55.180273593
 11
491.5046599603
 21
55.180273593
  0
LINE
  5
51D
100
AcDbEntity
  8
388782-000-00-ED1_FORMAT
100
AcDbLine
 62
90
  6
CONTINUOUS
 10
492.7542936537
 20
55.180273593
 11
493.6139432461
 21
55.180273593
  0
LINE
  5
51E
100
AcDbEntity
  8
388782-000-00-ED1_FORMAT
100
AcDbLine
 62
90
  6
CONTINUOUS
 10
494.8345242074
 20
55.180273593
 11
495.3477993145
 21
55.180273593
  0
LINE
  5
51F
100
AcDbEntity
  8
388782-000-00-ED1_FORMAT
100
AcDbLine
 62
90
  6
CONTINUOUS
 10
497.8094995655
 20
55.180273593
 11
499.407247246
 21
55.180273593
  0
LINE
  5
520
100
AcDbEntity
  8
388782-000-00-ED1_FORMAT
100
AcDbLine
 62
90
  6
CONTINUOUS
 10
500.9321799905
 20
55.180273593
 11
503.4165548003
 21
55.180273593
  0
LINE
  5
521
100
AcDbEntity
  8
388782-000-00-ED1_FORMAT
100
AcDbLine
 62
90
  6
CONTINUOUS
 10
502.7109579305
 20
55.4702744864
 11
500.9321799905
 21
55.4702744864
  0
LINE
  5
522
100
AcDbEntity
  8
388782-000-00-ED1_FORMAT
100
AcDbLine
 62
90
  6
CONTINUOUS
 10
499.407247246
 20
55.4702744864
 11
497.7556360443
 21
55.4702744864
  0
LINE
  5
523
100
AcDbEntity
  8
388782-000-00-ED1_FORMAT
100
AcDbLine
 62
90
  6
CONTINUOUS
 10
495.4137783134
 20
55.4702744864
 11
494.7832851976
 21
55.4702744864
  0
LINE
  5
524
100
AcDbEntity
  8
388782-000-00-ED1_FORMAT
100
AcDbLine
 62
90
  6
CONTINUOUS
 10
493.2926542082
 20
55.4702744864
 11
492.7529508804
 21
55.4702744864
  0
LINE
  5
525
100
AcDbEntity
  8
388782-000-00-ED1_FORMAT
100
AcDbLine
 62
90
  6
CONTINUOUS
 10
491.5046599603
 20
55.4702744864
 11
490.2545990209
 21
55.4702744864
  0
LINE
  5
526
100
AcDbEntity
  8
388782-000-00-ED1_FORMAT
100
AcDbLine
 62
90
  6
CONTINUOUS
 10
488.9756684547
 20
55.4702744864
 11
488.9440217286
 21
55.4702744864
  0
LINE
  5
527
100
AcDbEntity
  8
388782-000-00-ED1_FORMAT
100
AcDbLine
 62
90
  6
CONTINUOUS
 10
487.7775789468
 20
55.4702744864
 11
486.2079074361
 21
55.4702744864
  0
LINE
  5
528
100
AcDbEntity
  8
388782-000-00-ED1_FORMAT
100
AcDbLine
 62
90
  6
CONTINUOUS
 10
483.8534459465
 20
55.4702744864
 11
483.3890905133
 21
55.4702744864
  0
LINE
  5
529
100
AcDbEntity
  8
388782-000-00-ED1_FORMAT
100
AcDbLine
 62
90
  6
CONTINUOUS
 10
480.8561012052
 20
55.4702744864
 11
480.0823585887
 21
55.4702744864
  0
LINE
  5
52A
100
AcDbEntity
  8
388782-000-00-ED1_FORMAT
100
AcDbLine
 62
90
  6
CONTINUOUS
 10
480.253836847
 20
55.760271565
 11
480.856192758
 21
55.760271565
  0
LINE
  5
52B
100
AcDbEntity
  8
388782-000-00-ED1_FORMAT
100
AcDbLine
 62
90
  6
CONTINUOUS
 10
483.2912511653
 20
55.760271565
 11
484.0508946618
 21
55.760271565
  0
LINE
  5
52C
100
AcDbEntity
  8
388782-000-00-ED1_FORMAT
100
AcDbLine
 62
90
  6
CONTINUOUS
 10
486.2079074361
 20
55.760271565
 11
487.8578401712
 21
55.760271565
  0
LINE
  5
52D
100
AcDbEntity
  8
388782-000-00-ED1_FORMAT
100
AcDbLine
 62
90
  6
CONTINUOUS
 10
490.1812652863
 20
55.760271565
 11
491.5046599603
 21
55.760271565
  0
LINE
  5
52E
100
AcDbEntity
  8
388782-000-00-ED1_FORMAT
100
AcDbLine
 62
90
  6
CONTINUOUS
 10
494.6674404799
 20
55.760271565
 11
495.4797878298
 21
55.760271565
  0
LINE
  5
52F
100
AcDbEntity
  8
388782-000-00-ED1_FORMAT
100
AcDbLine
 62
90
  6
CONTINUOUS
 10
497.7018030406
 20
55.760271565
 11
499.407247246
 21
55.760271565
  0
LINE
  5
530
100
AcDbEntity
  8
388782-000-00-ED1_FORMAT
100
AcDbLine
 62
90
  6
CONTINUOUS
 10
500.9321799905
 20
55.760271565
 11
502.0053610607
 21
55.760271565
  0
LINE
  5
531
100
AcDbEntity
  8
388782-000-00-ED1_FORMAT
100
AcDbLine
 62
90
  6
CONTINUOUS
 10
501.517446059
 20
56.0502724583
 11
500.9321799905
 21
56.0502724583
  0
LINE
  5
532
100
AcDbEntity
  8
388782-000-00-ED1_FORMAT
100
AcDbLine
 62
90
  6
CONTINUOUS
 10
499.407247246
 20
56.0502724583
 11
497.6479700369
 21
56.0502724583
  0
LINE
  5
533
100
AcDbEntity
  8
388782-000-00-ED1_FORMAT
100
AcDbLine
 62
90
  6
CONTINUOUS
 10
495.5457668287
 20
56.0502724583
 11
494.461324773
 21
56.0502724583
  0
LINE
  5
534
100
AcDbEntity
  8
388782-000-00-ED1_FORMAT
100
AcDbLine
 62
90
  6
CONTINUOUS
 10
491.5046599603
 20
56.0502724583
 11
490.1079315516
 21
56.0502724583
  0
LINE
  5
535
100
AcDbEntity
  8
388782-000-00-ED1_FORMAT
100
AcDbLine
 62
90
  6
CONTINUOUS
 10
487.9381013955
 20
56.0502724583
 11
486.2079074361
 21
56.0502724583
  0
LINE
  5
536
100
AcDbEntity
  8
388782-000-00-ED1_FORMAT
100
AcDbLine
 62
90
  6
CONTINUOUS
 10
484.2483433772
 20
56.0502724583
 11
483.1934118173
 21
56.0502724583
  0
LINE
  5
537
100
AcDbEntity
  8
388782-000-00-ED1_FORMAT
100
AcDbLine
 62
90
  6
CONTINUOUS
 10
480.8562843107
 20
56.0502724583
 11
480.253836847
 21
56.0502724583
  0
LINE
  5
538
100
AcDbEntity
  8
388782-000-00-ED1_FORMAT
100
AcDbLine
 62
90
  6
CONTINUOUS
 10
480.253836847
 20
56.3402733516
 11
480.8563758634
 21
56.3402733516
  0
LINE
  5
539
100
AcDbEntity
  8
388782-000-00-ED1_FORMAT
100
AcDbLine
 62
90
  6
CONTINUOUS
 10
483.0955724693
 20
56.3402733516
 11
484.4458226101
 21
56.3402733516
  0
LINE
  5
53A
100
AcDbEntity
  8
388782-000-00-ED1_FORMAT
100
AcDbLine
 62
90
  6
CONTINUOUS
 10
486.2079074361
 20
56.3402733516
 11
488.0183626198
 21
56.3402733516
  0
LINE
  5
53B
100
AcDbEntity
  8
388782-000-00-ED1_FORMAT
100
AcDbLine
 62
90
  6
CONTINUOUS
 10
490.034597817
 20
56.3402733516
 11
491.5046599603
 21
56.3402733516
  0
LINE
  5
53C
100
AcDbEntity
  8
388782-000-00-ED1_FORMAT
100
AcDbLine
 62
90
  6
CONTINUOUS
 10
494.091055026
 20
56.3402733516
 11
495.6117458275
 21
56.3402733516
  0
LINE
  5
53D
100
AcDbEntity
  8
388782-000-00-ED1_FORMAT
100
AcDbLine
 62
90
  6
CONTINUOUS
 10
497.5941370332
 20
56.3402733516
 11
499.407247246
 21
56.3402733516
  0
LINE
  5
53E
100
AcDbEntity
  8
388782-000-00-ED1_FORMAT
100
AcDbLine
 62
90
  6
CONTINUOUS
 10
500.9321799905
 20
56.3402733516
 11
501.517446059
 21
56.3402733516
  0
LINE
  5
53F
100
AcDbEntity
  8
388782-000-00-ED1_FORMAT
100
AcDbLine
 62
90
  6
CONTINUOUS
 10
501.517446059
 20
56.630274245
 11
500.9321799905
 21
56.630274245
  0
LINE
  5
540
100
AcDbEntity
  8
388782-000-00-ED1_FORMAT
100
AcDbLine
 62
90
  6
CONTINUOUS
 10
499.407247246
 20
56.630274245
 11
497.5402735119
 21
56.630274245
  0
LINE
  5
541
100
AcDbEntity
  8
388782-000-00-ED1_FORMAT
100
AcDbLine
 62
90
  6
CONTINUOUS
 10
495.6777248264
 20
56.630274245
 11
493.2477628542
 21
56.630274245
  0
LINE
  5
542
100
AcDbEntity
  8
388782-000-00-ED1_FORMAT
100
AcDbLine
 62
90
  6
CONTINUOUS
 10
491.8003447521
 20
56.630274245
 11
488.7751069466
 21
56.630274245
  0
LINE
  5
543
100
AcDbEntity
  8
388782-000-00-ED1_FORMAT
100
AcDbLine
 62
90
  6
CONTINUOUS
 10
488.0986238441
 20
56.630274245
 11
486.2079074361
 21
56.630274245
  0
LINE
  5
544
100
AcDbEntity
  8
388782-000-00-ED1_FORMAT
100
AcDbLine
 62
90
  6
CONTINUOUS
 10
484.6432713255
 20
56.630274245
 11
482.9977331214
 21
56.630274245
  0
LINE
  5
545
100
AcDbEntity
  8
388782-000-00-ED1_FORMAT
100
AcDbLine
 62
90
  6
CONTINUOUS
 10
480.8564674161
 20
56.630274245
 11
480.253836847
 21
56.630274245
  0
LINE
  5
546
100
AcDbEntity
  8
388782-000-00-ED1_FORMAT
100
AcDbLine
 62
90
  6
CONTINUOUS
 10
492.3558561842
 20
56.6447319465
 11
492.5403044123
 21
56.6447319465
  0
LINE
  5
547
100
AcDbEntity
  8
388782-000-00-ED1_FORMAT
100
AcDbLine
 62
90
  6
CONTINUOUS
 10
492.9169828502
 20
56.6465973333
 11
493.1211759499
 21
56.6465973333
  0
LINE
  5
548
100
AcDbEntity
  8
388782-000-00-ED1_FORMAT
100
AcDbLine
 62
90
  6
CONTINUOUS
 10
492.5403044123
 20
56.6466049627
 11
492.7253629919
 21
56.6466049627
  0
LINE
  5
549
100
AcDbEntity
  8
388782-000-00-ED1_FORMAT
100
AcDbLine
 62
90
  6
CONTINUOUS
 10
492.7253629919
 20
56.6471352056
 11
492.9169828502
 21
56.6471352056
  0
LINE
  5
54A
100
AcDbEntity
  8
388782-000-00-ED1_FORMAT
100
AcDbLine
 62
90
  6
CONTINUOUS
 10
480.253836847
 20
56.9202713236
 11
480.8565894864
 21
56.9202713236
  0
LINE
  5
54B
100
AcDbEntity
  8
388782-000-00-ED1_FORMAT
100
AcDbLine
 62
90
  6
CONTINUOUS
 10
482.8998937734
 20
56.9202713236
 11
483.1678075712
 21
56.9202713236
  0
LINE
  5
54C
100
AcDbEntity
  8
388782-000-00-ED1_FORMAT
100
AcDbLine
 62
90
  6
CONTINUOUS
 10
483.3290624417
 20
56.9202713236
 11
484.8407505584
 21
56.9202713236
  0
LINE
  5
54D
100
AcDbEntity
  8
388782-000-00-ED1_FORMAT
100
AcDbLine
 62
90
  6
CONTINUOUS
 10
486.1970736967
 20
56.9202713236
 11
495.8962917042
 21
56.9202713236
  0
LINE
  5
54E
100
AcDbEntity
  8
388782-000-00-ED1_FORMAT
100
AcDbLine
 62
90
  6
CONTINUOUS
 10
497.4864405082
 20
56.9202713236
 11
499.407247246
 21
56.9202713236
  0
LINE
  5
54F
100
AcDbEntity
  8
388782-000-00-ED1_FORMAT
100
AcDbLine
 62
90
  6
CONTINUOUS
 10
500.9321799905
 20
56.9202713236
 11
501.517446059
 21
56.9202713236
  0
LINE
  5
550
100
AcDbEntity
  8
388782-000-00-ED1_FORMAT
100
AcDbLine
 62
90
  6
CONTINUOUS
 10
501.517446059
 20
57.2102722169
 11
500.9321799905
 21
57.2102722169
  0
LINE
  5
551
100
AcDbEntity
  8
388782-000-00-ED1_FORMAT
100
AcDbLine
 62
90
  6
CONTINUOUS
 10
499.407247246
 20
57.2102722169
 11
499.1310631851
 21
57.2102722169
  0
LINE
  5
552
100
AcDbEntity
  8
388782-000-00-ED1_FORMAT
100
AcDbLine
 62
90
  6
CONTINUOUS
 10
498.6435143943
 20
57.2102722169
 11
497.4326075045
 21
57.2102722169
  0
LINE
  5
553
100
AcDbEntity
  8
388782-000-00-ED1_FORMAT
100
AcDbLine
 62
90
  6
CONTINUOUS
 10
497.223806251
 20
57.2102722169
 11
483.9671544339
 21
57.2102722169
  0
LINE
  5
554
100
AcDbEntity
  8
388782-000-00-ED1_FORMAT
100
AcDbLine
 62
90
  6
CONTINUOUS
 10
483.0664281845
 20
57.2102722169
 11
482.8020239078
 21
57.2102722169
  0
LINE
  5
555
100
AcDbEntity
  8
388782-000-00-ED1_FORMAT
100
AcDbLine
 62
90
  6
CONTINUOUS
 10
480.8566810392
 20
57.2102722169
 11
480.253836847
 21
57.2102722169
  0
LINE
  5
556
100
AcDbEntity
  8
388782-000-00-ED1_FORMAT
100
AcDbLine
 62
90
  6
CONTINUOUS
 10
480.253836847
 20
57.5002731103
 11
480.8567725919
 21
57.5002731103
  0
LINE
  5
557
100
AcDbEntity
  8
388782-000-00-ED1_FORMAT
100
AcDbLine
 62
90
  6
CONTINUOUS
 10
482.7041845598
 20
57.5002731103
 11
482.9650487977
 21
57.5002731103
  0
LINE
  5
558
100
AcDbEntity
  8
388782-000-00-ED1_FORMAT
100
AcDbLine
 62
90
  6
CONTINUOUS
 10
484.6052159084
 20
57.5002731103
 11
498.0003870021
 21
57.5002731103
  0
LINE
  5
559
100
AcDbEntity
  8
388782-000-00-ED1_FORMAT
100
AcDbLine
 62
90
  6
CONTINUOUS
 10
499.1310631851
 20
57.5002731103
 11
499.407247246
 21
57.5002731103
  0
LINE
  5
55A
100
AcDbEntity
  8
388782-000-00-ED1_FORMAT
100
AcDbLine
 62
90
  6
CONTINUOUS
 10
500.9321799905
 20
57.5002731103
 11
501.517446059
 21
57.5002731103
  0
LINE
  5
55B
100
AcDbEntity
  8
388782-000-00-ED1_FORMAT
100
AcDbLine
 62
90
  6
CONTINUOUS
 10
501.517446059
 20
57.7902740036
 11
500.9321799905
 21
57.7902740036
  0
LINE
  5
55C
100
AcDbEntity
  8
388782-000-00-ED1_FORMAT
100
AcDbLine
 62
90
  6
CONTINUOUS
 10
499.407247246
 20
57.7902740036
 11
499.1310631851
 21
57.7902740036
  0
LINE
  5
55D
100
AcDbEntity
  8
388782-000-00-ED1_FORMAT
100
AcDbLine
 62
90
  6
CONTINUOUS
 10
497.3572901275
 20
57.7902740036
 11
485.2433079006
 21
57.7902740036
  0
LINE
  5
55E
100
AcDbEntity
  8
388782-000-00-ED1_FORMAT
100
AcDbLine
 62
90
  6
CONTINUOUS
 10
482.8636694109
 20
57.7902740036
 11
482.6063452119
 21
57.7902740036
  0
LINE
  5
55F
100
AcDbEntity
  8
388782-000-00-ED1_FORMAT
100
AcDbLine
 62
90
  6
CONTINUOUS
 10
480.8568641446
 20
57.7902740036
 11
480.253836847
 21
57.7902740036
  0
LINE
  5
560
100
AcDbEntity
  8
388782-000-00-ED1_FORMAT
100
AcDbLine
 62
90
  6
CONTINUOUS
 10
480.253836847
 20
58.0802710822
 11
480.8569556974
 21
58.0802710822
  0
LINE
  5
561
100
AcDbEntity
  8
388782-000-00-ED1_FORMAT
100
AcDbLine
 62
90
  6
CONTINUOUS
 10
482.5085058639
 20
58.0802710822
 11
482.7622900241
 21
58.0802710822
  0
LINE
  5
562
100
AcDbEntity
  8
388782-000-00-ED1_FORMAT
100
AcDbLine
 62
90
  6
CONTINUOUS
 10
485.8813998928
 20
58.0802710822
 11
496.7141932529
 21
58.0802710822
  0
LINE
  5
563
100
AcDbEntity
  8
388782-000-00-ED1_FORMAT
100
AcDbLine
 62
90
  6
CONTINUOUS
 10
499.1310631851
 20
58.0802710822
 11
499.407247246
 21
58.0802710822
  0
LINE
  5
564
100
AcDbEntity
  8
388782-000-00-ED1_FORMAT
100
AcDbLine
 62
90
  6
CONTINUOUS
 10
500.9321799905
 20
58.0802710822
 11
501.517446059
 21
58.0802710822
  0
LINE
  5
565
100
AcDbEntity
  8
388782-000-00-ED1_FORMAT
100
AcDbLine
 62
90
  6
CONTINUOUS
 10
501.4869284832
 20
58.3702719755
 11
500.9321799905
 21
58.3702719755
  0
LINE
  5
566
100
AcDbEntity
  8
388782-000-00-ED1_FORMAT
100
AcDbLine
 62
90
  6
CONTINUOUS
 10
499.9910484708
 20
58.3702719755
 11
499.3282372422
 21
58.3702719755
  0
LINE
  5
567
100
AcDbEntity
  8
388782-000-00-ED1_FORMAT
100
AcDbLine
 62
90
  6
CONTINUOUS
 10
496.0710658607
 20
58.3702719755
 11
486.5194613674
 21
58.3702719755
  0
LINE
  5
568
100
AcDbEntity
  8
388782-000-00-ED1_FORMAT
100
AcDbLine
 62
90
  6
CONTINUOUS
 10
482.6609106374
 20
58.3702719755
 11
482.2872229218
 21
58.3702719755
  0
LINE
  5
569
100
AcDbEntity
  8
388782-000-00-ED1_FORMAT
100
AcDbLine
 62
90
  6
CONTINUOUS
 10
480.8570472501
 20
58.3702719755
 11
480.253836847
 21
58.3702719755
  0
LINE
  5
56A
100
AcDbEntity
  8
388782-000-00-ED1_FORMAT
100
AcDbLine
 62
90
  6
CONTINUOUS
 10
480.253836847
 20
58.6602728689
 11
480.8571693204
 21
58.6602728689
  0
LINE
  5
56B
100
AcDbEntity
  8
388782-000-00-ED1_FORMAT
100
AcDbLine
 62
90
  6
CONTINUOUS
 10
481.674643623
 20
58.6602728689
 11
482.2281408951
 21
58.6602728689
  0
LINE
  5
56C
100
AcDbEntity
  8
388782-000-00-ED1_FORMAT
100
AcDbLine
 62
90
  6
CONTINUOUS
 10
487.1575533595
 20
58.6602728689
 11
495.4279689861
 21
58.6602728689
  0
LINE
  5
56D
100
AcDbEntity
  8
388782-000-00-ED1_FORMAT
100
AcDbLine
 62
90
  6
CONTINUOUS
 10
500.0322471981
 20
58.6602728689
 11
500.7106223903
 21
58.6602728689
  0
LINE
  5
56E
100
AcDbEntity
  8
388782-000-00-ED1_FORMAT
100
AcDbLine
 62
90
  6
CONTINUOUS
 10
500.9321799905
 20
58.6602728689
 11
501.2830405594
 21
58.6602728689
  0
LINE
  5
56F
100
AcDbEntity
  8
388782-000-00-ED1_FORMAT
100
AcDbLine
 62
90
  6
CONTINUOUS
 10
501.0791831531
 20
58.9502737622
 11
500.7362876715
 21
58.9502737622
  0
LINE
  5
570
100
AcDbEntity
  8
388782-000-00-ED1_FORMAT
100
AcDbLine
 62
90
  6
CONTINUOUS
 10
494.7848721115
 20
58.9502737622
 11
487.7956453517
 21
58.9502737622
  0
LINE
  5
571
100
AcDbEntity
  8
388782-000-00-ED1_FORMAT
100
AcDbLine
 62
90
  6
CONTINUOUS
 10
481.6149207272
 20
58.9502737622
 11
481.0620338067
 21
58.9502737622
  0
LINE
  5
572
100
AcDbEntity
  8
388782-000-00-ED1_FORMAT
100
AcDbLine
 62
90
  6
CONTINUOUS
 10
480.8572608731
 20
58.9502737622
 11
480.253836847
 21
58.9502737622
  0
LINE
  5
573
100
AcDbEntity
  8
388782-000-00-ED1_FORMAT
100
AcDbLine
 62
7
  6
CONTINUOUS
 10
584.0
 20
58.9546757701
 11
540.0000047006
 21
58.9546757701
  0
LINE
  5
574
100
AcDbEntity
  8
388782-000-00-ED1_FORMAT
100
AcDbLine
 62
90
  6
CONTINUOUS
 10
480.6714698717
 20
59.2402708408
 11
481.0017005593
 21
59.2402708408
  0
LINE
  5
575
100
AcDbEntity
  8
388782-000-00-ED1_FORMAT
100
AcDbLine
 62
90
  6
CONTINUOUS
 10
488.4337068263
 20
59.2402708408
 11
494.1417447194
 21
59.2402708408
  0
LINE
  5
576
100
AcDbEntity
  8
388782-000-00-ED1_FORMAT
100
AcDbLine
 62
90
  6
CONTINUOUS
 10
493.4986478448
 20
59.5302717341
 11
489.0717988185
 21
59.5302717341
  0
LINE
  5
577
100
AcDbEntity
  8
388782-000-00-ED1_FORMAT
100
AcDbLine
 62
90
  6
CONTINUOUS
 10
489.7098908106
 20
59.8202726275
 11
492.8555509702
 21
59.8202726275
  0
LINE
  5
578
100
AcDbEntity
  8
388782-000-00-ED1_FORMAT
100
AcDbLine
 62
3
  6
CONTINUOUS
 10
10.0
 20
60.0
 11
5.0
 21
60.0
  0
LINE
  5
579
100
AcDbEntity
  8
388782-000-00-ED1_FORMAT
100
AcDbLine
 62
3
  6
CONTINUOUS
 10
584.0
 20
60.0598861881
 11
589.0
 21
60.0598861881
  0
LINE
  5
57A
100
AcDbEntity
  8
388782-000-00-ED1_FORMAT
100
AcDbLine
 62
90
  6
CONTINUOUS
 10
492.212423578
 20
60.1102735208
 11
490.3479522852
 21
60.1102735208
  0
LINE
  5
57B
100
AcDbEntity
  8
388782-000-00-ED1_FORMAT
100
AcDbLine
 62
90
  6
CONTINUOUS
 10
491.5471510297
 20
60.4102734978
 11
491.0080467178
 21
60.4102734978
  0
LINE
  5
57C
100
AcDbEntity
  8
388782-000-00-ED1_FORMAT
100
AcDbLine
 62
7
  6
CONTINUOUS
 10
321.0000280969
 20
64.9999941242
 11
584.0
 21
64.9999941242
  0
LINE
  5
57D
100
AcDbEntity
  8
388782-000-00-ED1_FORMAT
100
AcDbLine
 62
90
  6
CONTINUOUS
 10
489.5730805184
 20
56.5955147261
 11
489.7739166846
 21
56.5907387255
  0
LINE
  5
57E
100
AcDbEntity
  8
388782-000-00-ED1_FORMAT
100
AcDbLine
 62
90
  6
CONTINUOUS
 10
489.7739166846
 20
56.5907387255
 11
489.9725250679
 21
56.5857567313
  0
LINE
  5
57F
100
AcDbEntity
  8
388782-000-00-ED1_FORMAT
100
AcDbLine
 62
90
  6
CONTINUOUS
 10
489.3701996745
 20
56.6009582987
 11
489.5730805184
 21
56.5955147261
  0
LINE
  5
580
100
AcDbEntity
  8
388782-000-00-ED1_FORMAT
100
AcDbLine
 62
90
  6
CONTINUOUS
 10
489.1653962234
 20
56.6079697118
 11
489.3701996745
 21
56.6009582987
  0
LINE
  5
581
100
AcDbEntity
  8
388782-000-00-ED1_FORMAT
100
AcDbLine
 62
90
  6
CONTINUOUS
 10
491.7706511509
 20
51.8433864889
 11
491.5046599603
 21
51.852625685
  0
LINE
  5
582
100
AcDbEntity
  8
388782-000-00-ED1_FORMAT
100
AcDbLine
 62
90
  6
CONTINUOUS
 10
488.9588227529
 20
56.617433975
 11
489.1653962234
 21
56.6079697118
  0
LINE
  5
583
100
AcDbEntity
  8
388782-000-00-ED1_FORMAT
100
AcDbLine
 62
90
  6
CONTINUOUS
 10
492.9437772818
 20
55.5377717346
 11
492.7525846695
 21
55.5470757805
  0
LINE
  5
584
100
AcDbEntity
  8
388782-000-00-ED1_FORMAT
100
AcDbLine
 62
90
  6
CONTINUOUS
 10
492.0062773536
 20
51.830859024
 11
491.7706511509
 21
51.8433864889
  0
LINE
  5
585
100
AcDbEntity
  8
388782-000-00-ED1_FORMAT
100
AcDbLine
 62
90
  6
CONTINUOUS
 10
492.2189238217
 20
51.8161266643
 11
492.0062773536
 21
51.830859024
  0
LINE
  5
586
100
AcDbEntity
  8
388782-000-00-ED1_FORMAT
100
AcDbLine
 62
7
  6
CONTINUOUS
 10
321.0000300969
 20
72.499993323
 11
584.0
 21
72.499993323
  0
LINE
  5
587
100
AcDbEntity
  8
388782-000-00-ED1_FORMAT
100
AcDbLine
 62
90
  6
CONTINUOUS
 10
488.7505708157
 20
56.6302399127
 11
488.9588227529
 21
56.617433975
  0
LINE
  5
588
100
AcDbEntity
  8
388782-000-00-ED1_FORMAT
100
AcDbLine
 62
90
  6
CONTINUOUS
 10
492.7938444319
 20
51.769312703
 11
492.6052458136
 21
51.7842853887
  0
LINE
  5
589
100
AcDbEntity
  8
388782-000-00-ED1_FORMAT
100
AcDbLine
 62
90
  6
CONTINUOUS
 10
492.4160978788
 20
51.8002422661
 11
492.2189238217
 21
51.8161266643
  0
LINE
  5
58A
100
AcDbEntity
  8
388782-000-00-ED1_FORMAT
100
AcDbLine
 62
90
  6
CONTINUOUS
 10
488.5408235173
 20
56.6472801641
 11
488.7505708157
 21
56.6302399127
  0
LINE
  5
58B
100
AcDbEntity
  8
388782-000-00-ED1_FORMAT
100
AcDbLine
 62
90
  6
CONTINUOUS
 10
492.6052458136
 20
51.7842853887
 11
492.4160978788
 21
51.8002422661
  0
LINE
  5
58C
100
AcDbEntity
  8
388782-000-00-ED1_FORMAT
100
AcDbLine
 62
90
  6
CONTINUOUS
 10
496.2427882597
 20
53.4197680515
 11
496.8411768858
 21
53.3604647724
  0
LINE
  5
58D
100
AcDbEntity
  8
388782-000-00-ED1_FORMAT
100
AcDbLine
 62
90
  6
CONTINUOUS
 10
488.3296724104
 20
56.6694397388
 11
488.5408235173
 21
56.6472801641
  0
LINE
  5
58E
100
AcDbEntity
  8
388782-000-00-ED1_FORMAT
100
AcDbLine
 62
90
  6
CONTINUOUS
 10
496.0031947722
 20
51.4534748671
 11
494.5375576774
 21
51.6192921152
  0
LINE
  5
58F
100
AcDbEntity
  8
388782-000-00-ED1_FORMAT
100
AcDbLine
 62
90
  6
CONTINUOUS
 10
493.1197416238
 20
55.5162835466
 11
492.9437772818
 21
55.5377717346
  0
LINE
  5
590
100
AcDbEntity
  8
388782-000-00-ED1_FORMAT
100
AcDbLine
 62
90
  6
CONTINUOUS
 10
488.1172700829
 20
56.6976112759
 11
488.3296724104
 21
56.6694397388
  0
LINE
  5
591
100
AcDbEntity
  8
388782-000-00-ED1_FORMAT
100
AcDbLine
 62
90
  6
CONTINUOUS
 10
493.1211759499
 20
56.6452507453
 11
493.3581754434
 21
56.6093048557
  0
LINE
  5
592
100
AcDbEntity
  8
388782-000-00-ED1_FORMAT
100
AcDbLine
 62
90
  6
CONTINUOUS
 10
496.9365137925
 20
51.897692515
 11
496.1121425177
 21
52.0335910947
  0
LINE
  5
593
100
AcDbEntity
  8
388782-000-00-ED1_FORMAT
100
AcDbLine
 62
3
  6
CONTINUOUS
 10
9.9999999122
 20
93.4999984459
 11
15.9999998068
 21
93.4999984459
  0
LINE
  5
594
100
AcDbEntity
  8
388782-000-00-ED1_FORMAT
100
AcDbLine
 62
90
  6
CONTINUOUS
 10
498.593679193
 20
50.9565495512
 11
496.985616572
 21
51.2672718784
  0
LINE
  5
595
100
AcDbEntity
  8
388782-000-00-ED1_FORMAT
100
AcDbLine
 62
90
  6
CONTINUOUS
 10
485.0026157804
 20
57.1580375713
 11
486.2079074361
 21
56.9181160198
  0
LINE
  5
596
100
AcDbEntity
  8
388782-000-00-ED1_FORMAT
100
AcDbLine
 62
90
  6
CONTINUOUS
 10
493.3581754434
 20
56.6093048557
 11
493.5746671261
 21
56.5594276928
  0
LINE
  5
597
100
AcDbEntity
  8
388782-000-00-ED1_FORMAT
100
AcDbLine
 62
90
  6
CONTINUOUS
 10
493.2772428324
 20
55.4772897141
 11
493.1197416238
 21
55.5162835466
  0
LINE
  5
598
100
AcDbEntity
  8
388782-000-00-ED1_FORMAT
100
AcDbLine
 62
3
  6
CONTINUOUS
 10
197.0
 20
10.0
 11
197.0
 21
5.0
  0
LINE
  5
599
100
AcDbEntity
  8
388782-000-00-ED1_FORMAT
100
AcDbLine
 62
3
  6
CONTINUOUS
 10
197.0
 20
410.0
 11
197.0
 21
415.0
  0
LINE
  5
59A
100
AcDbEntity
  8
388782-000-00-ED1_FORMAT
100
AcDbLine
 62
7
  6
CONTINUOUS
 10
209.0000087989
 20
10.0
 11
209.0000087989
 21
37.9999902659
  0
LINE
  5
59B
100
AcDbEntity
  8
388782-000-00-ED1_FORMAT
100
AcDbLine
 62
3
  6
CONTINUOUS
 10
210.0
 20
5.0
 11
210.0
 21
0.0
  0
LINE
  5
59C
100
AcDbEntity
  8
388782-000-00-ED1_FORMAT
100
AcDbLine
 62
3
  6
CONTINUOUS
 10
210.0
 20
415.0
 11
210.0
 21
420.0
  0
LINE
  5
59D
100
AcDbEntity
  8
388782-000-00-ED1_FORMAT
100
AcDbLine
 62
3
  6
CONTINUOUS
 10
10.0
 20
110.0
 11
5.0
 21
110.0
  0
LINE
  5
59E
100
AcDbEntity
  8
388782-000-00-ED1_FORMAT
100
AcDbLine
 62
3
  6
CONTINUOUS
 10
584.0
 20
110.0598861881
 11
589.0
 21
110.0598861881
  0
LINE
  5
59F
100
AcDbEntity
  8
388782-000-00-ED1_FORMAT
100
AcDbLine
 62
90
  6
CONTINUOUS
 10
493.5746671261
 20
56.5594276928
 11
493.7713834196
 21
56.49664541
  0
LINE
  5
5A0
100
AcDbEntity
  8
388782-000-00-ED1_FORMAT
100
AcDbLine
 62
3
  6
CONTINUOUS
 10
9.9999999122
 20
148.49999748
 11
15.9999998068
 21
148.49999748
  0
LINE
  5
5A1
100
AcDbEntity
  8
388782-000-00-ED1_FORMAT
100
AcDbLine
 62
90
  6
CONTINUOUS
 10
501.4483542674
 20
51.709555475
 11
502.8858236398
 21
51.1495808474
  0
LINE
  5
5A2
100
AcDbEntity
  8
388782-000-00-ED1_FORMAT
100
AcDbLine
 62
90
  6
CONTINUOUS
 10
500.9321799905
 20
51.5395611337
 11
502.2963156283
 21
50.9884480473
  0
LINE
  5
5A3
100
AcDbEntity
  8
388782-000-00-ED1_FORMAT
100
AcDbLine
 62
90
  6
CONTINUOUS
 10
501.517446059
 20
55.9608063702
 11
505.7164813821
 21
54.2349993124
  0
LINE
  5
5A4
100
AcDbEntity
  8
388782-000-00-ED1_FORMAT
100
AcDbLine
 62
90
  6
CONTINUOUS
 10
493.7713834196
 20
56.49664541
 11
493.9490262283
 21
56.4219994196
  0
LINE
  5
5A5
100
AcDbEntity
  8
388782-000-00-ED1_FORMAT
100
AcDbLine
 62
90
  6
CONTINUOUS
 10
491.2765410813
 20
47.4442817536
 11
482.6544409113
 21
51.5949009427
  0
LINE
  5
5A6
100
AcDbEntity
  8
388782-000-00-ED1_FORMAT
100
AcDbLine
 62
3
  6
CONTINUOUS
 10
480.2529823549
 20
52.1786106148
 11
476.0615586419
 21
54.234993065
  0
LINE
  5
5A7
100
AcDbEntity
  8
388782-000-00-ED1_FORMAT
100
AcDbLine
 62
3
  6
CONTINUOUS
 10
491.2765410813
 20
46.7702743895
 11
482.6552954034
 21
51.0000027644
  0
LINE
  5
5A8
100
AcDbEntity
  8
388782-000-00-ED1_FORMAT
100
AcDbLine
 62
90
  6
CONTINUOUS
 10
480.8481056004
 20
49.2196875015
 11
480.2529823549
 21
49.5195532012
  0
LINE
  5
5A9
100
AcDbEntity
  8
388782-000-00-ED1_FORMAT
100
AcDbLine
 62
7
  6
CONTINUOUS
 10
246.5000066183
 20
10.0
 11
246.5000066183
 21
15.9999979141
  0
LINE
  5
5AA
100
AcDbEntity
  8
388782-000-00-ED1_FORMAT
100
AcDbLine
 62
7
  6
CONTINUOUS
 10
246.5000359829
 20
32.0047613501
 11
246.5000359829
 21
37.9999902659
  0
LINE
  5
5AB
100
AcDbEntity
  8
388782-000-00-ED1_FORMAT
100
AcDbLine
 62
3
  6
CONTINUOUS
 10
247.0
 20
10.0
 11
247.0
 21
5.0
  0
LINE
  5
5AC
100
AcDbEntity
  8
388782-000-00-ED1_FORMAT
100
AcDbLine
 62
3
  6
CONTINUOUS
 10
247.0
 20
410.0
 11
247.0
 21
415.0
  0
LINE
  5
5AD
100
AcDbEntity
  8
388782-000-00-ED1_FORMAT
100
AcDbLine
 62
7
  6
CONTINUOUS
 10
405.3013293533
 20
377.9989914516
 11
417.3013299339
 21
389.9989920322
  0
LINE
  5
5AE
100
AcDbEntity
  8
388782-000-00-ED1_FORMAT
100
AcDbLine
 62
3
  6
CONTINUOUS
 10
10.0
 20
160.0
 11
5.0
 21
160.0
  0
LINE
  5
5AF
100
AcDbEntity
  8
388782-000-00-ED1_FORMAT
100
AcDbLine
 62
3
  6
CONTINUOUS
 10
584.0
 20
160.0598861881
 11
589.0
 21
160.0598861881
  0
LINE
  5
5B0
100
AcDbEntity
  8
388782-000-00-ED1_FORMAT
100
AcDbLine
 62
3
  6
CONTINUOUS
 10
491.2765410813
 20
61.1759434526
 11
499.1310631851
 21
57.6838554021
  0
LINE
  5
5B1
100
AcDbEntity
  8
388782-000-00-ED1_FORMAT
100
AcDbLine
 62
3
  6
CONTINUOUS
 10
501.517446059
 20
56.6228737328
 11
506.8883257748
 21
54.2349993124
  0
LINE
  5
5B2
100
AcDbEntity
  8
388782-000-00-ED1_FORMAT
100
AcDbLine
 62
90
  6
CONTINUOUS
 10
491.2765410813
 20
60.5323010764
 11
499.1310631851
 21
56.9904197862
  0
LINE
  5
5B3
100
AcDbEntity
  8
388782-000-00-ED1_FORMAT
100
AcDbLine
 62
90
  6
CONTINUOUS
 10
493.4131070798
 20
55.4154649202
 11
493.2772428324
 21
55.4772897141
  0
LINE
  5
5B4
100
AcDbEntity
  8
388782-000-00-ED1_FORMAT
100
AcDbLine
 62
90
  6
CONTINUOUS
 10
480.8380042828
 20
59.3176824865
 11
482.6251745561
 21
58.4725134838
  0
LINE
  5
5B5
100
AcDbEntity
  8
388782-000-00-ED1_FORMAT
100
AcDbLine
 62
90
  6
CONTINUOUS
 10
480.8572913907
 20
59.0472052123
 11
482.4341345317
 21
58.300726235
  0
LINE
  5
5B6
100
AcDbEntity
  8
388782-000-00-ED1_FORMAT
100
AcDbLine
 62
90
  6
CONTINUOUS
 10
502.2963156283
 20
49.2870397913
 11
499.407247246
 21
50.7446316902
  0
LINE
  5
5B7
100
AcDbEntity
  8
388782-000-00-ED1_FORMAT
100
AcDbLine
 62
90
  6
CONTINUOUS
 10
502.3335165532
 20
48.9736548055
 11
499.1310631851
 21
50.6036862664
  0
LINE
  5
5B8
100
AcDbEntity
  8
388782-000-00-ED1_FORMAT
100
AcDbLine
 62
90
  6
CONTINUOUS
 10
480.2529823549
 20
52.7537829951
 11
477.3505472744
 21
54.2349993124
  0
LINE
  5
5B9
100
AcDbEntity
  8
388782-000-00-ED1_FORMAT
100
AcDbLine
 62
90
  6
CONTINUOUS
 10
493.9490262283
 20
56.4219994196
 11
494.1083279739
 21
56.3365196898
  0
LINE
  5
5BA
100
AcDbEntity
  8
388782-000-00-ED1_FORMAT
100
AcDbLine
 62
7
  6
CONTINUOUS
 10
284.4999982122
 20
10.0
 11
284.4999982122
 21
15.9999979141
  0
LINE
  5
5BB
100
AcDbEntity
  8
388782-000-00-ED1_FORMAT
100
AcDbLine
 62
7
  6
CONTINUOUS
 10
284.5000222034
 20
32.0047613501
 11
284.5000222034
 21
37.9999902659
  0
LINE
  5
5BC
100
AcDbEntity
  8
388782-000-00-ED1_FORMAT
100
AcDbLine
 62
7
  6
CONTINUOUS
 10
297.0
 20
415.0
 11
297.0
 21
400.0
  0
LINE
  5
5BD
100
AcDbEntity
  8
388782-000-00-ED1_FORMAT
100
AcDbLine
 62
3
  6
CONTINUOUS
 10
297.0
 20
5.0598861881
 11
297.0
 21
10.0598861881
  0
LINE
  5
5BE
100
AcDbEntity
  8
388782-000-00-ED1_FORMAT
100
AcDbLine
 62
7
  6
CONTINUOUS
 10
589.0
 20
210.0
 11
574.0
 21
210.0
  0
LINE
  5
5BF
100
AcDbEntity
  8
388782-000-00-ED1_FORMAT
100
AcDbLine
 62
7
  6
CONTINUOUS
 10
5.0
 20
210.0
 11
20.0
 21
210.0
  0
LINE
  5
5C0
100
AcDbEntity
  8
388782-000-00-ED1_FORMAT
100
AcDbLine
 62
90
  6
CONTINUOUS
 10
494.1083279739
 20
56.3365196898
 11
494.2500515958
 21
56.2412400035
  0
LINE
  5
5C1
100
AcDbEntity
  8
388782-000-00-ED1_FORMAT
100
AcDbLine
 62
90
  6
CONTINUOUS
 10
493.524099503
 20
55.3254914774
 11
493.4131070798
 21
55.4154649202
  0
LINE
  5
5C2
100
AcDbEntity
  8
388782-000-00-ED1_FORMAT
100
AcDbLine
 62
90
  6
CONTINUOUS
 10
494.2500515958
 20
56.2412400035
 11
494.3748379632
 21
56.1371941436
  0
LINE
  5
5C3
100
AcDbEntity
  8
388782-000-00-ED1_FORMAT
100
AcDbLine
 62
7
  6
CONTINUOUS
 10
321.0000280969
 20
10.0
 11
321.0000300969
 21
72.499993323
  0
LINE
  5
5C4
100
AcDbEntity
  8
388782-000-00-ED1_FORMAT
100
AcDbLine
 62
7
  6
CONTINUOUS
 10
328.5000292957
 20
64.9999941242
 11
328.5000292957
 21
72.499993323
  0
LINE
  5
5C5
100
AcDbEntity
  8
388782-000-00-ED1_FORMAT
100
AcDbLine
 62
7
  6
CONTINUOUS
 10
336.0000284944
 20
64.9999941242
 11
336.0000284944
 21
72.499993323
  0
LINE
  5
5C6
100
AcDbEntity
  8
388782-000-00-ED1_FORMAT
100
AcDbLine
 62
90
  6
CONTINUOUS
 10
494.3748379632
 20
56.1371941436
 11
494.4834805331
 21
56.0254120781
  0
LINE
  5
5C7
100
AcDbEntity
  8
388782-000-00-ED1_FORMAT
100
AcDbLine
 62
7
  6
CONTINUOUS
 10
345.3988364903
 20
64.9999941242
 11
345.3988364903
 21
72.499993323
  0
LINE
  5
5C8
100
AcDbEntity
  8
388782-000-00-ED1_FORMAT
100
AcDbLine
 62
3
  6
CONTINUOUS
 10
347.0
 20
10.0598861881
 11
347.0
 21
5.0598861881
  0
LINE
  5
5C9
100
AcDbEntity
  8
388782-000-00-ED1_FORMAT
100
AcDbLine
 62
3
  6
CONTINUOUS
 10
347.0
 20
409.9998474121
 11
347.0
 21
415.0
  0
LINE
  5
5CA
100
AcDbEntity
  8
388782-000-00-ED1_FORMAT
100
AcDbLine
 62
7
  6
CONTINUOUS
 10
350.3988359562
 20
64.9999941242
 11
350.3988359562
 21
72.499993323
  0
LINE
  5
5CB
100
AcDbEntity
  8
388782-000-00-ED1_FORMAT
100
AcDbLine
 62
3
  6
CONTINUOUS
 10
10.0
 20
260.0
 11
5.0
 21
260.0
  0
LINE
  5
5CC
100
AcDbEntity
  8
388782-000-00-ED1_FORMAT
100
AcDbLine
 62
3
  6
CONTINUOUS
 10
584.0
 20
260.0
 11
589.0
 21
260.0
  0
LINE
  5
5CD
100
AcDbEntity
  8
388782-000-00-ED1_FORMAT
100
AcDbLine
 62
90
  6
CONTINUOUS
 10
494.4834805331
 20
56.0254120781
 11
494.5766506919
 21
55.9069390342
  0
LINE
  5
5CE
100
AcDbEntity
  8
388782-000-00-ED1_FORMAT
100
AcDbLine
 62
7
  6
CONTINUOUS
 10
382.0000215801
 20
64.9999941242
 11
382.0000215801
 21
72.499993323
  0
LINE
  5
5CF
100
AcDbEntity
  8
388782-000-00-ED1_FORMAT
100
AcDbLine
 62
90
  6
CONTINUOUS
 10
501.0021873094
 20
59.059797527
 11
501.517446059
 21
58.3268645387
  0
LINE
  5
5D0
100
AcDbEntity
  8
388782-000-00-ED1_FORMAT
100
AcDbLine
 62
90
  6
CONTINUOUS
 10
493.6070157564
 20
55.202040254
 11
493.524099503
 21
55.3254914774
  0
LINE
  5
5D1
100
AcDbEntity
  8
388782-000-00-ED1_FORMAT
100
AcDbLine
 62
90
  6
CONTINUOUS
 10
494.5766506919
 20
55.9069390342
 11
494.6551113793
 21
55.7827973506
  0
LINE
  5
5D2
100
AcDbEntity
  8
388782-000-00-ED1_FORMAT
100
AcDbLine
 62
3
  6
CONTINUOUS
 10
397.0
 20
415.0
 11
397.0
 21
409.9999084473
  0
LINE
  5
5D3
100
AcDbEntity
  8
388782-000-00-ED1_FORMAT
100
AcDbLine
 62
3
  6
CONTINUOUS
 10
397.0
 20
10.0598861881
 11
397.0
 21
5.0598861881
  0
LINE
  5
5D4
100
AcDbEntity
  8
388782-000-00-ED1_FORMAT
100
AcDbLine
 62
7
  6
CONTINUOUS
 10
398.0000178708
 20
10.0
 11
398.0000178708
 21
64.9999941242
  0
LINE
  5
5D5
100
AcDbEntity
  8
388782-000-00-ED1_FORMAT
100
AcDbLine
 62
3
  6
CONTINUOUS
 10
402.0
 20
5.0598861881
 11
402.0
 21
0.0598861881
  0
LINE
  5
5D6
100
AcDbEntity
  8
388782-000-00-ED1_FORMAT
100
AcDbLine
 62
3
  6
CONTINUOUS
 10
402.0
 20
415.0
 11
402.0
 21
420.0
  0
LINE
  5
5D7
100
AcDbEntity
  8
388782-000-00-ED1_FORMAT
100
AcDbLine
 62
3
  6
CONTINUOUS
 10
-0.0
 20
297.0
 11
5.0
 21
297.0
  0
LINE
  5
5D8
100
AcDbEntity
  8
388782-000-00-ED1_FORMAT
100
AcDbLine
 62
3
  6
CONTINUOUS
 10
589.0
 20
297.0
 11
594.0
 21
297.0
  0
LINE
  5
5D9
100
AcDbEntity
  8
388782-000-00-ED1_FORMAT
100
AcDbLine
 62
3
  6
CONTINUOUS
 10
10.0
 20
310.0
 11
5.0
 21
310.0
  0
LINE
  5
5DA
100
AcDbEntity
  8
388782-000-00-ED1_FORMAT
100
AcDbLine
 62
3
  6
CONTINUOUS
 10
584.0
 20
310.0
 11
589.0
 21
310.0
  0
LINE
  5
5DB
100
AcDbEntity
  8
388782-000-00-ED1_FORMAT
100
AcDbLine
 62
7
  6
CONTINUOUS
 10
405.3013293533
 20
377.9989914516
 11
405.3013293533
 21
410.0
  0
LINE
  5
5DC
100
AcDbEntity
  8
388782-000-00-ED1_FORMAT
100
AcDbLine
 62
7
  6
CONTINUOUS
 10
417.3013299339
 20
389.9989920322
 11
417.3013299339
 21
410.0
  0
LINE
  5
5DD
100
AcDbEntity
  8
388782-000-00-ED1_FORMAT
100
AcDbLine
 62
90
  6
CONTINUOUS
 10
494.6551113793
 20
55.7827973506
 11
494.7195339818
 21
55.6540284396
  0
LINE
  5
5DE
100
AcDbEntity
  8
388782-000-00-ED1_FORMAT
100
AcDbLine
 62
90
  6
CONTINUOUS
 10
483.6609410784
 20
51.161948095
 11
482.453391122
 21
54.0527102028
  0
LINE
  5
5DF
100
AcDbEntity
  8
388782-000-00-ED1_FORMAT
100
AcDbLine
 62
90
  6
CONTINUOUS
 10
482.6251745561
 20
58.4725134838
 11
483.1899328137
 21
56.8570312772
  0
LINE
  5
5E0
100
AcDbEntity
  8
388782-000-00-ED1_FORMAT
100
AcDbLine
 62
7
  6
CONTINUOUS
 10
435.000013918
 20
43.4999964211
 11
435.000013918
 21
34.9999973292
  0
LINE
  5
5E1
100
AcDbEntity
  8
388782-000-00-ED1_FORMAT
100
AcDbLine
 62
7
  6
CONTINUOUS
 10
438.9013369791
 20
410.0
 11
438.9013369791
 21
347.999997
  0
LINE
  5
5E2
100
AcDbEntity
  8
388782-000-00-ED1_FORMAT
100
AcDbLine
 62
7
  6
CONTINUOUS
 10
438.9013369791
 20
347.999997
 11
584.0
 21
347.999997
  0
LINE
  5
5E3
100
AcDbEntity
  8
388782-000-00-ED1_FORMAT
100
AcDbLine
 62
7
  6
CONTINUOUS
 10
448.901398463
 20
352.5499922202
 11
550.8999983984
 21
352.5499922202
  0
LINE
  5
5E4
100
AcDbEntity
  8
388782-000-00-ED1_FORMAT
100
AcDbLine
 62
7
  6
CONTINUOUS
 10
438.9013369791
 20
357.0999874403
 11
584.0
 21
357.0999874403
  0
LINE
  5
5E5
100
AcDbEntity
  8
388782-000-00-ED1_FORMAT
100
AcDbLine
 62
90
  6
CONTINUOUS
 10
494.7195339818
 20
55.6540284396
 11
494.7707119564
 21
55.521666084
  0
LINE
  5
5E6
100
AcDbEntity
  8
388782-000-00-ED1_FORMAT
100
AcDbLine
 62
90
  6
CONTINUOUS
 10
482.4341345317
 20
58.300726235
 11
483.5429601304
 21
55.0142656101
  0
LINE
  5
5E7
100
AcDbEntity
  8
388782-000-00-ED1_FORMAT
100
AcDbLine
 62
90
  6
CONTINUOUS
 10
493.6586514946
 20
55.039797377
 11
493.6070157564
 21
55.202040254
  0
LINE
  5
5E8
100
AcDbEntity
  8
388782-000-00-ED1_FORMAT
100
AcDbLine
 62
90
  6
CONTINUOUS
 10
494.7707119564
 20
55.521666084
 11
494.8093166898
 21
55.3867364373
  0
LINE
  5
5E9
100
AcDbEntity
  8
388782-000-00-ED1_FORMAT
100
AcDbLine
 62
3
  6
CONTINUOUS
 10
447.0
 20
10.0598861881
 11
447.0
 21
5.0598861881
  0
LINE
  5
5EA
100
AcDbEntity
  8
388782-000-00-ED1_FORMAT
100
AcDbLine
 62
3
  6
CONTINUOUS
 10
447.0
 20
410.0
 11
447.0
 21
415.0
  0
LINE
  5
5EB
100
AcDbEntity
  8
388782-000-00-ED1_FORMAT
100
AcDbLine
 62
7
  6
CONTINUOUS
 10
448.901398463
 20
347.999997
 11
448.901398463
 21
410.0
  0
LINE
  5
5EC
100
AcDbEntity
  8
388782-000-00-ED1_FORMAT
100
AcDbLine
 62
3
  6
CONTINUOUS
 10
10.0
 20
360.0
 11
5.0
 21
360.0
  0
LINE
  5
5ED
100
AcDbEntity
  8
388782-000-00-ED1_FORMAT
100
AcDbLine
 62
3
  6
CONTINUOUS
 10
584.0
 20
360.0
 11
589.0
 21
360.0
  0
LINE
  5
5EE
100
AcDbEntity
  8
388782-000-00-ED1_FORMAT
100
AcDbLine
 62
7
  6
CONTINUOUS
 10
448.901398463
 20
361.6499826605
 11
550.8999983984
 21
361.6499826605
  0
LINE
  5
5EF
100
AcDbEntity
  8
388782-000-00-ED1_FORMAT
100
AcDbLine
 62
7
  6
CONTINUOUS
 10
438.9013369791
 20
366.1999778806
 11
584.0
 21
366.1999778806
  0
LINE
  5
5F0
100
AcDbEntity
  8
388782-000-00-ED1_FORMAT
100
AcDbLine
 62
7
  6
CONTINUOUS
 10
448.901398463
 20
370.7499731008
 11
550.8999983984
 21
370.7499731008
  0
LINE
  5
5F1
100
AcDbEntity
  8
388782-000-00-ED1_FORMAT
100
AcDbLine
 62
7
  6
CONTINUOUS
 10
438.9013369791
 20
375.299967321
 11
584.0
 21
375.299967321
  0
LINE
  5
5F2
100
AcDbEntity
  8
388782-000-00-ED1_FORMAT
100
AcDbLine
 62
7
  6
CONTINUOUS
 10
405.3013293533
 20
377.9989914516
 11
438.9013369791
 21
377.9989914516
  0
LINE
  5
5F3
100
AcDbEntity
  8
388782-000-00-ED1_FORMAT
100
AcDbLine
 62
90
  6
CONTINUOUS
 10
489.9725250679
 20
56.5857567313
 11
491.1683562751
 21
51.8564365672
  0
LINE
  5
5F4
100
AcDbEntity
  8
388782-000-00-ED1_FORMAT
100
AcDbLine
 62
90
  6
CONTINUOUS
 10
489.6792511645
 20
51.8104503952
 11
489.4688019619
 21
52.7755076944
  0
LINE
  5
5F5
100
AcDbEntity
  8
388782-000-00-ED1_FORMAT
100
AcDbLine
 62
90
  6
CONTINUOUS
 10
489.3363251654
 20
53.8016764391
 11
488.9602265614
 21
55.5417657223
  0
LINE
  5
5F6
100
AcDbEntity
  8
388782-000-00-ED1_FORMAT
100
AcDbLine
 62
90
  6
CONTINUOUS
 10
494.8093166898
 20
55.3867364373
 11
494.8360500861
 21
55.2502809119
  0
LINE
  5
5F7
100
AcDbEntity
  8
388782-000-00-ED1_FORMAT
100
AcDbLine
 62
90
  6
CONTINUOUS
 10
493.6758328898
 20
54.8334375295
 11
493.6586514946
 21
55.039797377
  0
LINE
  5
5F8
100
AcDbEntity
  8
388782-000-00-ED1_FORMAT
100
AcDbLine
 62
90
  6
CONTINUOUS
 10
496.985616572
 20
51.2672718784
 11
496.9365137925
 21
51.897692515
  0
LINE
  5
5F9
100
AcDbEntity
  8
388782-000-00-ED1_FORMAT
100
AcDbLine
 62
7
  6
CONTINUOUS
 10
469.0000102857
 20
64.9999941242
 11
469.0000102857
 21
34.9999973292
  0
LINE
  5
5FA
100
AcDbEntity
  8
388782-000-00-ED1_FORMAT
100
AcDbLine
 62
7
  6
CONTINUOUS
 10
474.000005659
 20
10.0
 11
474.0000059056
 21
24.2499984776
  0
LINE
  5
5FB
100
AcDbEntity
  8
388782-000-00-ED1_FORMAT
100
AcDbLine
 62
90
  6
CONTINUOUS
 10
480.2529823549
 20
49.5195532012
 11
480.2529823549
 21
52.7537829951
  0
LINE
  5
5FC
100
AcDbEntity
  8
388782-000-00-ED1_FORMAT
100
AcDbLine
 62
90
  6
CONTINUOUS
 10
480.253836847
 20
55.5478196464
 11
480.253836847
 21
59.0461332824
  0
LINE
  5
5FD
100
AcDbEntity
  8
388782-000-00-ED1_FORMAT
100
AcDbLine
 62
90
  6
CONTINUOUS
 10
482.453391122
 20
54.0527102028
 11
482.453391122
 21
50.4031743494
  0
LINE
  5
5FE
100
AcDbEntity
  8
388782-000-00-ED1_FORMAT
100
AcDbLine
 62
90
  6
CONTINUOUS
 10
482.6544409113
 20
51.5949009427
 11
482.6544409113
 21
50.2336148836
  0
LINE
  5
5FF
100
AcDbEntity
  8
388782-000-00-ED1_FORMAT
100
AcDbLine
 62
90
  6
CONTINUOUS
 10
484.7759922626
 20
51.0971516522
 11
484.7759922626
 21
53.7835337403
  0
LINE
  5
600
100
AcDbEntity
  8
388782-000-00-ED1_FORMAT
100
AcDbLine
 62
90
  6
CONTINUOUS
 10
486.2079074361
 20
56.9181160198
 11
486.2079074361
 21
51.4102390916
  0
LINE
  5
601
100
AcDbEntity
  8
388782-000-00-ED1_FORMAT
100
AcDbLine
 62
90
  6
CONTINUOUS
 10
480.8541175628
 20
49.5294294517
 11
480.8572913907
 21
59.0472052123
  0
LINE
  5
602
100
AcDbEntity
  8
388782-000-00-ED1_FORMAT
100
AcDbLine
 62
7
  6
CONTINUOUS
 10
448.901398463
 20
379.8499625411
 11
550.8999983984
 21
379.8499625411
  0
LINE
  5
603
100
AcDbEntity
  8
388782-000-00-ED1_FORMAT
100
AcDbLine
 62
7
  6
CONTINUOUS
 10
438.9013369791
 20
384.3999577613
 11
584.0
 21
384.3999577613
  0
LINE
  5
604
100
AcDbEntity
  8
388782-000-00-ED1_FORMAT
100
AcDbLine
 62
7
  6
CONTINUOUS
 10
448.901398463
 20
388.9499529814
 11
550.8999983984
 21
388.9499529814
  0
LINE
  5
605
100
AcDbEntity
  8
388782-000-00-ED1_FORMAT
100
AcDbLine
 62
7
  6
CONTINUOUS
 10
417.3013299339
 20
389.9989920322
 11
438.9013369791
 21
389.9989920322
  0
LINE
  5
606
100
AcDbEntity
  8
388782-000-00-ED1_FORMAT
100
AcDbLine
 62
7
  6
CONTINUOUS
 10
438.9013369791
 20
393.4999482016
 11
584.0
 21
393.4999482016
  0
LINE
  5
607
100
AcDbEntity
  8
388782-000-00-ED1_FORMAT
100
AcDbLine
 62
7
  6
CONTINUOUS
 10
448.901398463
 20
398.0499434218
 11
550.8999983984
 21
398.0499434218
  0
LINE
  5
608
100
AcDbEntity
  8
388782-000-00-ED1_FORMAT
100
AcDbLine
 62
90
  6
CONTINUOUS
 10
497.4244593118
 20
57.2541030852
 11
498.593679193
 21
50.9565495512
  0
LINE
  5
609
100
AcDbEntity
  8
388782-000-00-ED1_FORMAT
100
AcDbLine
 62
90
  6
CONTINUOUS
 10
496.8411768858
 20
53.3604647724
 11
496.5284938042
 21
55.3982873398
  0
LINE
  5
60A
100
AcDbEntity
  8
388782-000-00-ED1_FORMAT
100
AcDbLine
 62
90
  6
CONTINUOUS
 10
494.8360500861
 20
55.2502809119
 11
494.8517056025
 21
55.1133294758
  0
LINE
  5
60B
100
AcDbEntity
  8
388782-000-00-ED1_FORMAT
100
AcDbLine
 62
90
  6
CONTINUOUS
 10
494.8517056025
 20
55.1133294758
 11
494.8569546256
 21
54.9769197268
  0
LINE
  5
60C
100
AcDbEntity
  8
388782-000-00-ED1_FORMAT
100
AcDbLine
 62
90
  6
CONTINUOUS
 10
492.7525846695
 20
55.5470757805
 11
492.7601225107
 21
53.9302469859
  0
LINE
  5
60D
100
AcDbEntity
  8
388782-000-00-ED1_FORMAT
100
AcDbLine
 62
7
  6
CONTINUOUS
 10
488.0000142087
 20
64.9999941242
 11
488.0000142087
 21
72.499993323
  0
LINE
  5
60E
100
AcDbEntity
  8
388782-000-00-ED1_FORMAT
100
AcDbLine
 62
90
  6
CONTINUOUS
 10
491.5046599603
 20
51.852625685
 11
491.5046599603
 21
56.6184677578
  0
LINE
  5
60F
100
AcDbEntity
  8
388782-000-00-ED1_FORMAT
100
AcDbLine
 62
90
  6
CONTINUOUS
 10
492.7919523422
 20
52.8280437011
 11
492.7919523422
 21
51.769312703
  0
LINE
  5
610
100
AcDbEntity
  8
388782-000-00-ED1_FORMAT
100
AcDbLine
 62
3
  6
CONTINUOUS
 10
497.0
 20
10.0598861881
 11
497.0
 21
5.0598861881
  0
LINE
  5
611
100
AcDbEntity
  8
388782-000-00-ED1_FORMAT
100
AcDbLine
 62
3
  6
CONTINUOUS
 10
497.0
 20
410.0
 11
497.0
 21
415.0
  0
LINE
  5
612
100
AcDbEntity
  8
388782-000-00-ED1_FORMAT
100
AcDbLine
 62
90
  6
CONTINUOUS
 10
499.1310631851
 20
50.6036862664
 11
499.1310631851
 21
51.1375912548
  0
LINE
  5
613
100
AcDbEntity
  8
388782-000-00-ED1_FORMAT
100
AcDbLine
 62
90
  6
CONTINUOUS
 10
499.1310631851
 20
56.9904197862
 11
499.1310631851
 21
58.2890494476
  0
LINE
  5
614
100
AcDbEntity
  8
388782-000-00-ED1_FORMAT
100
AcDbLine
 62
90
  6
CONTINUOUS
 10
499.407247246
 20
50.7446316902
 11
499.407247246
 21
58.1349852809
  0
LINE
  5
615
100
AcDbEntity
  8
388782-000-00-ED1_FORMAT
100
AcDbLine
 62
90
  6
CONTINUOUS
 10
500.9321799905
 20
58.7495672956
 11
500.9321799905
 21
51.5395611337
  0
LINE
  5
616
100
AcDbEntity
  8
388782-000-00-ED1_FORMAT
100
AcDbLine
 62
90
  6
CONTINUOUS
 10
501.4483542674
 20
52.1575038965
 11
501.4483542674
 21
51.709555475
  0
LINE
  5
617
100
AcDbEntity
  8
388782-000-00-ED1_FORMAT
100
AcDbLine
 62
90
  6
CONTINUOUS
 10
501.517446059
 20
58.3268645387
 11
501.517446059
 21
55.9608063702
  0
LINE
  5
618
100
AcDbEntity
  8
388782-000-00-ED1_FORMAT
100
AcDbLine
 62
90
  6
CONTINUOUS
 10
502.2963156283
 20
50.9884480473
 11
502.2963156283
 21
49.2870397913
  0
LINE
  5
619
100
AcDbEntity
  8
388782-000-00-ED1_FORMAT
100
AcDbLine
 62
90
  6
CONTINUOUS
 10
502.8858236398
 20
51.1495808474
 11
502.8858236398
 21
49.3918638494
  0
LINE
  5
61A
100
AcDbEntity
  8
388782-000-00-ED1_FORMAT
100
AcDbLine
 62
90
  6
CONTINUOUS
 10
494.8569546256
 20
54.9769197268
 11
494.8524380243
 21
54.7780481294
  0
LINE
  5
61B
100
AcDbEntity
  8
388782-000-00-ED1_FORMAT
100
AcDbLine
 62
90
  6
CONTINUOUS
 10
493.6602689262
 20
54.605085954
 11
493.6758328898
 21
54.8334375295
  0
LINE
  5
61C
100
AcDbEntity
  8
388782-000-00-ED1_FORMAT
100
AcDbLine
 62
90
  6
CONTINUOUS
 10
494.8524380243
 20
54.7780481294
 11
494.8380947637
 21
54.5885759455
  0
LINE
  5
61D
100
AcDbEntity
  8
388782-000-00-ED1_FORMAT
100
AcDbLine
 62
90
  6
CONTINUOUS
 10
493.6450711734
 20
52.9455897736
 11
493.4917203551
 21
52.9019305668
  0
LINE
  5
61E
100
AcDbEntity
  8
388782-000-00-ED1_FORMAT
100
AcDbLine
 62
7
  6
CONTINUOUS
 10
438.9013369791
 20
402.5999386419
 11
584.0
 21
402.5999386419
  0
LINE
  5
61F
100
AcDbEntity
  8
388782-000-00-ED1_FORMAT
100
AcDbLine
 62
3
  6
CONTINUOUS
 10
405.3013293533
 20
410.0
 11
10.0
 21
410.0
  0
LINE
  5
620
100
AcDbEntity
  8
388782-000-00-ED1_FORMAT
100
AcDbLine
 62
7
  6
CONTINUOUS
 10
405.3013293533
 20
410.0
 11
584.0
 21
410.0
  0
LINE
  5
621
100
AcDbEntity
  8
388782-000-00-ED1_FORMAT
100
AcDbLine
 62
7
  6
CONTINUOUS
 10
589.0
 20
415.0
 11
5.0
 21
415.0
  0
LINE
  5
622
100
AcDbEntity
  8
388782-000-00-ED1_FORMAT
100
AcDbLine
 62
6
  6
HIDDEN
 10
594.0
 20
420.0
 11
-0.0
 21
420.0
  0
LINE
  5
623
100
AcDbEntity
  8
388782-000-00-ED1_FORMAT
100
AcDbLine
 62
7
  6
CONTINUOUS
 10
519.0000059056
 20
13.4999996261
 11
519.0000059056
 21
24.2499984776
  0
LINE
  5
624
100
AcDbEntity
  8
388782-000-00-ED1_FORMAT
100
AcDbLine
 62
90
  6
CONTINUOUS
 10
494.8380947637
 20
54.5885759455
 11
494.8140163964
 21
54.4085565806
  0
LINE
  5
625
100
AcDbEntity
  8
388782-000-00-ED1_FORMAT
100
AcDbLine
 62
90
  6
CONTINUOUS
 10
496.5284938042
 20
55.3982873398
 11
496.2427882597
 21
53.4197680515
  0
LINE
  5
626
100
AcDbEntity
  8
388782-000-00-ED1_FORMAT
100
AcDbLine
 62
90
  6
CONTINUOUS
 10
496.1121425177
 20
52.0335910947
 11
496.0031947722
 21
51.4534748671
  0
LINE
  5
627
100
AcDbEntity
  8
388782-000-00-ED1_FORMAT
100
AcDbLine
 62
90
  6
CONTINUOUS
 10
494.8140163964
 20
54.4085565806
 11
494.7802639576
 21
54.238012923
  0
LINE
  5
628
100
AcDbEntity
  8
388782-000-00-ED1_FORMAT
100
AcDbLine
 62
90
  6
CONTINUOUS
 10
488.4483247451
 20
52.7013690587
 11
488.2212739812
 21
51.6919048721
  0
LINE
  5
629
100
AcDbEntity
  8
388782-000-00-ED1_FORMAT
100
AcDbLine
 62
90
  6
CONTINUOUS
 10
488.9602265614
 20
55.5417657223
 11
488.5569062797
 21
53.7608935137
  0
LINE
  5
62A
100
AcDbEntity
  8
388782-000-00-ED1_FORMAT
100
AcDbLine
 62
90
  6
CONTINUOUS
 10
494.5375576774
 20
51.6192921152
 11
495.735738738
 21
56.8851989996
  0
LINE
  5
62B
100
AcDbEntity
  8
388782-000-00-ED1_FORMAT
100
AcDbLine
 62
90
  6
CONTINUOUS
 10
493.6160794764
 20
54.4151407476
 11
493.6602689262
 21
54.605085954
  0
LINE
  5
62C
100
AcDbEntity
  8
388782-000-00-ED1_FORMAT
100
AcDbLine
 62
90
  6
CONTINUOUS
 10
486.6780001736
 20
51.4975460613
 11
488.1172700829
 21
56.6976112759
  0
LINE
  5
62D
100
AcDbEntity
  8
388782-000-00-ED1_FORMAT
100
AcDbLine
 62
90
  6
CONTINUOUS
 10
482.6563940362
 20
50.2336148836
 11
480.8481056004
 21
49.2196875015
  0
LINE
  5
62E
100
AcDbEntity
  8
388782-000-00-ED1_FORMAT
100
AcDbLine
 62
90
  6
CONTINUOUS
 10
482.453391122
 20
50.4031743494
 11
480.8541175628
 21
49.5294294517
  0
LINE
  5
62F
100
AcDbEntity
  8
388782-000-00-ED1_FORMAT
100
AcDbLine
 62
90
  6
CONTINUOUS
 10
499.1310631851
 20
51.1375912548
 11
491.2765410813
 21
47.4442817536
  0
LINE
  5
630
100
AcDbEntity
  8
388782-000-00-ED1_FORMAT
100
AcDbLine
 62
90
  6
CONTINUOUS
 10
493.9253140719
 20
53.0628688174
 11
493.7896024124
 21
52.999251116
  0
LINE
  5
631
100
AcDbEntity
  8
388782-000-00-ED1_FORMAT
100
AcDbLine
 62
90
  6
CONTINUOUS
 10
480.253836847
 20
59.0461332824
 11
480.8380042828
 21
59.3176824865
  0
LINE
  5
632
100
AcDbEntity
  8
388782-000-00-ED1_FORMAT
100
AcDbLine
 62
3
  6
CONTINUOUS
 10
476.0615586419
 20
54.234993065
 11
480.253836847
 21
56.14747605
  0
LINE
  5
633
100
AcDbEntity
  8
388782-000-00-ED1_FORMAT
100
AcDbLine
 62
3
  6
CONTINUOUS
 10
483.0000235006
 20
57.4002639118
 11
491.2765410813
 21
61.1759434526
  0
LINE
  5
634
100
AcDbEntity
  8
388782-000-00-ED1_FORMAT
100
AcDbLine
 62
90
  6
CONTINUOUS
 10
483.1899328137
 20
56.8570312772
 11
491.2765410813
 21
60.5323010764
  0
LINE
  5
635
100
AcDbEntity
  8
388782-000-00-ED1_FORMAT
100
AcDbLine
 62
90
  6
CONTINUOUS
 10
477.3505472744
 20
54.2349993124
 11
480.253836847
 21
55.5478196464
  0
LINE
  5
636
100
AcDbEntity
  8
388782-000-00-ED1_FORMAT
100
AcDbLine
 62
90
  6
CONTINUOUS
 10
499.1310631851
 20
58.2890494476
 11
501.0021873094
 21
59.059797527
  0
LINE
  5
637
100
AcDbEntity
  8
388782-000-00-ED1_FORMAT
100
AcDbLine
 62
90
  6
CONTINUOUS
 10
493.1567899608
 20
53.9852167692
 11
493.3136503004
 21
54.0486399211
  0
LINE
  5
638
100
AcDbEntity
  8
388782-000-00-ED1_FORMAT
100
AcDbLine
 62
90
  6
CONTINUOUS
 10
499.407247246
 20
58.1349852809
 11
500.9321799905
 21
58.7495672956
  0
LINE
  5
639
100
AcDbEntity
  8
388782-000-00-ED1_FORMAT
100
AcDbLine
 62
90
  6
CONTINUOUS
 10
493.7896024124
 20
52.999251116
 11
493.6450711734
 21
52.9455897736
  0
LINE
  5
63A
100
AcDbEntity
  8
388782-000-00-ED1_FORMAT
100
AcDbLine
 62
7
  6
CONTINUOUS
 10
540.0000047006
 20
34.9999973292
 11
540.0000086534
 21
72.499993323
  0
LINE
  5
63B
100
AcDbEntity
  8
388782-000-00-ED1_FORMAT
100
AcDbLine
 62
3
  6
CONTINUOUS
 10
547.0
 20
415.0
 11
547.0
 21
410.0
  0
LINE
  5
63C
100
AcDbEntity
  8
388782-000-00-ED1_FORMAT
100
AcDbLine
 62
3
  6
CONTINUOUS
 10
547.0
 20
10.0598861881
 11
547.0
 21
5.0598861881
  0
LINE
  5
63D
100
AcDbEntity
  8
388782-000-00-ED1_FORMAT
100
AcDbLine
 62
90
  6
CONTINUOUS
 10
494.7802639576
 20
54.238012923
 11
494.7368984824
 21
54.0769945637
  0
LINE
  5
63E
100
AcDbEntity
  8
388782-000-00-ED1_FORMAT
100
AcDbLine
 62
90
  6
CONTINUOUS
 10
494.7368984824
 20
54.0769945637
 11
494.683981006
 21
53.9255358351
  0
LINE
  5
63F
100
AcDbEntity
  8
388782-000-00-ED1_FORMAT
100
AcDbLine
 62
90
  6
CONTINUOUS
 10
484.7759922626
 20
53.7835337403
 11
483.6609410784
 21
51.161948095
  0
LINE
  5
640
100
AcDbEntity
  8
388782-000-00-ED1_FORMAT
100
AcDbLine
 62
90
  6
CONTINUOUS
 10
494.683981006
 20
53.9255358351
 11
494.6215725635
 21
53.7836825134
  0
LINE
  5
641
100
AcDbEntity
  8
388782-000-00-ED1_FORMAT
100
AcDbLine
 62
90
  6
CONTINUOUS
 10
493.543447646
 20
54.2608896607
 11
493.6160794764
 21
54.4151407476
  0
LINE
  5
642
100
AcDbEntity
  8
388782-000-00-ED1_FORMAT
100
AcDbLine
 62
90
  6
CONTINUOUS
 10
494.6215725635
 20
53.7836825134
 11
494.5497647077
 21
53.651468931
  0
LINE
  5
643
100
AcDbEntity
  8
388782-000-00-ED1_FORMAT
100
AcDbLine
 62
90
  6
CONTINUOUS
 10
494.5497647077
 20
53.651468931
 11
494.4686184736
 21
53.5289370495
  0
LINE
  5
644
100
AcDbEntity
  8
388782-000-00-ED1_FORMAT
100
AcDbLine
 62
90
  6
CONTINUOUS
 10
483.5429601304
 20
55.0142656101
 11
485.0026157804
 21
57.1580375713
  0
LINE
  5
645
100
AcDbEntity
  8
388782-000-00-ED1_FORMAT
100
AcDbLine
 62
90
  6
CONTINUOUS
 10
493.4425870581
 20
54.1396242586
 11
493.543447646
 21
54.2608896607
  0
LINE
  5
646
100
AcDbEntity
  8
388782-000-00-ED1_FORMAT
100
AcDbLine
 62
90
  6
CONTINUOUS
 10
494.3782254142
 20
53.4161250159
 11
494.2786160468
 21
53.3130709772
  0
LINE
  5
647
100
AcDbEntity
  8
388782-000-00-ED1_FORMAT
100
AcDbLine
 62
90
  6
CONTINUOUS
 10
494.2786160468
 20
53.3130709772
 11
494.1698819243
 21
53.219816895
  0
LINE
  5
648
100
AcDbEntity
  8
388782-000-00-ED1_FORMAT
100
AcDbLine
 62
90
  6
CONTINUOUS
 10
494.1698819243
 20
53.219816895
 11
494.0520840817
 21
53.136404731
  0
LINE
  5
649
100
AcDbEntity
  8
388782-000-00-ED1_FORMAT
100
AcDbLine
 62
90
  6
CONTINUOUS
 10
493.3136503004
 20
54.0486399211
 11
493.4425870581
 21
54.1396242586
  0
LINE
  5
64A
100
AcDbEntity
  8
388782-000-00-ED1_FORMAT
100
AcDbLine
 62
90
  6
CONTINUOUS
 10
494.0520840817
 20
53.136404731
 11
493.9253140719
 21
53.0628688174
  0
LINE
  5
64B
100
AcDbEntity
  8
388782-000-00-ED1_FORMAT
100
AcDbLine
 62
90
  6
CONTINUOUS
 10
505.7164813821
 20
54.2349993124
 11
501.4483542674
 21
52.1575038965
  0
LINE
  5
64C
100
AcDbEntity
  8
388782-000-00-ED1_FORMAT
100
AcDbLine
 62
3
  6
CONTINUOUS
 10
499.2098595658
 20
50.563570913
 11
491.2765410813
 21
46.7702743895
  0
LINE
  5
64D
100
AcDbEntity
  8
388782-000-00-ED1_FORMAT
100
AcDbLine
 62
3
  6
CONTINUOUS
 10
506.8883257748
 20
54.2349993124
 11
501.535573499
 21
51.6755932278
  0
LINE
  5
64E
100
AcDbEntity
  8
388782-000-00-ED1_FORMAT
100
AcDbLine
 62
7
  6
CONTINUOUS
 10
550.8994475362
 20
40.954677693
 11
550.8994475362
 21
64.9999941242
  0
LINE
  5
64F
100
AcDbEntity
  8
388782-000-00-ED1_FORMAT
100
AcDbLine
 62
7
  6
CONTINUOUS
 10
550.8999983984
 20
347.999997
 11
550.8999983984
 21
410.0
  0
LINE
  5
650
100
AcDbEntity
  8
388782-000-00-ED1_FORMAT
100
AcDbLine
 62
7
  6
CONTINUOUS
 10
551.7325424472
 20
13.4999996261
 11
551.7325424472
 21
10.0
  0
LINE
  5
651
100
AcDbEntity
  8
388782-000-00-ED1_FORMAT
100
AcDbLine
 62
7
  6
CONTINUOUS
 10
565.8994459337
 20
64.9999941242
 11
565.8994459337
 21
34.9999973292
  0
LINE
  5
652
100
AcDbEntity
  8
388782-000-00-ED1_FORMAT
100
AcDbLine
 62
7
  6
CONTINUOUS
 10
565.8999991242
 20
347.999997
 11
565.8999991242
 21
410.0
  0
LINE
  5
653
100
AcDbEntity
  8
388782-000-00-ED1_FORMAT
100
AcDbLine
 62
90
  6
CONTINUOUS
 10
494.4686184736
 20
53.5289370495
 11
494.3782254142
 21
53.4161250159
  0
LINE
  5
654
100
AcDbEntity
  8
388782-000-00-ED1_FORMAT
100
AcDbLine
 62
90
  6
CONTINUOUS
 10
502.8858236398
 20
49.3918638494
 11
502.3335165532
 21
48.9736548055
  0
LINE
  5
655
100
AcDbEntity
  8
388782-000-00-ED1_FORMAT
100
AcDbLine
 62
7
  6
CONTINUOUS
 10
573.999961602
 20
13.4999996261
 11
573.999961602
 21
34.9999973292
  0
LINE
  5
656
100
AcDbEntity
  8
388782-000-00-ED1_FORMAT
100
AcDbLine
 62
7
  6
CONTINUOUS
 10
584.0
 20
10.0
 11
584.0
 21
72.499993323
  0
LINE
  5
657
100
AcDbEntity
  8
388782-000-00-ED1_FORMAT
100
AcDbLine
 62
3
  6
CONTINUOUS
 10
584.0
 20
72.499993323
 11
584.0
 21
347.999997
  0
LINE
  5
658
100
AcDbEntity
  8
388782-000-00-ED1_FORMAT
100
AcDbLine
 62
7
  6
CONTINUOUS
 10
584.0
 20
347.999997
 11
584.0
 21
410.0
  0
LINE
  5
659
100
AcDbEntity
  8
388782-000-00-ED1_FORMAT
100
AcDbLine
 62
7
  6
CONTINUOUS
 10
589.0
 20
5.0
 11
589.0
 21
415.0
  0
LINE
  5
65A
100
AcDbEntity
  8
388782-000-00-ED1_FORMAT
100
AcDbLine
 62
6
  6
HIDDEN
 10
594.0
 20
0.0
 11
594.0
 21
420.0
  0
LINE
  5
65B
100
AcDbEntity
  8
30526677_CL
100
AcDbLine
 62
7
  6
CONTINUOUS
 10
266.6060518567
 20
224.0708739877
 11
266.6060518567
 21
209.7598565775
  0
LINE
  5
65C
100
AcDbEntity
  8
30526677_CL
100
AcDbLine
 62
7
  6
CONTINUOUS
 10
266.6060518567
 20
238.6108739877
 11
266.6060518567
 21
252.9219240236
  0
LINE
  5
65D
100
AcDbEntity
  8
30526677_CL
100
AcDbLine
 62
7
  6
CONTINUOUS
 10
267.6060518567
 20
225.0708739877
 11
267.6060518567
 21
222.2480947171
  0
LINE
  5
65E
100
AcDbEntity
  8
30526677_HL
100
AcDbLine
 62
6
  6
HIDDEN
 10
267.6060518567
 20
214.3408739877
 11
267.6060518567
 21
222.2480947171
  0
LINE
  5
65F
100
AcDbEntity
  8
30526677_CL
100
AcDbLine
 62
7
  6
CONTINUOUS
 10
267.6060518567
 20
237.6108739877
 11
267.6060518567
 21
240.4336532583
  0
LINE
  5
660
100
AcDbEntity
  8
30526677_HL
100
AcDbLine
 62
6
  6
HIDDEN
 10
267.6060518567
 20
240.4336532583
 11
267.6060518567
 21
248.3408739877
  0
LINE
  5
661
100
AcDbEntity
  8
30526677_CL
100
AcDbLine
 62
9
  6
CONTINUOUS
 10
267.7460069263
 20
254.1204208347
 11
267.7460069263
 21
240.4707043572
  0
LINE
  5
662
100
AcDbEntity
  8
30526677_CL
100
AcDbLine
 62
9
  6
CONTINUOUS
 10
267.7460069263
 20
222.2110436181
 11
267.7460069263
 21
208.5613271406
  0
LINE
  5
663
100
AcDbEntity
  8
30526677_CL
100
AcDbLine
 62
9
  6
CONTINUOUS
 10
271.1060518567
 20
225.0708739877
 11
271.1060518567
 21
221.7115778254
  0
LINE
  5
664
100
AcDbEntity
  8
30526677_CL
100
AcDbLine
 62
9
  6
CONTINUOUS
 10
271.1060518567
 20
237.6108739877
 11
271.1060518567
 21
240.9701701499
  0
LINE
  5
665
100
AcDbEntity
  8
30526677_CL
100
AcDbLine
 62
7
  6
CONTINUOUS
 10
272.6060518567
 20
238.4884088137
 11
272.6060518567
 21
224.1933391617
  0
LINE
  5
666
100
AcDbEntity
  8
30526677_CL
100
AcDbLine
 62
9
  6
CONTINUOUS
 10
275.1060518567
 20
225.0708739877
 11
275.1060518567
 21
219.103807031
  0
LINE
  5
667
100
AcDbEntity
  8
30526677_CL
100
AcDbLine
 62
9
  6
CONTINUOUS
 10
275.1060518567
 20
237.6108739877
 11
275.1060518567
 21
243.5779409444
  0
LINE
  5
668
100
AcDbEntity
  8
30526677_HL
100
AcDbLine
 62
6
  6
HIDDEN
 10
276.6060518567
 20
223.9308878158
 11
276.6060518567
 21
238.7508601596
  0
LINE
  5
669
100
AcDbEntity
  8
30526677_HL
100
AcDbLine
 62
6
  6
HIDDEN
 10
279.510026453
 20
248.3408739877
 11
279.510026453
 21
214.3408739877
  0
LINE
  5
66A
100
AcDbEntity
  8
30526677_CL
100
AcDbLine
 62
9
  6
CONTINUOUS
 10
281.0688721798
 20
211.6408739877
 11
281.0688721798
 21
251.0408739877
  0
LINE
  5
66B
100
AcDbEntity
  8
30526677_CL
100
AcDbLine
 62
9
  6
CONTINUOUS
 10
281.588487422
 20
211.3408739877
 11
281.588487422
 21
251.3408739877
  0
LINE
  5
66C
100
AcDbEntity
  8
30526677_HL
100
AcDbLine
 62
6
  6
HIDDEN
 10
279.510026453
 20
248.3408739877
 11
281.0688721798
 21
251.0408739877
  0
LINE
  5
66D
100
AcDbEntity
  8
30526677_HL
100
AcDbLine
 62
6
  6
HIDDEN
 10
279.510026453
 20
214.3408739877
 11
281.0688721798
 21
211.6408739877
  0
LINE
  5
66E
100
AcDbEntity
  8
30526677_AXIS
100
AcDbLine
 62
3
  6
CENTER
 10
289.5060518567
 20
231.3408739877
 11
289.5060518567
 21
224.5908739877
  0
LINE
  5
66F
100
AcDbEntity
  8
30526677_AXIS
100
AcDbLine
 62
3
  6
CENTER
 10
289.5060518567
 20
231.3408739877
 11
289.5060518567
 21
238.0908739877
  0
LINE
  5
670
100
AcDbEntity
  8
30526677_CL
100
AcDbLine
 62
9
  6
CONTINUOUS
 10
292.2610538583
 20
228.7967702219
 11
292.2610538583
 21
211.3408739877
  0
LINE
  5
671
100
AcDbEntity
  8
30526677_CL
100
AcDbLine
 62
9
  6
CONTINUOUS
 10
292.2610538583
 20
233.8849777535
 11
292.2610538583
 21
251.3408739877
  0
LINE
  5
672
100
AcDbEntity
  8
30526677_CL
100
AcDbLine
 62
7
  6
CONTINUOUS
 10
296.5060518567
 20
207.1204431259
 11
296.5060518567
 21
255.5613048494
  0
LINE
  5
673
100
AcDbEntity
  8
30526677_CL
100
AcDbLine
 62
9
  6
CONTINUOUS
 10
297.1761620897
 20
255.3817493536
 11
297.1761620897
 21
207.2999986217
  0
LINE
  5
674
100
AcDbEntity
  8
30526677_CL
100
AcDbLine
 62
9
  6
CONTINUOUS
 10
297.3314535168
 20
255.3613048494
 11
297.3314535168
 21
207.3204431259
  0
LINE
  5
675
100
AcDbEntity
  8
30526677_CL
100
AcDbLine
 62
9
  6
CONTINUOUS
 10
298.0060518567
 20
255.3613048494
 11
298.0060518567
 21
207.3204431259
  0
LINE
  5
676
100
AcDbEntity
  8
30526677_CL
100
AcDbLine
 62
7
  6
CONTINUOUS
 10
298.5060518567
 20
200.0408767993
 11
298.5060518567
 21
262.6408711761
  0
LINE
  5
677
100
AcDbEntity
  8
30526677_CL
100
AcDbLine
 62
9
  6
CONTINUOUS
 10
298.600212698
 20
206.6369392653
 11
298.600212698
 21
256.04480871
  0
LINE
  5
678
100
AcDbEntity
  8
30526677_HL
100
AcDbLine
 62
6
  6
HIDDEN
 10
298.6060518567
 20
255.9613048494
 11
298.6060518567
 21
206.7204431259
  0
LINE
  5
679
100
AcDbEntity
  8
30526677_CL
100
AcDbLine
 62
7
  6
CONTINUOUS
 10
298.7060518567
 20
199.8408739877
 11
298.7060518567
 21
262.8408739877
  0
LINE
  5
67A
100
AcDbEntity
  8
30526677_HL
100
AcDbLine
 62
6
  6
HIDDEN
 10
300.5060518567
 20
262.2408739877
 11
300.5060518567
 21
258.1408739877
  0
LINE
  5
67B
100
AcDbEntity
  8
30526677_HL
100
AcDbLine
 62
6
  6
HIDDEN
 10
301.7560518567
 20
200.2895140173
 11
301.7560518567
 21
206.4823826326
  0
LINE
  5
67C
100
AcDbEntity
  8
30526677_HL
100
AcDbLine
 62
6
  6
HIDDEN
 10
303.4560518567
 20
232.3408739877
 11
303.4560518567
 21
230.3408739877
  0
LINE
  5
67D
100
AcDbEntity
  8
30526677_HL
100
AcDbLine
 62
6
  6
HIDDEN
 10
298.5060518567
 20
205.9669500665
 11
298.600212698
 21
206.6369392653
  0
LINE
  5
67E
100
AcDbEntity
  8
30526677_CL
100
AcDbLine
 62
7
  6
CONTINUOUS
 10
298.5060518567
 20
262.6408739877
 11
298.7060518567
 21
262.8408739877
  0
LINE
  5
67F
100
AcDbEntity
  8
30526677_CL
100
AcDbLine
 62
7
  6
CONTINUOUS
 10
298.5060518567
 20
200.0408739877
 11
298.7060518567
 21
199.8408739877
  0
LINE
  5
680
100
AcDbEntity
  8
30526677_HL
100
AcDbLine
 62
6
  6
HIDDEN
 10
298.5060518567
 20
256.7147979088
 11
298.600212698
 21
256.04480871
  0
LINE
  5
681
100
AcDbEntity
  8
30526677_AXIS
100
AcDbLine
 62
3
  6
CENTER
 10
305.5060518567
 20
210.8108739877
 11
305.5060518567
 21
196.5995140173
  0
LINE
  5
682
100
AcDbEntity
  8
30526677_AXIS
100
AcDbLine
 62
3
  6
CENTER
 10
305.5060518567
 20
254.2408739877
 11
305.5060518567
 21
267.2408739877
  0
LINE
  5
683
100
AcDbEntity
  8
30526677_HL
100
AcDbLine
 62
6
  6
HIDDEN
 10
306.1768956591
 20
248.3408739877
 11
306.1768956591
 21
214.3408739877
  0
LINE
  5
684
100
AcDbEntity
  8
30526677_HL
100
AcDbLine
 62
6
  6
HIDDEN
 10
308.5060518567
 20
247.0908739877
 11
308.5060518567
 21
215.5908739877
  0
LINE
  5
685
100
AcDbEntity
  8
30526677_HL
100
AcDbLine
 62
6
  6
HIDDEN
 10
309.2560518567
 20
200.2895140173
 11
309.2560518567
 21
206.4823826326
  0
LINE
  5
686
100
AcDbEntity
  8
30526677_HL
100
AcDbLine
 62
6
  6
HIDDEN
 10
310.5060518567
 20
262.2408739877
 11
310.5060518567
 21
258.1408739877
  0
LINE
  5
687
100
AcDbEntity
  8
30526677_CL
100
AcDbLine
 62
7
  6
CONTINUOUS
 10
266.6060518567
 20
224.0708739877
 11
267.6060518567
 21
225.0708739877
  0
LINE
  5
688
100
AcDbEntity
  8
30526677_HL
100
AcDbLine
 62
6
  6
HIDDEN
 10
311.1060518567
 20
262.8408739877
 11
310.5060518567
 21
262.2408739877
  0
LINE
  5
689
100
AcDbEntity
  8
30526677_HL
100
AcDbLine
 62
6
  6
HIDDEN
 10
306.1060518567
 20
257.8408739877
 11
305.5060518567
 21
257.2408739877
  0
LINE
  5
68A
100
AcDbEntity
  8
30526677_CL
100
AcDbLine
 62
7
  6
CONTINUOUS
 10
267.6060518567
 20
237.6108739877
 11
266.6060518567
 21
238.6108739877
  0
LINE
  5
68B
100
AcDbEntity
  8
30526677_HL
100
AcDbLine
 62
6
  6
HIDDEN
 10
309.7046918435
 20
199.8408740305
 11
309.2560518567
 21
200.2895140173
  0
LINE
  5
68C
100
AcDbEntity
  8
30526677_CL
100
AcDbLine
 62
7
  6
CONTINUOUS
 10
313.128552782
 20
262.8408739877
 11
313.128552782
 21
239.3408739877
  0
LINE
  5
68D
100
AcDbEntity
  8
30526677_CL
100
AcDbLine
 62
7
  6
CONTINUOUS
 10
313.128552782
 20
223.3408739877
 11
313.128552782
 21
211.3408739877
  0
LINE
  5
68E
100
AcDbEntity
  8
30526677_CL
100
AcDbLine
 62
7
  6
CONTINUOUS
 10
313.128552782
 20
207.0046869404
 11
313.128552782
 21
199.8408739877
  0
LINE
  5
68F
100
AcDbEntity
  8
30526677_HL
100
AcDbLine
 62
6
  6
HIDDEN
 10
313.128552782
 20
207.0046869404
 11
313.128552782
 21
211.3408739877
  0
LINE
  5
690
100
AcDbEntity
  8
30526677_CL
100
AcDbLine
 62
7
  6
CONTINUOUS
 10
314.6310518567
 20
260.2384690482
 11
314.6310518567
 21
239.3408739877
  0
LINE
  5
691
100
AcDbEntity
  8
30526677_CL
100
AcDbLine
 62
7
  6
CONTINUOUS
 10
314.6310518567
 20
202.4432811074
 11
314.6310518567
 21
223.3408739877
  0
LINE
  5
692
100
AcDbEntity
  8
30526677_CL
100
AcDbLine
 62
9
  6
CONTINUOUS
 10
315.3810518567
 20
258.8408739877
 11
315.3810518567
 21
238.689343216
  0
LINE
  5
693
100
AcDbEntity
  8
30526677_CL
100
AcDbLine
 62
9
  6
CONTINUOUS
 10
315.3810518567
 20
223.9924047593
 11
315.3810518567
 21
203.8408739877
  0
LINE
  5
694
100
AcDbEntity
  8
30526677_AXIS
100
AcDbLine
 62
3
  6
CENTER
 10
316.5060518567
 20
231.3408739877
 11
316.5060518567
 21
224.3908739877
  0
LINE
  5
695
100
AcDbEntity
  8
30526677_AXIS
100
AcDbLine
 62
3
  6
CENTER
 10
316.5060518567
 20
231.3408739877
 11
316.5060518567
 21
238.2908739877
  0
LINE
  5
696
100
AcDbEntity
  8
30526677_HL
100
AcDbLine
 62
6
  6
HIDDEN
 10
316.8060518567
 20
221.8408767356
 11
316.8060518567
 21
240.8408712398
  0
LINE
  5
697
100
AcDbEntity
  8
30526677_CL
100
AcDbLine
 62
9
  6
CONTINUOUS
 10
317.6310518567
 20
258.8408739877
 11
317.6310518567
 21
238.689343216
  0
LINE
  5
698
100
AcDbEntity
  8
30526677_CL
100
AcDbLine
 62
9
  6
CONTINUOUS
 10
317.6310518567
 20
223.9924047593
 11
317.6310518567
 21
203.8408739877
  0
LINE
  5
699
100
AcDbEntity
  8
30526677_CL
100
AcDbLine
 62
7
  6
CONTINUOUS
 10
318.3810518567
 20
202.4432811074
 11
318.3810518567
 21
223.3408739877
  0
LINE
  5
69A
100
AcDbEntity
  8
30526677_CL
100
AcDbLine
 62
7
  6
CONTINUOUS
 10
318.3810518567
 20
239.3408739877
 11
318.3810518567
 21
260.2384690482
  0
LINE
  5
69B
100
AcDbEntity
  8
30526677_CL
100
AcDbLine
 62
7
  6
CONTINUOUS
 10
319.8835509315
 20
262.8408739877
 11
319.8835509315
 21
239.3408739877
  0
LINE
  5
69C
100
AcDbEntity
  8
30526677_CL
100
AcDbLine
 62
7
  6
CONTINUOUS
 10
319.8835509315
 20
223.3408739877
 11
319.8835509315
 21
211.3408739877
  0
LINE
  5
69D
100
AcDbEntity
  8
30526677_CL
100
AcDbLine
 62
7
  6
CONTINUOUS
 10
319.8835509315
 20
207.0046869404
 11
319.8835509315
 21
199.8408739877
  0
LINE
  5
69E
100
AcDbEntity
  8
30526677_HL
100
AcDbLine
 62
6
  6
HIDDEN
 10
319.8835509315
 20
207.0046869404
 11
319.8835509315
 21
211.3408739877
  0
LINE
  5
69F
100
AcDbEntity
  8
30526677_HL
100
AcDbLine
 62
6
  6
HIDDEN
 10
320.5060518567
 20
221.8408767356
 11
320.5060518567
 21
240.8408712398
  0
LINE
  5
6A0
100
AcDbEntity
  8
30526677_CL
100
AcDbLine
 62
7
  6
CONTINUOUS
 10
319.8835509315
 20
262.8408739877
 11
318.3810518567
 21
260.2384692519
  0
LINE
  5
6A1
100
AcDbEntity
  8
30526677_HL
100
AcDbLine
 62
6
  6
HIDDEN
 10
310.5060518567
 20
258.1408739877
 11
310.2060518567
 21
257.8408739877
  0
LINE
  5
6A2
100
AcDbEntity
  8
30526677_CL
100
AcDbLine
 62
7
  6
CONTINUOUS
 10
319.8835509315
 20
199.8408739877
 11
318.3810518567
 21
202.4432787235
  0
LINE
  5
6A3
100
AcDbEntity
  8
30526677_CL
100
AcDbLine
 62
7
  6
CONTINUOUS
 10
324.4560518567
 20
199.8408741615
 11
324.4560518567
 21
262.8408736024
  0
LINE
  5
6A4
100
AcDbEntity
  8
30526677_CL
100
AcDbLine
 62
9
  6
CONTINUOUS
 10
324.8560518567
 20
256.3408739877
 11
324.8560518567
 21
206.3408739877
  0
LINE
  5
6A5
100
AcDbEntity
  8
30526677_CL
100
AcDbLine
 62
9
  6
CONTINUOUS
 10
267.0770879488
 20
241.558222038
 11
266.8528407956
 21
241.4564159609
  0
LINE
  5
6A6
100
AcDbEntity
  8
30526677_CL
100
AcDbLine
 62
9
  6
CONTINUOUS
 10
267.0770879488
 20
221.1235259373
 11
266.8528407956
 21
221.2253320145
  0
LINE
  5
6A7
100
AcDbEntity
  8
30526677_HL
100
AcDbLine
 62
6
  6
HIDDEN
 10
309.2560518567
 20
206.4823826326
 11
305.6060518567
 21
207.8108739877
  0
LINE
  5
6A8
100
AcDbEntity
  8
30526677_CL
100
AcDbLine
 62
9
  6
CONTINUOUS
 10
337.5016090572
 20
256.3408739877
 11
337.5016090572
 21
206.3408739877
  0
LINE
  5
6A9
100
AcDbEntity
  8
30526677_CL
100
AcDbLine
 62
9
  6
CONTINUOUS
 10
337.8480192187
 20
256.1408739877
 11
337.8480192187
 21
206.5408739877
  0
LINE
  5
6AA
100
AcDbEntity
  8
30526677_CL
100
AcDbLine
 62
9
  6
CONTINUOUS
 10
342.640026453
 20
247.8408739877
 11
342.640026453
 21
214.8408739877
  0
LINE
  5
6AB
100
AcDbEntity
  8
30526677_CL
100
AcDbLine
 62
9
  6
CONTINUOUS
 10
343.5060518567
 20
247.3408739877
 11
343.5060518567
 21
215.3408739877
  0
LINE
  5
6AC
100
AcDbEntity
  8
30526677_CL
100
AcDbLine
 62
7
  6
CONTINUOUS
 10
314.6310518567
 20
202.4432787235
 11
313.128552782
 21
199.8408739877
  0
LINE
  5
6AD
100
AcDbEntity
  8
30526677_HL
100
AcDbLine
 62
6
  6
HIDDEN
 10
267.6060518567
 20
214.3408739877
 11
266.6060518567
 21
213.7635237185
  0
LINE
  5
6AE
100
AcDbEntity
  8
30526677_HL
100
AcDbLine
 62
6
  6
HIDDEN
 10
267.6060518567
 20
248.3408739877
 11
266.6060518567
 21
248.9182242569
  0
LINE
  5
6AF
100
AcDbEntity
  8
30526677_HL
100
AcDbLine
 62
6
  6
HIDDEN
 10
300.5060518567
 20
258.1408739877
 11
300.8060518567
 21
257.8408739877
  0
LINE
  5
6B0
100
AcDbEntity
  8
30526677_CL
100
AcDbLine
 62
7
  6
CONTINUOUS
 10
314.6310518567
 20
260.2384692519
 11
313.128552782
 21
262.8408739877
  0
LINE
  5
6B1
100
AcDbEntity
  8
30526677_HL
100
AcDbLine
 62
6
  6
HIDDEN
 10
352.5304070478
 20
235.3408739877
 11
352.5304070478
 21
227.3408739877
  0
LINE
  5
6B2
100
AcDbEntity
  8
30526677_HL
100
AcDbLine
 62
6
  6
HIDDEN
 10
352.8060518567
 20
226.8821239877
 11
352.8060518567
 21
235.7996239877
  0
LINE
  5
6B3
100
AcDbEntity
  8
30526677_HL
100
AcDbLine
 62
6
  6
HIDDEN
 10
301.3074118518
 20
199.8408740123
 11
301.7560518567
 21
200.2895140173
  0
LINE
  5
6B4
100
AcDbEntity
  8
30526677_CL
100
AcDbLine
 62
7
  6
CONTINUOUS
 10
298.7060518567
 20
199.8408739877
 11
301.307412037
 21
199.8408739877
  0
LINE
  5
6B5
100
AcDbEntity
  8
30526677_CL
100
AcDbLine
 62
7
  6
CONTINUOUS
 10
309.7046915218
 20
199.8408739877
 11
313.128552782
 21
199.8408739877
  0
LINE
  5
6B6
100
AcDbEntity
  8
30526677_CL
100
AcDbLine
 62
7
  6
CONTINUOUS
 10
319.8835509315
 20
199.8408739877
 11
324.4560518567
 21
199.8408739877
  0
LINE
  5
6B7
100
AcDbEntity
  8
30526677_HL
100
AcDbLine
 62
6
  6
HIDDEN
 10
299.9060518567
 20
262.8408739877
 11
300.5060518567
 21
262.2408739877
  0
LINE
  5
6B8
100
AcDbEntity
  8
30526677_HL
100
AcDbLine
 62
6
  6
HIDDEN
 10
304.9060518567
 20
257.8408739877
 11
305.5060518567
 21
257.2408739877
  0
LINE
  5
6B9
100
AcDbEntity
  8
30526677_HL
100
AcDbLine
 62
6
  6
HIDDEN
 10
356.0060518567
 20
236.3408739877
 11
356.0060518567
 21
226.3408739877
  0
LINE
  5
6BA
100
AcDbEntity
  8
30252542_HP_HL
100
AcDbLine
 62
6
  6
HIDDEN
 10
359.0060518567
 20
235.7258739877
 11
359.0060518567
 21
226.9558739877
  0
LINE
  5
6BB
100
AcDbEntity
  8
30252542_HP_HL
100
AcDbLine
 62
6
  6
HIDDEN
 10
359.6060518567
 20
233.8408739877
 11
359.6060518567
 21
228.8408739877
  0
LINE
  5
6BC
100
AcDbEntity
  8
30252542_HP_HL
100
AcDbLine
 62
6
  6
HIDDEN
 10
359.6210518567
 20
236.3408739877
 11
359.6210518567
 21
226.3408739877
  0
LINE
  5
6BD
100
AcDbEntity
  8
30526677_CL
100
AcDbLine
 62
7
  6
CONTINUOUS
 10
337.8480192187
 20
206.5408739877
 11
342.640026453
 21
214.8408739877
  0
LINE
  5
6BE
100
AcDbEntity
  8
30526677_HL
100
AcDbLine
 62
6
  6
HIDDEN
 10
352.5304070478
 20
235.3408739877
 11
352.8060518567
 21
235.7996239877
  0
LINE
  5
6BF
100
AcDbEntity
  8
30526677_HL
100
AcDbLine
 62
6
  6
HIDDEN
 10
309.2560518567
 20
200.2895140173
 11
301.7560518567
 21
200.2895140173
  0
LINE
  5
6C0
100
AcDbEntity
  8
30526677_CL
100
AcDbLine
 62
7
  6
CONTINUOUS
 10
317.6310518567
 20
203.8408739877
 11
315.3810518567
 21
203.8408739877
  0
LINE
  5
6C1
100
AcDbEntity
  8
30526677_CL
100
AcDbLine
 62
7
  6
CONTINUOUS
 10
324.8560518567
 20
206.3408739877
 11
337.5016090572
 21
206.3408739877
  0
LINE
  5
6C2
100
AcDbEntity
  8
30526677_HL
100
AcDbLine
 62
6
  6
HIDDEN
 10
309.2560518567
 20
206.4823826326
 11
301.7560518567
 21
206.4823826326
  0
LINE
  5
6C3
100
AcDbEntity
  8
30526677_CL
100
AcDbLine
 62
7
  6
CONTINUOUS
 10
304.3443379531
 20
207.0046869404
 11
313.128552782
 21
207.0046869404
  0
LINE
  5
6C4
100
AcDbEntity
  8
30526677_CL
100
AcDbLine
 62
7
  6
CONTINUOUS
 10
319.8835509315
 20
207.0046869404
 11
324.4560518567
 21
207.0046869404
  0
LINE
  5
6C5
100
AcDbEntity
  8
30526677_CL
100
AcDbLine
 62
7
  6
CONTINUOUS
 10
297.3314535168
 20
207.3204431259
 11
298.0060518567
 21
207.3204431259
  0
LINE
  5
6C6
100
AcDbEntity
  8
30526677_HL
100
AcDbLine
 62
6
  6
HIDDEN
 10
305.4060545824
 20
207.8108739877
 11
305.606049131
 21
207.8108739877
  0
LINE
  5
6C7
100
AcDbEntity
  8
30526677_CL
100
AcDbLine
 62
7
  6
CONTINUOUS
 10
267.7460069263
 20
208.5613271406
 11
296.5060518567
 21
207.1204431259
  0
LINE
  5
6C8
100
AcDbEntity
  8
30526677_HL
100
AcDbLine
 62
6
  6
HIDDEN
 10
352.5304070478
 20
227.3408739877
 11
352.8060518567
 21
226.8821239877
  0
LINE
  5
6C9
100
AcDbEntity
  8
30526677_CL
100
AcDbLine
 62
7
  6
CONTINUOUS
 10
337.8480192187
 20
256.1408739877
 11
342.640026453
 21
247.8408739877
  0
LINE
  5
6CA
100
AcDbEntity
  8
30252542_HP_HL
100
AcDbLine
 62
6
  6
HIDDEN
 10
364.0060518567
 20
228.8408739877
 11
364.0060518567
 21
233.8408739877
  0
LINE
  5
6CB
100
AcDbEntity
  8
30252542_HP_HL
100
AcDbLine
 62
6
  6
HIDDEN
 10
365.8060518567
 20
236.3408739877
 11
365.8060518567
 21
226.3408739877
  0
LINE
  5
6CC
100
AcDbEntity
  8
30252542_HP_HL
100
AcDbLine
 62
6
  6
HIDDEN
 10
366.8712631034
 20
235.7258739877
 11
366.8712631034
 21
226.9558739877
  0
LINE
  5
6CD
100
AcDbEntity
  8
30252542_HP_HL
100
AcDbLine
 62
6
  6
HIDDEN
 10
367.5060518567
 20
233.8408739877
 11
367.5060518567
 21
228.8408739877
  0
LINE
  5
6CE
100
AcDbEntity
  8
30252542_HP_CL
100
AcDbLine
 62
9
  6
CONTINUOUS
 10
367.6122696394
 20
227.3836943107
 11
367.6122696394
 21
235.2980536646
  0
LINE
  5
6CF
100
AcDbEntity
  8
30252542_HP_CL
100
AcDbLine
 62
9
  6
CONTINUOUS
 10
368.0122696394
 20
227.4908739877
 11
368.0122696394
 21
235.1908739877
  0
LINE
  5
6D0
100
AcDbEntity
  8
30252542_HP_HL
100
AcDbLine
 62
6
  6
HIDDEN
 10
359.0060518567
 20
235.7258739877
 11
359.6210518567
 21
236.3408739877
  0
LINE
  5
6D1
100
AcDbEntity
  8
30252542_HP_HL
100
AcDbLine
 62
6
  6
HIDDEN
 10
359.6060518567
 20
228.8408739877
 11
359.0060518567
 21
228.2408739877
  0
LINE
  5
6D2
100
AcDbEntity
  8
30526677_CL
100
AcDbLine
 62
7
  6
CONTINUOUS
 10
398.5060518567
 20
215.5981632379
 11
402.3134738484
 21
215.7395539
  0
LINE
  5
6D3
100
AcDbEntity
  8
30526677_CL
100
AcDbLine
 62
7
  6
CONTINUOUS
 10
402.5060518567
 20
215.9967053878
 11
406.3134738484
 21
216.1380960499
  0
LINE
  5
6D4
100
AcDbEntity
  8
30526677_CL
100
AcDbLine
 62
7
  6
CONTINUOUS
 10
406.5060518567
 20
216.3952475378
 11
410.3134738484
 21
216.5366381999
  0
LINE
  5
6D5
100
AcDbEntity
  8
30526677_CL
100
AcDbLine
 62
7
  6
CONTINUOUS
 10
410.5060518567
 20
216.7937896877
 11
414.3134738484
 21
216.9351803499
  0
LINE
  5
6D6
100
AcDbEntity
  8
30526677_CL
100
AcDbLine
 62
7
  6
CONTINUOUS
 10
414.5060518567
 20
217.1923318377
 11
417.5431618148
 21
217.3051165484
  0
LINE
  5
6D7
100
AcDbEntity
  8
30526677_HL
100
AcDbLine
 62
6
  6
HIDDEN
 10
281.588487422
 20
211.3408739877
 11
292.2610538583
 21
211.3408739877
  0
LINE
  5
6D8
100
AcDbEntity
  8
30526677_CL
100
AcDbLine
 62
7
  6
CONTINUOUS
 10
311.4560518567
 20
211.3408739877
 11
314.6310518567
 21
211.3408739877
  0
LINE
  5
6D9
100
AcDbEntity
  8
30526677_CL
100
AcDbLine
 62
7
  6
CONTINUOUS
 10
318.3810518567
 20
211.3408739877
 11
324.4560518567
 21
211.3408739877
  0
LINE
  5
6DA
100
AcDbEntity
  8
30526677_HL
100
AcDbLine
 62
6
  6
HIDDEN
 10
267.6060518567
 20
214.3408739877
 11
279.510026453
 21
214.3408739877
  0
LINE
  5
6DB
100
AcDbEntity
  8
30526677_HL
100
AcDbLine
 62
6
  6
HIDDEN
 10
298.5060518567
 20
214.3408739877
 11
306.1768956591
 21
214.3408739877
  0
LINE
  5
6DC
100
AcDbEntity
  8
30526677_CL
100
AcDbLine
 62
7
  6
CONTINUOUS
 10
343.5060518567
 20
215.3408739877
 11
398.3060518567
 21
215.3408739877
  0
LINE
  5
6DD
100
AcDbEntity
  8
30252542_HP_HL
100
AcDbLine
 62
6
  6
HIDDEN
 10
359.0060518567
 20
226.9558739877
 11
359.6210518567
 21
226.3408739877
  0
LINE
  5
6DE
100
AcDbEntity
  8
30252542_HP_HL
100
AcDbLine
 62
6
  6
HIDDEN
 10
359.6060518567
 20
233.8408739877
 11
359.0060518567
 21
234.4408739877
  0
LINE
  5
6DF
100
AcDbEntity
  8
30252542_HP_CL
100
AcDbLine
 62
9
  6
CONTINUOUS
 10
370.2060518567
 20
227.4908739877
 11
370.2060518567
 21
235.1908739877
  0
LINE
  5
6E0
100
AcDbEntity
  8
30526677_HL
100
AcDbLine
 62
6
  6
HIDDEN
 10
370.6935610235
 20
226.8821239877
 11
370.6935610235
 21
235.7996239877
  0
LINE
  5
6E1
100
AcDbEntity
  8
30526677_HL
100
AcDbLine
 62
6
  6
HIDDEN
 10
371.0060518567
 20
237.5408739877
 11
371.0060518567
 21
225.1408739877
  0
LINE
  5
6E2
100
AcDbEntity
  8
30252542_HP_HL
100
AcDbLine
 62
6
  6
HIDDEN
 10
371.0060518567
 20
226.4408950139
 11
371.0060518567
 21
236.2408529614
  0
LINE
  5
6E3
100
AcDbEntity
  8
30252542_HP_HL
100
AcDbLine
 62
6
  6
HIDDEN
 10
371.9060518567
 20
233.8408739877
 11
371.9060518567
 21
228.8408739877
  0
LINE
  5
6E4
100
AcDbEntity
  8
30252542_HP_HL
100
AcDbLine
 62
6
  6
HIDDEN
 10
372.5060518567
 20
226.4408950139
 11
372.5060518567
 21
236.2408529614
  0
LINE
  5
6E5
100
AcDbEntity
  8
30339317_HL
100
AcDbLine
 62
6
  6
HIDDEN
 10
373.6060518567
 20
225.1908739877
 11
373.6060518567
 21
237.4908739877
  0
LINE
  5
6E6
100
AcDbEntity
  8
30526677_HL
100
AcDbLine
 62
6
  6
HIDDEN
 10
370.6935610235
 20
235.7996239877
 11
371.0060518567
 21
236.3408739877
  0
LINE
  5
6E7
100
AcDbEntity
  8
30252542_HP_HL
100
AcDbLine
 62
6
  6
HIDDEN
 10
371.9060518567
 20
233.8408739877
 11
372.5060518567
 21
234.4408739877
  0
LINE
  5
6E8
100
AcDbEntity
  8
30526677_HL
100
AcDbLine
 62
6
  6
HIDDEN
 10
383.6060518567
 20
239.2858739877
 11
383.7099749052
 21
239.3458739877
  0
LINE
  5
6E9
100
AcDbEntity
  8
30526677_CL
100
AcDbLine
 62
9
  6
CONTINUOUS
 10
275.1060518567
 20
220.8833813484
 11
273.4082238756
 21
220.8833813484
  0
LINE
  5
6EA
100
AcDbEntity
  8
30526677_HL
100
AcDbLine
 62
6
  6
HIDDEN
 10
320.5060518567
 20
221.8408739877
 11
316.8060518567
 21
221.8408739877
  0
LINE
  5
6EB
100
AcDbEntity
  8
30526677_HL
100
AcDbLine
 62
6
  6
HIDDEN
 10
316.8060518567
 20
222.3408739877
 11
308.5060518567
 21
222.3408739877
  0
LINE
  5
6EC
100
AcDbEntity
  8
30526677_HL
100
AcDbLine
 62
6
  6
HIDDEN
 10
318.3332786824
 20
222.3408739877
 11
324.4560518567
 21
222.3408739877
  0
LINE
  5
6ED
100
AcDbEntity
  8
30526677_HL
100
AcDbLine
 62
6
  6
HIDDEN
 10
316.8060518567
 20
222.8408739877
 11
308.5060518567
 21
222.8408739877
  0
LINE
  5
6EE
100
AcDbEntity
  8
HLP_AZ
100
AcDbLine
 62
6
  6
PHANTOM
 10
383.6060518567
 20
223.2718739877
 11
414.6060518567
 21
223.2718739877
  0
LINE
  5
6EF
100
AcDbEntity
  8
30526677_CL
100
AcDbLine
 62
7
  6
CONTINUOUS
 10
311.4560518567
 20
223.3408739877
 11
314.8921852795
 21
223.3408739877
  0
LINE
  5
6F0
100
AcDbEntity
  8
30526677_CL
100
AcDbLine
 62
7
  6
CONTINUOUS
 10
318.1199184339
 20
223.3408739877
 11
324.4560518567
 21
223.3408739877
  0
LINE
  5
6F1
100
AcDbEntity
  8
HLP_AZ
100
AcDbLine
 62
6
  6
PHANTOM
 10
406.6060518567
 20
223.5408739877
 11
389.6060518567
 21
223.5408739877
  0
LINE
  5
6F2
100
AcDbEntity
  8
HLP_AZ
100
AcDbLine
 62
6
  6
PHANTOM
 10
413.5269015945
 20
223.8408739877
 11
412.6060518567
 21
223.8408739877
  0
LINE
  5
6F3
100
AcDbEntity
  8
30526677_CL
100
AcDbLine
 62
7
  6
CONTINUOUS
 10
317.6310518567
 20
223.9924047593
 11
315.3810518567
 21
223.9924047593
  0
LINE
  5
6F4
100
AcDbEntity
  8
HLP_AZ
100
AcDbLine
 62
6
  6
PHANTOM
 10
411.4060518567
 20
224.2408739877
 11
408.1259202721
 21
224.2408739877
  0
LINE
  5
6F5
100
AcDbEntity
  8
HLP_AZ
100
AcDbLine
 62
6
  6
PHANTOM
 10
388.0861834414
 20
224.2408739877
 11
385.2562336649
 21
224.2408739877
  0
LINE
  5
6F6
100
AcDbEntity
  8
30526677_HL
100
AcDbLine
 62
6
  6
HIDDEN
 10
383.6060518567
 20
223.3958739877
 11
383.7099749052
 21
223.3358739877
  0
LINE
  5
6F7
100
AcDbEntity
  8
30252542_HP_HL
100
AcDbLine
 62
6
  6
HIDDEN
 10
371.9060518567
 20
228.8408739877
 11
372.5060518567
 21
228.2408739877
  0
LINE
  5
6F8
100
AcDbEntity
  8
30526677_HL
100
AcDbLine
 62
6
  6
HIDDEN
 10
370.6935610235
 20
226.8821239877
 11
371.0060518567
 21
226.3408739877
  0
LINE
  5
6F9
100
AcDbEntity
  8
30339317_HL
100
AcDbLine
 62
6
  6
HIDDEN
 10
378.6060518567
 20
225.1908739877
 11
378.6060518567
 21
237.4908739877
  0
LINE
  5
6FA
100
AcDbEntity
  8
HLP_AZ
100
AcDbLine
 62
6
  6
PHANTOM
 10
383.6060518567
 20
223.3708739877
 11
383.6060518567
 21
223.2718739877
  0
LINE
  5
6FB
100
AcDbEntity
  8
HLP_AZ
100
AcDbLine
 62
6
  6
PHANTOM
 10
383.6060518567
 20
239.3108739877
 11
383.6060518567
 21
239.4098739877
  0
LINE
  5
6FC
100
AcDbEntity
  8
30339317_HL
100
AcDbLine
 62
6
  6
HIDDEN
 10
383.8143351871
 20
239.0552710369
 11
384.1689381378
 21
239.4098739877
  0
LINE
  5
6FD
100
AcDbEntity
  8
30339317_HL
100
AcDbLine
 62
6
  6
HIDDEN
 10
384.2901450947
 20
238.6910380885
 11
385.0089809939
 21
239.4098739877
  0
LINE
  5
6FE
100
AcDbEntity
  8
30339317_HL
100
AcDbLine
 62
6
  6
HIDDEN
 10
384.9108963023
 20
238.4717464401
 11
385.8490238499
 21
239.4098739877
  0
LINE
  5
6FF
100
AcDbEntity
  8
30339317_HL
100
AcDbLine
 62
6
  6
HIDDEN
 10
385.720066706
 20
238.4408739877
 11
386.689066706
 21
239.4098739877
  0
LINE
  5
700
100
AcDbEntity
  8
30339317_HL
100
AcDbLine
 62
6
  6
HIDDEN
 10
386.560109562
 20
238.4408739877
 11
387.529109562
 21
239.4098739877
  0
LINE
  5
701
100
AcDbEntity
  8
30339317_HL
100
AcDbLine
 62
6
  6
HIDDEN
 10
387.4001524181
 20
238.4408739877
 11
388.3691524181
 21
239.4098739877
  0
LINE
  5
702
100
AcDbEntity
  8
30339317_HL
100
AcDbLine
 62
6
  6
HIDDEN
 10
388.2468036022
 20
238.4474823158
 11
389.2091952741
 21
239.4098739877
  0
LINE
  5
703
100
AcDbEntity
  8
30339317_HL
100
AcDbLine
 62
6
  6
HIDDEN
 10
389.7802381302
 20
239.1408739877
 11
390.0492381302
 21
239.4098739877
  0
LINE
  5
704
100
AcDbEntity
  8
30339317_HL
100
AcDbLine
 62
6
  6
HIDDEN
 10
390.6202809862
 20
239.1408739877
 11
390.8892809862
 21
239.4098739877
  0
LINE
  5
705
100
AcDbEntity
  8
30339317_HL
100
AcDbLine
 62
6
  6
HIDDEN
 10
391.4603238423
 20
239.1408739877
 11
391.7293238423
 21
239.4098739877
  0
LINE
  5
706
100
AcDbEntity
  8
30339317_HL
100
AcDbLine
 62
6
  6
HIDDEN
 10
392.3003666983
 20
239.1408739877
 11
392.5693666983
 21
239.4098739877
  0
LINE
  5
707
100
AcDbEntity
  8
30339317_HL
100
AcDbLine
 62
6
  6
HIDDEN
 10
393.1404095544
 20
239.1408739877
 11
393.4094095544
 21
239.4098739877
  0
LINE
  5
708
100
AcDbEntity
  8
30252542_HP_HL
100
AcDbLine
 62
6
  6
HIDDEN
 10
365.8060518567
 20
226.3408739877
 11
367.6122696394
 21
227.3836943107
  0
LINE
  5
709
100
AcDbEntity
  8
30526677_HL
100
AcDbLine
 62
6
  6
HIDDEN
 10
301.7560518567
 20
206.4823826326
 11
305.4060518567
 21
207.8108739877
  0
LINE
  5
70A
100
AcDbEntity
  8
30526677_CL
100
AcDbLine
 62
7
  6
CONTINUOUS
 10
296.5060518567
 20
207.1204431259
 11
297.1761620897
 21
207.2999986217
  0
LINE
  5
70B
100
AcDbEntity
  8
30526677_HL
100
AcDbLine
 62
6
  6
HIDDEN
 10
275.1060518567
 20
225.0708739877
 11
271.1060518567
 21
225.0708739877
  0
LINE
  5
70C
100
AcDbEntity
  8
30526677_CL
100
AcDbLine
 62
7
  6
CONTINUOUS
 10
267.6060518567
 20
225.0708739877
 11
271.1060518567
 21
225.0708739877
  0
LINE
  5
70D
100
AcDbEntity
  8
30526677_HL
100
AcDbLine
 62
6
  6
HIDDEN
 10
371.0060518567
 20
225.1408739877
 11
373.6060518567
 21
225.1408739877
  0
LINE
  5
70E
100
AcDbEntity
  8
30339317_HL
100
AcDbLine
 62
6
  6
HIDDEN
 10
373.6060518567
 20
225.1908739877
 11
378.6060518567
 21
225.1908739877
  0
LINE
  5
70F
100
AcDbEntity
  8
COLLECTION02
100
AcDbLine
 62
30
  6
CENTER
 10
464.5050518567
 20
225.3408739877
 11
418.5060518567
 21
225.3408739877
  0
LINE
  5
710
100
AcDbEntity
  8
30339317_HL
100
AcDbLine
 62
6
  6
HIDDEN
 10
378.6060518567
 20
225.3408739877
 11
417.0060518567
 21
225.3408739877
  0
LINE
  5
711
100
AcDbEntity
  8
30526677_HL
100
AcDbLine
 62
6
  6
HIDDEN
 10
371.0060518567
 20
226.3408739877
 11
356.0060518567
 21
226.3408739877
  0
LINE
  5
712
100
AcDbEntity
  8
30252542_HP_HL
100
AcDbLine
 62
6
  6
HIDDEN
 10
359.6210518567
 20
226.3408739877
 11
365.8060518567
 21
226.3408739877
  0
LINE
  5
713
100
AcDbEntity
  8
30252542_HP_HL
100
AcDbLine
 62
6
  6
HIDDEN
 10
371.0060518567
 20
226.4408739877
 11
372.5060518567
 21
226.4408739877
  0
LINE
  5
714
100
AcDbEntity
  8
30526677_HL
100
AcDbLine
 62
6
  6
HIDDEN
 10
352.8060518567
 20
226.8821239877
 11
370.6935610235
 21
226.8821239877
  0
LINE
  5
715
100
AcDbEntity
  8
30252542_HP_HL
100
AcDbLine
 62
6
  6
HIDDEN
 10
359.0060518567
 20
226.9558739877
 11
366.8712631034
 21
226.9558739877
  0
LINE
  5
716
100
AcDbEntity
  8
30526677_HL
100
AcDbLine
 62
6
  6
HIDDEN
 10
320.5060518567
 20
227.3408739877
 11
352.5304070478
 21
227.3408739877
  0
LINE
  5
717
100
AcDbEntity
  8
30252542_HP_HL
100
AcDbLine
 62
6
  6
HIDDEN
 10
368.0122696394
 20
227.4908739877
 11
370.2060518567
 21
227.4908739877
  0
LINE
  5
718
100
AcDbEntity
  8
30252542_HP_HL
100
AcDbLine
 62
6
  6
HIDDEN
 10
359.6060518567
 20
228.8408739877
 11
371.9060518567
 21
228.8408739877
  0
LINE
  5
719
100
AcDbEntity
  8
30526677_AXIS
100
AcDbLine
 62
3
  6
CENTER
 10
316.5060518567
 20
231.3408739877
 11
309.5560518567
 21
231.3408739877
  0
LINE
  5
71A
100
AcDbEntity
  8
30526677_AXIS
100
AcDbLine
 62
3
  6
CENTER
 10
289.5060518567
 20
231.3408739877
 11
282.7560518567
 21
231.3408739877
  0
LINE
  5
71B
100
AcDbEntity
  8
30273804_AXIS
100
AcDbLine
 62
3
  6
CENTER
 10
423.5060518567
 20
231.3408739877
 11
261.6060518567
 21
231.3408739877
  0
LINE
  5
71C
100
AcDbEntity
  8
30526677_AXIS
100
AcDbLine
 62
3
  6
CENTER
 10
289.5060518567
 20
231.3408739877
 11
296.2560518567
 21
231.3408739877
  0
LINE
  5
71D
100
AcDbEntity
  8
30526677_AXIS
100
AcDbLine
 62
3
  6
CENTER
 10
316.5060518567
 20
231.3408739877
 11
323.4560518567
 21
231.3408739877
  0
LINE
  5
71E
100
AcDbEntity
  8
30252542_HP_HL
100
AcDbLine
 62
6
  6
HIDDEN
 10
359.0060518567
 20
231.3408739877
 11
364.0060518567
 21
231.3408739877
  0
LINE
  5
71F
100
AcDbEntity
  8
30252542_HP_HL
100
AcDbLine
 62
6
  6
HIDDEN
 10
367.5060518567
 20
231.3408739877
 11
372.5060518567
 21
231.3408739877
  0
LINE
  5
720
100
AcDbEntity
  8
HLP_AZ
100
AcDbLine
 62
6
  6
PHANTOM
 10
414.6060518567
 20
223.6908739877
 11
413.5269015945
 21
223.8408739877
  0
LINE
  5
721
100
AcDbEntity
  8
30526677_CL
100
AcDbLine
 62
7
  6
CONTINUOUS
 10
296.5060518567
 20
255.5613048494
 11
297.1761620897
 21
255.3817493536
  0
LINE
  5
722
100
AcDbEntity
  8
30252542_HP_HL
100
AcDbLine
 62
6
  6
HIDDEN
 10
365.8060518567
 20
236.3408739877
 11
367.6122696394
 21
235.2980536646
  0
LINE
  5
723
100
AcDbEntity
  8
30526677_AXIS
100
AcDbLine
 62
3
  6
CENTER
 10
388.5060518567
 20
251.209124131
 11
388.5060518567
 21
242.2788767786
  0
LINE
  5
724
100
AcDbEntity
  8
30339317_HL
100
AcDbLine
 62
6
  6
HIDDEN
 10
393.9804524104
 20
239.1408739877
 11
394.2494524104
 21
239.4098739877
  0
LINE
  5
725
100
AcDbEntity
  8
30339317_HL
100
AcDbLine
 62
6
  6
HIDDEN
 10
394.8204952665
 20
239.1408739877
 11
395.0894952665
 21
239.4098739877
  0
LINE
  5
726
100
AcDbEntity
  8
30339317_HL
100
AcDbLine
 62
6
  6
HIDDEN
 10
395.6605381225
 20
239.1408739877
 11
395.9295381225
 21
239.4098739877
  0
LINE
  5
727
100
AcDbEntity
  8
30339317_HL
100
AcDbLine
 62
6
  6
HIDDEN
 10
396.5005809786
 20
239.1408739877
 11
396.7695809786
 21
239.4098739877
  0
LINE
  5
728
100
AcDbEntity
  8
30339317_HL
100
AcDbLine
 62
6
  6
HIDDEN
 10
397.3406238346
 20
239.1408739877
 11
397.6096238346
 21
239.4098739877
  0
LINE
  5
729
100
AcDbEntity
  8
30339317_HL
100
AcDbLine
 62
6
  6
HIDDEN
 10
398.1806666907
 20
239.1408739877
 11
398.4496666907
 21
239.4098739877
  0
LINE
  5
72A
100
AcDbEntity
  8
30339317_HL
100
AcDbLine
 62
6
  6
HIDDEN
 10
399.0207095467
 20
239.1408739877
 11
399.2897095467
 21
239.4098739877
  0
LINE
  5
72B
100
AcDbEntity
  8
30339317_HL
100
AcDbLine
 62
6
  6
HIDDEN
 10
383.9917524028
 20
223.2718739877
 11
384.9347183966
 21
224.2148399815
  0
LINE
  5
72C
100
AcDbEntity
  8
30339317_HL
100
AcDbLine
 62
6
  6
HIDDEN
 10
399.8607524028
 20
239.1408739877
 11
400.1297524028
 21
239.4098739877
  0
LINE
  5
72D
100
AcDbEntity
  8
30339317_HL
100
AcDbLine
 62
6
  6
HIDDEN
 10
384.8317952588
 20
223.2718739877
 11
385.8007952588
 21
224.2408739877
  0
LINE
  5
72E
100
AcDbEntity
  8
30339317_HL
100
AcDbLine
 62
6
  6
HIDDEN
 10
400.7007952588
 20
239.1408739877
 11
400.9697952588
 21
239.4098739877
  0
LINE
  5
72F
100
AcDbEntity
  8
30339317_HL
100
AcDbLine
 62
6
  6
HIDDEN
 10
385.6718381149
 20
223.2718739877
 11
386.6408381149
 21
224.2408739877
  0
LINE
  5
730
100
AcDbEntity
  8
30339317_HL
100
AcDbLine
 62
6
  6
HIDDEN
 10
401.5408381149
 20
239.1408739877
 11
401.8098381149
 21
239.4098739877
  0
LINE
  5
731
100
AcDbEntity
  8
30339317_HL
100
AcDbLine
 62
6
  6
HIDDEN
 10
386.5118809709
 20
223.2718739877
 11
387.4808809709
 21
224.2408739877
  0
LINE
  5
732
100
AcDbEntity
  8
30339317_HL
100
AcDbLine
 62
6
  6
HIDDEN
 10
402.3808809709
 20
239.1408739877
 11
402.6498809709
 21
239.4098739877
  0
LINE
  5
733
100
AcDbEntity
  8
30339317_HL
100
AcDbLine
 62
6
  6
HIDDEN
 10
387.351923827
 20
223.2718739877
 11
388.3071760143
 21
224.227126175
  0
LINE
  5
734
100
AcDbEntity
  8
30339317_HL
100
AcDbLine
 62
6
  6
HIDDEN
 10
403.220923827
 20
239.1408739877
 11
403.489923827
 21
239.4098739877
  0
LINE
  5
735
100
AcDbEntity
  8
30339317_HL
100
AcDbLine
 62
6
  6
HIDDEN
 10
388.191966683
 20
223.2718739877
 11
388.9591435505
 21
224.0390508551
  0
LINE
  5
736
100
AcDbEntity
  8
30339317_HL
100
AcDbLine
 62
6
  6
HIDDEN
 10
404.060966683
 20
239.1408739877
 11
404.329966683
 21
239.4098739877
  0
LINE
  5
737
100
AcDbEntity
  8
30339317_HL
100
AcDbLine
 62
6
  6
HIDDEN
 10
389.0320095391
 20
223.2718739877
 11
389.4561470149
 21
223.6960114635
  0
LINE
  5
738
100
AcDbEntity
  8
30339317_HL
100
AcDbLine
 62
6
  6
HIDDEN
 10
404.9010095391
 20
239.1408739877
 11
405.1700095391
 21
239.4098739877
  0
LINE
  5
739
100
AcDbEntity
  8
HLP_AZ
100
AcDbLine
 62
6
  6
PHANTOM
 10
414.6060518567
 20
238.9908739877
 11
413.5269015945
 21
238.8408739877
  0
LINE
  5
73A
100
AcDbEntity
  8
30252542_HP_HL
100
AcDbLine
 62
6
  6
HIDDEN
 10
359.6060518567
 20
233.8408739877
 11
371.9060518567
 21
233.8408739877
  0
LINE
  5
73B
100
AcDbEntity
  8
30252542_HP_HL
100
AcDbLine
 62
6
  6
HIDDEN
 10
368.0122696394
 20
235.1908739877
 11
370.2060518567
 21
235.1908739877
  0
LINE
  5
73C
100
AcDbEntity
  8
30526677_HL
100
AcDbLine
 62
6
  6
HIDDEN
 10
320.5060518567
 20
235.3408739877
 11
352.5304070478
 21
235.3408739877
  0
LINE
  5
73D
100
AcDbEntity
  8
30252542_HP_HL
100
AcDbLine
 62
6
  6
HIDDEN
 10
359.0060518567
 20
235.7258739877
 11
366.8712631034
 21
235.7258739877
  0
LINE
  5
73E
100
AcDbEntity
  8
30526677_HL
100
AcDbLine
 62
6
  6
HIDDEN
 10
352.8060518567
 20
235.7996239877
 11
370.6935610235
 21
235.7996239877
  0
LINE
  5
73F
100
AcDbEntity
  8
30252542_HP_HL
100
AcDbLine
 62
6
  6
HIDDEN
 10
371.0060518567
 20
236.2408739877
 11
372.5060518567
 21
236.2408739877
  0
LINE
  5
740
100
AcDbEntity
  8
30526677_HL
100
AcDbLine
 62
6
  6
HIDDEN
 10
371.0060518567
 20
236.3408739877
 11
356.0060518567
 21
236.3408739877
  0
LINE
  5
741
100
AcDbEntity
  8
30252542_HP_HL
100
AcDbLine
 62
6
  6
HIDDEN
 10
359.6210518567
 20
236.3408739877
 11
365.8060518567
 21
236.3408739877
  0
LINE
  5
742
100
AcDbEntity
  8
30339317_HL
100
AcDbLine
 62
6
  6
HIDDEN
 10
378.6060518567
 20
237.3408739877
 11
417.0060518567
 21
237.3408739877
  0
LINE
  5
743
100
AcDbEntity
  8
COLLECTION02
100
AcDbLine
 62
30
  6
CENTER
 10
418.5060518567
 20
237.3408739877
 11
464.5050518567
 21
237.3408739877
  0
LINE
  5
744
100
AcDbEntity
  8
30339317_HL
100
AcDbLine
 62
6
  6
HIDDEN
 10
373.6060518567
 20
237.4908739877
 11
378.6060518567
 21
237.4908739877
  0
LINE
  5
745
100
AcDbEntity
  8
30526677_HL
100
AcDbLine
 62
6
  6
HIDDEN
 10
371.0060518567
 20
237.5408739877
 11
373.6060518567
 21
237.5408739877
  0
LINE
  5
746
100
AcDbEntity
  8
30526677_CL
100
AcDbLine
 62
7
  6
CONTINUOUS
 10
271.1060518567
 20
237.6108739877
 11
267.6060518567
 21
237.6108739877
  0
LINE
  5
747
100
AcDbEntity
  8
30526677_HL
100
AcDbLine
 62
6
  6
HIDDEN
 10
271.1060518567
 20
237.6108739877
 11
275.1060518567
 21
237.6108739877
  0
LINE
  5
748
100
AcDbEntity
  8
HLP_AZ
100
AcDbLine
 62
6
  6
PHANTOM
 10
411.4060518567
 20
238.4408739877
 11
408.1259202721
 21
238.4408739877
  0
LINE
  5
749
100
AcDbEntity
  8
HLP_AZ
100
AcDbLine
 62
6
  6
PHANTOM
 10
388.0861834414
 20
238.4408739877
 11
385.2562336649
 21
238.4408739877
  0
LINE
  5
74A
100
AcDbEntity
  8
30526677_CL
100
AcDbLine
 62
7
  6
CONTINUOUS
 10
317.6310518567
 20
238.689343216
 11
315.3810518567
 21
238.689343216
  0
LINE
  5
74B
100
AcDbEntity
  8
HLP_AZ
100
AcDbLine
 62
6
  6
PHANTOM
 10
413.5269015945
 20
238.8408739877
 11
412.6060518567
 21
238.8408739877
  0
LINE
  5
74C
100
AcDbEntity
  8
HLP_AZ
100
AcDbLine
 62
6
  6
PHANTOM
 10
406.6060518567
 20
239.1408739877
 11
389.6060518567
 21
239.1408739877
  0
LINE
  5
74D
100
AcDbEntity
  8
30526677_CL
100
AcDbLine
 62
7
  6
CONTINUOUS
 10
311.4560518567
 20
239.3408739877
 11
314.8921852795
 21
239.3408739877
  0
LINE
  5
74E
100
AcDbEntity
  8
30526677_CL
100
AcDbLine
 62
7
  6
CONTINUOUS
 10
318.1199184339
 20
239.3408739877
 11
324.4560518567
 21
239.3408739877
  0
LINE
  5
74F
100
AcDbEntity
  8
HLP_AZ
100
AcDbLine
 62
6
  6
PHANTOM
 10
383.6060518567
 20
239.4098739877
 11
414.6060518567
 21
239.4098739877
  0
LINE
  5
750
100
AcDbEntity
  8
30526677_HL
100
AcDbLine
 62
6
  6
HIDDEN
 10
316.8060518567
 20
239.8408739877
 11
308.5060518567
 21
239.8408739877
  0
LINE
  5
751
100
AcDbEntity
  8
30526677_HL
100
AcDbLine
 62
6
  6
HIDDEN
 10
324.4560518567
 20
240.3408739877
 11
318.3332786824
 21
240.3408739877
  0
LINE
  5
752
100
AcDbEntity
  8
30526677_HL
100
AcDbLine
 62
6
  6
HIDDEN
 10
316.8060518567
 20
240.3408739877
 11
308.5060518567
 21
240.3408739877
  0
LINE
  5
753
100
AcDbEntity
  8
30526677_CL
100
AcDbLine
 62
9
  6
CONTINUOUS
 10
398.3060518567
 20
247.3408739877
 11
398.3060518567
 21
215.3408739877
  0
LINE
  5
754
100
AcDbEntity
  8
30526677_CL
100
AcDbLine
 62
7
  6
CONTINUOUS
 10
398.5060518567
 20
247.1408739877
 11
398.5060518567
 21
215.5408739877
  0
LINE
  5
755
100
AcDbEntity
  8
30339317_HL
100
AcDbLine
 62
6
  6
HIDDEN
 10
389.8720523951
 20
223.2718739877
 11
390.1410523951
 21
223.5408739877
  0
LINE
  5
756
100
AcDbEntity
  8
30339317_HL
100
AcDbLine
 62
6
  6
HIDDEN
 10
405.7410523951
 20
239.1408739877
 11
406.0100523951
 21
239.4098739877
  0
LINE
  5
757
100
AcDbEntity
  8
30339317_HL
100
AcDbLine
 62
6
  6
HIDDEN
 10
390.7120952512
 20
223.2718739877
 11
390.9810952512
 21
223.5408739877
  0
LINE
  5
758
100
AcDbEntity
  8
30339317_HL
100
AcDbLine
 62
6
  6
HIDDEN
 10
406.5810952512
 20
239.1408739877
 11
406.8500952512
 21
239.4098739877
  0
LINE
  5
759
100
AcDbEntity
  8
30339317_HL
100
AcDbLine
 62
6
  6
HIDDEN
 10
391.5521381072
 20
223.2718739877
 11
391.8211381072
 21
223.5408739877
  0
LINE
  5
75A
100
AcDbEntity
  8
30339317_HL
100
AcDbLine
 62
6
  6
HIDDEN
 10
407.0419285468
 20
238.7616644273
 11
407.6901381072
 21
239.4098739877
  0
LINE
  5
75B
100
AcDbEntity
  8
30339317_HL
100
AcDbLine
 62
6
  6
HIDDEN
 10
392.3921809633
 20
223.2718739877
 11
392.6611809633
 21
223.5408739877
  0
LINE
  5
75C
100
AcDbEntity
  8
30339317_HL
100
AcDbLine
 62
6
  6
HIDDEN
 10
407.6258160996
 20
238.505509124
 11
408.5301809633
 21
239.4098739877
  0
LINE
  5
75D
100
AcDbEntity
  8
30339317_HL
100
AcDbLine
 62
6
  6
HIDDEN
 10
393.2322238193
 20
223.2718739877
 11
393.5012238193
 21
223.5408739877
  0
LINE
  5
75E
100
AcDbEntity
  8
30339317_HL
100
AcDbLine
 62
6
  6
HIDDEN
 10
408.4012238193
 20
238.4408739877
 11
409.3702238193
 21
239.4098739877
  0
LINE
  5
75F
100
AcDbEntity
  8
30339317_HL
100
AcDbLine
 62
6
  6
HIDDEN
 10
394.0722666754
 20
223.2718739877
 11
394.3412666754
 21
223.5408739877
  0
LINE
  5
760
100
AcDbEntity
  8
30339317_HL
100
AcDbLine
 62
6
  6
HIDDEN
 10
409.2412666754
 20
238.4408739877
 11
410.2102666754
 21
239.4098739877
  0
LINE
  5
761
100
AcDbEntity
  8
30339317_HL
100
AcDbLine
 62
6
  6
HIDDEN
 10
394.9123095314
 20
223.2718739877
 11
395.1813095314
 21
223.5408739877
  0
LINE
  5
762
100
AcDbEntity
  8
30339317_HL
100
AcDbLine
 62
6
  6
HIDDEN
 10
410.0813095314
 20
238.4408739877
 11
411.0503095314
 21
239.4098739877
  0
LINE
  5
763
100
AcDbEntity
  8
30339317_HL
100
AcDbLine
 62
6
  6
HIDDEN
 10
395.7523523875
 20
223.2718739877
 11
396.0213523875
 21
223.5408739877
  0
LINE
  5
764
100
AcDbEntity
  8
30339317_HL
100
AcDbLine
 62
6
  6
HIDDEN
 10
410.9213523875
 20
238.4408739877
 11
411.8903523875
 21
239.4098739877
  0
LINE
  5
765
100
AcDbEntity
  8
30339317_HL
100
AcDbLine
 62
6
  6
HIDDEN
 10
396.5923952435
 20
223.2718739877
 11
396.8613952435
 21
223.5408739877
  0
LINE
  5
766
100
AcDbEntity
  8
30339317_HL
100
AcDbLine
 62
6
  6
HIDDEN
 10
411.8011603128
 20
238.4806390569
 11
412.7303952435
 21
239.4098739877
  0
LINE
  5
767
100
AcDbEntity
  8
30339317_HL
100
AcDbLine
 62
6
  6
HIDDEN
 10
397.4324380996
 20
223.2718739877
 11
397.7014380996
 21
223.5408739877
  0
LINE
  5
768
100
AcDbEntity
  8
30339317_HL
100
AcDbLine
 62
6
  6
HIDDEN
 10
413.0014380996
 20
238.8408739877
 11
413.5704380996
 21
239.4098739877
  0
LINE
  5
769
100
AcDbEntity
  8
30339317_HL
100
AcDbLine
 62
6
  6
HIDDEN
 10
398.2724809556
 20
223.2718739877
 11
398.5414809556
 21
223.5408739877
  0
LINE
  5
76A
100
AcDbEntity
  8
30339317_HL
100
AcDbLine
 62
6
  6
HIDDEN
 10
413.8922659643
 20
238.8916589964
 11
414.4104809556
 21
239.4098739877
  0
LINE
  5
76B
100
AcDbEntity
  8
30339317_HL
100
AcDbLine
 62
6
  6
HIDDEN
 10
399.1125238117
 20
223.2718739877
 11
399.3815238117
 21
223.5408739877
  0
LINE
  5
76C
100
AcDbEntity
  8
30339317_HL
100
AcDbLine
 62
6
  6
HIDDEN
 10
399.9525666677
 20
223.2718739877
 11
400.2215666677
 21
223.5408739877
  0
LINE
  5
76D
100
AcDbEntity
  8
30339317_HL
100
AcDbLine
 62
6
  6
HIDDEN
 10
400.7926095238
 20
223.2718739877
 11
401.0616095238
 21
223.5408739877
  0
LINE
  5
76E
100
AcDbEntity
  8
30526677_HL
100
AcDbLine
 62
6
  6
HIDDEN
 10
320.5060518567
 20
240.8408739877
 11
316.8060518567
 21
240.8408739877
  0
LINE
  5
76F
100
AcDbEntity
  8
30526677_CL
100
AcDbLine
 62
9
  6
CONTINUOUS
 10
273.4082238756
 20
241.7983666269
 11
275.1060518567
 21
241.7983666269
  0
LINE
  5
770
100
AcDbEntity
  8
30526677_CL
100
AcDbLine
 62
7
  6
CONTINUOUS
 10
343.5060518567
 20
247.3408739877
 11
385.6432809979
 21
247.3408739877
  0
LINE
  5
771
100
AcDbEntity
  8
30526677_CL
100
AcDbLine
 62
7
  6
CONTINUOUS
 10
391.3688227156
 20
247.3408739877
 11
398.3060518567
 21
247.3408739877
  0
LINE
  5
772
100
AcDbEntity
  8
30526677_HL
100
AcDbLine
 62
6
  6
HIDDEN
 10
267.6060518567
 20
248.3408739877
 11
279.510026453
 21
248.3408739877
  0
LINE
  5
773
100
AcDbEntity
  8
30526677_HL
100
AcDbLine
 62
6
  6
HIDDEN
 10
298.5060518567
 20
248.3408739877
 11
306.1768956591
 21
248.3408739877
  0
LINE
  5
774
100
AcDbEntity
  8
30526677_CL
100
AcDbLine
 62
7
  6
CONTINUOUS
 10
414.5060518567
 20
245.4894161376
 11
417.5431618148
 21
245.3766314269
  0
LINE
  5
775
100
AcDbEntity
  8
30526677_CL
100
AcDbLine
 62
7
  6
CONTINUOUS
 10
410.5060518567
 20
245.8879582876
 11
414.3134738484
 21
245.7465676255
  0
LINE
  5
776
100
AcDbEntity
  8
30526677_CL
100
AcDbLine
 62
7
  6
CONTINUOUS
 10
406.5060518567
 20
246.2865004376
 11
410.3134738484
 21
246.1451097754
  0
LINE
  5
777
100
AcDbEntity
  8
30526677_CL
100
AcDbLine
 62
7
  6
CONTINUOUS
 10
402.5060518567
 20
246.6850425875
 11
406.3134738484
 21
246.5436519254
  0
LINE
  5
778
100
AcDbEntity
  8
30526677_CL
100
AcDbLine
 62
7
  6
CONTINUOUS
 10
398.5060518567
 20
247.0835847375
 11
402.3134738484
 21
246.9421940754
  0
LINE
  5
779
100
AcDbEntity
  8
30526677_CL
100
AcDbLine
 62
9
  6
CONTINUOUS
 10
402.3134738484
 20
246.9421940754
 11
402.3134738484
 21
215.7395539
  0
LINE
  5
77A
100
AcDbEntity
  8
30526677_CL
100
AcDbLine
 62
7
  6
CONTINUOUS
 10
402.5060518567
 20
246.7423318377
 11
402.5060518567
 21
215.9394161376
  0
LINE
  5
77B
100
AcDbEntity
  8
30526677_CL
100
AcDbLine
 62
9
  6
CONTINUOUS
 10
406.3134738484
 20
246.5436519254
 11
406.3134738484
 21
216.1380960499
  0
LINE
  5
77C
100
AcDbEntity
  8
30526677_CL
100
AcDbLine
 62
7
  6
CONTINUOUS
 10
406.5060518567
 20
246.3437896877
 11
406.5060518567
 21
216.3379582876
  0
LINE
  5
77D
100
AcDbEntity
  8
30339317_HL
100
AcDbLine
 62
6
  6
HIDDEN
 10
401.6326523798
 20
223.2718739877
 11
401.9016523798
 21
223.5408739877
  0
LINE
  5
77E
100
AcDbEntity
  8
30339317_HL
100
AcDbLine
 62
6
  6
HIDDEN
 10
402.4726952359
 20
223.2718739877
 11
402.7416952359
 21
223.5408739877
  0
LINE
  5
77F
100
AcDbEntity
  8
30339317_HL
100
AcDbLine
 62
6
  6
HIDDEN
 10
403.3127380919
 20
223.2718739877
 11
403.5817380919
 21
223.5408739877
  0
LINE
  5
780
100
AcDbEntity
  8
30339317_HL
100
AcDbLine
 62
6
  6
HIDDEN
 10
404.152780948
 20
223.2718739877
 11
404.421780948
 21
223.5408739877
  0
LINE
  5
781
100
AcDbEntity
  8
30339317_HL
100
AcDbLine
 62
6
  6
HIDDEN
 10
404.992823804
 20
223.2718739877
 11
405.261823804
 21
223.5408739877
  0
LINE
  5
782
100
AcDbEntity
  8
30339317_HL
100
AcDbLine
 62
6
  6
HIDDEN
 10
405.8328666601
 20
223.2718739877
 11
406.1018666601
 21
223.5408739877
  0
LINE
  5
783
100
AcDbEntity
  8
30339317_HL
100
AcDbLine
 62
6
  6
HIDDEN
 10
406.6729095161
 20
223.2718739877
 11
407.5582299769
 21
224.1571944485
  0
LINE
  5
784
100
AcDbEntity
  8
30339317_HL
100
AcDbLine
 62
6
  6
HIDDEN
 10
407.5129523722
 20
223.2718739877
 11
408.4819523722
 21
224.2408739877
  0
LINE
  5
785
100
AcDbEntity
  8
30339317_HL
100
AcDbLine
 62
6
  6
HIDDEN
 10
408.3529952282
 20
223.2718739877
 11
409.3219952282
 21
224.2408739877
  0
LINE
  5
786
100
AcDbEntity
  8
30339317_HL
100
AcDbLine
 62
6
  6
HIDDEN
 10
409.1930380843
 20
223.2718739877
 11
410.1620380843
 21
224.2408739877
  0
LINE
  5
787
100
AcDbEntity
  8
30339317_HL
100
AcDbLine
 62
6
  6
HIDDEN
 10
410.0330809403
 20
223.2718739877
 11
411.0020809403
 21
224.2408739877
  0
LINE
  5
788
100
AcDbEntity
  8
30339317_HL
100
AcDbLine
 62
6
  6
HIDDEN
 10
410.8731237964
 20
223.2718739877
 11
411.8021353368
 21
224.2008855281
  0
LINE
  5
789
100
AcDbEntity
  8
30339317_HL
100
AcDbLine
 62
6
  6
HIDDEN
 10
411.7131666524
 20
223.2718739877
 11
412.4107713563
 21
223.9694786916
  0
LINE
  5
78A
100
AcDbEntity
  8
30526677_HL
100
AcDbLine
 62
6
  6
HIDDEN
 10
281.588487422
 20
251.3408739877
 11
292.2610538583
 21
251.3408739877
  0
LINE
  5
78B
100
AcDbEntity
  8
30526677_CL
100
AcDbLine
 62
7
  6
CONTINUOUS
 10
297.3314535168
 20
255.3613048494
 11
298.0060518567
 21
255.3613048494
  0
LINE
  5
78C
100
AcDbEntity
  8
30526677_CL
100
AcDbLine
 62
7
  6
CONTINUOUS
 10
324.8560518567
 20
256.3408739877
 11
337.5016090572
 21
256.3408739877
  0
LINE
  5
78D
100
AcDbEntity
  8
30526677_CL
100
AcDbLine
 62
9
  6
CONTINUOUS
 10
410.3134738484
 20
246.1451097754
 11
410.3134738484
 21
216.5366381999
  0
LINE
  5
78E
100
AcDbEntity
  8
30526677_CL
100
AcDbLine
 62
7
  6
CONTINUOUS
 10
410.5060518567
 20
245.9452475378
 11
410.5060518567
 21
216.7365004376
  0
LINE
  5
78F
100
AcDbEntity
  8
30526677_CL
100
AcDbLine
 62
9
  6
CONTINUOUS
 10
414.3134738484
 20
245.7465676255
 11
414.3134738484
 21
216.9351803499
  0
LINE
  5
790
100
AcDbEntity
  8
30526677_CL
100
AcDbLine
 62
7
  6
CONTINUOUS
 10
414.5060518567
 20
245.5467053878
 11
414.5060518567
 21
217.1350425875
  0
LINE
  5
791
100
AcDbEntity
  8
HLP_AZ
100
AcDbLine
 62
6
  6
PHANTOM
 10
414.6060518567
 20
239.4098739877
 11
414.6060518567
 21
238.9908739877
  0
LINE
  5
792
100
AcDbEntity
  8
HLP_AZ
100
AcDbLine
 62
6
  6
PHANTOM
 10
414.6060518567
 20
223.2718739877
 11
414.6060518567
 21
223.6908739877
  0
LINE
  5
793
100
AcDbEntity
  8
30339317_HL
100
AcDbLine
 62
6
  6
HIDDEN
 10
417.0060518567
 20
237.3408739877
 11
417.0060518567
 21
225.3408739877
  0
LINE
  5
794
100
AcDbEntity
  8
30526677_CL
100
AcDbLine
 62
9
  6
CONTINUOUS
 10
417.5431618148
 20
245.3766314269
 11
417.5431618148
 21
217.3051165484
  0
LINE
  5
795
100
AcDbEntity
  8
30339317_HL
100
AcDbLine
 62
6
  6
HIDDEN
 10
412.5532095085
 20
223.2718739877
 11
413.1222095085
 21
223.8408739877
  0
LINE
  5
796
100
AcDbEntity
  8
30339317_HL
100
AcDbLine
 62
6
  6
HIDDEN
 10
413.3932523645
 20
223.2718739877
 11
413.9091241039
 21
223.787745727
  0
LINE
  5
797
100
AcDbEntity
  8
30339317_HL
100
AcDbLine
 62
6
  6
HIDDEN
 10
414.2332952206
 20
223.2718739877
 11
414.6060518567
 21
223.6446306239
  0
LINE
  5
798
100
AcDbEntity
  8
30526677_CL
100
AcDbLine
 62
7
  6
CONTINUOUS
 10
267.7460069263
 20
254.1204208347
 11
296.5060518567
 21
255.5613048494
  0
LINE
  5
799
100
AcDbEntity
  8
30526677_HL
100
AcDbLine
 62
6
  6
HIDDEN
 10
300.8060518567
 20
257.8408739877
 11
310.2060518567
 21
257.8408739877
  0
LINE
  5
79A
100
AcDbEntity
  8
30526677_HL
100
AcDbLine
 62
6
  6
HIDDEN
 10
300.5060518567
 20
258.1408739877
 11
310.5060518567
 21
258.1408739877
  0
LINE
  5
79B
100
AcDbEntity
  8
30526677_CL
100
AcDbLine
 62
7
  6
CONTINUOUS
 10
317.6310518567
 20
258.8408739877
 11
315.3810518567
 21
258.8408739877
  0
LINE
  5
79C
100
AcDbEntity
  8
30526677_HL
100
AcDbLine
 62
6
  6
HIDDEN
 10
300.5060518567
 20
262.2408739877
 11
310.5060518567
 21
262.2408739877
  0
LINE
  5
79D
100
AcDbEntity
  8
30526677_CL
100
AcDbLine
 62
7
  6
CONTINUOUS
 10
298.7060518567
 20
262.8408739877
 11
299.9060518567
 21
262.8408739877
  0
LINE
  5
79E
100
AcDbEntity
  8
30526677_CL
100
AcDbLine
 62
7
  6
CONTINUOUS
 10
311.1060518567
 20
262.8408739877
 11
313.128552782
 21
262.8408739877
  0
LINE
  5
79F
100
AcDbEntity
  8
30526677_CL
100
AcDbLine
 62
7
  6
CONTINUOUS
 10
319.8835509315
 20
262.8408739877
 11
324.4560518567
 21
262.8408739877
  0
LINE
  5
7A0
100
AcDbEntity
  8
30526677_CL
100
AcDbLine
 62
7
  6
CONTINUOUS
 10
418.5060518567
 20
244.3773202386
 11
418.5060518567
 21
218.3044277367
  0
LINE
  5
7A1
100
AcDbEntity
  8
COLLECTION02
100
AcDbLine
 62
30
  6
CENTER
 10
458.5060518567
 20
225.3408739877
 11
458.5060518567
 21
225.3908739877
  0
LINE
  5
7A2
100
AcDbEntity
  8
COLLECTION02
100
AcDbLine
 62
30
  6
CENTER
 10
464.5050518567
 20
237.3408739877
 11
464.5050518567
 21
225.3408739877
  0
LINE
  5
7A3
100
AcDbEntity
  8
30526677_CL
100
AcDbLine
 62
7
  6
CONTINUOUS
 10
87.5106567052
 20
223.3408739877
 11
87.5106567052
 21
239.3408739877
  0
LINE
  5
7A4
100
AcDbEntity
  8
30526677_CL
100
AcDbLine
 62
7
  6
CONTINUOUS
 10
100.0506567052
 20
250.9608739877
 11
99.5106567052
 21
250.4208739877
  0
LINE
  5
7A5
100
AcDbEntity
  8
10007041_HP_CL
100
AcDbLine
 62
7
  6
CONTINUOUS
 10
99.5106567052
 20
250.4208739877
 11
100.4306567052
 21
251.3408739877
  0
LINE
  5
7A6
100
AcDbEntity
  8
30526677_CL
100
AcDbLine
 62
7
  6
CONTINUOUS
 10
94.0106567052
 20
207.0046869404
 11
94.0106567052
 21
211.3408739877
  0
LINE
  5
7A7
100
AcDbEntity
  8
0
100
AcDbLine
 62
3
  6
CONTINUOUS
 10
95.7751096063
 20
248.4424313406
 11
95.7672347691
 21
248.1889620378
  0
LINE
  5
7A8
100
AcDbEntity
  8
30526677_CL
100
AcDbLine
 62
7
  6
CONTINUOUS
 10
94.0106567052
 20
211.3408739877
 11
89.6744696579
 21
211.3408739877
  0
LINE
  5
7A9
100
AcDbEntity
  8
30526677_CL
100
AcDbLine
 62
7
  6
CONTINUOUS
 10
99.4106567052
 20
251.634715418
 11
99.4106567052
 21
251.3408739877
  0
LINE
  5
7AA
100
AcDbEntity
  8
30526677_CL
100
AcDbLine
 62
3
  6
CONTINUOUS
 10
99.5106567052
 20
251.3408739877
 11
99.5106567052
 21
250.4208739877
  0
LINE
  5
7AB
100
AcDbEntity
  8
10007041_HP_CL
100
AcDbLine
 62
7
  6
CONTINUOUS
 10
99.5106567052
 20
250.4208739877
 11
99.5106567052
 21
245.4916662526
  0
LINE
  5
7AC
100
AcDbEntity
  8
30526677_CL
100
AcDbLine
 62
7
  6
CONTINUOUS
 10
99.5106567052
 20
245.4916662526
 11
99.5106567052
 21
250.4208739877
  0
LINE
  5
7AD
100
AcDbEntity
  8
0
100
AcDbLine
 62
3
  6
CONTINUOUS
 10
109.3257986325
 20
245.5947000345
 11
110.1972175328
 21
246.0838098956
  0
LINE
  5
7AE
100
AcDbEntity
  8
0
100
AcDbLine
 62
3
  6
CONTINUOUS
 10
108.3717223063
 20
245.2477046935
 11
109.3257986325
 21
245.5947000345
  0
LINE
  5
7AF
100
AcDbEntity
  8
30526677_CL
100
AcDbLine
 62
7
  6
CONTINUOUS
 10
100.0506567052
 20
251.3408739877
 11
100.0506567052
 21
250.9608739877
  0
LINE
  5
7B0
100
AcDbEntity
  8
10007041_HP_CL
100
AcDbLine
 62
3
  6
CONTINUOUS
 10
100.4306567052
 20
251.3408739877
 11
100.4306567052
 21
245.3828448139
  0
LINE
  5
7B1
100
AcDbEntity
  8
0
100
AcDbLine
 62
3
  6
CONTINUOUS
 10
110.1972175328
 20
246.0838098956
 11
110.8771712068
 21
246.7143089279
  0
LINE
  5
7B2
100
AcDbEntity
  8
30526677_AXIS
100
AcDbLine
 62
3
  6
CENTER
 10
104.5106567052
 20
224.3408739877
 11
104.5106567052
 21
254.3408739877
  0
LINE
  5
7B3
100
AcDbEntity
  8
0
100
AcDbLine
 62
3
  6
CONTINUOUS
 10
110.8771712068
 20
246.7143089279
 11
111.4498644222
 21
248.1794762976
  0
LINE
  5
7B4
100
AcDbEntity
  8
30526677_CL
100
AcDbLine
 62
7
  6
CONTINUOUS
 10
144.1975744014
 20
222.3408739877
 11
140.5106567052
 21
222.3408739877
  0
LINE
  5
7B5
100
AcDbEntity
  8
0
100
AcDbLine
 62
3
  6
CONTINUOUS
 10
95.7672347691
 20
248.1889620378
 11
96.3333458821
 21
246.6532004182
  0
LINE
  5
7B6
100
AcDbEntity
  8
30526677_CL
100
AcDbLine
 62
7
  6
CONTINUOUS
 10
83.543461232
 20
223.3408739877
 11
87.5106567052
 21
223.3408739877
  0
LINE
  5
7B7
100
AcDbEntity
  8
10007041_HP_CL
100
AcDbLine
 62
3
  6
CONTINUOUS
 10
108.5906567052
 20
251.3408739877
 11
108.5906567052
 21
245.3273306252
  0
LINE
  5
7B8
100
AcDbEntity
  8
30526677_CL
100
AcDbLine
 62
7
  6
CONTINUOUS
 10
108.9706567052
 20
251.3408739877
 11
108.9706567052
 21
250.9608739877
  0
LINE
  5
7B9
100
AcDbEntity
  8
30526677_CL
100
AcDbLine
 62
3
  6
CONTINUOUS
 10
109.5106567052
 20
251.3408739877
 11
109.5106567052
 21
250.4208739877
  0
LINE
  5
7BA
100
AcDbEntity
  8
10007041_HP_CL
100
AcDbLine
 62
7
  6
CONTINUOUS
 10
109.5106567052
 20
250.4208739877
 11
109.5106567052
 21
245.698457144
  0
LINE
  5
7BB
100
AcDbEntity
  8
30526677_CL
100
AcDbLine
 62
7
  6
CONTINUOUS
 10
109.5106567052
 20
245.698457144
 11
109.5106567052
 21
250.4208739877
  0
LINE
  5
7BC
100
AcDbEntity
  8
30526677_CL
100
AcDbLine
 62
7
  6
CONTINUOUS
 10
109.6106567052
 20
255.9506281514
 11
109.6106567052
 21
251.3408739877
  0
LINE
  5
7BD
100
AcDbEntity
  8
0
100
AcDbLine
 62
3
  6
CONTINUOUS
 10
111.4498644222
 20
248.1794762976
 11
111.4875328993
 21
249.9581575884
  0
LINE
  5
7BE
100
AcDbEntity
  8
0
100
AcDbLine
 62
3
  6
CONTINUOUS
 10
111.6092009151
 20
254.1472259799
 11
111.7638325726
 21
256.1983986726
  0
LINE
  5
7BF
100
AcDbEntity
  8
0
100
AcDbLine
 62
3
  6
CONTINUOUS
 10
111.4271477947
 20
251.9085322582
 11
111.6092009151
 21
254.1472259799
  0
LINE
  5
7C0
100
AcDbEntity
  8
30252542_HP_CL
100
AcDbLine
 62
7
  6
CONTINUOUS
 10
110.4310850362
 20
231.3408739877
 11
112.2208708707
 21
234.4408739877
  0
LINE
  5
7C1
100
AcDbEntity
  8
30252542_HP_CL
100
AcDbLine
 62
7
  6
CONTINUOUS
 10
115.8004425396
 20
228.2408739877
 11
112.2208708707
 21
228.2408739877
  0
LINE
  5
7C2
100
AcDbEntity
  8
30252542_HP_CL
100
AcDbLine
 62
7
  6
CONTINUOUS
 10
112.2208708707
 20
228.2408739877
 11
110.4310850362
 21
231.3408739877
  0
LINE
  5
7C3
100
AcDbEntity
  8
0
100
AcDbLine
 62
3
  6
CONTINUOUS
 10
111.4875328993
 20
249.9581575884
 11
111.4271477947
 21
251.9085322582
  0
LINE
  5
7C4
100
AcDbEntity
  8
30252542_HP_AXIS
100
AcDbLine
 62
3
  6
CENTER
 10
114.0106567052
 20
231.3408739877
 11
114.0106567052
 21
223.3408739877
  0
LINE
  5
7C5
100
AcDbEntity
  8
30339317_CL
100
AcDbLine
 62
30
  6
CONTINUOUS
 10
114.0106567052
 20
223.8408739877
 11
114.0106567052
 21
238.8408740532
  0
LINE
  5
7C6
100
AcDbEntity
  8
30252542_HP_AXIS
100
AcDbLine
 62
3
  6
CENTER
 10
114.0106567052
 20
231.3408739877
 11
114.0106567052
 21
239.3408739877
  0
LINE
  5
7C7
100
AcDbEntity
  8
30339317_AXIS
100
AcDbLine
 62
3
  6
CENTER
 10
114.0106567052
 20
194.8408739877
 11
114.0106567052
 21
267.8408739877
  0
LINE
  5
7C8
100
AcDbEntity
  8
30252542_HP_CL
100
AcDbLine
 62
7
  6
CONTINUOUS
 10
111.1239053592
 20
231.3408739877
 11
112.5672810322
 21
233.8408739877
  0
LINE
  5
7C9
100
AcDbEntity
  8
30252542_HP_CL
100
AcDbLine
 62
7
  6
CONTINUOUS
 10
112.5672810322
 20
228.8408739877
 11
112.2208708707
 21
228.2408739877
  0
LINE
  5
7CA
100
AcDbEntity
  8
30252542_HP_CL
100
AcDbLine
 62
7
  6
CONTINUOUS
 10
115.4540323781
 20
233.8408739877
 11
115.8004425396
 21
234.4408739877
  0
LINE
  5
7CB
100
AcDbEntity
  8
30252542_HP_CL
100
AcDbLine
 62
7
  6
CONTINUOUS
 10
115.4540323781
 20
228.8408739877
 11
112.5672810322
 21
228.8408739877
  0
LINE
  5
7CC
100
AcDbEntity
  8
30526677_CL
100
AcDbLine
 62
9
  6
CONTINUOUS
 10
140.5106567052
 20
230.3408739877
 11
145.494779688
 21
230.3408739877
  0
LINE
  5
7CD
100
AcDbEntity
  8
30252542_HP_CL
100
AcDbLine
 62
7
  6
CONTINUOUS
 10
111.1239053592
 20
231.3408739877
 11
110.4310850362
 21
231.3408739877
  0
LINE
  5
7CE
100
AcDbEntity
  8
30252542_HP_AXIS
100
AcDbLine
 62
3
  6
CENTER
 10
114.0106567052
 20
231.3408739877
 11
111.1239053592
 21
231.3408739877
  0
LINE
  5
7CF
100
AcDbEntity
  8
30252542_HP_AXIS
100
AcDbLine
 62
3
  6
CENTER
 10
110.4310850362
 20
231.3408739877
 11
106.0106567052
 21
231.3408739877
  0
LINE
  5
7D0
100
AcDbEntity
  8
30273804_AXIS
100
AcDbLine
 62
3
  6
CENTER
 10
77.5106567052
 20
231.3408739877
 11
150.5106567052
 21
231.3408739877
  0
LINE
  5
7D1
100
AcDbEntity
  8
30252542_HP_AXIS
100
AcDbLine
 62
3
  6
CENTER
 10
114.0106567052
 20
231.3408739877
 11
116.8974080511
 21
231.3408739877
  0
LINE
  5
7D2
100
AcDbEntity
  8
30252542_HP_AXIS
100
AcDbLine
 62
3
  6
CENTER
 10
117.5902283741
 20
231.3408739877
 11
122.0106567052
 21
231.3408739877
  0
LINE
  5
7D3
100
AcDbEntity
  8
30252542_HP_CL
100
AcDbLine
 62
7
  6
CONTINUOUS
 10
116.8974080511
 20
231.3408739877
 11
117.5902283741
 21
231.3408739877
  0
LINE
  5
7D4
100
AcDbEntity
  8
30252542_HP_CL
100
AcDbLine
 62
7
  6
CONTINUOUS
 10
112.5672810322
 20
228.8408739877
 11
111.1239053592
 21
231.3408739877
  0
LINE
  5
7D5
100
AcDbEntity
  8
30252542_HP_CL
100
AcDbLine
 62
7
  6
CONTINUOUS
 10
115.4540323781
 20
228.8408739877
 11
115.8004425396
 21
228.2408739877
  0
LINE
  5
7D6
100
AcDbEntity
  8
30252542_HP_CL
100
AcDbLine
 62
7
  6
CONTINUOUS
 10
112.5672810322
 20
233.8408739877
 11
112.2208708707
 21
234.4408739877
  0
LINE
  5
7D7
100
AcDbEntity
  8
30252542_HP_CL
100
AcDbLine
 62
7
  6
CONTINUOUS
 10
116.8974080511
 20
231.3408739877
 11
115.4540323781
 21
228.8408739877
  0
LINE
  5
7D8
100
AcDbEntity
  8
30252542_HP_CL
100
AcDbLine
 62
7
  6
CONTINUOUS
 10
117.5902283741
 20
231.3408739877
 11
115.8004425396
 21
228.2408739877
  0
LINE
  5
7D9
100
AcDbEntity
  8
30526677_CL
100
AcDbLine
 62
9
  6
CONTINUOUS
 10
140.5106567052
 20
232.3408739877
 11
145.494779688
 21
232.3408739877
  0
LINE
  5
7DA
100
AcDbEntity
  8
30252542_HP_CL
100
AcDbLine
 62
7
  6
CONTINUOUS
 10
112.5672810322
 20
233.8408739877
 11
115.4540323781
 21
233.8408739877
  0
LINE
  5
7DB
100
AcDbEntity
  8
30252542_HP_CL
100
AcDbLine
 62
7
  6
CONTINUOUS
 10
112.2208708707
 20
234.4408739877
 11
115.8004425396
 21
234.4408739877
  0
LINE
  5
7DC
100
AcDbEntity
  8
30252542_HP_CL
100
AcDbLine
 62
7
  6
CONTINUOUS
 10
115.4540323781
 20
233.8408739877
 11
116.8974080511
 21
231.3408739877
  0
LINE
  5
7DD
100
AcDbEntity
  8
30252542_HP_CL
100
AcDbLine
 62
7
  6
CONTINUOUS
 10
115.8004425396
 20
234.4408739877
 11
117.5902283741
 21
231.3408739877
  0
LINE
  5
7DE
100
AcDbEntity
  8
0
100
AcDbLine
 62
3
  6
CONTINUOUS
 10
111.7638325726
 20
256.1983986726
 11
111.7554959089
 21
256.2389488056
  0
LINE
  5
7DF
100
AcDbEntity
  8
0
100
AcDbLine
 62
3
  6
CONTINUOUS
 10
96.3333458821
 20
246.6532004182
 11
97.8044537381
 21
245.791586399
  0
LINE
  5
7E0
100
AcDbEntity
  8
30526677_CL
100
AcDbLine
 62
7
  6
CONTINUOUS
 10
83.543461232
 20
239.3408739877
 11
87.5106567052
 21
239.3408739877
  0
LINE
  5
7E1
100
AcDbEntity
  8
30526677_CL
100
AcDbLine
 62
7
  6
CONTINUOUS
 10
144.1975744014
 20
240.3408739877
 11
140.5106567052
 21
240.3408739877
  0
LINE
  5
7E2
100
AcDbEntity
  8
0
100
AcDbLine
 62
3
  6
CONTINUOUS
 10
97.8044537381
 20
245.791586399
 11
99.8833976279
 21
245.4261450255
  0
LINE
  5
7E3
100
AcDbEntity
  8
30526677_CL
100
AcDbLine
 62
7
  6
CONTINUOUS
 10
108.9706567052
 20
250.9608739877
 11
109.5106567052
 21
250.4208739877
  0
LINE
  5
7E4
100
AcDbEntity
  8
10007041_HP_CL
100
AcDbLine
 62
7
  6
CONTINUOUS
 10
109.5106567052
 20
250.4208739877
 11
108.5906567052
 21
251.3408739877
  0
LINE
  5
7E5
100
AcDbEntity
  8
0
100
AcDbLine
 62
3
  6
CONTINUOUS
 10
106.3505821399
 20
244.9410318033
 11
108.3717223063
 21
245.2477046935
  0
LINE
  5
7E6
100
AcDbEntity
  8
0
100
AcDbLine
 62
3
  6
CONTINUOUS
 10
104.3171661757
 20
245.0289743473
 11
106.3505821399
 21
244.9410318033
  0
LINE
  5
7E7
100
AcDbEntity
  8
0
100
AcDbLine
 62
3
  6
CONTINUOUS
 10
99.8833976279
 20
245.4261450255
 11
102.13865431
 21
245.2477046935
  0
LINE
  5
7E8
100
AcDbEntity
  8
0
100
AcDbLine
 62
3
  6
CONTINUOUS
 10
102.13865431
 20
245.2477046935
 11
104.3171661757
 21
245.0289743473
  0
LINE
  5
7E9
100
AcDbEntity
  8
10007041_HP_CL
100
AcDbLine
 62
7
  6
CONTINUOUS
 10
109.5106567052
 20
250.4208739877
 11
99.5106567052
 21
250.4208739877
  0
LINE
  5
7EA
100
AcDbEntity
  8
10007041_HP_CL
100
AcDbLine
 62
7
  6
CONTINUOUS
 10
108.5906567052
 20
251.3408739877
 11
100.4306567052
 21
251.3408739877
  0
LINE
  5
7EB
100
AcDbEntity
  8
30526677_CL
100
AcDbLine
 62
7
  6
CONTINUOUS
 10
99.4106567052
 20
251.3408739877
 11
100.4306567052
 21
251.3408739877
  0
LINE
  5
7EC
100
AcDbEntity
  8
30526677_CL
100
AcDbLine
 62
7
  6
CONTINUOUS
 10
108.5906567052
 20
251.3408739877
 11
109.6106567052
 21
251.3408739877
  0
LINE
  5
7ED
100
AcDbEntity
  8
30526677_CL
100
AcDbLine
 62
7
  6
CONTINUOUS
 10
140.5106567052
 20
222.3408739877
 11
140.5106567052
 21
240.3408739877
  0
ARC
  5
7EE
100
AcDbEntity
  8
30526677_HL
100
AcDbCircle
 62
6
  6
HIDDEN
 10
305.5361591894
 20
164.0296939424
 40
36.0599901221
100
AcDbArc
 50
90.3750822881
 51
96.732774649
  0
ARC
  5
7EF
100
AcDbEntity
  8
30526677_HL
100
AcDbCircle
 62
6
  6
HIDDEN
 10
305.5043765164
 20
164.7861934335
 40
35.3033357085
100
AcDbArc
 50
88.7078913327
 51
88.830558308
  0
ARC
  5
7F0
100
AcDbEntity
  8
30526677_HL
100
AcDbCircle
 62
6
  6
HIDDEN
 10
305.505616222
 20
164.8453777791
 40
35.2441385536
100
AcDbArc
 50
89.1629242161
 51
89.4538111157
  0
ARC
  5
7F1
100
AcDbEntity
  8
30526677_HL
100
AcDbCircle
 62
6
  6
HIDDEN
 10
305.5057329065
 20
164.8549154233
 40
35.2346003247
100
AcDbArc
 50
88.8782321503
 51
88.9963749906
  0
ARC
  5
7F2
100
AcDbEntity
  8
30526677_HL
100
AcDbCircle
 62
6
  6
HIDDEN
 10
305.505915939
 20
164.8639769604
 40
35.2255369718
100
AcDbArc
 50
88.996414492
 51
89.1391771804
  0
ARC
  5
7F3
100
AcDbEntity
  8
30526677_HL
100
AcDbCircle
 62
6
  6
HIDDEN
 10
305.5060057058
 20
164.8768124484
 40
35.2127015778
100
AcDbArc
 50
89.5758400939
 51
89.9999249062
  0
ARC
  5
7F4
100
AcDbEntity
  8
30526677_HL
100
AcDbCircle
 62
6
  6
HIDDEN
 10
305.5061038452
 20
164.8787951024
 40
35.2107189238
100
AcDbArc
 50
90.000084597
 51
90.3352214987
  0
ARC
  5
7F5
100
AcDbEntity
  8
30526677_CL
100
AcDbCircle
 62
7
  6
CONTINUOUS
 10
311.4560518567
 20
203.3408739877
 40
8.0
100
AcDbArc
 50
90.0
 51
152.7433806908
  0
ARC
  5
7F6
100
AcDbEntity
  8
30526677_HL
100
AcDbCircle
 62
6
  6
HIDDEN
 10
307.0060518567
 20
215.5908739877
 40
1.5
100
AcDbArc
 50
236.4426902381
 51
360.0
  0
ARC
  5
7F7
100
AcDbEntity
  8
30526677_CL
100
AcDbCircle
 62
7
  6
CONTINUOUS
 10
267.8060518567
 20
209.7598239518
 40
1.2
100
AcDbArc
 50
180.0
 51
267.131868059
  0
ARC
  5
7F8
100
AcDbEntity
  8
30526677_CL
100
AcDbCircle
 62
7
  6
CONTINUOUS
 10
315.3810518567
 20
203.0908739877
 40
0.75
100
AcDbArc
 50
90.0
 51
180.0
  0
ARC
  5
7F9
100
AcDbEntity
  8
30526677_HL
100
AcDbCircle
 62
6
  6
HIDDEN
 10
281.588487422
 20
211.9408739877
 40
0.6
100
AcDbArc
 50
210.0
 51
270.0
  0
ARC
  5
7FA
100
AcDbEntity
  8
30526677_HL
100
AcDbCircle
 62
6
  6
HIDDEN
 10
298.0060518567
 20
206.7204431259
 40
0.6
100
AcDbArc
 50
352.0
 51
33.5532737773
  0
ARC
  5
7FB
100
AcDbEntity
  8
30526677_CL
100
AcDbCircle
 62
7
  6
CONTINUOUS
 10
297.3314535168
 20
206.7204431259
 40
0.6
100
AcDbArc
 50
90.0
 51
105.0
  0
ARC
  5
7FC
100
AcDbEntity
  8
30526677_CL
100
AcDbCircle
 62
7
  6
CONTINUOUS
 10
298.0060518567
 20
206.7204431259
 40
0.6
100
AcDbArc
 50
33.5532737773
 51
90.0
  0
ARC
  5
7FD
100
AcDbEntity
  8
30526677_CL
100
AcDbCircle
 62
7
  6
CONTINUOUS
 10
173.1633433461
 20
269.5361890885
 40
153.2985603759
100
AcDbArc
 50
335.9265985332
 51
337.3426013525
  0
ARC
  5
7FE
100
AcDbEntity
  8
30526677_HL
100
AcDbCircle
 62
6
  6
HIDDEN
 10
275.1060518567
 20
226.5708739877
 40
1.5
100
AcDbArc
 50
270.0
 51
360.0
  0
ARC
  5
7FF
100
AcDbEntity
  8
30526677_HL
100
AcDbCircle
 62
6
  6
HIDDEN
 10
271.1060518567
 20
226.5708739877
 40
1.5
100
AcDbArc
 50
358.3068594613
 51
360.0
  0
ARC
  5
800
100
AcDbEntity
  8
30526677_CL
100
AcDbCircle
 62
7
  6
CONTINUOUS
 10
271.1060518567
 20
226.5708739877
 40
1.5
100
AcDbArc
 50
270.0
 51
358.3068594613
  0
CIRCLE
  5
801
100
AcDbEntity
  8
30526677_CL
100
AcDbCircle
 62
7
  6
CONTINUOUS
 10
289.5060518567
 20
231.3408739877
 40
3.75
  0
ARC
  5
802
100
AcDbEntity
  8
30526677_HL
100
AcDbCircle
 62
6
  6
HIDDEN
 10
275.1060518567
 20
236.1108739877
 40
1.5
100
AcDbArc
 50
0.0
 51
90.0
  0
ARC
  5
803
100
AcDbEntity
  8
30526677_HL
100
AcDbCircle
 62
6
  6
HIDDEN
 10
271.1060518567
 20
236.1108739877
 40
1.5
100
AcDbArc
 50
0.0
 51
1.6931405387
  0
ARC
  5
804
100
AcDbEntity
  8
30526677_CL
100
AcDbCircle
 62
7
  6
CONTINUOUS
 10
271.1060518567
 20
236.1108739877
 40
1.5
100
AcDbArc
 50
1.6931405387
 51
90.0
  0
ARC
  5
805
100
AcDbEntity
  8
30526677_HL
100
AcDbCircle
 62
6
  6
HIDDEN
 10
311.4560518567
 20
230.3408739877
 40
8.0
100
AcDbArc
 50
180.0
 51
270.0
  0
ARC
  5
806
100
AcDbEntity
  8
30526677_HL
100
AcDbCircle
 62
6
  6
HIDDEN
 10
292.2610538583
 20
219.3408739877
 40
8.0
100
AcDbArc
 50
270.0
 51
321.3178125465
  0
ARC
  5
807
100
AcDbEntity
  8
30526677_HL
100
AcDbCircle
 62
6
  6
HIDDEN
 10
311.4560518567
 20
232.3408739877
 40
8.0
100
AcDbArc
 50
90.0
 51
180.0
  0
ARC
  5
808
100
AcDbEntity
  8
30526677_HL
100
AcDbCircle
 62
6
  6
HIDDEN
 10
292.2610538583
 20
243.3408739877
 40
8.0
100
AcDbArc
 50
38.6821874535
 51
90.0
  0
ARC
  5
809
100
AcDbEntity
  8
30526677_CL
100
AcDbCircle
 62
7
  6
CONTINUOUS
 10
311.4560518567
 20
231.3408739877
 40
8.0
100
AcDbArc
 50
90.0
 51
270.0
  0
ARC
  5
80A
100
AcDbEntity
  8
30526677_HL
100
AcDbCircle
 62
6
  6
HIDDEN
 10
307.0060518567
 20
247.0908739877
 40
1.5
100
AcDbArc
 50
0.0
 51
123.5573097619
  0
ARC
  5
80B
100
AcDbEntity
  8
30526677_CL
100
AcDbCircle
 62
7
  6
CONTINUOUS
 10
267.8060518567
 20
252.9219240236
 40
1.2
100
AcDbArc
 50
92.868131941
 51
180.0
  0
ARC
  5
80C
100
AcDbEntity
  8
30526677_CL
100
AcDbCircle
 62
7
  6
CONTINUOUS
 10
315.3810518567
 20
259.5908739877
 40
0.75
100
AcDbArc
 50
180.0
 51
270.0
  0
ARC
  5
80D
100
AcDbEntity
  8
30526677_HL
100
AcDbCircle
 62
6
  6
HIDDEN
 10
281.588487422
 20
250.7408739877
 40
0.6
100
AcDbArc
 50
90.0
 51
150.0
  0
ARC
  5
80E
100
AcDbEntity
  8
30526677_HL
100
AcDbCircle
 62
6
  6
HIDDEN
 10
298.0060518567
 20
255.9613048494
 40
0.6
100
AcDbArc
 50
326.4467262227
 51
8.0
  0
ARC
  5
80F
100
AcDbEntity
  8
30526677_CL
100
AcDbCircle
 62
7
  6
CONTINUOUS
 10
297.3314535168
 20
255.9613048494
 40
0.6
100
AcDbArc
 50
255.0
 51
270.0
  0
ARC
  5
810
100
AcDbEntity
  8
30526677_CL
100
AcDbCircle
 62
7
  6
CONTINUOUS
 10
298.0060518567
 20
255.9613048494
 40
0.6
100
AcDbArc
 50
270.0
 51
326.4467262227
  0
ARC
  5
811
100
AcDbEntity
  8
30526677_CL
100
AcDbCircle
 62
7
  6
CONTINUOUS
 10
343.5060518567
 20
214.3408739877
 40
1.0
100
AcDbArc
 50
90.0
 51
150.0
  0
ARC
  5
812
100
AcDbEntity
  8
30526677_CL
100
AcDbCircle
 62
7
  6
CONTINUOUS
 10
317.6310518567
 20
203.0908739877
 40
0.75
100
AcDbArc
 50
0.0
 51
90.0
  0
ARC
  5
813
100
AcDbEntity
  8
30526677_CL
100
AcDbCircle
 62
7
  6
CONTINUOUS
 10
337.5016090572
 20
206.7408739877
 40
0.4
100
AcDbArc
 50
270.0
 51
330.0
  0
ARC
  5
814
100
AcDbEntity
  8
30526677_CL
100
AcDbCircle
 62
7
  6
CONTINUOUS
 10
324.8560518567
 20
205.9408739877
 40
0.4
100
AcDbArc
 50
90.0
 51
180.0
  0
ARC
  5
815
100
AcDbEntity
  8
30526677_CL
100
AcDbCircle
 62
7
  6
CONTINUOUS
 10
410.3060518567
 20
216.7365004376
 40
0.2
100
AcDbArc
 50
272.1267323053
 51
360.0
  0
ARC
  5
816
100
AcDbEntity
  8
30526677_CL
100
AcDbCircle
 62
7
  6
CONTINUOUS
 10
406.3060518567
 20
216.3379582876
 40
0.2
100
AcDbArc
 50
272.1267323053
 51
360.0
  0
ARC
  5
817
100
AcDbEntity
  8
30526677_CL
100
AcDbCircle
 62
7
  6
CONTINUOUS
 10
402.3060518567
 20
215.9394161376
 40
0.2
100
AcDbArc
 50
272.1267323053
 51
360.0
  0
ARC
  5
818
100
AcDbEntity
  8
30526677_CL
100
AcDbCircle
 62
7
  6
CONTINUOUS
 10
398.3060518567
 20
215.5408739877
 40
0.2
100
AcDbArc
 50
270.0
 51
360.0
  0
CIRCLE
  5
819
100
AcDbEntity
  8
30526677_CL
100
AcDbCircle
 62
7
  6
CONTINUOUS
 10
316.5060518567
 20
231.3408739877
 40
3.95
  0
CIRCLE
  5
81A
100
AcDbEntity
  8
30526677_CL
100
AcDbCircle
 62
7
  6
CONTINUOUS
 10
316.5060518567
 20
231.3408739877
 40
3.75
  0
ARC
  5
81B
100
AcDbEntity
  8
HLP_AZ
100
AcDbCircle
 62
6
  6
PHANTOM
 10
385.2562336649
 20
240.4408739877
 40
2.0
100
AcDbArc
 50
214.4022913095
 51
270.0
  0
ARC
  5
81C
100
AcDbEntity
  8
HLP_AZ
100
AcDbCircle
 62
6
  6
PHANTOM
 10
388.0861834414
 20
240.4408739877
 40
2.0
100
AcDbArc
 50
270.0
 51
319.4583981265
  0
ARC
  5
81D
100
AcDbEntity
  8
HLP_AZ
100
AcDbCircle
 62
6
  6
PHANTOM
 10
388.0861834414
 20
222.2408739877
 40
2.0
100
AcDbArc
 50
40.5416018735
 51
90.0
  0
ARC
  5
81E
100
AcDbEntity
  8
HLP_AZ
100
AcDbCircle
 62
6
  6
PHANTOM
 10
385.2562336649
 20
222.2408739877
 40
2.0
100
AcDbArc
 50
90.0
 51
145.5977086905
  0
ARC
  5
81F
100
AcDbEntity
  8
30252542_HP_HL
100
AcDbCircle
 62
6
  6
HIDDEN
 10
368.0122696394
 20
235.9908739877
 40
0.8
100
AcDbArc
 50
240.0
 51
270.0
  0
ARC
  5
820
100
AcDbEntity
  8
30252542_HP_HL
100
AcDbCircle
 62
6
  6
HIDDEN
 10
370.2060518567
 20
235.9908739877
 40
0.8
100
AcDbArc
 50
270.0
 51
360.0
  0
ARC
  5
821
100
AcDbEntity
  8
30252542_HP_HL
100
AcDbCircle
 62
6
  6
HIDDEN
 10
368.0122696394
 20
226.6908739877
 40
0.8
100
AcDbArc
 50
90.0
 51
120.0
  0
ARC
  5
822
100
AcDbEntity
  8
30252542_HP_HL
100
AcDbCircle
 62
6
  6
HIDDEN
 10
370.2060518567
 20
226.6908739877
 40
0.8
100
AcDbArc
 50
0.0
 51
90.0
  0
CIRCLE
  5
823
100
AcDbEntity
  8
30526677_CL
100
AcDbCircle
 62
7
  6
CONTINUOUS
 10
316.5060518567
 20
231.3408739877
 40
0.1
  0
ARC
  5
824
100
AcDbEntity
  8
30526677_CL
100
AcDbCircle
 62
7
  6
CONTINUOUS
 10
343.5060518567
 20
248.3408739877
 40
1.0
100
AcDbArc
 50
210.0
 51
270.0
  0
ARC
  5
825
100
AcDbEntity
  8
30526677_CL
100
AcDbCircle
 62
7
  6
CONTINUOUS
 10
317.6310518567
 20
259.5908739877
 40
0.75
100
AcDbArc
 50
270.0
 51
360.0
  0
ARC
  5
826
100
AcDbEntity
  8
30526677_CL
100
AcDbCircle
 62
7
  6
CONTINUOUS
 10
337.5016090572
 20
255.9408739877
 40
0.4
100
AcDbArc
 50
30.0
 51
90.0
  0
ARC
  5
827
100
AcDbEntity
  8
30526677_CL
100
AcDbCircle
 62
7
  6
CONTINUOUS
 10
324.8560518567
 20
256.7408739877
 40
0.4
100
AcDbArc
 50
180.0
 51
270.0
  0
ARC
  5
828
100
AcDbEntity
  8
HLP_AZ
100
AcDbCircle
 62
6
  6
PHANTOM
 10
408.1259202721
 20
240.4408739877
 40
2.0
100
AcDbArc
 50
220.5416018735
 51
270.0
  0
ARC
  5
829
100
AcDbEntity
  8
HLP_AZ
100
AcDbCircle
 62
6
  6
PHANTOM
 10
411.4060518567
 20
240.4408739877
 40
2.0
100
AcDbArc
 50
270.0
 51
306.8698976458
  0
ARC
  5
82A
100
AcDbEntity
  8
HLP_AZ
100
AcDbCircle
 62
6
  6
PHANTOM
 10
411.4060518567
 20
222.2408739877
 40
2.0
100
AcDbArc
 50
53.1301023542
 51
90.0
  0
ARC
  5
82B
100
AcDbEntity
  8
HLP_AZ
100
AcDbCircle
 62
6
  6
PHANTOM
 10
408.1259202721
 20
222.2408739877
 40
2.0
100
AcDbArc
 50
90.0
 51
139.4583981265
  0
ARC
  5
82C
100
AcDbEntity
  8
30339317_HL
100
AcDbCircle
 62
6
  6
HIDDEN
 10
417.0060518567
 20
238.8408739877
 40
1.5
100
AcDbArc
 50
270.0
 51
360.0
  0
ARC
  5
82D
100
AcDbEntity
  8
30339317_HL
100
AcDbCircle
 62
6
  6
HIDDEN
 10
417.0060518567
 20
223.8408739877
 40
1.5
100
AcDbArc
 50
0.0
 51
90.0
  0
ARC
  5
82E
100
AcDbEntity
  8
30526677_CL
100
AcDbCircle
 62
7
  6
CONTINUOUS
 10
417.5060518567
 20
218.3044277367
 40
1.0
100
AcDbArc
 50
272.1267323053
 51
360.0
  0
ARC
  5
82F
100
AcDbEntity
  8
30526677_CL
100
AcDbCircle
 62
7
  6
CONTINUOUS
 10
414.3060518567
 20
217.1350425875
 40
0.2
100
AcDbArc
 50
272.1267323053
 51
360.0
  0
ARC
  5
830
100
AcDbEntity
  8
30526677_CL
100
AcDbCircle
 62
7
  6
CONTINUOUS
 10
459.8487603666
 20
269.5361890882
 40
153.2985603751
100
AcDbArc
 50
202.6573986475
 51
204.0734014668
  0
ARC
  5
831
100
AcDbEntity
  8
30526677_HL
100
AcDbCircle
 62
6
  6
HIDDEN
 10
388.3496933225
 20
267.2237888408
 40
20.1108290568
100
AcDbArc
 50
277.2373205799
 51
278.6341451451
  0
ARC
  5
832
100
AcDbEntity
  8
30526677_HL
100
AcDbCircle
 62
6
  6
HIDDEN
 10
388.4832626462
 20
266.0834401378
 40
18.9627419725
100
AcDbArc
 50
271.2936499482
 51
277.2710263294
  0
ARC
  5
833
100
AcDbEntity
  8
30526677_HL
100
AcDbCircle
 62
6
  6
HIDDEN
 10
388.5059946716
 20
265.556130466
 40
18.4350566685
100
AcDbArc
 50
270.0001777304
 51
271.2600172333
  0
ARC
  5
834
100
AcDbEntity
  8
30526677_HL
100
AcDbCircle
 62
6
  6
HIDDEN
 10
388.5060664431
 20
265.5362930435
 40
18.4152192459
100
AcDbArc
 50
269.7892865102
 51
269.9999546171
  0
ARC
  5
835
100
AcDbEntity
  8
30526677_CL
100
AcDbCircle
 62
7
  6
CONTINUOUS
 10
417.5060518567
 20
244.3773202386
 40
1.0
100
AcDbArc
 50
0.0
 51
87.8732676947
  0
ARC
  5
836
100
AcDbEntity
  8
30526677_CL
100
AcDbCircle
 62
7
  6
CONTINUOUS
 10
414.3060518567
 20
245.5467053878
 40
0.2
100
AcDbArc
 50
0.0
 51
87.8732676947
  0
ARC
  5
837
100
AcDbEntity
  8
30526677_CL
100
AcDbCircle
 62
7
  6
CONTINUOUS
 10
410.3060518567
 20
245.9452475378
 40
0.2
100
AcDbArc
 50
0.0
 51
87.8732676947
  0
ARC
  5
838
100
AcDbEntity
  8
30526677_CL
100
AcDbCircle
 62
7
  6
CONTINUOUS
 10
406.3060518567
 20
246.3437896877
 40
0.2
100
AcDbArc
 50
0.0
 51
87.8732676947
  0
ARC
  5
839
100
AcDbEntity
  8
30526677_CL
100
AcDbCircle
 62
7
  6
CONTINUOUS
 10
402.3060518567
 20
246.7423318377
 40
0.2
100
AcDbArc
 50
0.0
 51
87.8732676947
  0
ARC
  5
83A
100
AcDbEntity
  8
30526677_CL
100
AcDbCircle
 62
7
  6
CONTINUOUS
 10
398.3060518567
 20
247.1408739877
 40
0.2
100
AcDbArc
 50
0.0
 51
90.0
  0
CIRCLE
  5
83B
100
AcDbEntity
  8
30526677_CL
100
AcDbCircle
 62
7
  6
CONTINUOUS
 10
114.0106567052
 20
231.3408739877
 40
31.5
  0
CIRCLE
  5
83C
100
AcDbEntity
  8
30526677_CL
100
AcDbCircle
 62
9
  6
CONTINUOUS
 10
114.0106567052
 20
231.3408739877
 40
25.4
  0
CIRCLE
  5
83D
100
AcDbEntity
  8
30526677_CL
100
AcDbCircle
 62
7
  6
CONTINUOUS
 10
114.0106567052
 20
231.3408739877
 40
25.0
  0
ARC
  5
83E
100
AcDbEntity
  8
30526677_CL
100
AcDbCircle
 62
9
  6
CONTINUOUS
 10
114.0106567052
 20
231.3408739877
 40
24.8
100
AcDbArc
 50
137.3165652762
 51
95.2260865854
  0
ARC
  5
83F
100
AcDbEntity
  8
30526677_CL
100
AcDbCircle
 62
9
  6
CONTINUOUS
 10
114.0106567052
 20
231.3408739877
 40
16.5
100
AcDbArc
 50
124.0651323817
 51
99.7199109112
  0
ARC
  5
840
100
AcDbEntity
  8
30526677_CL
100
AcDbCircle
 62
7
  6
CONTINUOUS
 10
114.0106567052
 20
231.3408739877
 40
16.0
100
AcDbArc
 50
121.5752886594
 51
100.8049398457
  0
ARC
  5
841
100
AcDbEntity
  8
30526677_CL
100
AcDbCircle
 62
9
  6
CONTINUOUS
 10
114.0106567052
 20
231.3408739877
 40
15.8
100
AcDbArc
 50
120.486732779
 51
101.2620005753
  0
ARC
  5
842
100
AcDbEntity
  8
30526677_CL
100
AcDbCircle
 62
7
  6
CONTINUOUS
 10
114.0106567052
 20
231.3408739877
 40
15.7427107498
100
AcDbArc
 50
120.1639243999
 51
101.395505737
  0
ARC
  5
843
100
AcDbEntity
  8
30526677_CL
100
AcDbCircle
 62
9
  6
CONTINUOUS
 10
114.0106567052
 20
231.3408739877
 40
15.6013200877
100
AcDbArc
 50
119.3151266452
 51
102.0570419652
  0
ARC
  5
844
100
AcDbEntity
  8
30526677_CL
100
AcDbCircle
 62
9
  6
CONTINUOUS
 10
114.0106567052
 20
231.3408739877
 40
15.40145785
100
AcDbArc
 50
117.2460894505
 51
103.3290866759
  0
ARC
  5
845
100
AcDbEntity
  8
30526677_CL
100
AcDbCircle
 62
7
  6
CONTINUOUS
 10
114.0106567052
 20
231.3408739877
 40
15.3441685998
100
AcDbArc
 50
116.6009167052
 51
103.7091821802
  0
ARC
  5
846
100
AcDbEntity
  8
30526677_CL
100
AcDbCircle
 62
9
  6
CONTINUOUS
 10
114.0106567052
 20
231.3408739877
 40
15.2027779377
100
AcDbArc
 50
114.8782423427
 51
104.8690858764
  0
ARC
  5
847
100
AcDbEntity
  8
30526677_CL
100
AcDbCircle
 62
9
  6
CONTINUOUS
 10
114.0106567052
 20
231.3408739877
 40
15.0029157001
100
AcDbArc
 50
111.6425090425
 51
108.3295330404
  0
CIRCLE
  5
848
100
AcDbEntity
  8
30526677_CL
100
AcDbCircle
 62
7
  6
CONTINUOUS
 10
114.0106567052
 20
231.3408739877
 40
14.9456264499
  0
CIRCLE
  5
849
100
AcDbEntity
  8
30526677_CL
100
AcDbCircle
 62
9
  6
CONTINUOUS
 10
114.0106567052
 20
231.3408739877
 40
14.8042357878
  0
CIRCLE
  5
84A
100
AcDbEntity
  8
30526677_CL
100
AcDbCircle
 62
9
  6
CONTINUOUS
 10
114.0106567052
 20
231.3408739877
 40
14.6043735501
  0
CIRCLE
  5
84B
100
AcDbEntity
  8
30526677_CL
100
AcDbCircle
 62
7
  6
CONTINUOUS
 10
114.0106567052
 20
231.3408739877
 40
14.5470842999
  0
CIRCLE
  5
84C
100
AcDbEntity
  8
30526677_CL
100
AcDbCircle
 62
9
  6
CONTINUOUS
 10
114.0106567052
 20
231.3408739877
 40
14.4056936378
  0
CIRCLE
  5
84D
100
AcDbEntity
  8
30526677_CL
100
AcDbCircle
 62
9
  6
CONTINUOUS
 10
114.0106567052
 20
231.3408739877
 40
14.2058314002
  0
CIRCLE
  5
84E
100
AcDbEntity
  8
30526677_CL
100
AcDbCircle
 62
7
  6
CONTINUOUS
 10
114.0106567052
 20
231.3408739877
 40
14.14854215
  0
CIRCLE
  5
84F
100
AcDbEntity
  8
30526677_CL
100
AcDbCircle
 62
9
  6
CONTINUOUS
 10
114.0106567052
 20
231.3408739877
 40
14.0357574393
  0
CIRCLE
  5
850
100
AcDbEntity
  8
30526677_CL
100
AcDbCircle
 62
9
  6
CONTINUOUS
 10
114.0106567052
 20
231.3408739877
 40
13.036446251
  0
CIRCLE
  5
851
100
AcDbEntity
  8
30336621_HP_CL
100
AcDbCircle
 62
7
  6
CONTINUOUS
 10
114.0106567052
 20
231.3408739877
 40
10.0
  0
CIRCLE
  5
852
100
AcDbEntity
  8
30526677_CL
100
AcDbCircle
 62
7
  6
CONTINUOUS
 10
114.0106567052
 20
231.3408739877
 40
10.0
  0
CIRCLE
  5
853
100
AcDbEntity
  8
30336621_HP_CL
100
AcDbCircle
 62
9
  6
CONTINUOUS
 10
114.0106567052
 20
231.3408739877
 40
7.5
  0
CIRCLE
  5
854
100
AcDbEntity
  8
30336621_HP_CL
100
AcDbCircle
 62
7
  6
CONTINUOUS
 10
114.0106567052
 20
231.3408739877
 40
6.0
  0
CIRCLE
  5
855
100
AcDbEntity
  8
30526677_CL
100
AcDbCircle
 62
7
  6
CONTINUOUS
 10
114.0106567052
 20
231.3408739877
 40
5.0
  0
CIRCLE
  5
856
100
AcDbEntity
  8
30252542_HP_CL
100
AcDbCircle
 62
7
  6
CONTINUOUS
 10
114.0106567052
 20
231.3408739877
 40
4.9
  0
CIRCLE
  5
857
100
AcDbEntity
  8
30252542_HP_CL
100
AcDbCircle
 62
7
  6
CONTINUOUS
 10
114.0106567052
 20
231.3408739877
 40
2.5
  0
SPLINE
  5
858
100
AcDbEntity
  8
30526677_HL
100
AcDbSpline
 62
6
  6
HIDDEN
 70
0
 71
3
 72
30
 73
26
 74
0
 42
0.0000001
 43
0.0000001
 44
0.0000000001
 40
0.0
 40
0.0
 40
0.0
 40
0.0
 40
0.125579292
 40
0.2511562903
 40
0.3767264394
 40
0.4395069476
 40
0.5022818706
 40
0.5650483957
 40
0.6278020704
 40
0.6905354406
 40
0.753234285
 40
0.7845637788
 40
0.8158719576
 40
0.8471487785
 40
0.878375489
 40
0.8939608691
 40
0.9095175172
 40
0.9250328648
 40
0.9404852087
 40
0.9558352423
 40
0.9709951917
 40
0.9784606946
 40
0.9857996471
 40
0.9929783542
 40
1.0
 40
1.0
 40
1.0
 40
1.0
 10
267.7460069263
 20
240.4707043572
 30
0.0
 10
267.991590211
 20
240.5009193798
 30
0.0
 10
268.4825273025
 20
240.5632039459
 30
0.0
 10
269.2180314843
 20
240.6633721594
 30
0.0
 10
269.8299470347
 20
240.7538425317
 30
0.0
 10
270.3185906333
 20
240.8317167412
 30
0.0
 10
270.6845020384
 20
240.8933500148
 30
0.0
 10
271.0496945868
 20
240.958822283
 30
0.0
 10
271.4139389109
 20
241.0289755575
 30
0.0
 10
271.7768665569
 20
241.1050264682
 30
0.0
 10
272.0777866118
 20
241.1748492483
 30
0.0
 10
272.3170224476
 20
241.2361612413
 30
0.0
 10
272.4953835535
 20
241.2854984827
 30
0.0
 10
272.6723099993
 20
241.3390800498
 30
0.0
 10
272.8180994523
 20
241.3884031014
 30
0.0
 10
272.9330792721
 20
241.4318110106
 30
0.0
 10
273.0181230367
 20
241.4667684757
 30
0.0
 10
273.1015797848
 20
241.5047516375
 30
0.0
 10
273.1827171248
 20
241.5466609334
 30
0.0
 10
273.2601016774
 20
241.5938478666
 30
0.0
 10
273.3196565742
 20
241.6396791087
 30
0.0
 10
273.3607812815
 20
241.6822171858
 30
0.0
 10
273.3863768323
 20
241.7174072456
 30
0.0
 10
273.4041953075
 20
241.756343917
 30
0.0
 10
273.408419777
 20
241.784532921
 30
0.0
 10
273.4082238756
 20
241.7983666269
 30
0.0
  0
SPLINE
  5
859
100
AcDbEntity
  8
30526677_HL
100
AcDbSpline
 62
6
  6
HIDDEN
 70
0
 71
3
 72
24
 73
20
 74
0
 42
0.0000001
 43
0.0000001
 44
0.0000000001
 40
0.0
 40
0.0
 40
0.0
 40
0.0
 40
0.1255407678
 40
0.2502084035
 40
0.3740285854
 40
0.4356417067
 40
0.4970695315
 40
0.5583322887
 40
0.6194631568
 40
0.6805198071
 40
0.7416101085
 40
0.8029619334
 40
0.8339151268
 40
0.8652309512
 40
0.8972068559
 40
0.9303615617
 40
0.9476223143
 40
0.965204199
 40
1.0
 40
1.0
 40
1.0
 40
1.0
 10
275.6790861149
 20
241.8500174329
 30
0.0
 10
275.6792477442
 20
241.9332155791
 30
0.0
 10
275.6764937026
 20
242.0990579924
 30
0.0
 10
275.6627560947
 20
242.3466137206
 30
0.0
 10
275.6425503059
 20
242.5512134
 30
0.0
 10
275.6201983536
 20
242.7132972274
 30
0.0
 10
275.5999955434
 20
242.8337766528
 30
0.0
 10
275.5758224316
 20
242.9532039134
 30
0.0
 10
275.5469459357
 20
243.0713394676
 30
0.0
 10
275.5122797207
 20
243.187820557
 30
0.0
 10
275.470082022
 20
243.3019694405
 30
0.0
 10
275.4262279492
 20
243.393976729
 30
0.0
 10
275.3830728189
 20
243.4637216542
 30
0.0
 10
275.3449166564
 20
243.5133676022
 30
0.0
 10
275.2988477304
 20
243.5580719096
 30
0.0
 10
275.2511287147
 20
243.5865187918
 30
0.0
 10
275.2072191808
 20
243.5980416484
 30
0.0
 10
275.1607248455
 20
243.5996294029
 30
0.0
 10
275.1265010793
 20
243.5885986224
 30
0.0
 10
275.1060518567
 20
243.5779409444
 30
0.0
  0
SPLINE
  5
85A
100
AcDbEntity
  8
30526677_HL
100
AcDbSpline
 62
6
  6
HIDDEN
 70
0
 71
3
 72
18
 73
14
 74
0
 42
0.0000001
 43
0.0000001
 44
0.0000000001
 40
0.0
 40
0.0
 40
0.0
 40
0.0
 40
0.0603781705
 40
0.1211873154
 40
0.1825016447
 40
0.244223517
 40
0.3062476567
 40
0.3685007237
 40
0.4935244747
 40
0.6191314899
 40
0.7453288914
 40
0.8722264867
 40
1.0
 40
1.0
 40
1.0
 40
1.0
 10
275.6790861149
 20
220.8317305424
 30
0.0
 10
275.6789585501
 20
220.8973940972
 30
0.0
 10
275.6923257701
 20
221.0294689917
 30
0.0
 10
275.7450456287
 20
221.2213633419
 30
0.0
 10
275.8171017626
 20
221.4080475697
 30
0.0
 10
275.8992231159
 20
221.5918267511
 30
0.0
 10
275.9856718036
 20
221.7747085315
 30
0.0
 10
276.1020804275
 20
222.019563625
 30
0.0
 10
276.2429547545
 20
222.3294050843
 30
0.0
 10
276.3911670151
 20
222.7118264511
 30
0.0
 10
276.5088694584
 20
223.1071047816
 30
0.0
 10
276.5868120976
 20
223.5146975126
 30
0.0
 10
276.6060518567
 20
223.7919290024
 30
0.0
 10
276.6060518567
 20
223.9308878158
 30
0.0
  0
SPLINE
  5
85B
100
AcDbEntity
  8
30526677_HL
100
AcDbSpline
 62
6
  6
HIDDEN
 70
0
 71
3
 72
24
 73
20
 74
0
 42
0.0000001
 43
0.0000001
 44
0.0000000001
 40
0.0
 40
0.0
 40
0.0
 40
0.0
 40
0.0347951711
 40
0.0523769547
 40
0.069637965
 40
0.1027911286
 40
0.1347663441
 40
0.1660827522
 40
0.1970362902
 40
0.2583885139
 40
0.3194790076
 40
0.3805357462
 40
0.4416666951
 40
0.5029295543
 40
0.5643574915
 40
0.6259707299
 40
0.749791147
 40
0.8744590128
 40
1.0
 40
1.0
 40
1.0
 40
1.0
 10
275.1060518567
 20
219.103807031
 30
0.0
 10
275.1265007105
 20
219.0931495452
 30
0.0
 10
275.1607238949
 20
219.0821185632
 30
0.0
 10
275.2072179047
 20
219.0837063205
 30
0.0
 10
275.2511267173
 20
219.0952282832
 30
0.0
 10
275.2988448285
 20
219.1236739716
 30
0.0
 10
275.3449140514
 20
219.1683764633
 30
0.0
 10
275.3830699617
 20
219.218022844
 30
0.0
 10
275.426226641
 20
219.2877678128
 30
0.0
 10
275.4700808346
 20
219.3797758256
 30
0.0
 10
275.5122789293
 20
219.4939250153
 30
0.0
 10
275.5469453442
 20
219.6104063161
 30
0.0
 10
275.5758219766
 20
219.7285420279
 30
0.0
 10
275.5999952021
 20
219.8479694747
 30
0.0
 10
275.6201981117
 20
219.9684491147
 30
0.0
 10
275.64255016
 20
220.1305332514
 30
0.0
 10
275.662756028
 20
220.3351333254
 30
0.0
 10
275.6764936955
 20
220.5826895222
 30
0.0
 10
275.6792477445
 20
220.7485322451
 30
0.0
 10
275.6790861149
 20
220.8317305424
 30
0.0
  0
SPLINE
  5
85C
100
AcDbEntity
  8
30526677_HL
100
AcDbSpline
 62
6
  6
HIDDEN
 70
0
 71
3
 72
30
 73
26
 74
0
 42
0.0000001
 43
0.0000001
 44
0.0000000001
 40
0.0
 40
0.0
 40
0.0
 40
0.0
 40
0.125579292
 40
0.2511562903
 40
0.3767264394
 40
0.4395069476
 40
0.5022818706
 40
0.5650483957
 40
0.6278020704
 40
0.6905354406
 40
0.753234285
 40
0.7845637788
 40
0.8158719576
 40
0.8471487785
 40
0.878375489
 40
0.8939608691
 40
0.9095175172
 40
0.9250328648
 40
0.9404852087
 40
0.9558352423
 40
0.9709951917
 40
0.9784606946
 40
0.9857996471
 40
0.9929783542
 40
1.0
 40
1.0
 40
1.0
 40
1.0
 10
267.7460069263
 20
222.2110436181
 30
0.0
 10
267.991590211
 20
222.1808285955
 30
0.0
 10
268.4825273025
 20
222.1185440295
 30
0.0
 10
269.2180314843
 20
222.0183758159
 30
0.0
 10
269.8299470347
 20
221.9279054437
 30
0.0
 10
270.3185906333
 20
221.8500312342
 30
0.0
 10
270.6845020384
 20
221.7883979605
 30
0.0
 10
271.0496945868
 20
221.7229256923
 30
0.0
 10
271.4139389109
 20
221.6527724178
 30
0.0
 10
271.7768665569
 20
221.5767215071
 30
0.0
 10
272.0777866118
 20
221.5068987271
 30
0.0
 10
272.3170224476
 20
221.4455867341
 30
0.0
 10
272.4953835535
 20
221.3962494926
 30
0.0
 10
272.6723099993
 20
221.3426679255
 30
0.0
 10
272.8180994523
 20
221.2933448739
 30
0.0
 10
272.9330792721
 20
221.2499369648
 30
0.0
 10
273.0181230367
 20
221.2149794997
 30
0.0
 10
273.1015797848
 20
221.1769963378
 30
0.0
 10
273.1827171248
 20
221.1350870419
 30
0.0
 10
273.2601016774
 20
221.0879001088
 30
0.0
 10
273.3196565742
 20
221.0420688666
 30
0.0
 10
273.3607812815
 20
220.9995307896
 30
0.0
 10
273.3863768323
 20
220.9643407297
 30
0.0
 10
273.4041953075
 20
220.9254040583
 30
0.0
 10
273.408419777
 20
220.8972150544
 30
0.0
 10
273.4082238756
 20
220.8833813484
 30
0.0
  0
SPLINE
  5
85D
100
AcDbEntity
  8
30526677_CL
100
AcDbSpline
 62
9
  6
CONTINUOUS
 70
0
 71
3
 72
9
 73
5
 74
0
 42
0.0000001
 43
0.0000001
 44
0.0000000001
 40
0.0
 40
0.0
 40
0.0
 40
0.0
 40
0.4923307953
 40
1.0
 40
1.0
 40
1.0
 40
1.0
 10
275.6790861149
 20
220.8317305424
 30
0.0
 10
275.5861859215
 20
220.849165018
 30
0.0
 10
275.3956012569
 20
220.8749413705
 30
0.0
 10
275.2035186508
 20
220.8833813484
 30
0.0
 10
275.1060518567
 20
220.8833813484
 30
0.0
  0
SPLINE
  5
85E
100
AcDbEntity
  8
30526677_HL
100
AcDbSpline
 62
6
  6
HIDDEN
 70
0
 71
3
 72
16
 73
12
 74
0
 42
0.0000001
 43
0.0000001
 44
0.0000000001
 40
0.0
 40
0.0
 40
0.0
 40
0.0
 40
0.1292139579
 40
0.2578257545
 40
0.3856378757
 40
0.5123612166
 40
0.637567479
 40
0.7606825975
 40
0.8812068938
 40
0.9407494673
 40
1.0
 40
1.0
 40
1.0
 40
1.0
 10
275.1060518567
 20
219.103807031
 30
0.0
 10
275.0078191663
 20
219.1550037149
 30
0.0
 10
274.8135808622
 20
219.2606187952
 30
0.0
 10
274.5301907419
 20
219.4311222678
 30
0.0
 10
274.2583786348
 20
219.6159237474
 30
0.0
 10
274.0028944804
 20
219.8182876309
 30
0.0
 10
273.7714304417
 20
220.0425314603
 30
0.0
 10
273.576652913
 20
220.2933443601
 30
0.0
 10
273.4618675616
 20
220.5300209217
 30
0.0
 10
273.4146234331
 20
220.7304415244
 30
0.0
 10
273.4075046351
 20
220.832591718
 30
0.0
 10
273.4082238756
 20
220.8833813484
 30
0.0
  0
SPLINE
  5
85F
100
AcDbEntity
  8
30526677_HL
100
AcDbSpline
 62
6
  6
HIDDEN
 70
0
 71
3
 72
16
 73
12
 74
0
 42
0.0000001
 43
0.0000001
 44
0.0000000001
 40
0.0
 40
0.0
 40
0.0
 40
0.0
 40
0.0592505342
 40
0.1187931041
 40
0.2393173862
 40
0.3624324959
 40
0.4876387629
 40
0.6143621167
 40
0.742174245
 40
0.8707860442
 40
1.0
 40
1.0
 40
1.0
 40
1.0
 10
273.4082238756
 20
241.7983666269
 30
0.0
 10
273.407504635
 20
241.8491562586
 30
0.0
 10
273.414623433
 20
241.9513064505
 30
0.0
 10
273.4618675585
 20
242.1517270393
 30
0.0
 10
273.5766528934
 20
242.3884035829
 30
0.0
 10
273.7714304089
 20
242.6392164727
 30
0.0
 10
274.0028944432
 20
242.8634603174
 30
0.0
 10
274.2583786164
 20
243.0658242115
 30
0.0
 10
274.5301907366
 20
243.2506257061
 30
0.0
 10
274.8135808644
 20
243.4211291792
 30
0.0
 10
275.0078191679
 20
243.5267442613
 30
0.0
 10
275.1060518567
 20
243.5779409444
 30
0.0
  0
SPLINE
  5
860
100
AcDbEntity
  8
30526677_CL
100
AcDbSpline
 62
9
  6
CONTINUOUS
 70
0
 71
3
 72
9
 73
5
 74
0
 42
0.0000001
 43
0.0000001
 44
0.0000000001
 40
0.0
 40
0.0
 40
0.0
 40
0.0
 40
0.5076692047
 40
1.0
 40
1.0
 40
1.0
 40
1.0
 10
275.1060518567
 20
241.7983666269
 30
0.0
 10
275.2035186508
 20
241.7983666269
 30
0.0
 10
275.3956012569
 20
241.8068066049
 30
0.0
 10
275.5861859215
 20
241.8325829574
 30
0.0
 10
275.6790861149
 20
241.8500174329
 30
0.0
  0
SPLINE
  5
861
100
AcDbEntity
  8
30526677_HL
100
AcDbSpline
 62
6
  6
HIDDEN
 70
0
 71
3
 72
12
 73
8
 74
0
 42
0.0000001
 43
0.0000001
 44
0.0000000001
 40
0.0
 40
0.0
 40
0.0
 40
0.0
 40
0.0819441258
 40
0.3114471751
 40
0.5409602461
 40
0.7704781778
 40
1.0
 40
1.0
 40
1.0
 40
1.0
 10
314.8921851973
 20
239.34087396
 30
0.0
 10
314.8832695041
 20
239.3673897395
 30
0.0
 10
314.850693366
 20
239.4686089519
 30
0.0
 10
314.8017822162
 20
239.6467969457
 30
0.0
 10
314.7508976251
 20
239.8763448536
 30
0.0
 10
314.7097569724
 20
240.1078303108
 30
0.0
 10
314.6882079579
 20
240.2630857092
 30
0.0
 10
314.6788250311
 20
240.3408739877
 30
0.0
  0
SPLINE
  5
862
100
AcDbEntity
  8
30526677_HL
100
AcDbSpline
 62
6
  6
HIDDEN
 70
0
 71
3
 72
12
 73
8
 74
0
 42
0.0000001
 43
0.0000001
 44
0.0000000001
 40
0.0
 40
0.0
 40
0.0
 40
0.0
 40
0.2295218208
 40
0.4590397526
 40
0.688552823
 40
0.9180558722
 40
1.0
 40
1.0
 40
1.0
 40
1.0
 10
314.6788250311
 20
222.3408739877
 30
0.0
 10
314.6882079578
 20
222.4186622656
 30
0.0
 10
314.7097569718
 20
222.5739176637
 30
0.0
 10
314.750897625
 20
222.8054031201
 30
0.0
 10
314.8017822158
 20
223.0349510279
 30
0.0
 10
314.8506933655
 20
223.2131390222
 30
0.0
 10
314.8832695038
 20
223.3143582352
 30
0.0
 10
314.8921851974
 20
223.3408740153
 30
0.0
  0
SPLINE
  5
863
100
AcDbEntity
  8
30526677_HL
100
AcDbSpline
 62
6
  6
HIDDEN
 70
0
 71
3
 72
12
 73
8
 74
0
 42
0.0000001
 43
0.0000001
 44
0.0000000001
 40
0.0
 40
0.0
 40
0.0
 40
0.0
 40
0.0819441218
 40
0.3114471739
 40
0.5409602453
 40
0.7704781779
 40
1.0
 40
1.0
 40
1.0
 40
1.0
 10
318.1199185163
 20
223.3408740154
 30
0.0
 10
318.1288342092
 20
223.3143582372
 30
0.0
 10
318.1614103476
 20
223.2131390254
 30
0.0
 10
318.2103214969
 20
223.0349510317
 30
0.0
 10
318.2612060876
 20
222.8054031223
 30
0.0
 10
318.3023467416
 20
222.5739176649
 30
0.0
 10
318.3238957556
 20
222.4186622661
 30
0.0
 10
318.3332786824
 20
222.3408739877
 30
0.0
  0
SPLINE
  5
864
100
AcDbEntity
  8
30526677_HL
100
AcDbSpline
 62
6
  6
HIDDEN
 70
0
 71
3
 72
12
 73
8
 74
0
 42
0.0000001
 43
0.0000001
 44
0.0000000001
 40
0.0
 40
0.0
 40
0.0
 40
0.0
 40
0.2295218236
 40
0.4590397561
 40
0.688552828
 40
0.9180558802
 40
1.0
 40
1.0
 40
1.0
 40
1.0
 10
318.3332786824
 20
240.3408739877
 30
0.0
 10
318.3238957555
 20
240.2630857087
 30
0.0
 10
318.302346741
 20
240.1078303095
 30
0.0
 10
318.2612060875
 20
239.8763448514
 30
0.0
 10
318.2103214964
 20
239.6467969419
 30
0.0
 10
318.161410347
 20
239.4686089487
 30
0.0
 10
318.128834209
 20
239.3673897375
 30
0.0
 10
318.1199185163
 20
239.34087396
 30
0.0
  0
SPLINE
  5
865
100
AcDbEntity
  8
30526677_HL
100
AcDbSpline
 62
6
  6
HIDDEN
 70
0
 71
3
 72
18
 73
14
 74
0
 42
0.0000001
 43
0.0000001
 44
0.0000000001
 40
0.0
 40
0.0
 40
0.0
 40
0.0
 40
0.1277743593
 40
0.2546726679
 40
0.3808702715
 40
0.5064772268
 40
0.6315008714
 40
0.693753849
 40
0.7557778792
 40
0.8174996181
 40
0.8788136755
 40
0.9396221625
 40
1.0
 40
1.0
 40
1.0
 40
1.0
 10
276.6060518567
 20
238.7508601596
 30
0.0
 10
276.6060518567
 20
238.889819893
 30
0.0
 10
276.5868118446
 20
239.1670530679
 30
0.0
 10
276.5088686255
 20
239.574647686
 30
0.0
 10
276.3911645353
 20
239.969926462
 30
0.0
 10
276.2429532124
 20
240.3523482412
 30
0.0
 10
276.1020773711
 20
240.6621887172
 30
0.0
 10
275.9856701031
 20
240.9070440798
 30
0.0
 10
275.8992218136
 20
241.0899256476
 30
0.0
 10
275.8171005292
 20
241.2737042432
 30
0.0
 10
275.7450446016
 20
241.4603873086
 30
0.0
 10
275.6923251867
 20
241.6522803896
 30
0.0
 10
275.6789585508
 20
241.7843542402
 30
0.0
 10
275.6790861149
 20
241.8500174329
 30
0.0
  0
SPLINE
  5
866
100
AcDbEntity
  8
30526677_HL
100
AcDbSpline
 62
6
  6
HIDDEN
 70
0
 71
3
 72
10
 73
6
 74
0
 42
0.0000001
 43
0.0000001
 44
0.0000000001
 40
0.0
 40
0.0
 40
0.0
 40
0.0
 40
0.6037416489
 40
0.8292758716
 40
1.0
 40
1.0
 40
1.0
 40
1.0
 10
333.8979803601
 20
220.4193644799
 30
0.0
 10
333.8999863967
 20
220.3979332885
 30
0.0
 10
333.9028432807
 20
220.3685023672
 30
0.0
 10
333.9054583326
 20
220.3329467934
 30
0.0
 10
333.9060518567
 20
220.3188229447
 30
0.0
 10
333.9060518567
 20
220.3127362101
 30
0.0
  0
LINE
  5
867
100
AcDbEntity
  8
30526677_HL
100
AcDbLine
 62
6
  6
HIDDEN
 10
301.3085278869
 20
199.8410053003
 11
301.3074118271
 21
199.8408739877
  0
LINE
  5
868
100
AcDbEntity
  8
30526677_HL
100
AcDbLine
 62
6
  6
HIDDEN
 10
385.6432809979
 20
247.3408739877
 11
385.6439456785
 21
247.3407730767
  0
SPLINE
  5
869
100
AcDbEntity
  8
30526677_HL
100
AcDbSpline
 62
6
  6
HIDDEN
 70
0
 71
3
 72
10
 73
6
 74
0
 42
0.0000001
 43
0.0000001
 44
0.0000000001
 40
0.0
 40
0.0
 40
0.0
 40
0.0
 40
0.3146911943
 40
0.6339012156
 40
1.0
 40
1.0
 40
1.0
 40
1.0
 10
385.6439456785
 20
247.3407730767
 30
0.0
 10
385.9348777747
 20
247.2966187806
 30
0.0
 10
386.5229417212
 20
247.2203578157
 30
0.0
 10
387.4551021899
 20
247.1427251957
 30
0.0
 10
388.0960100842
 20
247.1224570415
 30
0.0
 10
388.438341972
 20
247.1211983311
 30
0.0
  0
LINE
  5
86A
100
AcDbEntity
  8
30526677_HL
100
AcDbLine
 62
6
  6
HIDDEN
 10
299.9060518567
 20
262.8408739877
 11
299.9072964054
 21
262.8406860715
  0
LINE
  5
86B
100
AcDbEntity
  8
30526677_HL
100
AcDbLine
 62
6
  6
HIDDEN
 10
311.1047968473
 20
262.8406844925
 11
311.1060518567
 21
262.8408739877
  0
SPLINE
  5
86C
100
AcDbEntity
  8
30526677_HL
100
AcDbSpline
 62
6
  6
HIDDEN
 70
0
 71
3
 72
27
 73
23
 74
0
 42
0.0000001
 43
0.0000001
 44
0.0000000001
 40
0.0
 40
0.0
 40
0.0
 40
0.0
 40
0.000302959
 40
0.001211335
 40
0.0027243763
 40
0.0048411832
 40
0.0075599001
 40
0.0108782928
 40
0.019304059
 40
0.0300922272
 40
0.0432103482
 40
0.0586191804
 40
0.0762735287
 40
0.1181125927
 40
0.1682685716
 40
0.2262222569
 40
0.2914105202
 40
0.3632405791
 40
0.441101259
 40
0.6124253488
 40
0.8003867384
 40
1.0
 40
1.0
 40
1.0
 40
1.0
 10
309.7046918863
 20
199.8408739877
 30
0.0
 10
309.7043742892
 20
199.8409704688
 30
0.0
 10
309.7030268691
 20
199.8409851418
 30
0.0
 10
309.7000907259
 20
199.8414691435
 30
0.0
 10
309.695136327
 20
199.8419717306
 30
0.0
 10
309.6882351898
 20
199.8428161369
 30
0.0
 10
309.679359414
 20
199.8438416557
 30
0.0
 10
309.6636218466
 20
199.8456859721
 30
0.0
 10
309.6390993009
 20
199.8485332537
 30
0.0
 10
309.6039095455
 20
199.8525963329
 30
0.0
 10
309.5611137972
 20
199.8574894727
 30
0.0
 10
309.5108370038
 20
199.8631749301
 30
0.0
 10
309.4292787445
 20
199.8722767724
 30
0.0
 10
309.3098508367
 20
199.8852877424
 30
0.0
 10
309.1464583326
 20
199.9024142187
 30
0.0
 10
308.9575299383
 20
199.9212985708
 30
0.0
 10
308.7448585567
 20
199.9413736672
 30
0.0
 10
308.5103407617
 20
199.9620543088
 30
0.0
 10
308.1597862567
 20
199.9905790221
 30
0.0
 10
307.6819865503
 20
200.0240172785
 30
0.0
 10
307.0704888315
 20
200.0566911495
 30
0.0
 10
306.6460911119
 20
200.0717402244
 30
0.0
 10
306.4274652506
 20
200.077458915
 30
0.0
  0
LINE
  5
86D
100
AcDbEntity
  8
30526677_HL
100
AcDbLine
 62
6
  6
HIDDEN
 10
306.4274652506
 20
200.077458915
 11
306.3904871094
 21
200.0784067598
  0
LINE
  5
86E
100
AcDbEntity
  8
30526677_HL
100
AcDbLine
 62
6
  6
HIDDEN
 10
306.3904871094
 20
200.0784067598
 11
306.326511104
 21
200.0799550239
  0
LINE
  5
86F
100
AcDbEntity
  8
30526677_HL
100
AcDbLine
 62
6
  6
HIDDEN
 10
306.326511104
 20
200.0799550239
 11
306.3004539946
 21
200.0805523708
  0
LINE
  5
870
100
AcDbEntity
  8
30526677_HL
100
AcDbLine
 62
6
  6
HIDDEN
 10
306.2248890312
 20
200.0821758375
 11
306.1955309529
 21
200.0827629121
  0
LINE
  5
871
100
AcDbEntity
  8
30526677_HL
100
AcDbLine
 62
6
  6
HIDDEN
 10
306.0351312765
 20
200.0855383409
 11
306.020505201
 21
200.0857550717
  0
LINE
  5
872
100
AcDbEntity
  8
30526677_HL
100
AcDbLine
 62
6
  6
HIDDEN
 10
305.841586259
 20
200.0879149539
 11
305.8148585732
 21
200.0881595537
  0
LINE
  5
873
100
AcDbEntity
  8
30526677_HL
100
AcDbLine
 62
6
  6
HIDDEN
 10
305.8148585732
 20
200.0881595537
 11
305.7666824938
 21
200.0885491284
  0
SPLINE
  5
874
100
AcDbEntity
  8
30526677_CL
100
AcDbSpline
 62
7
  6
CONTINUOUS
 70
0
 71
3
 72
33
 73
29
 74
0
 42
0.0000001
 43
0.0000001
 44
0.0000000001
 40
0.0
 40
0.0
 40
0.0
 40
0.0
 40
0.0168148785
 40
0.035116325
 40
0.0553159043
 40
0.07763689
 40
0.1021758191
 40
0.1289505176
 40
0.157931986
 40
0.1890630884
 40
0.2222674833
 40
0.2574506237
 40
0.3331998604
 40
0.4148790638
 40
0.5000000006
 40
0.5851209374
 40
0.6668001408
 40
0.7425493774
 40
0.7777325177
 40
0.8109369125
 40
0.8420680147
 40
0.8710494827
 40
0.8978241809
 40
0.9223631101
 40
0.9446840957
 40
0.964883675
 40
0.9831851215
 40
1.0
 40
1.0
 40
1.0
 40
1.0
 10
336.6060518567
 20
254.4655361474
 30
0.0
 10
336.6060518567
 20
254.3956139174
 30
0.0
 10
336.5880380229
 20
254.249282123
 30
0.0
 10
336.5145810069
 20
254.0301048098
 30
0.0
 10
336.396386968
 20
253.8054862637
 30
0.0
 10
336.2351973759
 20
253.577160753
 30
0.0
 10
336.0324538988
 20
253.3470356102
 30
0.0
 10
335.7894223298
 20
253.117484838
 30
0.0
 10
335.5072785565
 20
252.8912173105
 30
0.0
 10
335.1871586278
 20
252.6713147254
 30
0.0
 10
334.8302245045
 20
252.4612268698
 30
0.0
 10
334.2938804559
 20
252.1928213059
 30
0.0
 10
333.5418814723
 20
251.9092813249
 30
0.0
 10
332.554633727
 20
251.6869009205
 30
0.0
 10
331.5060518494
 20
251.6080847679
 30
0.0
 10
330.4574699718
 20
251.6869009227
 30
0.0
 10
329.4702222276
 20
251.9092813289
 30
0.0
 10
328.7182232452
 20
252.1928213112
 30
0.0
 10
328.1818791979
 20
252.4612268759
 30
0.0
 10
327.8249450764
 20
252.6713147312
 30
0.0
 10
327.5048251505
 20
252.8912173155
 30
0.0
 10
327.2226813805
 20
253.1174848409
 30
0.0
 10
326.9796498136
 20
253.3470356113
 30
0.0
 10
326.7769063372
 20
253.5771607535
 30
0.0
 10
326.6157167451
 20
253.8054862643
 30
0.0
 10
326.4975227064
 20
254.0301048103
 30
0.0
 10
326.4240656905
 20
254.2492821232
 30
0.0
 10
326.4060518567
 20
254.3956139175
 30
0.0
 10
326.4060518567
 20
254.4655361474
 30
0.0
  0
SPLINE
  5
875
100
AcDbEntity
  8
30526677_CL
100
AcDbSpline
 62
7
  6
CONTINUOUS
 70
0
 71
3
 72
10
 73
6
 74
0
 42
0.0000001
 43
0.0000001
 44
0.0000000001
 40
0.0
 40
0.0
 40
0.0
 40
0.0
 40
0.3723242129
 40
0.6951831596
 40
1.0
 40
1.0
 40
1.0
 40
1.0
 10
305.5060518567
 20
200.0895140262
 30
0.0
 10
306.0283152167
 20
200.0895140262
 30
0.0
 10
307.0036045589
 20
200.0677758284
 30
0.0
 10
308.4037930647
 20
199.978675792
 30
0.0
 10
309.2800280938
 20
199.8908516107
 30
0.0
 10
309.7046918863
 20
199.8408739877
 30
0.0
  0
SPLINE
  5
876
100
AcDbEntity
  8
30526677_CL
100
AcDbSpline
 62
7
  6
CONTINUOUS
 70
0
 71
3
 72
11
 73
7
 74
0
 42
0.0000001
 43
0.0000001
 44
0.0000000001
 40
0.0
 40
0.0
 40
0.0
 40
0.0
 40
0.0827767765
 40
0.3088716103
 40
0.6309769147
 40
1.0
 40
1.0
 40
1.0
 40
1.0
 10
391.3688227156
 20
247.3408739877
 30
0.0
 10
391.2904306184
 20
247.3289759531
 30
0.0
 10
390.9976552128
 20
247.2862826024
 30
0.0
 10
390.3976868179
 20
247.2122587236
 30
0.0
 10
389.5217215571
 20
247.1401879699
 30
0.0
 10
388.8595344925
 20
247.1210737977
 30
0.0
 10
388.5060518567
 20
247.1210737977
 30
0.0
  0
SPLINE
  5
877
100
AcDbEntity
  8
30526677_CL
100
AcDbSpline
 62
7
  6
CONTINUOUS
 70
0
 71
3
 72
11
 73
7
 74
0
 42
0.0000001
 43
0.0000001
 44
0.0000000001
 40
0.0
 40
0.0
 40
0.0
 40
0.0
 40
0.3690230856
 40
0.6911283882
 40
0.917223222
 40
1.0
 40
1.0
 40
1.0
 40
1.0
 10
388.5060518567
 20
247.1210737977
 30
0.0
 10
388.1525692207
 20
247.1210737977
 30
0.0
 10
387.4903821575
 20
247.1401879699
 30
0.0
 10
386.6144168982
 20
247.2122587234
 30
0.0
 10
386.0144485035
 20
247.286282602
 30
0.0
 10
385.7216730964
 20
247.3289759529
 30
0.0
 10
385.6432809979
 20
247.3408739877
 30
0.0
  0
SPLINE
  5
878
100
AcDbEntity
  8
30526677_CL
100
AcDbSpline
 62
7
  6
CONTINUOUS
 70
0
 71
3
 72
29
 73
25
 74
0
 42
0.0000001
 43
0.0000001
 44
0.0000000001
 40
0.0
 40
0.0
 40
0.0
 40
0.0
 40
0.0003235857
 40
0.0012937167
 40
0.002909446
 40
0.0051691799
 40
0.0080702321
 40
0.0116097496
 40
0.0205882662
 40
0.0320673456
 40
0.0459998143
 40
0.062329886
 40
0.0809940196
 40
0.1019215697
 40
0.1250358013
 40
0.1774933821
 40
0.2376672895
 40
0.304814772
 40
0.3781685906
 40
0.4569504165
 40
0.5403788714
 40
0.6276737205
 40
0.810753016
 40
1.0
 40
1.0
 40
1.0
 40
1.0
 10
301.3074118271
 20
199.8408739877
 30
0.0
 10
301.3078447619
 20
199.8410104183
 30
0.0
 10
301.3096906585
 20
199.8410195169
 30
0.0
 10
301.3137021038
 20
199.8416917155
 30
0.0
 10
301.3204770469
 20
199.8423724638
 30
0.0
 10
301.3299079211
 20
199.8435279779
 30
0.0
 10
301.3420342308
 20
199.8449253713
 30
0.0
 10
301.3635167283
 20
199.8474373128
 30
0.0
 10
301.3969575425
 20
199.8513028866
 30
0.0
 10
301.4448852564
 20
199.8567987739
 30
0.0
 10
301.5030688479
 20
199.8633819777
 30
0.0
 10
301.5712804794
 20
199.8709831913
 30
0.0
 10
301.6492615203
 20
199.8795164544
 30
0.0
 10
301.7367240904
 20
199.8888888566
 30
0.0
 10
301.8713576382
 20
199.9029752026
 30
0.0
 10
302.060831311
 20
199.9219753103
 30
0.0
 10
302.3119240007
 20
199.9455193401
 30
0.0
 10
302.5923878029
 20
199.9697432319
 30
0.0
 10
302.899064116
 20
199.9937163893
 30
0.0
 10
303.2287261684
 20
200.0165452069
 30
0.0
 10
303.5781133851
 20
200.0374011489
 30
0.0
 10
304.0738222431
 20
200.0619859204
 30
0.0
 10
304.7182642216
 20
200.0836026547
 30
0.0
 10
305.240578111
 20
200.0895140262
 30
0.0
 10
305.5060518567
 20
200.0895140262
 30
0.0
  0
SPLINE
  5
879
100
AcDbEntity
  8
30526677_CL
100
AcDbSpline
 62
7
  6
CONTINUOUS
 70
0
 71
3
 72
15
 73
11
 74
0
 42
0.0000001
 43
0.0000001
 44
0.0000000001
 40
0.0
 40
0.0
 40
0.0
 40
0.0
 40
0.041365825
 40
0.1543852447
 40
0.3154477639
 40
0.5000000006
 40
0.6845522376
 40
0.8456147564
 40
0.9586341756
 40
1.0
 40
1.0
 40
1.0
 40
1.0
 10
311.1060518567
 20
262.8408739877
 30
0.0
 10
310.9527762319
 20
262.8177369399
 30
0.0
 10
310.3802119177
 20
262.734697915
 30
0.0
 10
309.2066990835
 20
262.5907009463
 30
0.0
 10
307.4930670397
 20
262.4504909012
 30
0.0
 10
305.5060518492
 20
262.3934484341
 30
0.0
 10
303.5190366598
 20
262.450490902
 30
0.0
 10
301.8054046183
 20
262.5907009476
 30
0.0
 10
300.6318917894
 20
262.7346979159
 30
0.0
 10
300.0593274794
 20
262.8177369402
 30
0.0
 10
299.9060518567
 20
262.8408739877
 30
0.0
  0
SPLINE
  5
87A
100
AcDbEntity
  8
30526677_CL
100
AcDbSpline
 62
7
  6
CONTINUOUS
 70
0
 71
3
 72
21
 73
17
 74
0
 42
0.0000001
 43
0.0000001
 44
0.0000000001
 40
0.0
 40
0.0
 40
0.0
 40
0.0
 40
0.0627077769
 40
0.1253563398
 40
0.1879365642
 40
0.2504438882
 40
0.3751261638
 40
0.4996348478
 40
0.5619590218
 40
0.6243185952
 40
0.6867386609
 40
0.7492377812
 40
0.8118243901
 40
0.8744941376
 40
0.9372289048
 40
1.0
 40
1.0
 40
1.0
 40
1.0
 10
289.5060518567
 20
235.5908739877
 30
0.0
 10
289.6566616665
 20
235.5973672054
 30
0.0
 10
289.9584989551
 20
235.5968107589
 30
0.0
 10
290.4089743605
 20
235.5554691738
 30
0.0
 10
290.8535326153
 20
235.4739921059
 30
0.0
 10
291.432651283
 20
235.3128467391
 30
0.0
 10
292.124710683
 20
235.0140503086
 30
0.0
 10
292.7488455828
 20
234.5912959419
 30
0.0
 10
293.190790053
 20
234.1856152035
 30
0.0
 10
293.4903227368
 20
233.8489628357
 30
0.0
 10
293.7534657127
 20
233.4826251124
 30
0.0
 10
293.9761318674
 20
233.0896660534
 30
0.0
 10
294.1543504764
 20
232.6739512561
 30
0.0
 10
294.284570884
 20
232.2401391076
 30
0.0
 10
294.3639463206
 20
231.7937918505
 30
0.0
 10
294.3817270638
 20
231.4917759205
 30
0.0
 10
294.3817270638
 20
231.3408739877
 30
0.0
  0
SPLINE
  5
87B
100
AcDbEntity
  8
30526677_CL
100
AcDbSpline
 62
7
  6
CONTINUOUS
 70
0
 71
3
 72
17
 73
13
 74
0
 42
0.0000001
 43
0.0000001
 44
0.0000000001
 40
0.0
 40
0.0
 40
0.0
 40
0.0
 40
0.0625813936
 40
0.1251532142
 40
0.1877097955
 40
0.2502477272
 40
0.3751147815
 40
0.499978322
 40
0.62490213
 40
0.7499142492
 40
0.8749785934
 40
1.0
 40
1.0
 40
1.0
 40
1.0
 10
285.0956128336
 20
231.3408739877
 30
0.0
 10
285.0956128336
 20
231.4817534184
 30
0.0
 10
285.1109042837
 20
231.7637298894
 30
0.0
 10
285.1792872752
 20
232.1815005957
 30
0.0
 10
285.2919425495
 20
232.5895379221
 30
0.0
 10
285.4982931685
 20
233.1139628373
 30
0.0
 10
285.8566209493
 20
233.7249147113
 30
0.0
 10
286.4219449643
 20
234.3577201311
 30
0.0
 10
287.0960947147
 20
234.8730613535
 30
0.0
 10
287.852094531
 20
235.2586592497
 30
0.0
 10
288.6632904372
 20
235.5070924161
 30
0.0
 10
289.224872458
 20
235.5787515433
 30
0.0
 10
289.5060518567
 20
235.5908739877
 30
0.0
  0
SPLINE
  5
87C
100
AcDbEntity
  8
30526677_CL
100
AcDbSpline
 62
7
  6
CONTINUOUS
 70
0
 71
3
 72
21
 73
17
 74
0
 42
0.0000001
 43
0.0000001
 44
0.0000000001
 40
0.0
 40
0.0
 40
0.0
 40
0.0
 40
0.0330067575
 40
0.0657562907
 40
0.0980626303
 40
0.1299558088
 40
0.1928597318
 40
0.2551804623
 40
0.3172066481
 40
0.3790827839
 40
0.4408890241
 40
0.50267701
 40
0.6263002037
 40
0.7502428478
 40
0.8747324689
 40
1.0
 40
1.0
 40
1.0
 40
1.0
 10
271.1060518567
 20
240.9701701499
 30
0.0
 10
271.1398188693
 20
240.9765200832
 30
0.0
 10
271.2088660128
 20
240.9815528881
 30
0.0
 10
271.3103141085
 20
240.9639986905
 30
0.0
 10
271.4046640707
 20
240.9267082142
 30
0.0
 10
271.5193409555
 20
240.8600542926
 30
0.0
 10
271.6467599944
 20
240.756212695
 30
0.0
 10
271.7824354673
 20
240.6159716434
 30
0.0
 10
271.9055595425
 20
240.4660070782
 30
0.0
 10
272.018417686
 20
240.3089227062
 30
0.0
 10
272.1220646661
 20
240.1459136776
 30
0.0
 10
272.2483835681
 20
239.9215943004
 30
0.0
 10
272.3840808345
 20
239.6288280018
 30
0.0
 10
272.5077522571
 20
239.2609229446
 30
0.0
 10
272.5870585243
 20
238.8791077208
 30
0.0
 10
272.6060518567
 20
238.6188079402
 30
0.0
 10
272.6060518567
 20
238.4884088137
 30
0.0
  0
SPLINE
  5
87D
100
AcDbEntity
  8
30526677_CL
100
AcDbSpline
 62
7
  6
CONTINUOUS
 70
0
 71
3
 72
10
 73
6
 74
0
 42
0.0000001
 43
0.0000001
 44
0.0000000001
 40
0.0
 40
0.0
 40
0.0
 40
0.0
 40
0.5000462137
 40
0.7500495009
 40
1.0
 40
1.0
 40
1.0
 40
1.0
 10
267.7460069263
 20
240.4707043572
 30
0.0
 10
268.3080601852
 20
240.5398558548
 30
0.0
 10
269.150325111
 20
240.6505849072
 30
0.0
 10
270.2698617225
 20
240.8215250019
 30
0.0
 10
270.8278645314
 20
240.9178566393
 30
0.0
 10
271.1060518567
 20
240.9701701499
 30
0.0
  0
SPLINE
  5
87E
100
AcDbEntity
  8
30526677_CL
100
AcDbSpline
 62
7
  6
CONTINUOUS
 70
0
 71
3
 72
15
 73
11
 74
0
 42
0.0000001
 43
0.0000001
 44
0.0000000001
 40
0.0
 40
0.0
 40
0.0
 40
0.0
 40
0.1207469582
 40
0.1838852067
 40
0.2474510189
 40
0.3748243165
 40
0.5018689611
 40
0.6281723898
 40
0.7534412333
 40
1.0
 40
1.0
 40
1.0
 40
1.0
 10
266.8528407956
 20
221.2253320145
 30
0.0
 10
266.8529879086
 20
221.2869692039
 30
0.0
 10
266.8381027041
 20
221.3805550758
 30
0.0
 10
266.8100314686
 20
221.5035555393
 30
0.0
 10
266.7787073073
 20
221.6294593956
 30
0.0
 10
266.7387798937
 20
221.7867732409
 30
0.0
 10
266.6949601908
 20
221.9761433465
 30
0.0
 10
266.6577448748
 20
222.1658600954
 30
0.0
 10
266.6196913004
 20
222.4173026516
 30
0.0
 10
266.6060518567
 20
222.6072552925
 30
0.0
 10
266.6060518567
 20
222.7331154626
 30
0.0
  0
SPLINE
  5
87F
100
AcDbEntity
  8
30526677_CL
100
AcDbSpline
 62
7
  6
CONTINUOUS
 70
0
 71
3
 72
8
 73
4
 74
0
 42
0.0000001
 43
0.0000001
 44
0.0000000001
 40
0.0
 40
0.0
 40
0.0
 40
0.0
 40
1.0
 40
1.0
 40
1.0
 40
1.0
 10
267.6060518567
 20
240.4336532583
 30
0.0
 10
267.6507858698
 20
240.4517579481
 30
0.0
 10
267.6981092857
 20
240.4648113328
 30
0.0
 10
267.7460069263
 20
240.4707043572
 30
0.0
  0
SPLINE
  5
880
100
AcDbEntity
  8
30526677_CL
100
AcDbSpline
 62
7
  6
CONTINUOUS
 70
0
 71
3
 72
16
 73
12
 74
0
 42
0.0000001
 43
0.0000001
 44
0.0000000001
 40
0.0
 40
0.0
 40
0.0
 40
0.0
 40
0.0640762648
 40
0.1252314861
 40
0.1849256615
 40
0.2442309358
 40
0.3636640305
 40
0.485454454
 40
0.6100242674
 40
0.7373897431
 40
1.0
 40
1.0
 40
1.0
 40
1.0
 10
267.0770879488
 20
241.558222038
 30
0.0
 10
267.0770055466
 20
241.5314877157
 30
0.0
 10
267.0812970625
 20
241.4791096889
 30
0.0
 10
267.0997170132
 20
241.4039678473
 30
0.0
 10
267.1251634525
 20
241.3331565881
 30
0.0
 10
267.1646433169
 20
241.2418060507
 30
0.0
 10
267.2207060938
 20
241.1295793566
 30
0.0
 10
267.2927466194
 20
240.9950348845
 30
0.0
 10
267.3681328194
 20
240.8585352431
 30
0.0
 10
267.4729269662
 20
240.6711674803
 30
0.0
 10
267.5526313483
 20
240.5293167662
 30
0.0
 10
267.6060518567
 20
240.4336532583
 30
0.0
  0
SPLINE
  5
881
100
AcDbEntity
  8
30526677_CL
100
AcDbSpline
 62
7
  6
CONTINUOUS
 70
0
 71
3
 72
38
 73
34
 74
0
 42
0.0000001
 43
0.0000001
 44
0.0000000001
 40
0.0
 40
0.0
 40
0.0
 40
0.0
 40
0.0637063713
 40
0.1279294436
 40
0.1927002367
 40
0.2580903654
 40
0.3242363809
 40
0.391402824
 40
0.4255318933
 40
0.4601827739
 40
0.4777641148
 40
0.4955210415
 40
0.5132152833
 40
0.5216162519
 40
0.528950577
 40
0.5350100538
 40
0.5406218006
 40
0.5463452555
 40
0.5522931411
 40
0.5647716986
 40
0.5778408994
 40
0.591321619
 40
0.6051069779
 40
0.6191293819
 40
0.6333437294
 40
0.6622283601
 40
0.6915952993
 40
0.7213448243
 40
0.7514127403
 40
0.8123383134
 40
0.8741508018
 40
0.9367271998
 40
1.0
 40
1.0
 40
1.0
 40
1.0
 10
266.8528407956
 20
241.4564159609
 30
0.0
 10
266.8527633908
 20
241.4888468785
 30
0.0
 10
266.8531885457
 20
241.5539745537
 30
0.0
 10
266.8555816244
 20
241.6520485823
 30
0.0
 10
266.8598871837
 20
241.7509164088
 30
0.0
 10
266.8664151616
 20
241.8506475953
 30
0.0
 10
266.8757701969
 20
241.951379495
 30
0.0
 10
266.8867970706
 20
242.0359437125
 30
0.0
 10
266.8989879575
 20
242.1040815752
 30
0.0
 10
266.9087757631
 20
242.1469728873
 30
0.0
 10
266.9188998521
 20
242.1811615778
 30
0.0
 10
266.9282927825
 20
242.2064680567
 30
0.0
 10
266.93843578
 20
242.2265611976
 30
0.0
 10
266.9492501156
 20
242.2397933961
 30
0.0
 10
266.9585937864
 20
242.2463521952
 30
0.0
 10
266.9686892108
 20
242.2473988017
 30
0.0
 10
266.9770449307
 20
242.2437766897
 30
0.0
 10
266.9838008338
 20
242.2380514546
 30
0.0
 10
266.9916861998
 20
242.2285668808
 30
0.0
 10
266.999790768
 20
242.2146395348
 30
0.0
 10
267.0078565029
 20
242.1964679156
 30
0.0
 10
267.0148530252
 20
242.1771482748
 30
0.0
 10
267.0210425669
 20
242.1570562083
 30
0.0
 10
267.026591341
 20
242.1363921021
 30
0.0
 10
267.0333208624
 20
242.1080996899
 30
0.0
 10
267.0405918901
 20
242.0719216757
 30
0.0
 10
267.0479344518
 20
242.0277229479
 30
0.0
 10
267.0541819285
 20
241.9827491053
 30
0.0
 10
267.0612984218
 20
241.9216920215
 30
0.0
 10
267.0681225191
 20
241.8441865661
 30
0.0
 10
267.07359087
 20
241.7499960146
 30
0.0
 10
267.0766549991
 20
241.6545027553
 30
0.0
 10
267.0771872288
 20
241.5904321769
 30
0.0
 10
267.0770879488
 20
241.558222038
 30
0.0
  0
SPLINE
  5
882
100
AcDbEntity
  8
30526677_CL
100
AcDbSpline
 62
7
  6
CONTINUOUS
 70
0
 71
3
 72
15
 73
11
 74
0
 42
0.0000001
 43
0.0000001
 44
0.0000000001
 40
0.0
 40
0.0
 40
0.0
 40
0.0
 40
0.2465571426
 40
0.3718259247
 40
0.4981295715
 40
0.625174376
 40
0.7525478494
 40
0.8161137602
 40
0.879252205
 40
1.0
 40
1.0
 40
1.0
 40
1.0
 10
266.6060518567
 20
239.9486325128
 30
0.0
 10
266.6060518567
 20
240.0744918529
 30
0.0
 10
266.6196912353
 20
240.2644436189
 30
0.0
 10
266.6577443759
 20
240.515885484
 30
0.0
 10
266.6949597769
 20
240.7056023799
 30
0.0
 10
266.7387793123
 20
240.8949728124
 30
0.0
 10
266.7787068937
 20
241.0522868439
 30
0.0
 10
266.8100310202
 20
241.1781909564
 30
0.0
 10
266.8381024247
 20
241.3011919668
 30
0.0
 10
266.8529879097
 20
241.3947783447
 30
0.0
 10
266.8528407956
 20
241.4564159609
 30
0.0
  0
SPLINE
  5
883
100
AcDbEntity
  8
30526677_CL
100
AcDbSpline
 62
7
  6
CONTINUOUS
 70
0
 71
3
 72
10
 73
6
 74
0
 42
0.0000001
 43
0.0000001
 44
0.0000000001
 40
0.0
 40
0.0
 40
0.0
 40
0.0
 40
0.5000462137
 40
0.7500495009
 40
1.0
 40
1.0
 40
1.0
 40
1.0
 10
267.7460069263
 20
222.2110436181
 30
0.0
 10
268.3080601852
 20
222.1418921205
 30
0.0
 10
269.150325111
 20
222.0311630682
 30
0.0
 10
270.2698617225
 20
221.8602229734
 30
0.0
 10
270.8278645314
 20
221.763891336
 30
0.0
 10
271.1060518567
 20
221.7115778254
 30
0.0
  0
SPLINE
  5
884
100
AcDbEntity
  8
30526677_CL
100
AcDbSpline
 62
7
  6
CONTINUOUS
 70
0
 71
3
 72
21
 73
17
 74
0
 42
0.0000001
 43
0.0000001
 44
0.0000000001
 40
0.0
 40
0.0
 40
0.0
 40
0.0
 40
0.1252671988
 40
0.2497565696
 40
0.3736990043
 40
0.4973221205
 40
0.5591100865
 40
0.6209163254
 40
0.6827924755
 40
0.7448186659
 40
0.8071393717
 40
0.8700432964
 40
0.9019365023
 40
0.9342424059
 40
0.9669916806
 40
1.0
 40
1.0
 40
1.0
 40
1.0
 10
272.6060518567
 20
224.1933391617
 30
0.0
 10
272.6060518567
 20
224.0629403824
 30
0.0
 10
272.5870586034
 20
223.8026412122
 30
0.0
 10
272.5077526709
 20
223.4208267768
 30
0.0
 10
272.3840817794
 20
223.0529221314
 30
0.0
 10
272.248384689
 20
222.7601561053
 30
0.0
 10
272.1220659936
 20
222.5358367321
 30
0.0
 10
272.0184191603
 20
222.372827632
 30
0.0
 10
271.9055614507
 20
222.2157429113
 30
0.0
 10
271.7824370938
 20
222.0657785993
 30
0.0
 10
271.6467619674
 20
221.9255372156
 30
0.0
 10
271.5193429779
 20
221.8216956692
 30
0.0
 10
271.4046670105
 20
221.7550409641
 30
0.0
 10
271.3103177796
 20
221.7177506522
 30
0.0
 10
271.208869095
 20
221.7001947272
 30
0.0
 10
271.1398204668
 20
221.7052275917
 30
0.0
 10
271.1060518567
 20
221.7115778254
 30
0.0
  0
SPLINE
  5
885
100
AcDbEntity
  8
30526677_CL
100
AcDbSpline
 62
7
  6
CONTINUOUS
 70
0
 71
3
 72
17
 73
13
 74
0
 42
0.0000001
 43
0.0000001
 44
0.0000000001
 40
0.0
 40
0.0
 40
0.0
 40
0.0
 40
0.1250214063
 40
0.2500857508
 40
0.375097869
 40
0.5000216769
 40
0.6248852166
 40
0.7497522712
 40
0.8122902028
 40
0.874846784
 40
0.9374186048
 40
1.0
 40
1.0
 40
1.0
 40
1.0
 10
289.5060518567
 20
227.0908739877
 30
0.0
 10
289.2248724586
 20
227.102996432
 30
0.0
 10
288.6632904377
 20
227.1746555589
 30
0.0
 10
287.8520945335
 20
227.4230887248
 30
0.0
 10
287.0960947188
 20
227.8086866197
 30
0.0
 10
286.4219449708
 20
228.3240278382
 30
0.0
 10
285.8566209557
 20
228.9568332558
 30
0.0
 10
285.4982931737
 20
229.5677851275
 30
0.0
 10
285.2919425531
 20
230.0922100424
 30
0.0
 10
285.1792872776
 20
230.5002473685
 30
0.0
 10
285.1109042847
 20
230.9180180784
 30
0.0
 10
285.0956128336
 20
231.1999945534
 30
0.0
 10
285.0956128336
 20
231.3408739877
 30
0.0
  0
SPLINE
  5
886
100
AcDbEntity
  8
30526677_CL
100
AcDbSpline
 62
7
  6
CONTINUOUS
 70
0
 71
3
 72
21
 73
17
 74
0
 42
0.0000001
 43
0.0000001
 44
0.0000000001
 40
0.0
 40
0.0
 40
0.0
 40
0.0
 40
0.0627710938
 40
0.1255058605
 40
0.188175608
 40
0.2507622175
 40
0.3132613376
 40
0.3756814035
 40
0.4380409772
 40
0.5003651512
 40
0.6248738353
 40
0.7495561122
 40
0.8120634359
 40
0.8746436607
 40
0.9372922237
 40
1.0
 40
1.0
 40
1.0
 40
1.0
 10
294.3817270638
 20
231.3408739877
 30
0.0
 10
294.3817270638
 20
231.1899720583
 30
0.0
 10
294.3639463216
 20
230.8879561327
 30
0.0
 10
294.2845708864
 20
230.4416088799
 30
0.0
 10
294.1543504807
 20
230.0077967308
 30
0.0
 10
293.9761318726
 20
229.5920819319
 30
0.0
 10
293.7534657179
 20
229.1991228715
 30
0.0
 10
293.4903227428
 20
228.8327851467
 30
0.0
 10
293.1907900588
 20
228.4961327776
 30
0.0
 10
292.7488455885
 20
228.0904520379
 30
0.0
 10
292.1247106866
 20
227.6676976682
 30
0.0
 10
291.4326512842
 20
227.3689012365
 30
0.0
 10
290.8535326131
 20
227.2077558689
 30
0.0
 10
290.4089743576
 20
227.1262788012
 30
0.0
 10
289.9584989525
 20
227.0849372163
 30
0.0
 10
289.656661665
 20
227.08438077
 30
0.0
 10
289.5060518567
 20
227.0908739877
 30
0.0
  0
SPLINE
  5
887
100
AcDbEntity
  8
30526677_CL
100
AcDbSpline
 62
7
  6
CONTINUOUS
 70
0
 71
3
 72
37
 73
33
 74
0
 42
0.0000001
 43
0.0000001
 44
0.0000000001
 40
0.0
 40
0.0
 40
0.0
 40
0.0
 40
0.0168453141
 40
0.0336748441
 40
0.0514001716
 40
0.0708458231
 40
0.0814267495
 40
0.0926534018
 40
0.1171950267
 40
0.1446902458
 40
0.1751811447
 40
0.2085808447
 40
0.2447008361
 40
0.2832730735
 40
0.3239680526
 40
0.4101832823
 40
0.5000000004
 40
0.5898167183
 40
0.6760319483
 40
0.7167269274
 40
0.7552991648
 40
0.791419156
 40
0.824818856
 40
0.8553097548
 40
0.8828049739
 40
0.9073465987
 40
0.918573251
 40
0.9291541773
 40
0.9485998287
 40
0.9663251561
 40
0.983154686
 40
1.0
 40
1.0
 40
1.0
 40
1.0
 10
326.4060518567
 20
254.4655361474
 30
0.0
 10
326.4060518567
 20
254.5292177242
 30
0.0
 10
326.4204623146
 20
254.6571565516
 30
0.0
 10
326.4901262692
 20
254.840643515
 30
0.0
 10
326.607263624
 20
255.0099881663
 30
0.0
 10
326.7393818793
 20
255.1346314459
 30
0.0
 10
326.8651598728
 20
255.2270067712
 30
0.0
 10
327.0138984228
 20
255.31991766
 30
0.0
 10
327.2290896048
 20
255.4256661125
 30
0.0
 10
327.5219221918
 20
255.5343761366
 30
0.0
 10
327.8545143462
 20
255.6288765401
 30
0.0
 10
328.2240392338
 20
255.7096973962
 30
0.0
 10
328.6271313696
 20
255.7775063108
 30
0.0
 10
329.0598753347
 20
255.8330678643
 30
0.0
 10
329.6826686065
 20
255.8929632104
 30
0.0
 10
330.5010008024
 20
255.938973868
 30
0.0
 10
331.5060518606
 20
255.9565745124
 30
0.0
 10
332.5111029197
 20
255.9389738677
 30
0.0
 10
333.3294351161
 20
255.8929632098
 30
0.0
 10
333.9522283887
 20
255.8330678632
 30
0.0
 10
334.3849723534
 20
255.7775063095
 30
0.0
 10
334.7880644883
 20
255.7096973945
 30
0.0
 10
335.1575893751
 20
255.6288765382
 30
0.0
 10
335.4901815285
 20
255.5343761344
 30
0.0
 10
335.7830141146
 20
255.4256661099
 30
0.0
 10
335.9982052959
 20
255.3199176572
 30
0.0
 10
336.1469438452
 20
255.2270067682
 30
0.0
 10
336.2727218379
 20
255.1346314425
 30
0.0
 10
336.4048400921
 20
255.0099881634
 30
0.0
 10
336.5219774453
 20
254.8406435128
 30
0.0
 10
336.5916413989
 20
254.6571565507
 30
0.0
 10
336.6060518567
 20
254.529217724
 30
0.0
 10
336.6060518567
 20
254.4655361474
 30
0.0
  0
SPLINE
  5
888
100
AcDbEntity
  8
30526677_CL
100
AcDbSpline
 62
7
  6
CONTINUOUS
 70
0
 71
3
 72
38
 73
34
 74
0
 42
0.0000001
 43
0.0000001
 44
0.0000000001
 40
0.0
 40
0.0
 40
0.0
 40
0.0
 40
0.0632727286
 40
0.1258490493
 40
0.1876614653
 40
0.2485869593
 40
0.2786548415
 40
0.3084043393
 40
0.3377712477
 40
0.3666558537
 40
0.3808701979
 40
0.3948925913
 40
0.4086779179
 40
0.4221587079
 40
0.4352278276
 40
0.4477063716
 40
0.4536542216
 40
0.4593778903
 40
0.4649900401
 40
0.4710492047
 40
0.4783852273
 40
0.486786291
 40
0.5044802993
 40
0.5222371861
 40
0.5398186099
 40
0.5744695016
 40
0.6085982558
 40
0.6757642669
 40
0.7419101009
 40
0.8073001068
 40
0.8720707876
 40
0.9362937478
 40
1.0
 40
1.0
 40
1.0
 40
1.0
 10
267.0770879488
 20
221.1235259373
 30
0.0
 10
267.0771872287
 20
221.0913158334
 30
0.0
 10
267.0766550027
 20
221.0272453279
 30
0.0
 10
267.0735908752
 20
220.9317521772
 30
0.0
 10
267.0681225548
 20
220.8375617364
 30
0.0
 10
267.0612984552
 20
220.7600563724
 30
0.0
 10
267.0541819826
 20
220.6989993555
 30
0.0
 10
267.0479345464
 20
220.6540255525
 30
0.0
 10
267.0405920003
 20
220.6098268628
 30
0.0
 10
267.0333209943
 20
220.5736488726
 30
0.0
 10
267.0265915124
 20
220.5453564718
 30
0.0
 10
267.0210428003
 20
220.5246923678
 30
0.0
 10
267.0148530838
 20
220.5046003487
 30
0.0
 10
267.007856958
 20
220.4852805754
 30
0.0
 10
266.9997908397
 20
220.4671091453
 30
0.0
 10
266.9916864961
 20
220.4531817423
 30
0.0
 10
266.9838009156
 20
220.4436972207
 30
0.0
 10
266.9770450271
 20
220.4379716308
 30
0.0
 10
266.9686894922
 20
220.4343485539
 30
0.0
 10
266.9585928983
 20
220.4353953715
 30
0.0
 10
266.9492497121
 20
220.4419562982
 30
0.0
 10
266.9384339602
 20
220.4551880657
 30
0.0
 10
266.928292298
 20
220.47528213
 30
0.0
 10
266.9188992502
 20
220.5005882922
 30
0.0
 10
266.9087750152
 20
220.5347770314
 30
0.0
 10
266.8989877001
 20
220.5776683203
 30
0.0
 10
266.886796781
 20
220.6458057999
 30
0.0
 10
266.8757701288
 20
220.7303695758
 30
0.0
 10
266.8664150969
 20
220.8311011013
 30
0.0
 10
266.8598871581
 20
220.9308320832
 30
0.0
 10
266.8555816082
 20
221.0296997373
 30
0.0
 10
266.8531885473
 20
221.1277735958
 30
0.0
 10
266.852763391
 20
221.192901156
 30
0.0
 10
266.8528407956
 20
221.2253320145
 30
0.0
  0
SPLINE
  5
889
100
AcDbEntity
  8
30526677_CL
100
AcDbSpline
 62
7
  6
CONTINUOUS
 70
0
 71
3
 72
16
 73
12
 74
0
 42
0.0000001
 43
0.0000001
 44
0.0000000001
 40
0.0
 40
0.0
 40
0.0
 40
0.0
 40
0.2626124719
 40
0.3899788842
 40
0.5145498291
 40
0.636341096
 40
0.7557749642
 40
0.8150803778
 40
0.8747733232
 40
0.9359251566
 40
1.0
 40
1.0
 40
1.0
 40
1.0
 10
267.6060518567
 20
222.2480947171
 30
0.0
 10
267.5526308862
 20
222.1524303816
 30
0.0
 10
267.4729259258
 20
222.0105784464
 30
0.0
 10
267.3681305292
 20
221.8232092752
 30
0.0
 10
267.2927449329
 20
221.6867078848
 30
0.0
 10
267.22070254
 20
221.5521630631
 30
0.0
 10
267.1646390819
 20
221.4399359034
 30
0.0
 10
267.1251589072
 20
221.348585515
 30
0.0
 10
267.0997165462
 20
221.2777748409
 30
0.0
 10
267.081295411
 20
221.2026358976
 30
0.0
 10
267.0770055484
 20
221.1502596724
 30
0.0
 10
267.0770879488
 20
221.1235259373
 30
0.0
  0
SPLINE
  5
88A
100
AcDbEntity
  8
30526677_CL
100
AcDbSpline
 62
7
  6
CONTINUOUS
 70
0
 71
3
 72
8
 73
4
 74
0
 42
0.0000001
 43
0.0000001
 44
0.0000000001
 40
0.0
 40
0.0
 40
0.0
 40
0.0
 40
1.0
 40
1.0
 40
1.0
 40
1.0
 10
267.7460069263
 20
222.2110436181
 30
0.0
 10
267.6981092857
 20
222.2169366426
 30
0.0
 10
267.6507858698
 20
222.2299900272
 30
0.0
 10
267.6060518567
 20
222.2480947171
 30
0.0
  0
SPLINE
  5
88B
100
AcDbEntity
  8
30526677_CL
100
AcDbSpline
 62
7
  6
CONTINUOUS
 70
0
 71
3
 72
17
 73
13
 74
0
 42
0.0000001
 43
0.0000001
 44
0.0000000001
 40
0.0
 40
0.0
 40
0.0
 40
0.0
 40
0.1250508644
 40
0.2500996897
 40
0.3751446807
 40
0.5001810315
 40
0.6251944193
 40
0.7501379882
 40
0.8126520564
 40
0.8751439365
 40
0.9375936643
 40
1.0
 40
1.0
 40
1.0
 40
1.0
 10
314.8921852795
 20
239.3408739877
 30
0.0
 10
314.9035569247
 20
239.3070546261
 30
0.0
 10
314.9274180454
 20
239.2397842539
 30
0.0
 10
314.967142012
 20
239.1403552862
 30
0.0
 10
315.0116275427
 20
239.0429499645
 30
0.0
 10
315.0621032878
 20
238.9484630991
 30
0.0
 10
315.1204306731
 20
238.858599574
 30
0.0
 10
315.1782301673
 20
238.7901066275
 30
0.0
 10
315.2322851068
 20
238.7433310511
 30
0.0
 10
315.2774781913
 20
238.7142727142
 30
0.0
 10
315.3274664579
 20
238.6942325606
 30
0.0
 10
315.3632458299
 20
238.689343216
 30
0.0
 10
315.3810518567
 20
238.689343216
 30
0.0
  0
SPLINE
  5
88C
100
AcDbEntity
  8
30526677_CL
100
AcDbSpline
 62
7
  6
CONTINUOUS
 70
0
 71
3
 72
17
 73
13
 74
0
 42
0.0000001
 43
0.0000001
 44
0.0000000001
 40
0.0
 40
0.0
 40
0.0
 40
0.0
 40
0.0624062854
 40
0.1248559801
 40
0.187347834
 40
0.2498618695
 40
0.3748054156
 40
0.4998188314
 40
0.6248552065
 40
0.7499002383
 40
0.8749491011
 40
1.0
 40
1.0
 40
1.0
 40
1.0
 10
315.3810518567
 20
223.9924047593
 30
0.0
 10
315.3632458442
 20
223.9924047593
 30
0.0
 10
315.3274664954
 20
223.9875154275
 30
0.0
 10
315.2774782553
 20
223.9674752909
 30
0.0
 10
315.2322851885
 20
223.9384169763
 30
0.0
 10
315.1782302511
 20
223.8916414339
 30
0.0
 10
315.1204307409
 20
223.8231485086
 30
0.0
 10
315.0621033655
 20
223.7332849678
 30
0.0
 10
315.0116275666
 20
223.6387981014
 30
0.0
 10
314.9671420407
 20
223.5413927445
 30
0.0
 10
314.9274180563
 20
223.4419637499
 30
0.0
 10
314.9035569279
 20
223.3746933586
 30
0.0
 10
314.8921852795
 20
223.3408739877
 30
0.0
  0
SPLINE
  5
88D
100
AcDbEntity
  8
30526677_CL
100
AcDbSpline
 62
7
  6
CONTINUOUS
 70
0
 71
3
 72
17
 73
13
 74
0
 42
0.0000001
 43
0.0000001
 44
0.0000000001
 40
0.0
 40
0.0
 40
0.0
 40
0.0
 40
0.1250509093
 40
0.2500997825
 40
0.3751448249
 40
0.5001812055
 40
0.6251946291
 40
0.7501381638
 40
0.8126521836
 40
0.8751440342
 40
0.9375937337
 40
1.0
 40
1.0
 40
1.0
 40
1.0
 10
318.1199184339
 20
223.3408739877
 30
0.0
 10
318.1085467847
 20
223.3746933614
 30
0.0
 10
318.0846856538
 20
223.4419637581
 30
0.0
 10
318.0449616644
 20
223.5413927602
 30
0.0
 10
318.0004761406
 20
223.6387981266
 30
0.0
 10
317.9500003265
 20
223.7332849925
 30
0.0
 10
317.8916729554
 20
223.8231485365
 30
0.0
 10
317.8338734428
 20
223.891641453
 30
0.0
 10
317.7798185094
 20
223.9384169864
 30
0.0
 10
317.7346254451
 20
223.9674752974
 30
0.0
 10
317.6846372083
 20
223.9875154288
 30
0.0
 10
317.6488578638
 20
223.9924047593
 30
0.0
 10
317.6310518567
 20
223.9924047593
 30
0.0
  0
SPLINE
  5
88E
100
AcDbEntity
  8
30526677_CL
100
AcDbSpline
 62
7
  6
CONTINUOUS
 70
0
 71
3
 72
17
 73
13
 74
0
 42
0.0000001
 43
0.0000001
 44
0.0000000001
 40
0.0
 40
0.0
 40
0.0
 40
0.0
 40
0.0624063166
 40
0.1248560489
 40
0.1873479255
 40
0.2498619781
 40
0.3748055357
 40
0.4998189312
 40
0.6248552878
 40
0.7499002895
 40
0.8749491252
 40
1.0
 40
1.0
 40
1.0
 40
1.0
 10
317.6310518567
 20
238.689343216
 30
0.0
 10
317.6488578781
 20
238.689343216
 30
0.0
 10
317.6846372457
 20
238.6942325593
 30
0.0
 10
317.7346255089
 20
238.7142727076
 30
0.0
 10
317.7798185908
 20
238.7433310409
 30
0.0
 10
317.8338735264
 20
238.7901066082
 30
0.0
 10
317.8916730229
 20
238.8585995461
 30
0.0
 10
317.9500004042
 20
238.9484630743
 30
0.0
 10
318.0004761644
 20
239.0429499393
 30
0.0
 10
318.0449616931
 20
239.1403552705
 30
0.0
 10
318.0846856647
 20
239.2397842457
 30
0.0
 10
318.1085467878
 20
239.3070546233
 30
0.0
 10
318.1199184339
 20
239.3408739877
 30
0.0
  0
INSERT
  5
88F
100
AcDbEntity
  8
0
100
AcDbBlockReference
  2
HATCHING_BL0
 10
103.756540974
 20
250.8528705886
  0
INSERT
  5
890
100
AcDbEntity
  8
0
100
AcDbBlockReference
  2
HATCHING_BL1
 10
0.0
 20
0.0
  0
INSERT
  5
891
100
AcDbEntity
  8
0
100
AcDbBlockReference
  2
HATCHING_BL2
 10
341.1457750482
 20
211.3408739877
  0
ENDSEC
  0
SECTION
  2
OBJECTS
  0
DICTIONARY
  5
C
100
AcDbDictionary
280
0
281
1
  3
ACAD_GROUP
350
D
  3
ACAD_MLINESTYLE
350
17
  3
ACAD_LAYOUT
350
1A
  3
ACAD_PLOTSETTINGS
350
19
  3
ACAD_PLOTSTYLENAME
350
E
  0
DICTIONARY
  5
D
102
{ACAD_REACTORS
330
C
102
}
100
AcDbDictionary
280
0
281
1
  0
ACDBDICTIONARYWDFLT
  5
E
102
{ACAD_REACTORS
330
C
102
}
100
AcDbDictionary
281
1
  3
Normal
350
F
100
AcDbDictionaryWithDefault
340
F
  0
DICTIONARY
  5
17
102
{ACAD_REACTORS
330
C
102
}
100
AcDbDictionary
280
0
281
1
  3
Standard
350
18
  0
DICTIONARY
  5
19
102
{ACAD_REACTORS
330
C
102
}
100
AcDbDictionary
281
1
  0
DICTIONARY
  5
1A
102
{ACAD_REACTORS
330
C
102
}
100
AcDbDictionary
281
1
  3
Model
350
892
  3
Layout1
350
893
  0
ACDBPLACEHOLDER
  5
F
102
{ACAD_REACTORS
330
E
102
}
  0
MLINESTYLE
  5
18
102
{ACAD_REACTORS
330
17
102
}
100
AcDbMlineStyle
  2
STANDARD
 70
0
  3

 62
256
 51
90.0
 52
90.0
 71
2
 49
0.5
 62
256
  6
BYLAYER
 49
-0.5
 62
256
  6
BYLAYER
  0
LAYOUT
  5
892
102
{ACAD_REACTORS
330
1A
102
}
100
AcDbPlotSettings
  1

  2
none_device
  4
ISO_A2_(594.00_x_420.00_MM)
  6

 40
0.0
 41
0.0
 42
0.0
 43
0.0
 44
594.0
 45
420.0
 46
0.0
 47
0.0
 48
0.0
 49
0.0
140
0.0
141
0.0
142
1.0
143
1.0
 70
1024
 72
1
 73
0
 74
0
  7

 75
0
147
1.0
148
0.0
149
0.0
100
AcDbLayout
  1
Model
 70
0
 71
0
 10
0.0
 20
0.0
 11
594.0
 21
420.0
 12
0.0
 22
0.0
 32
0.0
 14
0.0
 24
0.0
 34
0.0
 15
0.0
 25
0.0
 35
0.0
146
0.0
 13
0.0
 23
0.0
 33
0.0
 16
1.0
 26
0.0
 36
0.0
 17
0.0
 27
1.0
 37
0.0
 76
0
330
22D
345
0
346
0
  0
LAYOUT
  5
893
102
{ACAD_REACTORS
330
1A
102
}
100
AcDbPlotSettings
  1

  2
none_device
  4
ISO_A2_(594.00_x_420.00_MM)
  6

 40
0.0
 41
0.0
 42
0.0
 43
0.0
 44
594.0
 45
420.0
 46
0.0
 47
0.0
 48
0.0
 49
0.0
140
0.0
141
0.0
142
1.0
143
1.0
 70
0
 72
1
 73
0
 74
0
  7

 75
0
147
1.0
148
0.0
149
0.0
100
AcDbLayout
  1
Layout1
 70
0
 71
1
 10
0.0
 20
0.0
 11
594.0
 21
420.0
 12
0.0
 22
0.0
 32
0.0
 14
0.0
 24
0.0
 34
0.0
 15
0.0
 25
0.0
 35
0.0
146
0.0
 13
0.0
 23
0.0
 33
0.0
 16
1.0
 26
0.0
 36
0.0
 17
0.0
 27
1.0
 37
0.0
 76
0
330
22E
345
0
346
0
  0
ENDSEC
  0
EOF
