999
DXF file: 606368120-000-00-ed1.dxf
999
Pro/ENGINEER 2011220 by Parametric Technology Corporation
  0
SECTION
  2
HEADER
  9
$ACADVER
  1
AC1015
  9
$DWGCODEPAGE
  3
ANSI_1252
  9
$EXTMAX
 10
420.0
 20
297.0
 30
0.0
  9
$EXTMIN
 10
0.0
 20
0.0
 30
0.0
  9
$LIMMIN
 10
0.0
 20
0.0
  9
$LIMMAX
 10
420.0
 20
297.0
  9
$VIEWCTR
 10
210.0
 20
148.5
  9
$VIEWSIZE
 40
297.0
  9
$CLAYER
  8
0
  9
$LTSCALE
 40
23.1
  9
$CELTYPE
  6
BYLAYER
  9
$DIMSCALE
 40
1.0
  9
$DIMASZ
 40
3.5
  9
$DIMEXO
 40
2.625
  9
$DIMDLI
 40
15.96
  9
$DIMEXE
 40
7.56
  9
$DIMCEN
 40
3.78
  9
$DIMLFAC
 40
1.0
  9
$DIMBLK
  1
_FILLED
  9
$DIMTXT
 40
3.5
  9
$DIMTOL
 70
1
  9
$DIMLIM
 70
0
  9
$DIMTFAC
 40
1.0
  9
$DIMTP
 40
0.005
  9
$DIMTM
 40
0.005
  9
$PDMODE
 70
3
  9
$PDSIZE
 40
0.3125
  9
$HANDSEED
  5
7A8
  9
$TILEMODE
 70
1
  9
$MEASUREMENT
 70
1
  9
$INSUNITS
 70
4
  0
ENDSEC
  0
SECTION
  2
CLASSES
  0
CLASS
  1
ACDBDICTIONARYWDFLT
  2
AcDbDictionaryWithDefault
  3
AutoCAD 2000
 90
0
280
0
281
0
  0
CLASS
  1
ACDBPLACEHOLDER
  2
AcDbPlaceHolder
  3
AutoCAD 2000
 90
0
280
0
281
0
  0
CLASS
  1
LAYOUT
  2
AcDbLayout
  3
AutoCAD 2000
 90
0
280
0
281
0
  0
ENDSEC
  0
SECTION
  2
TABLES
  0
TABLE
  2
VPORT
  5
8
100
AcDbSymbolTable
 70
2
  0
VPORT
  5
1F4
100
AcDbSymbolTableRecord
100
AcDbViewportTableRecord
  2
*ACTIVE
 70
0
 10
0.0
 20
0.0
 11
1.0
 21
1.0
 12
210.0
 22
148.5
 13
0.0
 23
0.0
 14
1.0
 24
1.0
 15
0.0
 25
0.0
 16
0.0
 26
0.0
 36
1.0
 17
0.0
 27
0.0
 37
0.0
 40
297.0
 41
1.4141414141
 42
50.0
 43
0.0
 44
0.0
 50
0.0
 51
0.0
 71
0
 72
100
 73
1
 74
1
 75
0
 76
0
 77
0
 78
0
  0
ENDTAB
  0
TABLE
  2
LTYPE
  5
5
100
AcDbSymbolTable
 70
6
  0
LTYPE
  5
14
100
AcDbSymbolTableRecord
100
AcDbLinetypeTableRecord
  2
BYBLOCK
 70
0
  3

 72
65
 73
0
 40
0.0
  0
LTYPE
  5
15
100
AcDbSymbolTableRecord
100
AcDbLinetypeTableRecord
  2
BYLAYER
 70
0
  3

 72
65
 73
0
 40
0.0
  0
LTYPE
  5
16
100
AcDbSymbolTableRecord
100
AcDbLinetypeTableRecord
  2
CONTINUOUS
 70
64
  3
Solid line
 72
65
 73
0
 40
0.0
  0
LTYPE
  5
1F5
100
AcDbSymbolTableRecord
100
AcDbLinetypeTableRecord
  2
CENTER
 70
64
  3
____ _ ____ _ ____ _ ____ _ ____ _ ____ _ ____
 72
65
 73
4
 40
0.6
 49
0.375
 74
0
 49
-0.075
 74
0
 49
0.075
 74
0
 49
-0.075
 74
0
  0
LTYPE
  5
1F6
100
AcDbSymbolTableRecord
100
AcDbLinetypeTableRecord
  2
HIDDEN
 70
64
  3
- - - - - - - - - - - - - - - - - - - -
 72
65
 73
2
 40
0.2
 49
0.1
 74
0
 49
-0.1
 74
0
  0
LTYPE
  5
1F7
100
AcDbSymbolTableRecord
100
AcDbLinetypeTableRecord
  2
PHANTOM
 70
64
  3
_____ _ _ _____ _ _ _____ _ _ _____
 72
65
 73
6
 40
0.8
 49
0.45
 74
0
 49
-0.05
 74
0
 49
0.1
 74
0
 49
-0.05
 74
0
 49
0.1
 74
0
 49
-0.05
 74
0
  0
LTYPE
  5
1F8
100
AcDbSymbolTableRecord
100
AcDbLinetypeTableRecord
  2
DOT
 70
64
  3
. . . . . . . . . . . . . . . . . . . .
 72
65
 73
2
 40
0.2
 49
0.1
 74
0
 49
-0.1
 74
0
  0
LTYPE
  5
1F9
100
AcDbSymbolTableRecord
100
AcDbLinetypeTableRecord
  2
DASHED
 70
64
  3
- - - - - - - - - - - - - - - - - - - -
 72
65
 73
2
 40
0.2
 49
0.1
 74
0
 49
-0.1
 74
0
  0
ENDTAB
  0
TABLE
  2
LAYER
  5
2
100
AcDbSymbolTable
 70
36
  0
LAYER
  5
10
100
AcDbSymbolTableRecord
100
AcDbLayerTableRecord
  2
0
 70
0
 62
7
  6
CONTINUOUS
370
-3
390
F
  0
LAYER
  5
1FA
100
AcDbSymbolTableRecord
100
AcDbLayerTableRecord
  2
DEFAULT_1
 70
0
 62
7
  6
CENTER
370
-3
390
F
  0
LAYER
  5
1FB
100
AcDbSymbolTableRecord
100
AcDbLayerTableRecord
  2
DEFAULT_2
 70
0
 62
6
  6
HIDDEN
370
-3
390
F
  0
LAYER
  5
1FC
100
AcDbSymbolTableRecord
100
AcDbLayerTableRecord
  2
DEFAULT_3
 70
0
 62
7
  6
PHANTOM
370
-3
390
F
  0
LAYER
  5
1FD
100
AcDbSymbolTableRecord
100
AcDbLayerTableRecord
  2
COLLECTION01
 70
0
 62
7
  6
CONTINUOUS
370
-3
390
F
  0
LAYER
  5
1FE
100
AcDbSymbolTableRecord
100
AcDbLayerTableRecord
  2
COLLECTION02
 70
0
 62
7
  6
CONTINUOUS
370
-3
390
F
  0
LAYER
  5
1FF
100
AcDbSymbolTableRecord
100
AcDbLayerTableRecord
  2
COLLECTION03
 70
0
 62
7
  6
CONTINUOUS
370
-3
390
F
  0
LAYER
  5
200
100
AcDbSymbolTableRecord
100
AcDbLayerTableRecord
  2
COLLECTION12
 70
0
 62
7
  6
CONTINUOUS
370
-3
390
F
  0
LAYER
  5
201
100
AcDbSymbolTableRecord
100
AcDbLayerTableRecord
  2
COLLECTION04
 70
0
 62
7
  6
CONTINUOUS
370
-3
390
F
  0
LAYER
  5
202
100
AcDbSymbolTableRecord
100
AcDbLayerTableRecord
  2
COLLECTION06
 70
0
 62
7
  6
CONTINUOUS
370
-3
390
F
  0
LAYER
  5
203
100
AcDbSymbolTableRecord
100
AcDbLayerTableRecord
  2
COLLECTION07
 70
0
 62
7
  6
CONTINUOUS
370
-3
390
F
  0
LAYER
  5
204
100
AcDbSymbolTableRecord
100
AcDbLayerTableRecord
  2
COLLECTION09
 70
0
 62
7
  6
CONTINUOUS
370
-3
390
F
  0
LAYER
  5
205
100
AcDbSymbolTableRecord
100
AcDbLayerTableRecord
  2
COLLECTION10
 70
0
 62
7
  6
CONTINUOUS
370
-3
390
F
  0
LAYER
  5
206
100
AcDbSymbolTableRecord
100
AcDbLayerTableRecord
  2
COLLECTION13
 70
0
 62
7
  6
CONTINUOUS
370
-3
390
F
  0
LAYER
  5
207
100
AcDbSymbolTableRecord
100
AcDbLayerTableRecord
  2
COLLECTION15
 70
0
 62
7
  6
CONTINUOUS
370
-3
390
F
  0
LAYER
  5
208
100
AcDbSymbolTableRecord
100
AcDbLayerTableRecord
  2
COLLECTION16
 70
0
 62
7
  6
CONTINUOUS
370
-3
390
F
  0
LAYER
  5
209
100
AcDbSymbolTableRecord
100
AcDbLayerTableRecord
  2
606368120-000-00-ED1_FORMAT
 70
0
 62
7
  6
CONTINUOUS
370
-3
390
F
  0
LAYER
  5
20A
100
AcDbSymbolTableRecord
100
AcDbLayerTableRecord
  2
30329458_DIM
 70
0
 62
7
  6
CONTINUOUS
370
-3
390
F
  0
LAYER
  5
20B
100
AcDbSymbolTableRecord
100
AcDbLayerTableRecord
  2
30338729_DIM
 70
0
 62
7
  6
CONTINUOUS
370
-3
390
F
  0
LAYER
  5
20C
100
AcDbSymbolTableRecord
100
AcDbLayerTableRecord
  2
606368120-000-00-ED1_CL
 70
0
 62
7
  6
CONTINUOUS
370
-3
390
F
  0
LAYER
  5
20D
100
AcDbSymbolTableRecord
100
AcDbLayerTableRecord
  2
606368120-000-00-ED1_TEXT
 70
0
 62
7
  6
CONTINUOUS
370
-3
390
F
  0
LAYER
  5
20E
100
AcDbSymbolTableRecord
100
AcDbLayerTableRecord
  2
30338729_CL
 70
0
 62
7
  6
CONTINUOUS
370
-3
390
F
  0
LAYER
  5
20F
100
AcDbSymbolTableRecord
100
AcDbLayerTableRecord
  2
30338729_HL
 70
0
 62
7
  6
CONTINUOUS
370
-3
390
F
  0
LAYER
  5
210
100
AcDbSymbolTableRecord
100
AcDbLayerTableRecord
  2
30252542_HP_HL
 70
0
 62
7
  6
CONTINUOUS
370
-3
390
F
  0
LAYER
  5
211
100
AcDbSymbolTableRecord
100
AcDbLayerTableRecord
  2
30338729_AXIS
 70
0
 62
7
  6
CONTINUOUS
370
-3
390
F
  0
LAYER
  5
212
100
AcDbSymbolTableRecord
100
AcDbLayerTableRecord
  2
30252542_HP_AXIS
 70
0
 62
7
  6
CONTINUOUS
370
-3
390
F
  0
LAYER
  5
213
100
AcDbSymbolTableRecord
100
AcDbLayerTableRecord
  2
30252542_HP_CL
 70
0
 62
7
  6
CONTINUOUS
370
-3
390
F
  0
ENDTAB
  0
TABLE
  2
STYLE
  5
3
100
AcDbSymbolTable
 70
1
  0
STYLE
  5
11
100
AcDbSymbolTableRecord
100
AcDbTextStyleTableRecord
  2
STANDARD
 70
0
 40
0.0
 41
0.7
 50
0.0
 71
0
 42
0.2
  3
TXT.SHX
  4

  0
STYLE
  5
214
100
AcDbSymbolTableRecord
100
AcDbTextStyleTableRecord
  2
TEXTSTYLE_1
 70
0
 40
0.0
 41
0.8
 50
0.0
 71
0
 42
0.2
  3
gdt
  4

  0
STYLE
  5
215
100
AcDbSymbolTableRecord
100
AcDbTextStyleTableRecord
  2
TEXTSTYLE_2
 70
0
 40
0.0
 41
0.675
 50
0.0
 71
0
 42
0.2
  3
TXT.SHX
  4

  0
STYLE
  5
216
100
AcDbSymbolTableRecord
100
AcDbTextStyleTableRecord
  2
TEXTSTYLE_3
 70
0
 40
0.0
 41
0.7
 50
0.0
 71
0
 42
0.2
  3
gdt
  4

  0
ENDTAB
  0
TABLE
  2
VIEW
  5
6
100
AcDbSymbolTable
 70
0
  0
ENDTAB
  0
TABLE
  2
UCS
  5
7
100
AcDbSymbolTable
 70
0
  0
ENDTAB
  0
TABLE
  2
APPID
  5
9
100
AcDbSymbolTable
 70
1
  0
APPID
  5
217
100
AcDbSymbolTableRecord
100
AcDbRegAppTableRecord
  2
ACAD
 70
0
  0
ENDTAB
  0
TABLE
  2
BLOCK_RECORD
  5
1
100
AcDbSymbolTable
 70
0
  0
BLOCK_RECORD
  5
218
100
AcDbSymbolTableRecord
100
AcDbBlockTableRecord
  2
*Model_Space
  0
BLOCK_RECORD
  5
219
100
AcDbSymbolTableRecord
100
AcDbBlockTableRecord
  2
*Paper_Space
  0
BLOCK_RECORD
  5
21A
100
AcDbSymbolTableRecord
100
AcDbBlockTableRecord
  2
_FILLED
  0
BLOCK_RECORD
  5
21B
100
AcDbSymbolTableRecord
100
AcDbBlockTableRecord
  2
_DOT
  0
BLOCK_RECORD
  5
21C
100
AcDbSymbolTableRecord
100
AcDbBlockTableRecord
  2
*D0
  0
BLOCK_RECORD
  5
21D
100
AcDbSymbolTableRecord
100
AcDbBlockTableRecord
  2
*D1
  0
BLOCK_RECORD
  5
21E
100
AcDbSymbolTableRecord
100
AcDbBlockTableRecord
  2
*D2
  0
BLOCK_RECORD
  5
21F
100
AcDbSymbolTableRecord
100
AcDbBlockTableRecord
  2
*D3
  0
BLOCK_RECORD
  5
220
100
AcDbSymbolTableRecord
100
AcDbBlockTableRecord
  2
*D4
  0
BLOCK_RECORD
  5
221
100
AcDbSymbolTableRecord
100
AcDbBlockTableRecord
  2
*D5
  0
BLOCK_RECORD
  5
222
100
AcDbSymbolTableRecord
100
AcDbBlockTableRecord
  2
*D6
  0
BLOCK_RECORD
  5
223
100
AcDbSymbolTableRecord
100
AcDbBlockTableRecord
  2
*D7
  0
BLOCK_RECORD
  5
224
100
AcDbSymbolTableRecord
100
AcDbBlockTableRecord
  2
*D8
  0
BLOCK_RECORD
  5
225
100
AcDbSymbolTableRecord
100
AcDbBlockTableRecord
  2
*D9
  0
BLOCK_RECORD
  5
226
100
AcDbSymbolTableRecord
100
AcDbBlockTableRecord
  2
*D10
  0
BLOCK_RECORD
  5
227
100
AcDbSymbolTableRecord
100
AcDbBlockTableRecord
  2
*D11
  0
BLOCK_RECORD
  5
228
100
AcDbSymbolTableRecord
100
AcDbBlockTableRecord
  2
BOMBALLOON_BL3
  0
BLOCK_RECORD
  5
229
100
AcDbSymbolTableRecord
100
AcDbBlockTableRecord
  2
GEOM_TOLERANCE_SYMBOLS_BL2
  0
BLOCK_RECORD
  5
22A
100
AcDbSymbolTableRecord
100
AcDbBlockTableRecord
  2
GEOM_TOLERANCE_SYMBOLS_BL1
  0
BLOCK_RECORD
  5
22B
100
AcDbSymbolTableRecord
100
AcDbBlockTableRecord
  2
BARCODEBOX_BL0
  0
ENDTAB
  0
TABLE
  2
DIMSTYLE
  5
A
100
AcDbSymbolTable
 70
1
100
AcDbDimStyleTable
 71
0
  0
DIMSTYLE
105
22C
100
AcDbSymbolTableRecord
100
AcDbDimStyleTableRecord
  2
STANDARD
 70
0
  3

  4

 40
1.0
 41
3.5
 42
0.0625
 43
0.38
 44
0.18
 45
0.0
 46
0.0
 47
0.005
 48
0.005
140
3.5
141
0.09
142
0.0
143
25.4
144
1.0
145
0.0
146
1.0
147
0.09
 71
1.0
 72
0.0
 73
0
 74
0
 75
0
 76
0
 77
1
 78
8
170
0
171
2
172
0
173
0
174
0
175
0
176
0
177
0
178
2
270
2
271
3
272
3
273
2
274
2
275
0
280
0
281
0
282
0
283
1
284
8
285
0
286
0
287
3
288
0
340
11
341
21A
342
21A
343
21A
344
21A
  0
DIMSTYLE
105
22D
100
AcDbSymbolTableRecord
100
AcDbDimStyleTableRecord
  2
DIMSTYLE_1
 70
0
  3

  4

 40
1.0
 41
3.5
 42
0.0625
 43
0.38
 44
0.18
 45
0.0
 46
0.0
 47
0.1
 48
0.1
140
3.5
141
0.09
142
0.0
143
25.4
144
1.0
145
0.0
146
1.0
147
0.09
 71
0.0
 72
0.0
 73
0
 74
0
 75
0
 76
0
 77
1
 78
8
170
0
171
2
172
0
173
0
174
0
175
0
176
0
177
0
178
2
270
2
271
3
272
3
273
2
274
2
275
0
280
0
281
0
282
0
283
1
284
8
285
0
286
0
287
3
288
0
340
11
341
21A
342
21A
343
21A
344
21A
  0
DIMSTYLE
105
22E
100
AcDbSymbolTableRecord
100
AcDbDimStyleTableRecord
  2
DIMSTYLE_2
 70
0
  3

  4

 40
1.0
 41
3.5
 42
0.0625
 43
0.38
 44
0.18
 45
0.0
 46
0.0
 47
0.25
 48
0.25
140
3.5
141
0.09
142
0.0
143
25.4
144
1.0
145
0.0
146
1.0
147
0.09
 71
1.0
 72
0.0
 73
0
 74
0
 75
0
 76
0
 77
1
 78
8
170
0
171
2
172
0
173
0
174
0
175
0
176
0
177
0
178
2
270
2
271
3
272
3
273
2
274
2
275
0
280
0
281
0
282
0
283
1
284
8
285
0
286
0
287
3
288
0
340
11
341
21A
342
21A
343
21A
344
21A
  0
DIMSTYLE
105
22F
100
AcDbSymbolTableRecord
100
AcDbDimStyleTableRecord
  2
DIMSTYLE_3
 70
0
  3

  4

 40
1.0
 41
3.5
 42
0.0625
 43
0.38
 44
0.18
 45
0.0
 46
0.0
 47
0.05
 48
0.05
140
3.5
141
0.09
142
0.0
143
25.4
144
1.0
145
0.0
146
1.0
147
0.09
 71
0.0
 72
0.0
 73
0
 74
0
 75
0
 76
0
 77
1
 78
8
170
0
171
2
172
0
173
0
174
0
175
0
176
0
177
0
178
2
270
2
271
3
272
3
273
2
274
2
275
0
280
0
281
0
282
0
283
1
284
8
285
0
286
0
287
3
288
0
340
11
341
21A
342
21A
343
21A
344
21A
  0
DIMSTYLE
105
230
100
AcDbSymbolTableRecord
100
AcDbDimStyleTableRecord
  2
DIMSTYLE_4
 70
0
  3

  4

 40
1.0
 41
3.5
 42
0.0625
 43
0.38
 44
0.18
 45
0.0
 46
0.0
 47
0.05
 48
0.05
140
3.5
141
0.09
142
0.0
143
25.4
144
1.0
145
0.0
146
1.0
147
0.09
 71
0.0
 72
0.0
 73
0
 74
0
 75
0
 76
0
 77
1
 78
8
170
0
171
2
172
0
173
0
174
0
175
0
176
0
177
0
178
2
270
2
271
3
272
3
273
2
274
2
275
0
280
0
281
0
282
0
283
1
284
8
285
0
286
0
287
3
288
0
340
11
341
21A
342
21A
343
21A
344
21A
  0
DIMSTYLE
105
231
100
AcDbSymbolTableRecord
100
AcDbDimStyleTableRecord
  2
DIMSTYLE_5
 70
0
  3

  4

 40
1.0
 41
3.5
 42
0.0625
 43
0.38
 44
0.18
 45
0.0
 46
0.0
 47
0.15
 48
0.15
140
3.5
141
0.09
142
0.0
143
25.4
144
1.0
145
0.0
146
1.0
147
0.09
 71
0.0
 72
0.0
 73
0
 74
0
 75
0
 76
0
 77
1
 78
8
170
0
171
2
172
0
173
0
174
0
175
0
176
0
177
0
178
2
270
2
271
3
272
3
273
2
274
2
275
0
280
0
281
0
282
0
283
1
284
8
285
0
286
0
287
3
288
0
340
11
341
21A
342
21A
343
21A
344
21A
  0
DIMSTYLE
105
232
100
AcDbSymbolTableRecord
100
AcDbDimStyleTableRecord
  2
DIMSTYLE_6
 70
0
  3

  4

 40
1.0
 41
3.5
 42
0.0625
 43
0.38
 44
0.18
 45
0.0
 46
0.0
 47
0.15
 48
0.15
140
3.5
141
0.09
142
0.0
143
25.4
144
1.0
145
0.0
146
1.0
147
0.09
 71
0.0
 72
0.0
 73
0
 74
0
 75
0
 76
0
 77
1
 78
8
170
0
171
2
172
0
173
0
174
0
175
0
176
0
177
0
178
2
270
2
271
2
272
2
273
2
274
2
275
0
280
0
281
0
282
0
283
1
284
8
285
0
286
0
287
3
288
0
340
11
341
21A
342
21A
343
21A
344
21A
  0
ENDTAB
  0
ENDSEC
  0
SECTION
  2
BLOCKS
  0
BLOCK
  5
20
100
AcDbEntity
  8
0
100
AcDbBlockBegin
  2
*Model_Space
 70
0
 10
0.0
 20
0.0
 30
0.0
  3
*Model_Space
  1

  0
ENDBLK
  5
21
100
AcDbEntity
  8
0
100
AcDbBlockEnd
  0
BLOCK
  5
1C
100
AcDbEntity
  8
0
100
AcDbBlockBegin
  2
*Paper_Space
 70
0
 10
0.0
 20
0.0
 30
0.0
  3
*Paper_Space
  1

  0
ENDBLK
  5
1D
100
AcDbEntity
  8
0
100
AcDbBlockEnd
  0
BLOCK
  5
233
100
AcDbEntity
  8
606368120-000-00-ED1_CL
100
AcDbBlockBegin
 62
3
  6
CONTINUOUS
  2
BOMBALLOON_BL3
 70
64
 10
219.1492723896
 20
193.0083603448
  3
BOMBALLOON_BL3
  1

  0
CIRCLE
  5
234
100
AcDbEntity
  8
606368120-000-00-ED1_CL
100
AcDbCircle
 62
3
  6
CONTINUOUS
 10
219.1492723896
 20
193.0083603448
 40
6.125
  0
LINE
  5
235
100
AcDbEntity
  8
606368120-000-00-ED1_CL
100
AcDbLine
 62
3
  6
CONTINUOUS
 10
213.0242723896
 20
193.0083603448
 11
225.2742723896
 21
193.0083603448
  0
TEXT
  5
236
100
AcDbEntity
  8
606368120-000-00-ED1_CL
100
AcDbText
 62
2
  6
CONTINUOUS
 10
218.0444546812
 20
193.9471624282
  7
STANDARD
 40
3.5
  1
1
 41
0.5714285714
 72
0
100
AcDbText
  0
TEXT
  5
237
100
AcDbEntity
  8
606368120-000-00-ED1_CL
100
AcDbText
 62
2
  6
CONTINUOUS
 10
218.1447150979
 20
188.8338811782
  7
STANDARD
 40
3.5
  1
1
 41
0.5714285714
 72
0
100
AcDbText
  0
ENDBLK
  5
238
100
AcDbEntity
  8
0
  6
BYBLOCK
 62
0
100
AcDbBlockEnd
  0
BLOCK
  5
239
100
AcDbEntity
  8
606368120-000-00-ED1_CL
100
AcDbBlockBegin
 62
3
  6
CONTINUOUS
  2
GEOM_TOLERANCE_SYMBOLS_BL2
 70
64
 10
140.4106146175
 20
175.9082369504
  3
GEOM_TOLERANCE_SYMBOLS_BL2
  1

  0
LINE
  5
23A
100
AcDbEntity
  8
606368120-000-00-ED1_CL
100
AcDbLine
 62
3
  6
CONTINUOUS
 10
143.1964471589
 20
169.796414774
 11
140.2278487826
 21
169.3634902073
  0
LINE
  5
23B
100
AcDbEntity
  8
606368120-000-00-ED1_CL
100
AcDbLine
 62
3
  6
CONTINUOUS
 10
136.4421711841
 20
181.4436312776
 11
143.3689007288
 21
182.4537885998
  0
LINE
  5
23C
100
AcDbEntity
  8
606368120-000-00-ED1_CL
100
AcDbLine
 62
3
  6
CONTINUOUS
 10
143.3689007288
 20
182.4537885998
 11
144.379058051
 21
175.5270590552
  0
LINE
  5
23D
100
AcDbEntity
  8
606368120-000-00-ED1_CL
100
AcDbLine
 62
3
  6
CONTINUOUS
 10
144.379058051
 20
175.5270590552
 11
137.4523285063
 21
174.5169017329
  0
LINE
  5
23E
100
AcDbEntity
  8
606368120-000-00-ED1_CL
100
AcDbLine
 62
3
  6
CONTINUOUS
 10
137.4523285063
 20
174.5169017329
 11
136.4421711841
 21
181.4436312776
  0
LINE
  5
23F
100
AcDbEntity
  8
606368120-000-00-ED1_CL
100
AcDbLine
 62
3
  6
CONTINUOUS
 10
140.2223294762
 20
169.3626853011
 11
141.3486178453
 21
172.0533820178
  0
LINE
  5
240
100
AcDbEntity
  8
606368120-000-00-ED1_CL
100
AcDbLine
 62
3
  6
CONTINUOUS
 10
141.3486178453
 20
172.0533820178
 11
143.1909278525
 21
169.7956098678
  0
LINE
  5
241
100
AcDbEntity
  8
606368120-000-00-ED1_CL
100
AcDbLine
 62
3
  6
CONTINUOUS
 10
141.3486178453
 20
172.0533820178
 11
140.9156932787
 21
175.021980394
  0
LINE
  5
242
100
AcDbEntity
  8
606368120-000-00-ED1_CL
100
AcDbLine
 62
3
  6
CONTINUOUS
 10
140.3240424086
 20
169.3775185731
 11
140.2993661674
 21
169.5467255325
  0
LINE
  5
243
100
AcDbEntity
  8
606368120-000-00-ED1_CL
100
AcDbLine
 62
3
  6
CONTINUOUS
 10
140.4229956878
 20
169.391949392
 11
140.3743127158
 21
169.7257724243
  0
LINE
  5
244
100
AcDbEntity
  8
606368120-000-00-ED1_CL
100
AcDbLine
 62
3
  6
CONTINUOUS
 10
140.521948967
 20
169.4063802109
 11
140.4492592643
 21
169.9048193161
  0
LINE
  5
245
100
AcDbEntity
  8
606368120-000-00-ED1_CL
100
AcDbLine
 62
3
  6
CONTINUOUS
 10
140.6209022462
 20
169.4208110298
 11
140.5242058127
 21
170.0838662079
  0
LINE
  5
246
100
AcDbEntity
  8
606368120-000-00-ED1_CL
100
AcDbLine
 62
3
  6
CONTINUOUS
 10
140.7198555255
 20
169.4352418487
 11
140.5991523611
 21
170.2629130997
  0
LINE
  5
247
100
AcDbEntity
  8
606368120-000-00-ED1_CL
100
AcDbLine
 62
3
  6
CONTINUOUS
 10
140.8188088047
 20
169.4496726676
 11
140.6740989095
 21
170.4419599915
  0
LINE
  5
248
100
AcDbEntity
  8
606368120-000-00-ED1_CL
100
AcDbLine
 62
3
  6
CONTINUOUS
 10
140.9177620839
 20
169.4641034864
 11
140.7490454579
 21
170.6210068833
  0
LINE
  5
249
100
AcDbEntity
  8
606368120-000-00-ED1_CL
100
AcDbLine
 62
3
  6
CONTINUOUS
 10
141.0167153631
 20
169.4785343053
 11
140.8239920064
 21
170.8000537752
  0
LINE
  5
24A
100
AcDbEntity
  8
606368120-000-00-ED1_CL
100
AcDbLine
 62
3
  6
CONTINUOUS
 10
141.1156686423
 20
169.4929651242
 11
140.8989385548
 21
170.979100667
  0
LINE
  5
24B
100
AcDbEntity
  8
606368120-000-00-ED1_CL
100
AcDbLine
 62
3
  6
CONTINUOUS
 10
141.2146219215
 20
169.5073959431
 11
140.9738851032
 21
171.1581475588
  0
LINE
  5
24C
100
AcDbEntity
  8
606368120-000-00-ED1_CL
100
AcDbLine
 62
3
  6
CONTINUOUS
 10
141.3135752007
 20
169.521826762
 11
141.0488316516
 21
171.3371944506
  0
LINE
  5
24D
100
AcDbEntity
  8
606368120-000-00-ED1_CL
100
AcDbLine
 62
3
  6
CONTINUOUS
 10
141.4125284799
 20
169.5362575809
 11
141.1237782001
 21
171.5162413424
  0
LINE
  5
24E
100
AcDbEntity
  8
606368120-000-00-ED1_CL
100
AcDbLine
 62
3
  6
CONTINUOUS
 10
141.5114817591
 20
169.5506883998
 11
141.1987247485
 21
171.6952882342
  0
LINE
  5
24F
100
AcDbEntity
  8
606368120-000-00-ED1_CL
100
AcDbLine
 62
3
  6
CONTINUOUS
 10
141.6104350383
 20
169.5651192187
 11
141.2736712969
 21
171.874335126
  0
LINE
  5
250
100
AcDbEntity
  8
606368120-000-00-ED1_CL
100
AcDbLine
 62
3
  6
CONTINUOUS
 10
141.7093883175
 20
169.5795500376
 11
141.3486178453
 21
172.0533820178
  0
LINE
  5
251
100
AcDbEntity
  8
606368120-000-00-ED1_CL
100
AcDbLine
 62
3
  6
CONTINUOUS
 10
141.8083415968
 20
169.5939808564
 11
141.4716672897
 21
171.9025835054
  0
LINE
  5
252
100
AcDbEntity
  8
606368120-000-00-ED1_CL
100
AcDbLine
 62
3
  6
CONTINUOUS
 10
141.907294876
 20
169.6084116753
 11
141.594716734
 21
171.751784993
  0
LINE
  5
253
100
AcDbEntity
  8
606368120-000-00-ED1_CL
100
AcDbLine
 62
3
  6
CONTINUOUS
 10
142.0062481552
 20
169.6228424942
 11
141.7177661783
 21
171.6009864805
  0
LINE
  5
254
100
AcDbEntity
  8
606368120-000-00-ED1_CL
100
AcDbLine
 62
3
  6
CONTINUOUS
 10
142.1052014344
 20
169.6372733131
 11
141.8408156226
 21
171.4501879681
  0
LINE
  5
255
100
AcDbEntity
  8
606368120-000-00-ED1_CL
100
AcDbLine
 62
3
  6
CONTINUOUS
 10
142.2041547136
 20
169.651704132
 11
141.963865067
 21
171.2993894557
  0
LINE
  5
256
100
AcDbEntity
  8
606368120-000-00-ED1_CL
100
AcDbLine
 62
3
  6
CONTINUOUS
 10
142.3031079928
 20
169.6661349509
 11
142.0869145113
 21
171.1485909433
  0
LINE
  5
257
100
AcDbEntity
  8
606368120-000-00-ED1_CL
100
AcDbLine
 62
3
  6
CONTINUOUS
 10
142.402061272
 20
169.6805657698
 11
142.2099639556
 21
170.9977924309
  0
LINE
  5
258
100
AcDbEntity
  8
606368120-000-00-ED1_CL
100
AcDbLine
 62
3
  6
CONTINUOUS
 10
142.5010145512
 20
169.6949965887
 11
142.3330134
 21
170.8469939185
  0
LINE
  5
259
100
AcDbEntity
  8
606368120-000-00-ED1_CL
100
AcDbLine
 62
3
  6
CONTINUOUS
 10
142.5999678304
 20
169.7094274076
 11
142.4560628443
 21
170.6961954061
  0
LINE
  5
25A
100
AcDbEntity
  8
606368120-000-00-ED1_CL
100
AcDbLine
 62
3
  6
CONTINUOUS
 10
142.6989211096
 20
169.7238582264
 11
142.5791122886
 21
170.5453968936
  0
LINE
  5
25B
100
AcDbEntity
  8
606368120-000-00-ED1_CL
100
AcDbLine
 62
3
  6
CONTINUOUS
 10
142.7978743888
 20
169.7382890453
 11
142.702161733
 21
170.3945983812
  0
LINE
  5
25C
100
AcDbEntity
  8
606368120-000-00-ED1_CL
100
AcDbLine
 62
3
  6
CONTINUOUS
 10
142.896827668
 20
169.7527198642
 11
142.8252111773
 21
170.2437998688
  0
LINE
  5
25D
100
AcDbEntity
  8
606368120-000-00-ED1_CL
100
AcDbLine
 62
3
  6
CONTINUOUS
 10
142.9957809473
 20
169.7671506831
 11
142.9482606216
 21
170.0930013564
  0
LINE
  5
25E
100
AcDbEntity
  8
606368120-000-00-ED1_CL
100
AcDbLine
 62
3
  6
CONTINUOUS
 10
143.0947342265
 20
169.781581502
 11
143.071310066
 21
169.942202844
  0
TEXT
  5
25F
100
AcDbEntity
  8
606368120-000-00-ED1_CL
100
AcDbText
 62
2
  6
CONTINUOUS
 10
139.578244303
 20
176.5925768424
  7
STANDARD
 40
3.5
  1
A
 50
8.29722
 41
0.8571428571
 72
0
100
AcDbText
  0
ENDBLK
  5
260
100
AcDbEntity
  8
0
  6
BYBLOCK
 62
0
100
AcDbBlockEnd
  0
BLOCK
  5
261
100
AcDbEntity
  8
606368120-000-00-ED1_CL
100
AcDbBlockBegin
 62
3
  6
CONTINUOUS
  2
GEOM_TOLERANCE_SYMBOLS_BL1
 70
64
 10
281.3639223189
 20
130.0083604568
  3
GEOM_TOLERANCE_SYMBOLS_BL1
  1

  0
LINE
  5
262
100
AcDbEntity
  8
606368120-000-00-ED1_CL
100
AcDbLine
 62
3
  6
CONTINUOUS
 10
269.3639218549
 20
133.5083605688
 11
269.3639218549
 21
126.5083603448
  0
LINE
  5
263
100
AcDbEntity
  8
606368120-000-00-ED1_CL
100
AcDbLine
 62
3
  6
CONTINUOUS
 10
269.3639218549
 20
126.5083603448
 11
291.3639225589
 21
126.5083603448
  0
LINE
  5
264
100
AcDbEntity
  8
606368120-000-00-ED1_CL
100
AcDbLine
 62
3
  6
CONTINUOUS
 10
298.3639227829
 20
126.5083603448
 11
298.3639227829
 21
133.5083605688
  0
LINE
  5
265
100
AcDbEntity
  8
606368120-000-00-ED1_CL
100
AcDbLine
 62
3
  6
CONTINUOUS
 10
291.3639225589
 20
133.5083605688
 11
269.3639218549
 21
133.5083605688
  0
LINE
  5
266
100
AcDbEntity
  8
606368120-000-00-ED1_CL
100
AcDbLine
 62
3
  6
CONTINUOUS
 10
276.3639220789
 20
133.5083605688
 11
276.3639220789
 21
126.5083603448
  0
LINE
  5
267
100
AcDbEntity
  8
606368120-000-00-ED1_CL
100
AcDbLine
 62
3
  6
CONTINUOUS
 10
291.3639225589
 20
133.5083605688
 11
291.3639225589
 21
126.5083603448
  0
LINE
  5
268
100
AcDbEntity
  8
606368120-000-00-ED1_CL
100
AcDbLine
 62
3
  6
CONTINUOUS
 10
291.3639225589
 20
133.5083605688
 11
298.3639227829
 21
133.5083605688
  0
LINE
  5
269
100
AcDbEntity
  8
606368120-000-00-ED1_CL
100
AcDbLine
 62
3
  6
CONTINUOUS
 10
291.3639225589
 20
126.5083603448
 11
298.3639227829
 21
126.5083603448
  0
LINE
  5
26A
100
AcDbEntity
  8
606368120-000-00-ED1_CL
100
AcDbLine
 62
3
  6
CONTINUOUS
 10
264.3639218549
 20
130.0083603448
 11
269.3639218549
 21
130.0083603448
  0
TEXT
  5
26B
100
AcDbEntity
  8
606368120-000-00-ED1_CL
100
AcDbText
 62
2
  6
CONTINUOUS
 10
269.5139218597
 20
128.8083604184
  7
TEXTSTYLE_3
 40
2.4000000768
  1
t
 41
1.0
 72
0
100
AcDbText
  0
TEXT
  5
26C
100
AcDbEntity
  8
606368120-000-00-ED1_CL
100
AcDbText
 62
2
  6
CONTINUOUS
 10
277.4889221149
 20
128.2583604008
  7
STANDARD
 40
3.500000112
  1
0.003
 41
0.7285714286
 72
0
100
AcDbText
  0
TEXT
  5
26D
100
AcDbEntity
  8
606368120-000-00-ED1_CL
100
AcDbText
 62
2
  6
CONTINUOUS
 10
293.3639226229
 20
128.2583604008
  7
STANDARD
 40
3.500000112
  1
A
 41
0.8571428571
 72
0
100
AcDbText
  0
ENDBLK
  5
26E
100
AcDbEntity
  8
0
  6
BYBLOCK
 62
0
100
AcDbBlockEnd
  0
BLOCK
  5
26F
100
AcDbEntity
  8
606368120-000-00-ED1_FORMAT
100
AcDbBlockBegin
 62
3
  6
CONTINUOUS
  2
BARCODEBOX_BL0
 70
64
 10
87.5
 20
46.5
  3
BARCODEBOX_BL0
  1

  0
LINE
  5
270
100
AcDbEntity
  8
606368120-000-00-ED1_FORMAT
100
AcDbLine
 62
3
  6
CONTINUOUS
 10
48.0
 20
83.0
 11
53.0
 21
83.0
  0
LINE
  5
271
100
AcDbEntity
  8
606368120-000-00-ED1_FORMAT
100
AcDbLine
 62
3
  6
CONTINUOUS
 10
53.0
 20
83.0
 11
53.0
 21
78.0
  0
LINE
  5
272
100
AcDbEntity
  8
606368120-000-00-ED1_FORMAT
100
AcDbLine
 62
3
  6
CONTINUOUS
 10
135.0
 20
65.0
 11
140.0
 21
65.0
  0
LINE
  5
273
100
AcDbEntity
  8
606368120-000-00-ED1_FORMAT
100
AcDbLine
 62
3
  6
CONTINUOUS
 10
140.0
 20
65.0
 11
140.0
 21
60.0
  0
LINE
  5
274
100
AcDbEntity
  8
606368120-000-00-ED1_FORMAT
100
AcDbLine
 62
3
  6
CONTINUOUS
 10
91.5
 20
65.0
 11
101.5
 21
65.0
  0
LINE
  5
275
100
AcDbEntity
  8
606368120-000-00-ED1_FORMAT
100
AcDbLine
 62
3
  6
CONTINUOUS
 10
140.0
 20
42.5
 11
140.0
 21
32.5
  0
LINE
  5
276
100
AcDbEntity
  8
606368120-000-00-ED1_FORMAT
100
AcDbLine
 62
3
  6
CONTINUOUS
 10
140.0
 20
10.0
 11
140.0
 21
15.0
  0
LINE
  5
277
100
AcDbEntity
  8
606368120-000-00-ED1_FORMAT
100
AcDbLine
 62
3
  6
CONTINUOUS
 10
40.0
 20
83.0
 11
35.0
 21
83.0
  0
LINE
  5
278
100
AcDbEntity
  8
606368120-000-00-ED1_FORMAT
100
AcDbLine
 62
3
  6
CONTINUOUS
 10
58.0
 20
65.0
 11
48.0
 21
65.0
  0
LINE
  5
279
100
AcDbEntity
  8
606368120-000-00-ED1_FORMAT
100
AcDbLine
 62
3
  6
CONTINUOUS
 10
53.0
 20
65.0
 11
53.0
 21
70.0
  0
LINE
  5
27A
100
AcDbEntity
  8
606368120-000-00-ED1_FORMAT
100
AcDbLine
 62
3
  6
CONTINUOUS
 10
35.0
 20
65.0
 11
40.0
 21
65.0
  0
TEXT
  5
27B
100
AcDbEntity
  8
606368120-000-00-ED1_FORMAT
100
AcDbText
 62
2
  6
CONTINUOUS
 10
139.0
 20
11.0
  7
STANDARD
 40
2.0
  1
BARCODE-ZONE
 50
90.0
 41
0.7876984127
 72
0
100
AcDbText
  0
ENDBLK
  5
27C
100
AcDbEntity
  8
0
  6
BYBLOCK
 62
0
100
AcDbBlockEnd
  0
BLOCK
  5
27D
100
AcDbEntity
  8
0
100
AcDbBlockBegin
  2
_FILLED
 70
64
 10
0.0
 20
0.0
  3
_FILLED
  1

  0
SOLID
  5
27E
100
AcDbEntity
  8
0
  6
BYBLOCK
 62
0
100
AcDbTrace
 10
0.0
 20
0.0
 11
-1.0
 21
0.125
 12
-1.0
 22
-0.125
 13
-1.0
 23
-0.125
  0
ENDBLK
  5
27F
100
AcDbEntity
  8
0
  6
BYBLOCK
 62
0
100
AcDbBlockEnd
  0
BLOCK
  5
280
100
AcDbEntity
  8
0
100
AcDbBlockBegin
  2
_DOT
 70
64
 10
0.0
 20
0.0
  3
_DOT
  1

  0
LWPOLYLINE
  5
281
100
AcDbEntity
  8
0
  6
BYBLOCK
 62
0
100
AcDbPolyline
 90
2
 70
1
 43
0.125
 10
-0.0625
 20
0.0
 42
1.0
 10
0.0625
 20
0.0
 42
1.0
  0
LINE
  5
282
100
AcDbEntity
  8
0
  6
BYBLOCK
 62
0
100
AcDbLine
 10
-0.125
 20
0.0
 11
-1.0
 21
0.0
  0
ENDBLK
  5
283
100
AcDbEntity
  8
0
  6
BYBLOCK
 62
0
100
AcDbBlockEnd
  0
BLOCK
  5
284
100
AcDbEntity
  8
30329458_DIM
100
AcDbBlockBegin
 62
3
  6
CONTINUOUS
  2
*D0
 70
65
 10
0.0
 20
0.0
  3
*D0
  1

  0
TEXT
  5
285
100
AcDbEntity
  8
30329458_DIM
100
AcDbText
 62
2
  6
CONTINUOUS
 10
174.146726707
 20
120.8833603448
  7
STANDARD
 40
3.5
  1
10
 41
0.6785714286
 72
2
 11
178.896726707
 21
120.8833603448
100
AcDbText
  0
TEXT
  5
286
100
AcDbEntity
  8
30329458_DIM
100
AcDbText
 62
2
  6
CONTINUOUS
 10
147.9800600403
 20
114.7583603448
  7
STANDARD
 40
3.5
  1
VERSTELLWEG
 41
0.803030303
 72
2
 11
178.896726707
 21
114.7583603448
100
AcDbText
  0
LINE
  5
287
100
AcDbEntity
  8
30329458_DIM
100
AcDbLine
 62
3
  6
CONTINUOUS
 10
202.3638798129
 20
156.9870110776
 11
202.3638798129
 21
118.5083603448
  0
LINE
  5
288
100
AcDbEntity
  8
30329458_DIM
100
AcDbLine
 62
3
  6
CONTINUOUS
 10
212.3638798129
 20
157.0083603448
 11
212.3638798129
 21
118.5083603448
  0
LINE
  5
289
100
AcDbEntity
  8
30329458_DIM
100
AcDbLine
 62
3
  6
CONTINUOUS
 10
202.3638798129
 20
120.0083603448
 11
207.3638798129
 21
120.0083603448
  0
LINE
  5
28A
100
AcDbEntity
  8
30329458_DIM
100
AcDbLine
 62
3
  6
CONTINUOUS
 10
207.3638798129
 20
120.0083603448
 11
147.9800600403
 21
120.0083603448
  0
LINE
  5
28B
100
AcDbEntity
  8
30329458_DIM
100
AcDbLine
 62
3
  6
CONTINUOUS
 10
212.3638798129
 20
120.0083603448
 11
207.3638798129
 21
120.0083603448
  0
INSERT
  5
28C
100
AcDbEntity
  8
30329458_DIM
100
AcDbBlockReference
 62
3
  6
CONTINUOUS
  2
_FILLED
 10
202.3638798129
 20
120.0083603448
 41
3.5
 42
3.5
 43
3.5
 50
180.0
  0
INSERT
  5
28D
100
AcDbEntity
  8
30329458_DIM
100
AcDbBlockReference
 62
3
  6
CONTINUOUS
  2
_FILLED
 10
212.3638798129
 20
120.0083603448
 41
3.5
 42
3.5
 43
3.5
  0
ENDBLK
  5
28E
100
AcDbEntity
  8
0
  6
BYBLOCK
 62
0
100
AcDbBlockEnd
  0
BLOCK
  5
28F
100
AcDbEntity
  8
30338729_DIM
100
AcDbBlockBegin
 62
3
  6
CONTINUOUS
  2
*D1
 70
65
 10
0.0
 20
0.0
  3
*D1
  1

  0
TEXT
  5
290
100
AcDbEntity
  8
30338729_DIM
100
AcDbText
 62
2
  6
CONTINUOUS
 10
234.5915006103
 20
184.4845799078
  7
STANDARD
 40
3.5
  1
4.5
 50
78.4029031908
 41
0.6904761905
 72
1
 11
235.3202281455
 21
188.0355771169
100
AcDbText
  0
TEXT
  5
291
100
AcDbEntity
  8
30338729_DIM
100
AcDbText
 62
2
  6
CONTINUOUS
 10
236.0489556807
 20
191.5865743261
  7
TEXTSTYLE_3
 40
3.5
  1
~
 50
78.4029031908
 41
1.0
 72
1
 11
236.2834886805
 21
192.7294240026
100
AcDbText
  0
TEXT
  5
292
100
AcDbEntity
  8
30338729_DIM
100
AcDbText
 62
2
  6
CONTINUOUS
 10
236.0037393259
 20
193.977813529
  7
TEXTSTYLE_3
 40
2.45
  1
`
 50
78.4029031908
 41
1.0
 72
1
 11
236.2910422507
 21
195.3778043828
100
AcDbText
  0
TEXT
  5
293
100
AcDbEntity
  8
30338729_DIM
100
AcDbText
 62
2
  6
CONTINUOUS
 10
236.5783451755
 20
196.7777952365
  7
STANDARD
 40
2.45
  1
0.25
 50
78.4029031908
 41
0.7142857143
 72
1
 11
237.2819441751
 21
200.206344266
100
AcDbText
  0
TEXT
  5
294
100
AcDbEntity
  8
30338729_DIM
100
AcDbText
 62
2
  6
CONTINUOUS
 10
237.9855431746
 20
203.6348932955
  7
TEXTSTYLE_3
 40
2.45
  1
~
 50
78.4029031908
 41
1.0
 72
1
 11
238.1497162745
 21
204.4348880691
100
AcDbText
  0
LINE
  5
295
100
AcDbEntity
  8
30338729_DIM
100
AcDbLine
 62
3
  6
CONTINUOUS
 10
249.3377150693
 20
157.0083603448
 11
234.8713617923
 21
157.0083603448
  0
LINE
  5
296
100
AcDbEntity
  8
30338729_DIM
100
AcDbLine
 62
3
  6
CONTINUOUS
 10
248.4423389086
 20
170.5808871869
 11
235.4448187365
 21
171.6038142089
  0
ARC
  5
297
100
AcDbEntity
  8
30338729_DIM
100
AcDbCircle
 62
3
  6
CONTINUOUS
 10
420.8976437513
 20
157.0083603448
 40
184.5262819589
100
AcDbArc
 50
168.4029031908
 51
180.0
  0
SOLID
  5
298
100
AcDbEntity
  8
30338729_DIM
100
AcDbTrace
 62
3
  6
CONTINUOUS
 10
235.9670740729
 20
160.5123520243
 11
236.3713617923
 21
157.0083603448
 12
236.8420347239
 22
160.5040538728
 13
236.8420347239
 23
160.5040538728
  0
SOLID
  5
299
100
AcDbEntity
  8
30338729_DIM
100
AcDbTrace
 62
3
  6
CONTINUOUS
 10
237.1351477879
 20
167.9642795213
 11
236.9401947371
 21
171.4861255653
 12
236.2622332832
 22
168.0246555717
 13
236.2622332832
 23
168.0246555717
  0
ENDBLK
  5
29A
100
AcDbEntity
  8
0
  6
BYBLOCK
 62
0
100
AcDbBlockEnd
  0
BLOCK
  5
29B
100
AcDbEntity
  8
30338729_DIM
100
AcDbBlockBegin
 62
3
  6
CONTINUOUS
  2
*D2
 70
65
 10
0.0
 20
0.0
  3
*D2
  1

  0
TEXT
  5
29C
100
AcDbEntity
  8
30338729_DIM
100
AcDbText
 62
2
  6
CONTINUOUS
 10
199.2895443643
 20
183.7436203458
  7
STANDARD
 40
3.5
  1
R
 50
32.8284893998
 41
0.7857142857
 72
0
100
AcDbText
  0
TEXT
  5
29D
100
AcDbEntity
  8
30338729_DIM
100
AcDbText
 62
2
  6
CONTINUOUS
 10
201.6003615102
 20
185.2344671248
  7
STANDARD
 40
3.5
  1
1
 50
32.8284893998
 41
0.5714285714
 72
0
100
AcDbText
  0
LINE
  5
29E
100
AcDbEntity
  8
30338729_DIM
100
AcDbLine
 62
3
  6
CONTINUOUS
 10
186.523582669
 20
174.4662342434
 11
203.7553161368
 21
185.5834593267
  0
INSERT
  5
29F
100
AcDbEntity
  8
30338729_DIM
100
AcDbBlockReference
 62
3
  6
CONTINUOUS
  2
_FILLED
 10
186.523582669
 20
174.4662342434
 41
3.5
 42
3.5
 43
3.5
 50
212.8284893998
  0
ENDBLK
  5
2A0
100
AcDbEntity
  8
0
  6
BYBLOCK
 62
0
100
AcDbBlockEnd
  0
BLOCK
  5
2A1
100
AcDbEntity
  8
30338729_DIM
100
AcDbBlockBegin
 62
3
  6
CONTINUOUS
  2
*D3
 70
65
 10
0.0
 20
0.0
  3
*D3
  1

  0
TEXT
  5
2A2
100
AcDbEntity
  8
30338729_DIM
100
AcDbText
 62
2
  6
CONTINUOUS
 10
171.4271488989
 20
203.8833603448
  7
STANDARD
 40
3.5
  1
M
 41
0.8571428571
 72
2
 11
174.4271488989
 21
203.8833603448
100
AcDbText
  0
TEXT
  5
2A3
100
AcDbEntity
  8
30338729_DIM
100
AcDbText
 62
2
  6
CONTINUOUS
 10
174.4271488989
 20
203.8833603448
  7
STANDARD
 40
3.5
  1
6
 41
0.7857142857
 72
2
 11
177.1771488989
 21
203.8833603448
100
AcDbText
  0
TEXT
  5
2A4
100
AcDbEntity
  8
30338729_DIM
100
AcDbText
 62
2
  6
CONTINUOUS
 10
177.1771488989
 20
203.8833603448
  7
STANDARD
 40
3.5
  1
(
 41
0.4285714286
 72
2
 11
178.6771488989
 21
203.8833603448
100
AcDbText
  0
TEXT
  5
2A5
100
AcDbEntity
  8
30338729_DIM
100
AcDbText
 62
2
  6
CONTINUOUS
 10
178.6771488989
 20
203.8833603448
  7
STANDARD
 40
3.5
  1
4
 41
0.7857142857
 72
2
 11
181.4271488989
 21
203.8833603448
100
AcDbText
  0
TEXT
  5
2A6
100
AcDbEntity
  8
30338729_DIM
100
AcDbText
 62
2
  6
CONTINUOUS
 10
181.4271488989
 20
203.8833603448
  7
STANDARD
 40
3.5
  1
x)
 41
0.5714285714
 72
2
 11
185.4271488989
 21
203.8833603448
100
AcDbText
  0
LINE
  5
2A7
100
AcDbEntity
  8
30338729_DIM
100
AcDbLine
 62
3
  6
CONTINUOUS
 10
189.3638798129
 20
173.8583603448
 11
189.3638798129
 21
204.5083603448
  0
LINE
  5
2A8
100
AcDbEntity
  8
30338729_DIM
100
AcDbLine
 62
3
  6
CONTINUOUS
 10
195.3638798129
 20
173.8583603448
 11
195.3638798129
 21
204.5083603448
  0
LINE
  5
2A9
100
AcDbEntity
  8
30338729_DIM
100
AcDbLine
 62
3
  6
CONTINUOUS
 10
189.3638798129
 20
203.0083603448
 11
171.4271488989
 21
203.0083603448
  0
LINE
  5
2AA
100
AcDbEntity
  8
30338729_DIM
100
AcDbLine
 62
3
  6
CONTINUOUS
 10
171.4271488989
 20
203.0083603448
 11
192.3638798129
 21
203.0083603448
  0
LINE
  5
2AB
100
AcDbEntity
  8
30338729_DIM
100
AcDbLine
 62
3
  6
CONTINUOUS
 10
195.3638798129
 20
203.0083603448
 11
201.3638798129
 21
203.0083603448
  0
LINE
  5
2AC
100
AcDbEntity
  8
30338729_DIM
100
AcDbLine
 62
3
  6
CONTINUOUS
 10
201.3638798129
 20
203.0083603448
 11
192.3638798129
 21
203.0083603448
  0
INSERT
  5
2AD
100
AcDbEntity
  8
30338729_DIM
100
AcDbBlockReference
 62
3
  6
CONTINUOUS
  2
_FILLED
 10
189.3638798129
 20
203.0083603448
 41
3.5
 42
3.5
 43
3.5
  0
INSERT
  5
2AE
100
AcDbEntity
  8
30338729_DIM
100
AcDbBlockReference
 62
3
  6
CONTINUOUS
  2
_FILLED
 10
195.3638798129
 20
203.0083603448
 41
3.5
 42
3.5
 43
3.5
 50
180.0
  0
ENDBLK
  5
2AF
100
AcDbEntity
  8
0
  6
BYBLOCK
 62
0
100
AcDbBlockEnd
  0
BLOCK
  5
2B0
100
AcDbEntity
  8
30338729_DIM
100
AcDbBlockBegin
 62
3
  6
CONTINUOUS
  2
*D4
 70
65
 10
0.0
 20
0.0
  3
*D4
  1

  0
TEXT
  5
2B1
100
AcDbEntity
  8
30338729_DIM
100
AcDbText
 62
2
  6
CONTINUOUS
 10
218.2388798129
 20
100.8833603448
  7
STANDARD
 40
3.5
  1
57
 41
0.75
 72
1
 11
220.8638798129
 21
100.8833603448
100
AcDbText
  0
LINE
  5
2B2
100
AcDbEntity
  8
30338729_DIM
100
AcDbLine
 62
3
  6
CONTINUOUS
 10
192.3638798129
 20
139.2763482977
 11
192.3638798129
 21
98.5083603448
  0
LINE
  5
2B3
100
AcDbEntity
  8
30338729_DIM
100
AcDbLine
 62
3
  6
CONTINUOUS
 10
249.3638798129
 20
144.6872764472
 11
249.3638798129
 21
98.5083603448
  0
LINE
  5
2B4
100
AcDbEntity
  8
30338729_DIM
100
AcDbLine
 62
3
  6
CONTINUOUS
 10
192.3638798129
 20
100.0083603448
 11
220.8638798129
 21
100.0083603448
  0
LINE
  5
2B5
100
AcDbEntity
  8
30338729_DIM
100
AcDbLine
 62
3
  6
CONTINUOUS
 10
249.3638798129
 20
100.0083603448
 11
220.8638798129
 21
100.0083603448
  0
INSERT
  5
2B6
100
AcDbEntity
  8
30338729_DIM
100
AcDbBlockReference
 62
3
  6
CONTINUOUS
  2
_FILLED
 10
192.3638798129
 20
100.0083603448
 41
3.5
 42
3.5
 43
3.5
 50
180.0
  0
INSERT
  5
2B7
100
AcDbEntity
  8
30338729_DIM
100
AcDbBlockReference
 62
3
  6
CONTINUOUS
  2
_FILLED
 10
249.3638798129
 20
100.0083603448
 41
3.5
 42
3.5
 43
3.5
  0
ENDBLK
  5
2B8
100
AcDbEntity
  8
0
  6
BYBLOCK
 62
0
100
AcDbBlockEnd
  0
BLOCK
  5
2B9
100
AcDbEntity
  8
30338729_DIM
100
AcDbBlockBegin
 62
3
  6
CONTINUOUS
  2
*D5
 70
65
 10
0.0
 20
0.0
  3
*D5
  1

  0
TEXT
  5
2BA
100
AcDbEntity
  8
30338729_DIM
100
AcDbText
 62
2
  6
CONTINUOUS
 10
223.1138798129
 20
110.8833603448
  7
STANDARD
 40
3.5
  1
47
 41
0.7857142857
 72
1
 11
225.8638798129
 21
110.8833603448
100
AcDbText
  0
LINE
  5
2BB
100
AcDbEntity
  8
30338729_DIM
100
AcDbLine
 62
3
  6
CONTINUOUS
 10
202.3638798129
 20
149.4103688556
 11
202.3638798129
 21
108.5083603448
  0
LINE
  5
2BC
100
AcDbEntity
  8
30338729_DIM
100
AcDbLine
 62
3
  6
CONTINUOUS
 10
249.3638798129
 20
144.7440229725
 11
249.3638798129
 21
108.5083603448
  0
LINE
  5
2BD
100
AcDbEntity
  8
30338729_DIM
100
AcDbLine
 62
3
  6
CONTINUOUS
 10
202.3638798129
 20
110.0083603448
 11
225.8638798129
 21
110.0083603448
  0
LINE
  5
2BE
100
AcDbEntity
  8
30338729_DIM
100
AcDbLine
 62
3
  6
CONTINUOUS
 10
249.3638798129
 20
110.0083603448
 11
225.8638798129
 21
110.0083603448
  0
INSERT
  5
2BF
100
AcDbEntity
  8
30338729_DIM
100
AcDbBlockReference
 62
3
  6
CONTINUOUS
  2
_FILLED
 10
202.3638798129
 20
110.0083603448
 41
3.5
 42
3.5
 43
3.5
 50
180.0
  0
INSERT
  5
2C0
100
AcDbEntity
  8
30338729_DIM
100
AcDbBlockReference
 62
3
  6
CONTINUOUS
  2
_FILLED
 10
249.3638798129
 20
110.0083603448
 41
3.5
 42
3.5
 43
3.5
  0
ENDBLK
  5
2C1
100
AcDbEntity
  8
0
  6
BYBLOCK
 62
0
100
AcDbBlockEnd
  0
BLOCK
  5
2C2
100
AcDbEntity
  8
30338729_DIM
100
AcDbBlockBegin
 62
3
  6
CONTINUOUS
  2
*D6
 70
65
 10
0.0
 20
0.0
  3
*D6
  1

  0
TEXT
  5
2C3
100
AcDbEntity
  8
30338729_DIM
100
AcDbText
 62
2
  6
CONTINUOUS
 10
204.2388798129
 20
223.8833603448
  7
STANDARD
 40
3.5
  1
85
 41
0.75
 72
1
 11
206.8638798129
 21
223.8833603448
100
AcDbText
  0
LINE
  5
2C4
100
AcDbEntity
  8
30338729_DIM
100
AcDbLine
 62
3
  6
CONTINUOUS
 10
249.3638798129
 20
169.3748139651
 11
249.3638798129
 21
224.5083603448
  0
LINE
  5
2C5
100
AcDbEntity
  8
30338729_DIM
100
AcDbLine
 62
3
  6
CONTINUOUS
 10
164.3638798129
 20
172.8716854898
 11
164.3638798129
 21
224.5083603448
  0
LINE
  5
2C6
100
AcDbEntity
  8
30338729_DIM
100
AcDbLine
 62
3
  6
CONTINUOUS
 10
249.3638798129
 20
223.0083603448
 11
206.8638798129
 21
223.0083603448
  0
LINE
  5
2C7
100
AcDbEntity
  8
30338729_DIM
100
AcDbLine
 62
3
  6
CONTINUOUS
 10
164.3638798129
 20
223.0083603448
 11
206.8638798129
 21
223.0083603448
  0
INSERT
  5
2C8
100
AcDbEntity
  8
30338729_DIM
100
AcDbBlockReference
 62
3
  6
CONTINUOUS
  2
_FILLED
 10
249.3638798129
 20
223.0083603448
 41
3.5
 42
3.5
 43
3.5
  0
INSERT
  5
2C9
100
AcDbEntity
  8
30338729_DIM
100
AcDbBlockReference
 62
3
  6
CONTINUOUS
  2
_FILLED
 10
164.3638798129
 20
223.0083603448
 41
3.5
 42
3.5
 43
3.5
 50
180.0
  0
ENDBLK
  5
2CA
100
AcDbEntity
  8
0
  6
BYBLOCK
 62
0
100
AcDbBlockEnd
  0
BLOCK
  5
2CB
100
AcDbEntity
  8
30338729_DIM
100
AcDbBlockBegin
 62
3
  6
CONTINUOUS
  2
*D7
 70
65
 10
0.0
 20
0.0
  3
*D7
  1

  0
TEXT
  5
2CC
100
AcDbEntity
  8
30338729_DIM
100
AcDbText
 62
2
  6
CONTINUOUS
 10
105.0888798129
 20
133.5310731507
  7
STANDARD
 40
3.5
  1
M
 50
90.0
 41
0.8571428571
 72
2
 11
105.0888798129
 21
136.5310731507
100
AcDbText
  0
TEXT
  5
2CD
100
AcDbEntity
  8
30338729_DIM
100
AcDbText
 62
2
  6
CONTINUOUS
 10
105.0888798129
 20
136.5310731507
  7
STANDARD
 40
3.5
  1
10
 50
90.0
 41
0.6785714286
 72
2
 11
105.0888798129
 21
141.2810731507
100
AcDbText
  0
TEXT
  5
2CE
100
AcDbEntity
  8
30338729_DIM
100
AcDbText
 62
2
  6
CONTINUOUS
 10
105.0888798129
 20
141.2810731507
  7
STANDARD
 40
3.5
  1
x1
 50
90.0
 41
0.6428571429
 72
2
 11
105.0888798129
 21
145.7810731507
100
AcDbText
  0
LINE
  5
2CF
100
AcDbEntity
  8
30338729_DIM
100
AcDbLine
 62
3
  6
CONTINUOUS
 10
184.3638798129
 20
152.0083603448
 11
104.4638798129
 21
152.0083603448
  0
LINE
  5
2D0
100
AcDbEntity
  8
30338729_DIM
100
AcDbLine
 62
3
  6
CONTINUOUS
 10
184.3638798129
 20
162.0083603448
 11
104.4638798129
 21
162.0083603448
  0
LINE
  5
2D1
100
AcDbEntity
  8
30338729_DIM
100
AcDbLine
 62
3
  6
CONTINUOUS
 10
105.9638798129
 20
152.0083603448
 11
105.9638798129
 21
133.5310731507
  0
LINE
  5
2D2
100
AcDbEntity
  8
30338729_DIM
100
AcDbLine
 62
3
  6
CONTINUOUS
 10
105.9638798129
 20
133.5310731507
 11
105.9638798129
 21
157.0083603448
  0
LINE
  5
2D3
100
AcDbEntity
  8
30338729_DIM
100
AcDbLine
 62
3
  6
CONTINUOUS
 10
105.9638798129
 20
162.0083603448
 11
105.9638798129
 21
168.0083603448
  0
LINE
  5
2D4
100
AcDbEntity
  8
30338729_DIM
100
AcDbLine
 62
3
  6
CONTINUOUS
 10
105.9638798129
 20
168.0083603448
 11
105.9638798129
 21
157.0083603448
  0
INSERT
  5
2D5
100
AcDbEntity
  8
30338729_DIM
100
AcDbBlockReference
 62
3
  6
CONTINUOUS
  2
_FILLED
 10
105.9638798129
 20
152.0083603448
 41
3.5
 42
3.5
 43
3.5
 50
90.0
  0
INSERT
  5
2D6
100
AcDbEntity
  8
30338729_DIM
100
AcDbBlockReference
 62
3
  6
CONTINUOUS
  2
_FILLED
 10
105.9638798129
 20
162.0083603448
 41
3.5
 42
3.5
 43
3.5
 50
270.0
  0
ENDBLK
  5
2D7
100
AcDbEntity
  8
0
  6
BYBLOCK
 62
0
100
AcDbBlockEnd
  0
BLOCK
  5
2D8
100
AcDbEntity
  8
30338729_DIM
100
AcDbBlockBegin
 62
3
  6
CONTINUOUS
  2
*D8
 70
65
 10
0.0
 20
0.0
  3
*D8
  1

  0
TEXT
  5
2D9
100
AcDbEntity
  8
30338729_DIM
100
AcDbText
 62
2
  6
CONTINUOUS
 10
263.4888798129
 20
152.3000270115
  7
TEXTSTYLE_3
 40
3.5
  1
n
 50
90.0
 41
1.0
 72
1
 11
263.4888798129
 21
154.6333603448
100
AcDbText
  0
TEXT
  5
2DA
100
AcDbEntity
  8
30338729_DIM
100
AcDbText
 62
2
  6
CONTINUOUS
 10
263.4888798129
 20
156.9666936782
  7
STANDARD
 40
3.5
  1
14
 50
90.0
 41
0.6785714286
 72
1
 11
263.4888798129
 21
159.3416936782
100
AcDbText
  0
LINE
  5
2DB
100
AcDbEntity
  8
30338729_DIM
100
AcDbLine
 62
3
  6
CONTINUOUS
 10
247.3602298105
 20
150.0083603448
 11
265.8638798129
 21
150.0083603448
  0
LINE
  5
2DC
100
AcDbEntity
  8
30338729_DIM
100
AcDbLine
 62
3
  6
CONTINUOUS
 10
247.3638798129
 20
164.0083603448
 11
265.8638798129
 21
164.0083603448
  0
LINE
  5
2DD
100
AcDbEntity
  8
30338729_DIM
100
AcDbLine
 62
3
  6
CONTINUOUS
 10
264.3638798129
 20
150.0083603448
 11
264.3638798129
 21
144.0083603448
  0
LINE
  5
2DE
100
AcDbEntity
  8
30338729_DIM
100
AcDbLine
 62
3
  6
CONTINUOUS
 10
264.3638798129
 20
144.0083603448
 11
264.3638798129
 21
157.0083603448
  0
LINE
  5
2DF
100
AcDbEntity
  8
30338729_DIM
100
AcDbLine
 62
3
  6
CONTINUOUS
 10
264.3638798129
 20
164.0083603448
 11
264.3638798129
 21
170.0083603448
  0
LINE
  5
2E0
100
AcDbEntity
  8
30338729_DIM
100
AcDbLine
 62
3
  6
CONTINUOUS
 10
264.3638798129
 20
170.0083603448
 11
264.3638798129
 21
157.0083603448
  0
INSERT
  5
2E1
100
AcDbEntity
  8
30338729_DIM
100
AcDbBlockReference
 62
3
  6
CONTINUOUS
  2
_FILLED
 10
264.3638798129
 20
150.0083603448
 41
3.5
 42
3.5
 43
3.5
 50
90.0
  0
INSERT
  5
2E2
100
AcDbEntity
  8
30338729_DIM
100
AcDbBlockReference
 62
3
  6
CONTINUOUS
  2
_FILLED
 10
264.3638798129
 20
164.0083603448
 41
3.5
 42
3.5
 43
3.5
 50
270.0
  0
ENDBLK
  5
2E3
100
AcDbEntity
  8
0
  6
BYBLOCK
 62
0
100
AcDbBlockEnd
  0
BLOCK
  5
2E4
100
AcDbEntity
  8
30338729_DIM
100
AcDbBlockBegin
 62
3
  6
CONTINUOUS
  2
*D9
 70
65
 10
0.0
 20
0.0
  3
*D9
  1

  0
TEXT
  5
2E5
100
AcDbEntity
  8
30338729_DIM
100
AcDbText
 62
2
  6
CONTINUOUS
 10
219.1280215246
 20
213.8833603448
  7
STANDARD
 40
3.5
  1
(
 41
0.4285714286
 72
1
 11
219.8780215246
 21
213.8833603448
100
AcDbText
  0
TEXT
  5
2E6
100
AcDbEntity
  8
30338729_DIM
100
AcDbText
 62
2
  6
CONTINUOUS
 10
220.6280215246
 20
213.8833603448
  7
STANDARD
 40
3.5
  1
44.47
 41
0.7428571429
 72
1
 11
227.1280215246
 21
213.8833603448
100
AcDbText
  0
TEXT
  5
2E7
100
AcDbEntity
  8
30338729_DIM
100
AcDbText
 62
2
  6
CONTINUOUS
 10
233.6280215246
 20
213.8833603448
  7
STANDARD
 40
3.5
  1
)
 41
0.4285714286
 72
1
 11
234.3780215246
 21
213.8833603448
100
AcDbText
  0
LINE
  5
2E8
100
AcDbEntity
  8
30338729_DIM
100
AcDbLine
 62
3
  6
CONTINUOUS
 10
249.3638798129
 20
169.5839698532
 11
249.3638798129
 21
214.5083603448
  0
LINE
  5
2E9
100
AcDbEntity
  8
30338729_DIM
100
AcDbLine
 62
3
  6
CONTINUOUS
 10
204.8921632363
 20
174.0083603448
 11
204.8921632363
 21
214.5083603448
  0
LINE
  5
2EA
100
AcDbEntity
  8
30338729_DIM
100
AcDbLine
 62
3
  6
CONTINUOUS
 10
249.3638798129
 20
213.0083603448
 11
227.1280215246
 21
213.0083603448
  0
LINE
  5
2EB
100
AcDbEntity
  8
30338729_DIM
100
AcDbLine
 62
3
  6
CONTINUOUS
 10
204.8921632363
 20
213.0083603448
 11
227.1280215246
 21
213.0083603448
  0
INSERT
  5
2EC
100
AcDbEntity
  8
30338729_DIM
100
AcDbBlockReference
 62
3
  6
CONTINUOUS
  2
_FILLED
 10
249.3638798129
 20
213.0083603448
 41
3.5
 42
3.5
 43
3.5
  0
INSERT
  5
2ED
100
AcDbEntity
  8
30338729_DIM
100
AcDbBlockReference
 62
3
  6
CONTINUOUS
  2
_FILLED
 10
204.8921632363
 20
213.0083603448
 41
3.5
 42
3.5
 43
3.5
 50
180.0
  0
ENDBLK
  5
2EE
100
AcDbEntity
  8
0
  6
BYBLOCK
 62
0
100
AcDbBlockEnd
  0
BLOCK
  5
2EF
100
AcDbEntity
  8
30338729_DIM
100
AcDbBlockBegin
 62
3
  6
CONTINUOUS
  2
*D10
 70
65
 10
0.0
 20
0.0
  3
*D10
  1

  0
TEXT
  5
2F0
100
AcDbEntity
  8
30338729_DIM
100
AcDbText
 62
2
  6
CONTINUOUS
 10
283.4888798129
 20
152.0500270115
  7
TEXTSTYLE_3
 40
3.5
  1
n
 50
90.0
 41
1.0
 72
1
 11
283.4888798129
 21
154.3833603448
100
AcDbText
  0
TEXT
  5
2F1
100
AcDbEntity
  8
30338729_DIM
100
AcDbText
 62
2
  6
CONTINUOUS
 10
283.4888798129
 20
156.7166936782
  7
STANDARD
 40
3.5
  1
34
 50
90.0
 41
0.75
 72
1
 11
283.4888798129
 21
159.3416936782
100
AcDbText
  0
LINE
  5
2F2
100
AcDbEntity
  8
30338729_DIM
100
AcDbLine
 62
3
  6
CONTINUOUS
 10
204.8921632363
 20
140.0083603448
 11
285.8638798129
 21
140.0083603448
  0
LINE
  5
2F3
100
AcDbEntity
  8
30338729_DIM
100
AcDbLine
 62
3
  6
CONTINUOUS
 10
204.8921632363
 20
174.0083603448
 11
285.8638798129
 21
174.0083603448
  0
LINE
  5
2F4
100
AcDbEntity
  8
30338729_DIM
100
AcDbLine
 62
3
  6
CONTINUOUS
 10
284.3638798129
 20
140.0083603448
 11
284.3638798129
 21
157.0083603448
  0
LINE
  5
2F5
100
AcDbEntity
  8
30338729_DIM
100
AcDbLine
 62
3
  6
CONTINUOUS
 10
284.3638798129
 20
174.0083603448
 11
284.3638798129
 21
157.0083603448
  0
INSERT
  5
2F6
100
AcDbEntity
  8
30338729_DIM
100
AcDbBlockReference
 62
3
  6
CONTINUOUS
  2
_FILLED
 10
284.3638798129
 20
140.0083603448
 41
3.5
 42
3.5
 43
3.5
 50
270.0
  0
INSERT
  5
2F7
100
AcDbEntity
  8
30338729_DIM
100
AcDbBlockReference
 62
3
  6
CONTINUOUS
  2
_FILLED
 10
284.3638798129
 20
174.0083603448
 41
3.5
 42
3.5
 43
3.5
 50
90.0
  0
ENDBLK
  5
2F8
100
AcDbEntity
  8
0
  6
BYBLOCK
 62
0
100
AcDbBlockEnd
  0
BLOCK
  5
2F9
100
AcDbEntity
  8
30338729_DIM
100
AcDbBlockBegin
 62
3
  6
CONTINUOUS
  2
*D11
 70
65
 10
0.0
 20
0.0
  3
*D11
  1

  0
TEXT
  5
2FA
100
AcDbEntity
  8
30338729_DIM
100
AcDbText
 62
2
  6
CONTINUOUS
 10
273.4888798129
 20
151.9250270115
  7
TEXTSTYLE_3
 40
3.5
  1
n
 50
90.0
 41
1.0
 72
1
 11
273.4888798129
 21
154.2583603448
100
AcDbText
  0
TEXT
  5
2FB
100
AcDbEntity
  8
30338729_DIM
100
AcDbText
 62
2
  6
CONTINUOUS
 10
273.4888798129
 20
156.5916936782
  7
STANDARD
 40
3.5
  1
27
 50
90.0
 41
0.7857142857
 72
1
 11
273.4888798129
 21
159.3416936782
100
AcDbText
  0
LINE
  5
2FC
100
AcDbEntity
  8
30338729_DIM
100
AcDbLine
 62
3
  6
CONTINUOUS
 10
249.3638798129
 20
143.5083603448
 11
275.8638798129
 21
143.5083603448
  0
LINE
  5
2FD
100
AcDbEntity
  8
30338729_DIM
100
AcDbLine
 62
3
  6
CONTINUOUS
 10
249.3638798129
 20
170.5083603448
 11
275.8638798129
 21
170.5083603448
  0
LINE
  5
2FE
100
AcDbEntity
  8
30338729_DIM
100
AcDbLine
 62
3
  6
CONTINUOUS
 10
274.3638798129
 20
143.5083603448
 11
274.3638798129
 21
157.0083603448
  0
LINE
  5
2FF
100
AcDbEntity
  8
30338729_DIM
100
AcDbLine
 62
3
  6
CONTINUOUS
 10
274.3638798129
 20
170.5083603448
 11
274.3638798129
 21
157.0083603448
  0
INSERT
  5
300
100
AcDbEntity
  8
30338729_DIM
100
AcDbBlockReference
 62
3
  6
CONTINUOUS
  2
_FILLED
 10
274.3638798129
 20
143.5083603448
 41
3.5
 42
3.5
 43
3.5
 50
270.0
  0
INSERT
  5
301
100
AcDbEntity
  8
30338729_DIM
100
AcDbBlockReference
 62
3
  6
CONTINUOUS
  2
_FILLED
 10
274.3638798129
 20
170.5083603448
 41
3.5
 42
3.5
 43
3.5
 50
90.0
  0
ENDBLK
  5
302
100
AcDbEntity
  8
0
  6
BYBLOCK
 62
0
100
AcDbBlockEnd
  0
ENDSEC
  0
SECTION
  2
ENTITIES
  0
TEXT
  5
303
100
AcDbEntity
  8
606368120-000-00-ED1_FORMAT
100
AcDbText
 62
90
  6
CONTINUOUS
 10
34.0
 20
287.75
  7
TEXTSTYLE_2
 40
3.5
  1
1
 41
0.5714285714
 72
1
 11
35.0
 21
287.75
100
AcDbText
  0
TEXT
  5
304
100
AcDbEntity
  8
606368120-000-00-ED1_FORMAT
100
AcDbText
 62
90
  6
CONTINUOUS
 10
83.625
 20
287.75
  7
TEXTSTYLE_2
 40
3.5
  1
2
 41
0.7857142857
 72
1
 11
85.0
 21
287.75
100
AcDbText
  0
TEXT
  5
305
100
AcDbEntity
  8
606368120-000-00-ED1_FORMAT
100
AcDbText
 62
90
  6
CONTINUOUS
 10
133.75
 20
287.75
  7
TEXTSTYLE_2
 40
3.5
  1
3
 41
0.7142857143
 72
1
 11
135.0
 21
287.75
100
AcDbText
  0
TEXT
  5
306
100
AcDbEntity
  8
606368120-000-00-ED1_FORMAT
100
AcDbText
 62
90
  6
CONTINUOUS
 10
183.625
 20
287.75
  7
TEXTSTYLE_2
 40
3.5
  1
4
 41
0.7857142857
 72
1
 11
185.0
 21
287.75
100
AcDbText
  0
TEXT
  5
307
100
AcDbEntity
  8
606368120-000-00-ED1_FORMAT
100
AcDbText
 62
90
  6
CONTINUOUS
 10
233.75
 20
287.75
  7
TEXTSTYLE_2
 40
3.5
  1
5
 41
0.7142857143
 72
1
 11
235.0
 21
287.75
100
AcDbText
  0
TEXT
  5
308
100
AcDbEntity
  8
606368120-000-00-ED1_FORMAT
100
AcDbText
 62
90
  6
CONTINUOUS
 10
283.625
 20
287.75
  7
TEXTSTYLE_2
 40
3.5
  1
6
 41
0.7857142857
 72
1
 11
285.0
 21
287.75
100
AcDbText
  0
TEXT
  5
309
100
AcDbEntity
  8
606368120-000-00-ED1_FORMAT
100
AcDbText
 62
90
  6
CONTINUOUS
 10
333.625
 20
287.75
  7
TEXTSTYLE_2
 40
3.5
  1
7
 41
0.7857142857
 72
1
 11
335.0
 21
287.75
100
AcDbText
  0
TEXT
  5
30A
100
AcDbEntity
  8
606368120-000-00-ED1_FORMAT
100
AcDbText
 62
90
  6
CONTINUOUS
 10
383.625
 20
287.75
  7
TEXTSTYLE_2
 40
3.5
  1
8
 41
0.7857142857
 72
1
 11
385.0
 21
287.75
100
AcDbText
  0
TEXT
  5
30B
100
AcDbEntity
  8
606368120-000-00-ED1_FORMAT
100
AcDbText
 62
90
  6
CONTINUOUS
 10
133.75
 20
5.75
  7
TEXTSTYLE_2
 40
3.5
  1
3
 41
0.7142857143
 72
1
 11
135.0
 21
5.75
100
AcDbText
  0
TEXT
  5
30C
100
AcDbEntity
  8
606368120-000-00-ED1_FORMAT
100
AcDbText
 62
90
  6
CONTINUOUS
 10
83.625
 20
5.75
  7
TEXTSTYLE_2
 40
3.5
  1
2
 41
0.7857142857
 72
1
 11
85.0
 21
5.75
100
AcDbText
  0
TEXT
  5
30D
100
AcDbEntity
  8
606368120-000-00-ED1_FORMAT
100
AcDbText
 62
90
  6
CONTINUOUS
 10
34.0
 20
5.75
  7
TEXTSTYLE_2
 40
3.5
  1
1
 41
0.5714285714
 72
1
 11
35.0
 21
5.75
100
AcDbText
  0
TEXT
  5
30E
100
AcDbEntity
  8
606368120-000-00-ED1_FORMAT
100
AcDbText
 62
90
  6
CONTINUOUS
 10
19.0
 20
262.75
  7
TEXTSTYLE_2
 40
3.5
  1
A
 41
0.8571428571
 72
1
 11
20.5
 21
262.75
100
AcDbText
  0
TEXT
  5
30F
100
AcDbEntity
  8
606368120-000-00-ED1_FORMAT
100
AcDbText
 62
90
  6
CONTINUOUS
 10
411.0
 20
262.75
  7
TEXTSTYLE_2
 40
3.5
  1
A
 41
0.8571428571
 72
1
 11
412.5
 21
262.75
100
AcDbText
  0
TEXT
  5
310
100
AcDbEntity
  8
606368120-000-00-ED1_FORMAT
100
AcDbText
 62
90
  6
CONTINUOUS
 10
411.125
 20
221.75
  7
TEXTSTYLE_2
 40
3.5
  1
B
 41
0.7857142857
 72
1
 11
412.5
 21
221.75
100
AcDbText
  0
TEXT
  5
311
100
AcDbEntity
  8
606368120-000-00-ED1_FORMAT
100
AcDbText
 62
90
  6
CONTINUOUS
 10
19.125
 20
221.75
  7
TEXTSTYLE_2
 40
3.5
  1
B
 41
0.7857142857
 72
1
 11
20.5
 21
221.75
100
AcDbText
  0
TEXT
  5
312
100
AcDbEntity
  8
606368120-000-00-ED1_FORMAT
100
AcDbText
 62
90
  6
CONTINUOUS
 10
19.0416666667
 20
171.75
  7
TEXTSTYLE_2
 40
3.5
  1
C
 41
0.8333333333
 72
1
 11
20.5
 21
171.75
100
AcDbText
  0
TEXT
  5
313
100
AcDbEntity
  8
606368120-000-00-ED1_FORMAT
100
AcDbText
 62
90
  6
CONTINUOUS
 10
411.0416666667
 20
171.75
  7
TEXTSTYLE_2
 40
3.5
  1
C
 41
0.8333333333
 72
1
 11
412.5
 21
171.75
100
AcDbText
  0
TEXT
  5
314
100
AcDbEntity
  8
606368120-000-00-ED1_FORMAT
100
AcDbText
 62
90
  6
CONTINUOUS
 10
410.9166666667
 20
121.75
  7
TEXTSTYLE_2
 40
3.5
  1
D
 41
0.9047619048
 72
1
 11
412.5
 21
121.75
100
AcDbText
  0
TEXT
  5
315
100
AcDbEntity
  8
606368120-000-00-ED1_FORMAT
100
AcDbText
 62
90
  6
CONTINUOUS
 10
18.9166666667
 20
121.75
  7
TEXTSTYLE_2
 40
3.5
  1
D
 41
0.9047619048
 72
1
 11
20.5
 21
121.75
100
AcDbText
  0
TEXT
  5
316
100
AcDbEntity
  8
606368120-000-00-ED1_FORMAT
100
AcDbText
 62
90
  6
CONTINUOUS
 10
19.25
 20
71.75
  7
TEXTSTYLE_2
 40
3.5
  1
E
 41
0.7142857143
 72
1
 11
20.5
 21
71.75
100
AcDbText
  0
TEXT
  5
317
100
AcDbEntity
  8
606368120-000-00-ED1_FORMAT
100
AcDbText
 62
90
  6
CONTINUOUS
 10
411.25
 20
71.75
  7
TEXTSTYLE_2
 40
3.5
  1
E
 41
0.7142857143
 72
1
 11
412.5
 21
71.75
100
AcDbText
  0
TEXT
  5
318
100
AcDbEntity
  8
606368120-000-00-ED1_FORMAT
100
AcDbText
 62
90
  6
CONTINUOUS
 10
411.25
 20
21.75
  7
TEXTSTYLE_2
 40
3.5
  1
F
 41
0.7142857143
 72
1
 11
412.5
 21
21.75
100
AcDbText
  0
TEXT
  5
319
100
AcDbEntity
  8
606368120-000-00-ED1_FORMAT
100
AcDbText
 62
90
  6
CONTINUOUS
 10
19.25
 20
21.75
  7
TEXTSTYLE_2
 40
3.5
  1
F
 41
0.7142857143
 72
1
 11
20.5
 21
21.75
100
AcDbText
  0
TEXT
  5
31A
100
AcDbEntity
  8
606368120-000-00-ED1_FORMAT
100
AcDbText
 62
2
  6
CONTINUOUS
 10
266.0792011722
 20
283.4479128464
  7
STANDARD
 40
1.9999997015
  1
INDEX
 41
0.780952381
 72
0
100
AcDbText
  0
TEXT
  5
31B
100
AcDbEntity
  8
606368120-000-00-ED1_FORMAT
100
AcDbText
 62
2
  6
CONTINUOUS
 10
267.8411056711
 20
280.4479132942
  7
STANDARD
 40
1.9999997015
  1
NR.
 41
0.7142857143
 72
0
100
AcDbText
  0
TEXT
  5
31C
100
AcDbEntity
  8
606368120-000-00-ED1_FORMAT
100
AcDbText
 62
2
  6
CONTINUOUS
 10
310.3389765087
 20
281.9588201847
  7
STANDARD
 40
1.9999997015
  1
ART DER AENDERUNG
 41
0.799719888
 72
0
100
AcDbText
  0
TEXT
  5
31D
100
AcDbEntity
  8
606368120-000-00-ED1_FORMAT
100
AcDbText
 62
2
  6
CONTINUOUS
 10
379.9980938591
 20
282.0962316584
  7
STANDARD
 40
1.9999997015
  1
DATUM
 41
0.8523809524
 72
0
100
AcDbText
  0
TEXT
  5
31E
100
AcDbEntity
  8
606368120-000-00-ED1_FORMAT
100
AcDbText
 62
2
  6
CONTINUOUS
 10
397.8615854447
 20
282.0962316584
  7
STANDARD
 40
1.9999997015
  1
NAME
 41
0.8035714286
 72
0
100
AcDbText
  0
TEXT
  5
31F
100
AcDbEntity
  8
606368120-000-00-ED1_FORMAT
100
AcDbText
 62
2
  6
CONTINUOUS
 10
27.6553587823
 20
149.7733961004
  7
STANDARD
 40
3.0
  1
VORGANGS-NR.:
 50
90.0
 41
0.7399267399
 72
0
100
AcDbText
  0
TEXT
  5
320
100
AcDbEntity
  8
606368120-000-00-ED1_FORMAT
100
AcDbText
 62
2
  6
CONTINUOUS
 10
27.9024680453
 20
94.666552576
  7
STANDARD
 40
3.0
  1
PROJEKT-NR.:
 50
90.0
 41
0.7142857143
 72
0
100
AcDbText
  0
TEXT
  5
321
100
AcDbEntity
  8
606368120-000-00-ED1_FORMAT
100
AcDbText
 62
2
  6
CONTINUOUS
 10
27.9024680453
 20
11.0873145846
  7
STANDARD
 40
3.0
  1
KUNDE:
 50
90.0
 41
0.7222222222
 72
0
100
AcDbText
  0
TEXT
  5
322
100
AcDbEntity
  8
606368120-000-00-ED1_FORMAT
100
AcDbText
 62
2
  6
CONTINUOUS
 10
225.0528335394
 20
61.7772757079
  7
STANDARD
 40
1.4000001944
  1
DIE ZEICHNUNGEN,  MODELLE  ETC. BLEIBEN  UNSER  AUSSCHLIESSLICHES
 41
0.7549450549
 72
0
100
AcDbText
  0
TEXT
  5
323
100
AcDbEntity
  8
606368120-000-00-ED1_FORMAT
100
AcDbText
 62
2
  6
CONTINUOUS
 10
225.0528335394
 20
58.9772753192
  7
STANDARD
 40
1.4000001944
  1
EIGENTUM. SIE WERDEN NUR ZU DEM VEREINBARTEN  ZWECK ANVERTRAUT
 41
0.7976190476
 72
0
100
AcDbText
  0
TEXT
  5
324
100
AcDbEntity
  8
606368120-000-00-ED1_FORMAT
100
AcDbText
 62
2
  6
CONTINUOUS
 10
225.0528335394
 20
56.1772749305
  7
STANDARD
 40
1.4000001944
  1
UND DUERFEN ZU KEINEM ANDEREN  ZWECK VERWENDET WERDEN. KOPIEN
 41
0.8040593286
 72
0
100
AcDbText
  0
TEXT
  5
325
100
AcDbEntity
  8
606368120-000-00-ED1_FORMAT
100
AcDbText
 62
2
  6
CONTINUOUS
 10
225.0528335394
 20
53.3772745417
  7
STANDARD
 40
1.4000001944
  1
ODER  SONSTIGE  VERVIELFAELTIGUNGEN  DUERFEN  NUR ZU DEM VEREIN-
 41
0.7689732143
 72
0
100
AcDbText
  0
TEXT
  5
326
100
AcDbEntity
  8
606368120-000-00-ED1_FORMAT
100
AcDbText
 62
2
  6
CONTINUOUS
 10
225.0528335394
 20
50.577274153
  7
STANDARD
 40
1.4000001944
  1
BARTEN ZWECK ANGEFERTIGT WERDEN. WEDER ORIGINALE NOCH VERVIEL-
 41
0.7949308756
 72
0
100
AcDbText
  0
TEXT
  5
327
100
AcDbEntity
  8
606368120-000-00-ED1_FORMAT
100
AcDbText
 62
2
  6
CONTINUOUS
 10
225.0528335394
 20
47.7772737643
  7
STANDARD
 40
1.4000001944
  1
FAELTIGUNGEN  DUERFEN  DRITTEN  AUSGEHAENDIGT ODER IN SONSTIGER
 41
0.776266062
 72
0
100
AcDbText
  0
TEXT
  5
328
100
AcDbEntity
  8
606368120-000-00-ED1_FORMAT
100
AcDbText
 62
2
  6
CONTINUOUS
 10
225.0528335394
 20
44.9772733756
  7
STANDARD
 40
1.4000001944
  1
WEISE ZUGAENGLICH GEMACHT WERDEN.
 41
0.803030303
 72
0
100
AcDbText
  0
TEXT
  5
329
100
AcDbEntity
  8
606368120-000-00-ED1_FORMAT
100
AcDbText
 62
2
  6
CONTINUOUS
 10
225.1601630615
 20
39.378272574
  7
STANDARD
 40
1.8000002499
  1
MASSE OHNE TOLERANZANGABE
 41
0.7857142857
 72
0
100
AcDbText
  0
TEXT
  5
32A
100
AcDbEntity
  8
606368120-000-00-ED1_FORMAT
100
AcDbText
 62
2
  6
CONTINUOUS
 10
236.0244502841
 20
36.6782721992
  7
STANDARD
 40
1.8000002499
  1
ISO 2768-F
 41
0.7571428571
 72
0
100
AcDbText
  0
TEXT
  5
32B
100
AcDbEntity
  8
606368120-000-00-ED1_FORMAT
100
AcDbText
 62
2
  6
CONTINUOUS
 10
262.1543713235
 20
39.5917730329
  7
STANDARD
 40
1.8000002499
  1
UNBEMASSTE EINZELHEITEN
 41
0.7608695652
 72
0
100
AcDbText
  0
TEXT
  5
32C
100
AcDbEntity
  8
606368120-000-00-ED1_FORMAT
100
AcDbText
 62
2
  6
CONTINUOUS
 10
267.382943478
 20
36.8917726581
  7
STANDARD
 40
1.8000002499
  1
NACH WERKSNORM
 41
0.8350340136
 72
0
100
AcDbText
  0
TEXT
  5
32D
100
AcDbEntity
  8
606368120-000-00-ED1_FORMAT
100
AcDbText
 62
2
  6
CONTINUOUS
 10
150.063304016
 20
38.7910868059
  7
STANDARD
 40
2.0
  1
ZUSAETZLICH ZU VA-NR. 07.05.01 BESCHRIFTET MIT:
 41
0.7507598784
 72
1
 11
185.3490183017
 21
38.7910868059
100
AcDbText
  0
TEXT
  5
32E
100
AcDbEntity
  8
606368120-000-00-ED1_FORMAT
100
AcDbText
 62
2
  6
CONTINUOUS
 10
224.7601228044
 20
20.7999897947
  7
STANDARD
 40
2.5
  1
TECHNISCHE SPEZIFIKATION:
 41
0.7466666667
 72
0
100
AcDbText
  0
TEXT
  5
32F
100
AcDbEntity
  8
606368120-000-00-ED1_FORMAT
100
AcDbText
 62
2
  6
CONTINUOUS
 10
224.8199471988
 20
31.7602174681
  7
STANDARD
 40
2.5
  1
BENENNUNG:
 41
0.7285714286
 72
0
100
AcDbText
  0
TEXT
  5
330
100
AcDbEntity
  8
606368120-000-00-ED1_FORMAT
100
AcDbText
 62
2
  6
CONTINUOUS
 10
224.5262063004
 20
11.0903924223
  7
STANDARD
 40
1.6000002221
  1
ERSATZ F. ZCHNR.:
 41
0.7380952381
 72
0
100
AcDbText
  0
TEXT
  5
331
100
AcDbEntity
  8
606368120-000-00-ED1_FORMAT
100
AcDbText
 62
2
  6
CONTINUOUS
 10
300.4889576042
 20
10.8414910836
  7
STANDARD
 40
1.6000002221
  1
ERSETZT D. ZCHNR.:
 41
0.7473544974
 72
0
100
AcDbText
  0
TEXT
  5
332
100
AcDbEntity
  8
606368120-000-00-ED1_FORMAT
100
AcDbText
 62
2
  6
CONTINUOUS
 10
379.498513208
 20
60.814916182
  7
STANDARD
 40
2.0000002777
  1
DATUM
 41
0.8523809524
 72
0
100
AcDbText
  0
TEXT
  5
333
100
AcDbEntity
  8
606368120-000-00-ED1_FORMAT
100
AcDbText
 62
2
  6
CONTINUOUS
 10
398.0389134502
 20
60.814916182
  7
STANDARD
 40
2.0000002777
  1
NAME
 41
0.8035714286
 72
0
100
AcDbText
  0
TEXT
  5
334
100
AcDbEntity
  8
606368120-000-00-ED1_FORMAT
100
AcDbText
 62
2
  6
CONTINUOUS
 10
366.6248819325
 20
54.9911796252
  7
STANDARD
 40
2.0000002777
  1
GEZ.
 41
0.7142857143
 72
0
100
AcDbText
  0
TEXT
  5
335
100
AcDbEntity
  8
606368120-000-00-ED1_FORMAT
100
AcDbText
 62
2
  6
CONTINUOUS
 10
366.6248819325
 20
48.9031554343
  7
STANDARD
 40
2.0
  1
GEPR.
 41
0.7285714286
 72
0
100
AcDbText
  0
TEXT
  5
336
100
AcDbEntity
  8
606368120-000-00-ED1_FORMAT
100
AcDbText
 62
2
  6
CONTINUOUS
 10
366.6248819325
 20
42.8151311047
  7
STANDARD
 40
2.0
  1
FREIG.
 41
0.7023809524
 72
0
100
AcDbText
  0
TEXT
  5
337
100
AcDbEntity
  8
606368120-000-00-ED1_FORMAT
100
AcDbText
 62
2
  6
CONTINUOUS
 10
300.5448732723
 20
20.8921153842
  7
STANDARD
 40
2.5
  1
MATERIALNUMMER:
 41
0.7571428571
 72
0
100
AcDbText
  0
TEXT
  5
338
100
AcDbEntity
  8
606368120-000-00-ED1_FORMAT
100
AcDbText
 62
2
  6
CONTINUOUS
 10
345.5006276188
 20
20.8921153842
  7
STANDARD
 40
2.5
  1
ZEICHNUNGSNUMMER:
 41
0.7549019608
 72
0
100
AcDbText
  0
TEXT
  5
339
100
AcDbEntity
  8
606368120-000-00-ED1_FORMAT
100
AcDbText
 62
2
  6
CONTINUOUS
 10
400.7764463981
 20
32.1524019301
  7
STANDARD
 40
2.0
  1
ORIGIN
 41
0.7380952381
 72
0
100
AcDbText
  0
TEXT
  5
33A
100
AcDbEntity
  8
606368120-000-00-ED1_FORMAT
100
AcDbText
 62
2
  6
CONTINUOUS
 10
400.4059589228
 20
21.1649440759
  7
STANDARD
 40
2.5
  1
INDEX
 41
0.780952381
 72
0
100
AcDbText
  0
TEXT
  5
33B
100
AcDbEntity
  8
606368120-000-00-ED1_FORMAT
100
AcDbText
 62
2
  6
CONTINUOUS
 10
366.825457919
 20
36.6922441013
  7
STANDARD
 40
2.0000002777
  1
MASSSTAB: 
 41
0.7714285714
 72
0
100
AcDbText
  0
TEXT
  5
33C
100
AcDbEntity
  8
606368120-000-00-ED1_FORMAT
100
AcDbText
 62
2
  6
CONTINUOUS
 10
382.2540314895
 20
36.6922441013
  7
STANDARD
 40
2.0000002777
  1
1:1
 41
0.5
 72
0
100
AcDbText
  0
TEXT
  5
33D
100
AcDbEntity
  8
606368120-000-00-ED1_FORMAT
100
AcDbText
 62
2
  6
CONTINUOUS
 10
148.8802806988
 20
67.4938922276
  7
STANDARD
 40
2.0000002777
  1
POS
 41
0.7857142857
 72
0
100
AcDbText
  0
TEXT
  5
33E
100
AcDbEntity
  8
606368120-000-00-ED1_FORMAT
100
AcDbText
 62
2
  6
CONTINUOUS
 10
156.2800350516
 20
67.4938922276
  7
STANDARD
 40
2.0000002777
  1
TYP
 41
0.8333333333
 72
0
100
AcDbText
  0
TEXT
  5
33F
100
AcDbEntity
  8
606368120-000-00-ED1_FORMAT
100
AcDbText
 62
2
  6
CONTINUOUS
 10
163.3396899162
 20
67.5421772957
  7
STANDARD
 40
2.0000002777
  1
MENGE
 41
0.7714285714
 72
0
100
AcDbText
  0
TEXT
  5
340
100
AcDbEntity
  8
606368120-000-00-ED1_FORMAT
100
AcDbText
 62
2
  6
CONTINUOUS
 10
172.6578100909
 20
67.5585023576
  7
STANDARD
 40
2.0000002777
  1
ME
 41
0.7857142857
 72
0
100
AcDbText
  0
TEXT
  5
341
100
AcDbEntity
  8
606368120-000-00-ED1_FORMAT
100
AcDbText
 62
2
  6
CONTINUOUS
 10
181.2151302056
 20
67.5585023576
  7
STANDARD
 40
2.0000002777
  1
MATERIALNUMMER
 41
0.7857142857
 72
0
100
AcDbText
  0
TEXT
  5
342
100
AcDbEntity
  8
606368120-000-00-ED1_FORMAT
100
AcDbText
 62
2
  6
CONTINUOUS
 10
257.4508902212
 20
67.6477439033
  7
STANDARD
 40
2.0000002777
  1
BENENNUNG
 41
0.7698412698
 72
0
100
AcDbText
  0
TEXT
  5
343
100
AcDbEntity
  8
606368120-000-00-ED1_FORMAT
100
AcDbText
 62
2
  6
CONTINUOUS
 10
321.8093099266
 20
67.455938924
  7
STANDARD
 40
2.0000002777
  1
TECHNISCHE SPEZIFIKATION
 41
0.7628968254
 72
0
100
AcDbText
  0
TEXT
  5
344
100
AcDbEntity
  8
606368120-000-00-ED1_FORMAT
100
AcDbText
 62
2
  6
CONTINUOUS
 10
378.8634420866
 20
67.8395488825
  7
STANDARD
 40
2.0000002777
  1
KUNDENNUMMER
 41
0.7956349206
 72
0
100
AcDbText
  0
TEXT
  5
345
100
AcDbEntity
  8
606368120-000-00-ED1_FORMAT
100
AcDbText
 62
2
  6
CONTINUOUS
 10
378.2047936993
 20
10.9096736719
  7
STANDARD
 40
1.6
  1
BLATT   V.   BLAETTERN
 41
0.7781385281
 72
0
100
AcDbText
  0
TEXT
  5
346
100
AcDbEntity
  8
606368120-000-00-ED1_FORMAT
100
AcDbText
 62
2
  6
CONTINUOUS
 10
385.137224502
 20
10.8641703019
  7
STANDARD
 40
1.6
  1
1
 41
0.5714285714
 72
0
100
AcDbText
  0
TEXT
  5
347
100
AcDbEntity
  8
606368120-000-00-ED1_FORMAT
100
AcDbText
 62
2
  6
CONTINUOUS
 10
391.2747609807
 20
10.9140689725
  7
STANDARD
 40
1.6
  1
1
 41
0.5714285714
 72
0
100
AcDbText
  0
TEXT
  5
348
100
AcDbEntity
  8
606368120-000-00-ED1_FORMAT
100
AcDbText
 62
2
  6
CONTINUOUS
 10
398.7751202552
 20
36.7556960436
  7
STANDARD
 40
2.0
  1
A3
 41
0.7857142857
 72
0
100
AcDbText
  0
TEXT
  5
349
100
AcDbEntity
  8
606368120-000-00-ED1_FORMAT
100
AcDbText
 62
2
  6
CONTINUOUS
 10
23.9272382303
 20
282.7195210512
  7
STANDARD
 40
1.9999995576
  1
MASCH.-NR.:
 41
0.7186147186
 72
0
100
AcDbText
  0
TEXT
  5
34A
100
AcDbEntity
  8
606368120-000-00-ED1_FORMAT
100
AcDbText
 62
2
  6
CONTINUOUS
 10
61.221262923
 20
282.7441697896
  7
STANDARD
 40
1.9999995184
  1
STATION:
 41
0.7410714286
 72
0
100
AcDbText
  0
TEXT
  5
34B
100
AcDbEntity
  8
606368120-000-00-ED1_FORMAT
100
AcDbText
 62
2
  6
CONTINUOUS
 10
99.2119750426
 20
282.7441697896
  7
STANDARD
 40
1.9999995184
  1
SPINDEL:
 41
0.7023809524
 72
0
100
AcDbText
  0
TEXT
  5
34C
100
AcDbEntity
  8
606368120-000-00-ED1_FORMAT
100
AcDbText
 62
2
  6
CONTINUOUS
 10
23.5637846434
 20
277.4328879656
  7
STANDARD
 40
1.9999995576
  1
WERKST.-BEN.:
 41
0.7527472527
 72
0
100
AcDbText
  0
TEXT
  5
34D
100
AcDbEntity
  8
606368120-000-00-ED1_FORMAT
100
AcDbText
 62
2
  6
CONTINUOUS
 10
23.7506774
 20
266.657832536
  7
STANDARD
 40
1.9999995184
  1
WERKSTOFF:
 41
0.7857142857
 72
0
100
AcDbText
  0
TEXT
  5
34E
100
AcDbEntity
  8
606368120-000-00-ED1_FORMAT
100
AcDbText
 62
2
  6
CONTINUOUS
 10
99.2058269153
 20
260.6643446337
  7
STANDARD
 40
1.9999995184
  1
BOHRUNGS-NR.:
 41
0.7307692308
 72
0
100
AcDbText
  0
TEXT
  5
34F
100
AcDbEntity
  8
606368120-000-00-ED1_FORMAT
100
AcDbText
 62
2
  6
CONTINUOUS
 10
23.8681648642
 20
272.062255871
  7
STANDARD
 40
1.9999995576
  1
WERKST.-NR.:
 41
0.755952381
 72
0
100
AcDbText
  0
TEXT
  5
350
100
AcDbEntity
  8
606368120-000-00-ED1_FORMAT
100
AcDbText
 62
2
  6
CONTINUOUS
 10
61.140009526
 20
260.6643443929
  7
STANDARD
 40
2.0
  1
OP-NR.:
 41
0.6836734694
 72
0
100
AcDbText
  0
TEXT
  5
351
100
AcDbEntity
  8
606368120-000-00-ED1_FORMAT
100
AcDbText
 62
2
  6
CONTINUOUS
 10
23.9309790234
 20
260.9091406462
  7
STANDARD
 40
2.0
  1
TOOL-NR.:
 41
0.6984126984
 72
0
100
AcDbText
  0
TEXT
  5
352
100
AcDbEntity
  8
606368120-000-00-ED1_FORMAT
100
AcDbText
 62
2
  6
CONTINUOUS
 10
326.44999432
 20
53.0000824065
  7
STANDARD
 40
2.5
  1
Präzisionswerkzeuge
 41
0.7147869674
 72
0
100
AcDbText
  0
TEXT
  5
353
100
AcDbEntity
  8
606368120-000-00-ED1_FORMAT
100
AcDbText
 62
2
  6
CONTINUOUS
 10
326.44999432
 20
48.4000824065
  7
STANDARD
 40
2.5
  1
Dr. Kress KG
 41
0.751984127
 72
0
100
AcDbText
  0
TEXT
  5
354
100
AcDbEntity
  8
606368120-000-00-ED1_FORMAT
100
AcDbText
 62
2
  6
CONTINUOUS
 10
326.44999432
 20
57.6000824065
  7
STANDARD
 40
2.5
  1
MAPAL
 41
0.8380952381
 72
0
100
AcDbText
  0
INSERT
  5
355
100
AcDbEntity
  8
606368120-000-00-ED1_FORMAT
100
AcDbBlockReference
 62
3
  6
CONTINUOUS
  2
BARCODEBOX_BL0
 10
87.5
 20
46.5
  0
DIMENSION
  5
356
100
AcDbEntity
  8
30329458_DIM
100
AcDbDimension
 62
3
  6
CONTINUOUS
  2
*D0
 10
212.3638798129
 20
120.0083603448
 11
145.6050600403
 21
119.5708603448
 70
160
 71
3
 42
10.0
  1
<>\PVERSTELLWEG
  3
DIMSTYLE_1
100
AcDbAlignedDimension
 13
202.3638798129
 23
156.9870110776
 14
212.3638798129
 24
157.0083603448
100
AcDbRotatedDimension
  0
DIMENSION
  5
357
100
AcDbEntity
  8
30338729_DIM
100
AcDbDimension
 62
3
  6
CONTINUOUS
  2
*D1
 10
235.4448187365
 20
171.6038142089
 11
237.614472975
 21
194.802878799
 70
162
 71
2
 42
0.0785398163
  3
DIMSTYLE_2
100
AcDb2LineAngularDimension
 13
234.8713617923
 23
157.0083603448
 14
249.3377150693
 24
157.0083603448
 15
248.4423389086
 25
170.5808871869
 16
236.5136248684
 26
164.2528281772
  0
DIMENSION
  5
358
100
AcDbEntity
  8
30338729_DIM
100
AcDbDimension
 62
3
  6
CONTINUOUS
  2
*D2
 10
187.3638798129
 20
175.0083603448
 11
200.3365294037
 21
186.5016898386
 70
164
 71
1
 42
1.0
  1
<>
  3
DIMSTYLE_3
100
AcDbRadialDimension
 15
186.523582669
 25
174.4662342434
  0
DIMENSION
  5
359
100
AcDbEntity
  8
30338729_DIM
100
AcDbDimension
 62
3
  6
CONTINUOUS
  2
*D3
 10
195.3638798129
 20
203.0083603448
 11
174.9271488989
 21
205.6333603448
 70
160
 71
3
 42
6.0
  1
M<>(4x)
  3
DIMSTYLE_4
100
AcDbAlignedDimension
 13
189.3638798129
 23
173.8583603448
 14
195.3638798129
 24
173.8583603448
100
AcDbRotatedDimension
  0
DIMENSION
  5
35A
100
AcDbEntity
  8
30338729_DIM
100
AcDbDimension
 62
3
  6
CONTINUOUS
  2
*D4
 10
249.3638798129
 20
100.0083603448
 11
218.2388798129
 21
102.6333603448
 70
160
 71
2
 42
57.0
  3
DIMSTYLE_5
100
AcDbAlignedDimension
 13
192.3638798129
 23
139.2763482977
 14
249.3638798129
 24
144.6872764472
100
AcDbRotatedDimension
  0
DIMENSION
  5
35B
100
AcDbEntity
  8
30338729_DIM
100
AcDbDimension
 62
3
  6
CONTINUOUS
  2
*D5
 10
249.3638798129
 20
110.0083603448
 11
223.1138798129
 21
112.6333603448
 70
160
 71
2
 42
47.0
  3
DIMSTYLE_5
100
AcDbAlignedDimension
 13
202.3638798129
 23
149.4103688556
 14
249.3638798129
 24
144.7440229725
100
AcDbRotatedDimension
  0
DIMENSION
  5
35C
100
AcDbEntity
  8
30338729_DIM
100
AcDbDimension
 62
3
  6
CONTINUOUS
  2
*D6
 10
164.3638798129
 20
223.0083603448
 11
204.2388798129
 21
225.6333603448
 70
160
 71
2
 42
85.0
  3
DIMSTYLE_5
100
AcDbAlignedDimension
 13
249.3638798129
 23
169.3748139651
 14
164.3638798129
 24
172.8716854898
 50
180.0
100
AcDbRotatedDimension
  0
DIMENSION
  5
35D
100
AcDbEntity
  8
30338729_DIM
100
AcDbDimension
 62
3
  6
CONTINUOUS
  2
*D7
 10
105.9638798129
 20
162.0083603448
 11
105.0751650754
 21
136.3035856622
 70
160
 71
3
 42
10.0
  1
M<>x1
  3
DIMSTYLE_1
100
AcDbAlignedDimension
 13
184.3638798129
 23
152.0083603448
 14
184.3638798129
 24
162.0083603448
 50
90.0
100
AcDbRotatedDimension
  0
DIMENSION
  5
35E
100
AcDbEntity
  8
30338729_DIM
100
AcDbDimension
 62
3
  6
CONTINUOUS
  2
*D8
 10
264.3638798129
 20
164.0083603448
 11
262.7937197842
 21
154.9037431993
 70
160
 71
2
 42
14.0
  1
%%c<>
  3
DIMSTYLE_1
100
AcDbAlignedDimension
 13
247.3602298105
 23
150.0083603448
 14
247.3638798129
 24
164.0083603448
 50
90.0
100
AcDbRotatedDimension
  0
LEADER
  5
35F
100
AcDbEntity
  8
606368120-000-00-ED1_CL
100
AcDbLeader
 62
3
  6
CONTINUOUS
  3
STANDARD
 71
1
 72
0
 73
2
 75
0
 76
3
 10
264.3638798129
 20
150.0083603448
 30
0.0
 10
264.3638798129
 20
130.0083603448
 30
0.0
 10
264.3639218549
 20
130.0083603448
 30
0.0
340
360
1001
ACAD
1000
DSTYLE
1002
{
1070
77
1070
0
1002
}
  0
INSERT
  5
360
102
{ACAD_REACTORS
330
35F
102
}
100
AcDbEntity
  8
606368120-000-00-ED1_CL
100
AcDbBlockReference
 62
3
  6
CONTINUOUS
  2
GEOM_TOLERANCE_SYMBOLS_BL1
 10
281.3639223189
 20
130.0083604568
  0
TEXT
  5
361
100
AcDbEntity
  8
0
100
AcDbText
 62
2
  6
CONTINUOUS
 10
269.3638798129
 20
118.2583603448
  7
STANDARD
 40
3.5
  1
FUER SCHAEFTE MIT
 41
0.7759103641
 72
0
100
AcDbText
  0
TEXT
  5
362
100
AcDbEntity
  8
0
100
AcDbText
 62
2
  6
CONTINUOUS
 10
269.3638798129
 20
113.0083603448
  7
STANDARD
 40
3.5
  1
TOLERANZFELD h6
 41
0.7650793651
 72
0
100
AcDbText
  0
LEADER
  5
363
100
AcDbEntity
  8
0
100
AcDbLeader
 62
3
  6
CONTINUOUS
  3
STANDARD
 71
1
 72
0
 73
3
 75
0
 76
3
 10
264.3638798129
 20
150.0083603448
 30
0.0
 10
264.3638798129
 20
120.0083603448
 30
0.0
 10
269.3638798129
 20
120.0083603448
 30
0.0
1001
ACAD
1000
DSTYLE
1002
{
1070
77
1070
0
1002
}
  0
DIMENSION
  5
364
100
AcDbEntity
  8
30338729_DIM
100
AcDbDimension
 62
3
  6
CONTINUOUS
  2
*D9
 10
204.8921632363
 20
213.0083603448
 11
224.2530215246
 21
215.6333603448
 70
160
 71
2
 42
44.4717165766
  1
(<>)
  3
DIMSTYLE_6
100
AcDbAlignedDimension
 13
249.3638798129
 23
169.5839698532
 14
204.8921632363
 24
174.0083603448
 50
180.0
100
AcDbRotatedDimension
  0
DIMENSION
  5
365
100
AcDbEntity
  8
30338729_DIM
100
AcDbDimension
 62
3
  6
CONTINUOUS
  2
*D10
 10
284.3638798129
 20
174.0083603448
 11
282.8497289862
 21
154.7919936163
 70
160
 71
2
 42
34.0
  1
%%c<>
  3
DIMSTYLE_5
100
AcDbAlignedDimension
 13
204.8921632363
 23
140.0083603448
 14
204.8921632363
 24
174.0083603448
 50
90.0
100
AcDbRotatedDimension
  0
DIMENSION
  5
366
100
AcDbEntity
  8
30338729_DIM
100
AcDbDimension
 62
3
  6
CONTINUOUS
  2
*D11
 10
274.3638798129
 20
170.5083603448
 11
272.8777335872
 21
154.7361188248
 70
160
 71
2
 42
27.0
  1
%%c<>
  3
DIMSTYLE_1
100
AcDbAlignedDimension
 13
249.3638798129
 23
143.5083603448
 14
249.3638798129
 24
170.5083603448
 50
90.0
100
AcDbRotatedDimension
  0
LINE
  5
367
100
AcDbEntity
  8
606368120-000-00-ED1_FORMAT
100
AcDbLine
 62
3
  6
CONTINUOUS
 10
264.9
 20
287.0000007463
 11
410.0
 21
287.0000007463
  0
LINE
  5
368
100
AcDbEntity
  8
606368120-000-00-ED1_FORMAT
100
AcDbLine
 62
3
  6
CONTINUOUS
 10
264.9
 20
287.0000007463
 11
264.9
 21
225.0000007463
  0
LINE
  5
369
100
AcDbEntity
  8
606368120-000-00-ED1_FORMAT
100
AcDbLine
 62
3
  6
CONTINUOUS
 10
264.9
 20
225.0000007463
 11
410.0
 21
225.0000007463
  0
LINE
  5
36A
100
AcDbEntity
  8
606368120-000-00-ED1_FORMAT
100
AcDbLine
 62
3
  6
CONTINUOUS
 10
410.0
 20
287.0000007463
 11
410.0
 21
225.0000007463
  0
LINE
  5
36B
100
AcDbEntity
  8
606368120-000-00-ED1_FORMAT
100
AcDbLine
 62
3
  6
CONTINUOUS
 10
23.0
 20
10.0
 11
23.0
 21
210.0
  0
LINE
  5
36C
100
AcDbEntity
  8
606368120-000-00-ED1_FORMAT
100
AcDbLine
 62
3
  6
CONTINUOUS
 10
23.0
 20
10.0
 11
29.0
 21
10.0
  0
LINE
  5
36D
100
AcDbEntity
  8
606368120-000-00-ED1_FORMAT
100
AcDbLine
 62
3
  6
CONTINUOUS
 10
29.0
 20
10.0
 11
29.0
 21
210.0
  0
LINE
  5
36E
100
AcDbEntity
  8
606368120-000-00-ED1_FORMAT
100
AcDbLine
 62
3
  6
CONTINUOUS
 10
23.0
 20
210.0
 11
29.0
 21
210.0
  0
LINE
  5
36F
100
AcDbEntity
  8
606368120-000-00-ED1_FORMAT
100
AcDbLine
 62
3
  6
CONTINUOUS
 10
146.999991584
 20
65.00000176
 11
410.000001584
 21
65.00000176
  0
LINE
  5
370
100
AcDbEntity
  8
606368120-000-00-ED1_FORMAT
100
AcDbLine
 62
3
  6
CONTINUOUS
 10
146.999991584
 20
65.00000176
 11
146.999991584
 21
78.50000176
  0
LINE
  5
371
100
AcDbEntity
  8
606368120-000-00-ED1_FORMAT
100
AcDbLine
 62
3
  6
CONTINUOUS
 10
146.999991584
 20
72.50000176
 11
410.000001584
 21
72.50000176
  0
LINE
  5
372
100
AcDbEntity
  8
606368120-000-00-ED1_FORMAT
100
AcDbLine
 62
3
  6
CONTINUOUS
 10
146.999991584
 20
78.50000176
 11
410.000001584
 21
78.50000176
  0
LINE
  5
373
100
AcDbEntity
  8
606368120-000-00-ED1_FORMAT
100
AcDbLine
 62
3
  6
CONTINUOUS
 10
154.499991584
 20
65.00000176
 11
154.499991584
 21
78.50000176
  0
LINE
  5
374
100
AcDbEntity
  8
606368120-000-00-ED1_FORMAT
100
AcDbLine
 62
3
  6
CONTINUOUS
 10
161.999991584
 20
65.00000176
 11
161.999991584
 21
78.50000176
  0
LINE
  5
375
100
AcDbEntity
  8
606368120-000-00-ED1_FORMAT
100
AcDbLine
 62
3
  6
CONTINUOUS
 10
171.398801584
 20
65.00000176
 11
171.398801584
 21
78.50000176
  0
LINE
  5
376
100
AcDbEntity
  8
606368120-000-00-ED1_FORMAT
100
AcDbLine
 62
3
  6
CONTINUOUS
 10
176.398801584
 20
65.00000176
 11
176.398801584
 21
78.50000176
  0
LINE
  5
377
100
AcDbEntity
  8
606368120-000-00-ED1_FORMAT
100
AcDbLine
 62
3
  6
CONTINUOUS
 10
208.000001584
 20
65.00000176
 11
208.000001584
 21
78.50000176
  0
LINE
  5
378
100
AcDbEntity
  8
606368120-000-00-ED1_FORMAT
100
AcDbLine
 62
3
  6
CONTINUOUS
 10
314.000001584
 20
65.00000176
 11
314.000001584
 21
78.50000176
  0
LINE
  5
379
100
AcDbEntity
  8
606368120-000-00-ED1_FORMAT
100
AcDbLine
 62
3
  6
CONTINUOUS
 10
366.000001584
 20
65.00000176
 11
366.000001584
 21
78.50000176
  0
LINE
  5
37A
100
AcDbEntity
  8
606368120-000-00-ED1_FORMAT
100
AcDbLine
 62
3
  6
CONTINUOUS
 10
410.000001584
 20
65.00000176
 11
410.000001584
 21
78.50000176
  0
TEXT
  5
37B
100
AcDbEntity
  8
606368120-000-00-ED1_FORMAT
100
AcDbText
 62
2
  6
CONTINUOUS
 10
148.224991584
 20
74.25000176
  7
STANDARD
 40
2.0
  1
1
 41
0.5714285714
 72
0
100
AcDbText
  0
TEXT
  5
37C
100
AcDbEntity
  8
606368120-000-00-ED1_FORMAT
100
AcDbText
 62
2
  6
CONTINUOUS
 10
163.224991584
 20
74.25000176
  7
STANDARD
 40
2.0
  1
1
 41
0.5714285714
 72
0
100
AcDbText
  0
TEXT
  5
37D
100
AcDbEntity
  8
606368120-000-00-ED1_FORMAT
100
AcDbText
 62
2
  6
CONTINUOUS
 10
177.623801584
 20
74.25000176
  7
STANDARD
 40
2.0
  1
30252542
 41
0.7589285714
 72
0
100
AcDbText
  0
TEXT
  5
37E
100
AcDbEntity
  8
606368120-000-00-ED1_FORMAT
100
AcDbText
 62
2
  6
CONTINUOUS
 10
209.225001584
 20
74.25000176
  7
STANDARD
 40
2.0
  1
ANSCHLAGSCHRAUBE
 41
0.7916666667
 72
0
100
AcDbText
  0
TEXT
  5
37F
100
AcDbEntity
  8
606368120-000-00-ED1_FORMAT
100
AcDbText
 62
2
  6
CONTINUOUS
 10
315.225001584
 20
74.25000176
  7
STANDARD
 40
2.0
  1
M10X1 SW5
 41
0.8095238095
 72
0
100
AcDbText
  0
TEXT
  5
380
100
AcDbEntity
  8
606368120-000-00-ED1_FORMAT
100
AcDbText
 62
2
  6
CONTINUOUS
 10
406.5221444411
 20
76.72000176
  7
STANDARD
 40
0.03
  1
30252542_HP
 41
0.7662337662
 72
2
 11
406.775001584
 21
76.72000176
100
AcDbText
  0
TEXT
  5
381
100
AcDbEntity
  8
606368120-000-00-ED1_FORMAT
100
AcDbText
 62
2
  6
CONTINUOUS
 10
407.7257158697
 20
76.72000176
  7
STANDARD
 40
0.03
  1
KA
 41
0.8214285714
 72
2
 11
407.775001584
 21
76.72000176
100
AcDbText
  0
TEXT
  5
382
100
AcDbEntity
  8
606368120-000-00-ED1_FORMAT
100
AcDbText
 62
2
  6
CONTINUOUS
 10
408.7278587269
 20
76.72000176
  7
STANDARD
 40
0.03
  1
HP
 41
0.7857142857
 72
2
 11
408.775001584
 21
76.72000176
100
AcDbText
  0
LINE
  5
383
100
AcDbEntity
  8
606368120-000-00-ED1_FORMAT
100
AcDbLine
 62
3
  6
CONTINUOUS
 10
23.0
 20
287.0
 11
135.0
 21
287.0
  0
LINE
  5
384
100
AcDbEntity
  8
606368120-000-00-ED1_FORMAT
100
AcDbLine
 62
3
  6
CONTINUOUS
 10
23.0
 20
287.0
 11
23.0
 21
259.00001
  0
LINE
  5
385
100
AcDbEntity
  8
606368120-000-00-ED1_FORMAT
100
AcDbLine
 62
3
  6
CONTINUOUS
 10
23.0
 20
259.00001
 11
135.0
 21
259.00001
  0
LINE
  5
386
100
AcDbEntity
  8
606368120-000-00-ED1_FORMAT
100
AcDbLine
 62
3
  6
CONTINUOUS
 10
135.0
 20
287.0
 11
135.0
 21
259.00001
  0
LINE
  5
387
100
AcDbEntity
  8
606368120-000-00-ED1_FORMAT
100
AcDbLine
 62
3
  6
CONTINUOUS
 10
146.999991584
 20
65.00000176
 11
409.999961584
 21
65.00000176
  0
LINE
  5
388
100
AcDbEntity
  8
606368120-000-00-ED1_FORMAT
100
AcDbLine
 62
3
  6
CONTINUOUS
 10
146.999991584
 20
65.00000176
 11
146.999991584
 21
10.00000176
  0
LINE
  5
389
100
AcDbEntity
  8
606368120-000-00-ED1_FORMAT
100
AcDbLine
 62
3
  6
CONTINUOUS
 10
146.999991584
 20
10.00000176
 11
409.999961584
 21
10.00000176
  0
LINE
  5
38A
100
AcDbEntity
  8
606368120-000-00-ED1_FORMAT
100
AcDbLine
 62
3
  6
CONTINUOUS
 10
409.999961584
 20
65.00000176
 11
409.999961584
 21
10.00000176
  0
TEXT
  5
38B
100
AcDbEntity
  8
606368120-000-00-ED1_FORMAT
100
AcDbText
 62
2
  6
CONTINUOUS
 10
184.5178487269
 20
60.75000176
  7
STANDARD
 40
2.5
  1
 
 41
0.7857142857
 72
1
 11
185.499991584
 21
60.75000176
100
AcDbText
  0
TEXT
  5
38C
100
AcDbEntity
  8
606368120-000-00-ED1_FORMAT
100
AcDbText
 62
2
  6
CONTINUOUS
 10
154.130943965
 20
58.24975176
  7
STANDARD
 40
2.5
  1
AUSWUCHTGUETE DIN ISO 1940-G 
 41
0.7939244663
 72
1
 11
182.9107058697
 21
58.24975176
100
AcDbText
  0
TEXT
  5
38D
100
AcDbEntity
  8
606368120-000-00-ED1_FORMAT
100
AcDbText
 62
2
  6
CONTINUOUS
 10
211.6904677745
 20
58.24975176
  7
STANDARD
 40
2.5
  1
2.5
 41
0.6904761905
 72
1
 11
214.2797534888
 21
58.24975176
100
AcDbText
  0
TEXT
  5
38E
100
AcDbEntity
  8
606368120-000-00-ED1_FORMAT
100
AcDbText
 62
2
  6
CONTINUOUS
 10
184.5178487269
 20
56.57968176
  7
STANDARD
 40
2.5
  1
 
 41
0.7857142857
 72
1
 11
185.499991584
 21
56.57968176
100
AcDbText
  0
TEXT
  5
38F
100
AcDbEntity
  8
606368120-000-00-ED1_FORMAT
100
AcDbText
 62
2
  6
CONTINUOUS
 10
167.7321344411
 20
52.82968176
  7
STANDARD
 40
2.5
  1
(KOMPLETT MONTIERT)
 41
0.7481203008
 72
1
 11
185.499991584
 21
52.82968176
100
AcDbText
  0
TEXT
  5
390
100
AcDbEntity
  8
606368120-000-00-ED1_FORMAT
100
AcDbText
 62
2
  6
CONTINUOUS
 10
378.122491584
 20
54.95468176
  7
STANDARD
 40
2.0
  1
05.11.14
 41
0.6428571429
 72
0
100
AcDbText
  0
TEXT
  5
391
100
AcDbEntity
  8
606368120-000-00-ED1_FORMAT
100
AcDbText
 62
2
  6
CONTINUOUS
 10
398.5201551554
 20
54.95468176
  7
STANDARD
 40
2.0
  1
MUS
 41
0.8095238095
 72
1
 11
400.948726584
 21
54.95468176
100
AcDbText
  0
TEXT
  5
392
100
AcDbEntity
  8
606368120-000-00-ED1_FORMAT
100
AcDbText
 62
2
  6
CONTINUOUS
 10
157.8511820602
 20
46.82968176
  7
STANDARD
 40
2.5
  1
FUER NENNDREHZAHL 
 41
0.7724867725
 72
1
 11
175.2321344411
 21
46.82968176
100
AcDbText
  0
TEXT
  5
393
100
AcDbEntity
  8
606368120-000-00-ED1_FORMAT
100
AcDbText
 62
2
  6
CONTINUOUS
 10
192.6130868221
 20
46.82968176
  7
STANDARD
 40
2.5
  1
25000
 41
0.7714285714
 72
1
 11
197.4345153935
 21
46.82968176
100
AcDbText
  0
TEXT
  5
394
100
AcDbEntity
  8
606368120-000-00-ED1_FORMAT
100
AcDbText
 62
2
  6
CONTINUOUS
 10
202.255943965
 20
46.82968176
  7
STANDARD
 40
2.5
  1
 MIN
 41
0.7678571429
 72
1
 11
206.0952296792
 21
46.82968176
100
AcDbText
  0
TEXT
  5
395
100
AcDbEntity
  8
606368120-000-00-ED1_FORMAT
100
AcDbText
 62
2
  6
CONTINUOUS
 10
209.9345153935
 20
48.70468176
  7
STANDARD
 40
2.5
  1
-1
 41
0.6428571429
 72
1
 11
211.5416582507
 21
48.70468176
100
AcDbText
  0
TEXT
  5
396
100
AcDbEntity
  8
606368120-000-00-ED1_FORMAT
100
AcDbText
 62
7
  6
CONTINUOUS
 10
225.224991584
 20
26.00000176
  7
STANDARD
 40
2.5
  1
THERMOCHUCK, SK, STANDARDAUSFUEHRUNG
 41
0.789021164
 72
0
100
AcDbText
  0
TEXT
  5
397
100
AcDbEntity
  8
606368120-000-00-ED1_FORMAT
100
AcDbText
 62
2
  6
CONTINUOUS
 10
402.5951996792
 20
26.00000176
  7
STANDARD
 40
2.0
  1
EHD
 41
0.8015873016
 72
1
 11
404.999961584
 21
26.00000176
100
AcDbText
  0
TEXT
  5
398
100
AcDbEntity
  8
606368120-000-00-ED1_FORMAT
100
AcDbText
 62
7
  6
CONTINUOUS
 10
225.224991584
 20
15.25000176
  7
STANDARD
 40
2.5
  1
MTC-BT030-14-085-1-0-A
 41
0.7554112554
 72
0
100
AcDbText
  0
TEXT
  5
399
100
AcDbEntity
  8
606368120-000-00-ED1_FORMAT
100
AcDbText
 62
7
  6
CONTINUOUS
 10
301.224991584
 20
15.25000176
  7
STANDARD
 40
2.5
  1
30329458
 41
0.7589285714
 72
0
100
AcDbText
  0
TEXT
  5
39A
100
AcDbEntity
  8
606368120-000-00-ED1_FORMAT
100
AcDbText
 62
7
  6
CONTINUOUS
 10
346.224991584
 20
15.25000176
  7
STANDARD
 40
2.5
  1
606368120-000-00-ED1
 41
0.7523809524
 72
0
100
AcDbText
  0
TEXT
  5
39B
100
AcDbEntity
  8
606368120-000-00-ED1_FORMAT
100
AcDbText
 62
2
  6
CONTINUOUS
 10
403.0356758697
 20
15.25000176
  7
STANDARD
 40
2.5
  1
00
 41
0.7857142857
 72
1
 11
404.999961584
 21
15.25000176
100
AcDbText
  0
TEXT
  5
39C
100
AcDbEntity
  8
606368120-000-00-ED1_FORMAT
100
AcDbText
 62
2
  6
CONTINUOUS
 10
323.724991584
 20
10.95000176
  7
STANDARD
 40
1.6
  1
SD1 212821
 41
0.7333333333
 72
0
100
AcDbText
  0
LINE
  5
39D
100
AcDbEntity
  8
606368120-000-00-ED1_FORMAT
100
AcDbLine
 62
3
  6
CONTINUOUS
 10
29.0
 20
10.0
 11
29.0
 21
145.0
  0
LINE
  5
39E
100
AcDbEntity
  8
606368120-000-00-ED1_FORMAT
100
AcDbLine
 62
3
  6
CONTINUOUS
 10
29.0
 20
10.0
 11
35.0
 21
10.0
  0
LINE
  5
39F
100
AcDbEntity
  8
606368120-000-00-ED1_FORMAT
100
AcDbLine
 62
3
  6
CONTINUOUS
 10
35.0
 20
10.0
 11
35.0
 21
145.0
  0
LINE
  5
3A0
100
AcDbEntity
  8
606368120-000-00-ED1_FORMAT
100
AcDbLine
 62
3
  6
CONTINUOUS
 10
29.0
 20
80.0
 11
35.0
 21
80.0
  0
LINE
  5
3A1
100
AcDbEntity
  8
606368120-000-00-ED1_FORMAT
100
AcDbLine
 62
3
  6
CONTINUOUS
 10
29.0
 20
145.0
 11
35.0
 21
145.0
  0
TEXT
  5
3A2
100
AcDbEntity
  8
606368120-000-00-ED1_FORMAT
100
AcDbText
 62
2
  6
CONTINUOUS
 10
34.0
 20
11.225
  7
STANDARD
 40
3.0
  1
AEHNLICH:
 50
90.0
 41
0.7116402116
 72
0
100
AcDbText
  0
TEXT
  5
3A3
100
AcDbEntity
  8
606368120-000-00-ED1_FORMAT
100
AcDbText
 62
2
  6
CONTINUOUS
 10
34.0
 20
81.225
  7
STANDARD
 40
3.0
  1
SKIZZE:
 50
90.0
 41
0.693877551
 72
0
100
AcDbText
  0
LINE
  5
3A4
100
AcDbEntity
  8
606368120-000-00-ED1_FORMAT
100
AcDbLine
 62
3
  6
CONTINUOUS
 10
365.999998592
 20
35.0000008
 11
294.999998592
 21
35.0000008
  0
LINE
  5
3A5
100
AcDbEntity
  8
606368120-000-00-ED1_FORMAT
100
AcDbLine
 62
3
  6
CONTINUOUS
 10
365.999998592
 20
35.0000008
 11
365.999998592
 21
43.5000008
  0
LINE
  5
3A6
100
AcDbEntity
  8
606368120-000-00-ED1_FORMAT
100
AcDbLine
 62
3
  6
CONTINUOUS
 10
365.999998592
 20
43.5000008
 11
294.999998592
 21
43.5000008
  0
LINE
  5
3A7
100
AcDbEntity
  8
606368120-000-00-ED1_FORMAT
100
AcDbLine
 62
3
  6
CONTINUOUS
 10
294.999998592
 20
35.0000008
 11
294.999998592
 21
43.5000008
  0
TEXT
  5
3A8
100
AcDbEntity
  8
606368120-000-00-ED1_FORMAT
100
AcDbText
 62
2
  6
CONTINUOUS
 10
304.9642843063
 20
38.0000008
  7
STANDARD
 40
2.5
  1
PATENTRECHTLICH GESCHUETZT
 41
0.7857142857
 72
1
 11
330.499998592
 21
38.0000008
100
AcDbText
  0
TEXT
  5
3A9
100
AcDbEntity
  8
606368120-000-00-ED1_TEXT
100
AcDbText
 62
2
  6
CONTINUOUS
 10
150.62412295
 20
244.424144776
  7
STANDARD
 40
5.0
  1
TRENNSTELLE STEILKEGEL 30-JD
 41
0.7534013605
 72
0
100
AcDbText
  0
TEXT
  5
3AA
100
AcDbEntity
  8
606368120-000-00-ED1_TEXT
100
AcDbText
 62
2
  6
CONTINUOUS
 10
150.62412295
 20
236.924144776
  7
STANDARD
 40
5.0
  1
(AEHNLICH ISO 7388-2)
 41
0.7267573696
 72
0
100
AcDbText
  0
INSERT
  5
3AB
100
AcDbEntity
  8
606368120-000-00-ED1_CL
100
AcDbBlockReference
 62
3
  6
CONTINUOUS
  2
GEOM_TOLERANCE_SYMBOLS_BL2
 10
140.4106146175
 20
175.9082369504
  0
LEADER
  5
3AC
100
AcDbEntity
  8
606368120-000-00-ED1_CL
100
AcDbLeader
 62
3
  6
CONTINUOUS
  3
STANDARD
 71
1
 72
0
 73
2
 75
0
 76
2
 10
198.841828412
 20
159.5083603448
 30
0.0
 10
215.9741696901
 20
187.7705795316
 30
0.0
340
3AD
1001
ACAD
1000
DSTYLE
1002
{
1070
77
1070
0
1070
341
1005
21B
1002
}
  0
INSERT
  5
3AD
102
{ACAD_REACTORS
330
3AC
102
}
100
AcDbEntity
  8
606368120-000-00-ED1_CL
100
AcDbBlockReference
 62
3
  6
CONTINUOUS
  2
BOMBALLOON_BL3
 10
219.1492723896
 20
193.0083603448
  0
LINE
  5
3AE
100
AcDbEntity
  8
606368120-000-00-ED1_FORMAT
100
AcDbLine
 62
6
  6
HIDDEN
 10
0.0
 20
297.0
 11
0.0
 21
0.0
  0
LINE
  5
3AF
100
AcDbEntity
  8
606368120-000-00-ED1_FORMAT
100
AcDbLine
 62
7
  6
CONTINUOUS
 10
18.0
 20
292.0
 11
18.0
 21
5.0
  0
LINE
  5
3B0
100
AcDbEntity
  8
606368120-000-00-ED1_FORMAT
100
AcDbLine
 62
3
  6
CONTINUOUS
 10
23.0
 20
259.0000097341
 11
23.0
 21
10.0
  0
LINE
  5
3B1
100
AcDbEntity
  8
606368120-000-00-ED1_FORMAT
100
AcDbLine
 62
7
  6
CONTINUOUS
 10
23.0
 20
259.0000097341
 11
23.0
 21
287.0
  0
LINE
  5
3B2
100
AcDbEntity
  8
606368120-000-00-ED1_FORMAT
100
AcDbLine
 62
3
  6
CONTINUOUS
 10
28.9999998068
 20
9.9999999122
 11
28.9999998068
 21
209.9999964
  0
LINE
  5
3B3
100
AcDbEntity
  8
606368120-000-00-ED1_FORMAT
100
AcDbLine
 62
3
  6
CONTINUOUS
 10
60.0
 20
10.0
 11
60.0
 21
5.0
  0
LINE
  5
3B4
100
AcDbEntity
  8
606368120-000-00-ED1_FORMAT
100
AcDbLine
 62
3
  6
CONTINUOUS
 10
60.0
 20
287.0
 11
60.0
 21
292.0
  0
LINE
  5
3B5
100
AcDbEntity
  8
606368120-000-00-ED1_FORMAT
100
AcDbLine
 62
7
  6
CONTINUOUS
 10
60.4999978194
 20
259.0000097341
 11
60.4999978194
 21
265.0000076482
  0
LINE
  5
3B6
100
AcDbEntity
  8
606368120-000-00-ED1_FORMAT
100
AcDbLine
 62
7
  6
CONTINUOUS
 10
60.500027184
 20
281.0047710842
 11
60.500027184
 21
287.0
  0
LINE
  5
3B7
100
AcDbEntity
  8
606368120-000-00-ED1_FORMAT
100
AcDbLine
 62
6
  6
HIDDEN
 10
0.0
 20
0.0
 11
420.0
 21
0.0
  0
LINE
  5
3B8
100
AcDbEntity
  8
606368120-000-00-ED1_FORMAT
100
AcDbLine
 62
7
  6
CONTINUOUS
 10
18.0
 20
5.0
 11
415.0
 21
5.0
  0
LINE
  5
3B9
100
AcDbEntity
  8
606368120-000-00-ED1_FORMAT
100
AcDbLine
 62
3
  6
CONTINUOUS
 10
23.0
 20
10.0
 11
146.999991584
 21
10.0
  0
LINE
  5
3BA
100
AcDbEntity
  8
606368120-000-00-ED1_FORMAT
100
AcDbLine
 62
7
  6
CONTINUOUS
 10
146.999991584
 20
10.0
 11
410.0
 21
10.0
  0
LINE
  5
3BB
100
AcDbEntity
  8
606368120-000-00-ED1_FORMAT
100
AcDbLine
 62
7
  6
CONTINUOUS
 10
410.0
 20
13.500000112
 11
223.999992048
 21
13.500000112
  0
LINE
  5
3BC
100
AcDbEntity
  8
606368120-000-00-ED1_FORMAT
100
AcDbLine
 62
2
  6
CONTINUOUS
 10
308.1737564759
 20
52.0267386374
 11
309.1516114228
 21
52.2473767493
  0
LINE
  5
3BD
100
AcDbEntity
  8
606368120-000-00-ED1_FORMAT
100
AcDbLine
 62
7
  6
CONTINUOUS
 10
410.0
 20
24.250000456
 11
223.999992048
 21
24.250000456
  0
LINE
  5
3BE
100
AcDbEntity
  8
606368120-000-00-ED1_FORMAT
100
AcDbLine
 62
7
  6
CONTINUOUS
 10
98.4999894133
 20
259.0000097341
 11
98.4999894133
 21
265.0000076482
  0
LINE
  5
3BF
100
AcDbEntity
  8
606368120-000-00-ED1_FORMAT
100
AcDbLine
 62
7
  6
CONTINUOUS
 10
98.5000134045
 20
281.0047710842
 11
98.5000134045
 21
287.0
  0
LINE
  5
3C0
100
AcDbEntity
  8
606368120-000-00-ED1_FORMAT
100
AcDbLine
 62
2
  6
CONTINUOUS
 10
316.811390075
 20
56.3655426444
 11
315.6581835473
 21
56.1055812919
  0
LINE
  5
3C1
100
AcDbEntity
  8
606368120-000-00-ED1_FORMAT
100
AcDbLine
 62
2
  6
CONTINUOUS
 10
313.8970140824
 20
54.0619609694
 11
313.770971016
 21
54.0347884704
  0
LINE
  5
3C2
100
AcDbEntity
  8
606368120-000-00-ED1_FORMAT
100
AcDbLine
 62
2
  6
CONTINUOUS
 10
314.0150648347
 20
53.2748724898
 11
314.125727646
 21
53.2985664359
  0
LINE
  5
3C3
100
AcDbEntity
  8
606368120-000-00-ED1_FORMAT
100
AcDbLine
 62
2
  6
CONTINUOUS
 10
309.4726377778
 20
52.3088992873
 11
309.7481381608
 21
52.3575829001
  0
LINE
  5
3C4
100
AcDbEntity
  8
606368120-000-00-ED1_FORMAT
100
AcDbLine
 62
2
  6
CONTINUOUS
 10
309.7481381608
 20
52.3575829001
 11
310.0106653611
 21
52.3954383742
  0
LINE
  5
3C5
100
AcDbEntity
  8
606368120-000-00-ED1_FORMAT
100
AcDbLine
 62
2
  6
CONTINUOUS
 10
310.0106653611
 20
52.3954383742
 11
310.2676594209
 21
52.4242614386
  0
LINE
  5
3C6
100
AcDbEntity
  8
606368120-000-00-ED1_FORMAT
100
AcDbLine
 62
2
  6
CONTINUOUS
 10
313.7760873475
 20
53.2488129126
 11
314.0150648347
 21
53.2748724898
  0
LINE
  5
3C7
100
AcDbEntity
  8
606368120-000-00-ED1_FORMAT
100
AcDbLine
 62
2
  6
CONTINUOUS
 10
310.2676594209
 20
52.4242614386
 11
310.5265291215
 21
52.4458639518
  0
LINE
  5
3C8
100
AcDbEntity
  8
606368120-000-00-ED1_FORMAT
100
AcDbLine
 62
2
  6
CONTINUOUS
 10
313.770971016
 20
54.0347884704
 11
313.62612986
 21
54.0232237601
  0
LINE
  5
3C9
100
AcDbEntity
  8
606368120-000-00-ED1_FORMAT
100
AcDbLine
 62
2
  6
CONTINUOUS
 10
310.6816029405
 20
53.1572307303
 11
311.3784660447
 21
53.2094789191
  0
LINE
  5
3CA
100
AcDbEntity
  8
606368120-000-00-ED1_FORMAT
100
AcDbLine
 62
2
  6
CONTINUOUS
 10
311.5221922364
 20
52.5294029883
 11
311.8167824754
 21
52.5503549529
  0
LINE
  5
3CB
100
AcDbEntity
  8
606368120-000-00-ED1_FORMAT
100
AcDbLine
 62
7
  6
CONTINUOUS
 10
223.999992048
 20
35.0000008
 11
410.0
 21
35.0000008
  0
LINE
  5
3CC
100
AcDbEntity
  8
606368120-000-00-ED1_FORMAT
100
AcDbLine
 62
7
  6
CONTINUOUS
 10
410.0
 20
40.9546819905
 11
365.999998592
 21
40.9546819905
  0
LINE
  5
3CD
100
AcDbEntity
  8
606368120-000-00-ED1_FORMAT
100
AcDbLine
 62
7
  6
CONTINUOUS
 10
365.999998592
 20
43.500001072
 11
146.999991584
 21
43.500001072
  0
LINE
  5
3CE
100
AcDbEntity
  8
606368120-000-00-ED1_FORMAT
100
AcDbLine
 62
7
  6
CONTINUOUS
 10
410.0
 20
46.9546821825
 11
365.999998592
 21
46.9546821825
  0
LINE
  5
3CF
100
AcDbEntity
  8
606368120-000-00-ED1_FORMAT
100
AcDbLine
 62
3
  6
CONTINUOUS
 10
110.0
 20
10.0
 11
110.0
 21
5.0
  0
LINE
  5
3D0
100
AcDbEntity
  8
606368120-000-00-ED1_FORMAT
100
AcDbLine
 62
3
  6
CONTINUOUS
 10
110.0
 20
287.0
 11
110.0
 21
292.0
  0
LINE
  5
3D1
100
AcDbEntity
  8
606368120-000-00-ED1_FORMAT
100
AcDbLine
 62
2
  6
CONTINUOUS
 10
311.2880080537
 20
53.9326200889
 11
310.7557428559
 21
53.9038776709
  0
LINE
  5
3D2
100
AcDbEntity
  8
606368120-000-00-ED1_FORMAT
100
AcDbLine
 62
2
  6
CONTINUOUS
 10
313.0830380463
 20
55.9298901709
 11
312.7687535783
 21
55.9176103949
  0
LINE
  5
3D3
100
AcDbEntity
  8
606368120-000-00-ED1_FORMAT
100
AcDbLine
 62
2
  6
CONTINUOUS
 10
311.8167824754
 20
52.5503549529
 11
311.9618945573
 21
52.5553174018
  0
LINE
  5
3D4
100
AcDbEntity
  8
606368120-000-00-ED1_FORMAT
100
AcDbLine
 62
2
  6
CONTINUOUS
 10
313.6478560334
 20
53.2465010459
 11
313.7760873475
 21
53.2488129126
  0
LINE
  5
3D5
100
AcDbEntity
  8
606368120-000-00-ED1_FORMAT
100
AcDbLine
 62
2
  6
CONTINUOUS
 10
311.9618945573
 20
52.5553174018
 11
312.2501805589
 21
52.5601884513
  0
LINE
  5
3D6
100
AcDbEntity
  8
606368120-000-00-ED1_FORMAT
100
AcDbLine
 62
2
  6
CONTINUOUS
 10
311.9618945573
 20
52.5553174018
 11
312.3943235597
 21
52.5618121345
  0
LINE
  5
3D7
100
AcDbEntity
  8
606368120-000-00-ED1_FORMAT
100
AcDbLine
 62
2
  6
CONTINUOUS
 10
312.2501805589
 20
52.5601884513
 11
312.3943235597
 21
52.5618121345
  0
LINE
  5
3D8
100
AcDbEntity
  8
606368120-000-00-ED1_FORMAT
100
AcDbLine
 62
2
  6
CONTINUOUS
 10
313.8726828523
 20
55.9364870559
 11
313.0830380463
 21
55.9298901709
  0
LINE
  5
3D9
100
AcDbEntity
  8
606368120-000-00-ED1_FORMAT
100
AcDbLine
 62
3
  6
CONTINUOUS
 10
23.0
 20
48.5
 11
18.0
 21
48.5
  0
LINE
  5
3DA
100
AcDbEntity
  8
606368120-000-00-ED1_FORMAT
100
AcDbLine
 62
3
  6
CONTINUOUS
 10
410.0
 20
48.5
 11
415.0
 21
48.5
  0
LINE
  5
3DB
100
AcDbEntity
  8
606368120-000-00-ED1_FORMAT
100
AcDbLine
 62
2
  6
CONTINUOUS
 10
312.5957904147
 20
49.4612169223
 11
312.6308094674
 21
49.4612169223
  0
LINE
  5
3DC
100
AcDbEntity
  8
606368120-000-00-ED1_FORMAT
100
AcDbLine
 62
2
  6
CONTINUOUS
 10
312.3970603564
 20
49.5612169223
 11
312.8368994729
 21
49.5612169223
  0
LINE
  5
3DD
100
AcDbEntity
  8
606368120-000-00-ED1_FORMAT
100
AcDbLine
 62
2
  6
CONTINUOUS
 10
312.1983302981
 20
49.6612169223
 11
313.0429894784
 21
49.6612169223
  0
LINE
  5
3DE
100
AcDbEntity
  8
606368120-000-00-ED1_FORMAT
100
AcDbLine
 62
2
  6
CONTINUOUS
 10
311.9996002398
 20
49.7612169223
 11
313.249079484
 21
49.7612169223
  0
LINE
  5
3DF
100
AcDbEntity
  8
606368120-000-00-ED1_FORMAT
100
AcDbLine
 62
2
  6
CONTINUOUS
 10
311.8008701816
 20
49.8612169223
 11
313.4551694895
 21
49.8612169223
  0
LINE
  5
3E0
100
AcDbEntity
  8
606368120-000-00-ED1_FORMAT
100
AcDbLine
 62
2
  6
CONTINUOUS
 10
311.6021401233
 20
49.9612169223
 11
313.661259495
 21
49.9612169223
  0
LINE
  5
3E1
100
AcDbEntity
  8
606368120-000-00-ED1_FORMAT
100
AcDbLine
 62
2
  6
CONTINUOUS
 10
311.403410065
 20
50.0612169223
 11
313.8673495005
 21
50.0612169223
  0
LINE
  5
3E2
100
AcDbEntity
  8
606368120-000-00-ED1_FORMAT
100
AcDbLine
 62
2
  6
CONTINUOUS
 10
311.2046800067
 20
50.1612169223
 11
314.073439506
 21
50.1612169223
  0
LINE
  5
3E3
100
AcDbEntity
  8
606368120-000-00-ED1_FORMAT
100
AcDbLine
 62
2
  6
CONTINUOUS
 10
311.0059499484
 20
50.2612169223
 11
314.2795295116
 21
50.2612169223
  0
LINE
  5
3E4
100
AcDbEntity
  8
606368120-000-00-ED1_FORMAT
100
AcDbLine
 62
2
  6
CONTINUOUS
 10
310.8072198901
 20
50.3612169223
 11
314.4856195171
 21
50.3612169223
  0
LINE
  5
3E5
100
AcDbEntity
  8
606368120-000-00-ED1_FORMAT
100
AcDbLine
 62
2
  6
CONTINUOUS
 10
310.6084898318
 20
50.4612169223
 11
314.6917095226
 21
50.4612169223
  0
LINE
  5
3E6
100
AcDbEntity
  8
606368120-000-00-ED1_FORMAT
100
AcDbLine
 62
2
  6
CONTINUOUS
 10
310.4097597735
 20
50.5612169223
 11
314.8977995281
 21
50.5612169223
  0
LINE
  5
3E7
100
AcDbEntity
  8
606368120-000-00-ED1_FORMAT
100
AcDbLine
 62
2
  6
CONTINUOUS
 10
320.1049530975
 20
50.5612169223
 11
320.2033331149
 21
50.5612169223
  0
LINE
  5
3E8
100
AcDbEntity
  8
606368120-000-00-ED1_FORMAT
100
AcDbLine
 62
2
  6
CONTINUOUS
 10
310.2110297152
 20
50.6612169223
 11
315.1038895337
 21
50.6612169223
  0
LINE
  5
3E9
100
AcDbEntity
  8
606368120-000-00-ED1_FORMAT
100
AcDbLine
 62
2
  6
CONTINUOUS
 10
319.9145646092
 20
50.6612169223
 11
320.3313136725
 21
50.6612169223
  0
LINE
  5
3EA
100
AcDbEntity
  8
606368120-000-00-ED1_FORMAT
100
AcDbLine
 62
2
  6
CONTINUOUS
 10
305.3807768328
 20
50.7612169223
 11
305.5908168656
 21
50.7612169223
  0
LINE
  5
3EB
100
AcDbEntity
  8
606368120-000-00-ED1_FORMAT
100
AcDbLine
 62
2
  6
CONTINUOUS
 10
310.012299657
 20
50.7612169223
 11
315.3099795392
 21
50.7612169223
  0
LINE
  5
3EC
100
AcDbEntity
  8
606368120-000-00-ED1_FORMAT
100
AcDbLine
 62
2
  6
CONTINUOUS
 10
319.724176121
 20
50.7612169223
 11
320.119060279
 21
50.7612169223
  0
LINE
  5
3ED
100
AcDbEntity
  8
606368120-000-00-ED1_FORMAT
100
AcDbLine
 62
2
  6
CONTINUOUS
 10
320.1383810082
 20
50.7612169223
 11
320.4592942301
 21
50.7612169223
  0
LINE
  5
3EE
100
AcDbEntity
  8
606368120-000-00-ED1_FORMAT
100
AcDbLine
 62
2
  6
CONTINUOUS
 10
305.1884579939
 20
50.8612169223
 11
305.7636453527
 21
50.8612169223
  0
LINE
  5
3EF
100
AcDbEntity
  8
606368120-000-00-ED1_FORMAT
100
AcDbLine
 62
2
  6
CONTINUOUS
 10
309.8135695987
 20
50.8612169223
 11
315.5160695447
 21
50.8612169223
  0
LINE
  5
3F0
100
AcDbEntity
  8
606368120-000-00-ED1_FORMAT
100
AcDbLine
 62
2
  6
CONTINUOUS
 10
319.5337876327
 20
50.8612169223
 11
319.9269830626
 21
50.8612169223
  0
LINE
  5
3F1
100
AcDbEntity
  8
606368120-000-00-ED1_FORMAT
100
AcDbLine
 62
2
  6
CONTINUOUS
 10
320.1383810082
 20
50.8612169223
 11
320.5409560601
 21
50.8612169223
  0
LINE
  5
3F2
100
AcDbEntity
  8
606368120-000-00-ED1_FORMAT
100
AcDbLine
 62
2
  6
CONTINUOUS
 10
305.0850031937
 20
50.9612169223
 11
305.4976754456
 21
50.9612169223
  0
LINE
  5
3F3
100
AcDbEntity
  8
606368120-000-00-ED1_FORMAT
100
AcDbLine
 62
2
  6
CONTINUOUS
 10
305.5651294594
 20
50.9612169223
 11
305.9364738399
 21
50.9612169223
  0
LINE
  5
3F4
100
AcDbEntity
  8
606368120-000-00-ED1_FORMAT
100
AcDbLine
 62
2
  6
CONTINUOUS
 10
309.6148395404
 20
50.9612169223
 11
315.7221595502
 21
50.9612169223
  0
LINE
  5
3F5
100
AcDbEntity
  8
606368120-000-00-ED1_FORMAT
100
AcDbLine
 62
2
  6
CONTINUOUS
 10
319.3433991445
 20
50.9612169223
 11
319.7349058461
 21
50.9612169223
  0
LINE
  5
3F6
100
AcDbEntity
  8
606368120-000-00-ED1_FORMAT
100
AcDbLine
 62
2
  6
CONTINUOUS
 10
320.1383810082
 20
50.9612169223
 11
320.5409560601
 21
50.9612169223
  0
LINE
  5
3F7
100
AcDbEntity
  8
606368120-000-00-ED1_FORMAT
100
AcDbLine
 62
2
  6
CONTINUOUS
 10
305.0850031937
 20
51.0612169223
 11
305.4976754456
 21
51.0612169223
  0
LINE
  5
3F8
100
AcDbEntity
  8
606368120-000-00-ED1_FORMAT
100
AcDbLine
 62
2
  6
CONTINUOUS
 10
305.7425043521
 20
51.0612169223
 11
306.109302327
 21
51.0612169223
  0
LINE
  5
3F9
100
AcDbEntity
  8
606368120-000-00-ED1_FORMAT
100
AcDbLine
 62
2
  6
CONTINUOUS
 10
309.4161094821
 20
51.0612169223
 11
315.9282495557
 21
51.0612169223
  0
LINE
  5
3FA
100
AcDbEntity
  8
606368120-000-00-ED1_FORMAT
100
AcDbLine
 62
2
  6
CONTINUOUS
 10
319.1530106562
 20
51.0612169223
 11
319.5428286297
 21
51.0612169223
  0
LINE
  5
3FB
100
AcDbEntity
  8
606368120-000-00-ED1_FORMAT
100
AcDbLine
 62
2
  6
CONTINUOUS
 10
320.1383810082
 20
51.0612169223
 11
320.5409560601
 21
51.0612169223
  0
LINE
  5
3FC
100
AcDbEntity
  8
606368120-000-00-ED1_FORMAT
100
AcDbLine
 62
2
  6
CONTINUOUS
 10
305.0850031937
 20
51.1612169223
 11
305.4976754456
 21
51.1612169223
  0
LINE
  5
3FD
100
AcDbEntity
  8
606368120-000-00-ED1_FORMAT
100
AcDbLine
 62
2
  6
CONTINUOUS
 10
305.9198792448
 20
51.1612169223
 11
306.2821308142
 21
51.1612169223
  0
LINE
  5
3FE
100
AcDbEntity
  8
606368120-000-00-ED1_FORMAT
100
AcDbLine
 62
2
  6
CONTINUOUS
 10
309.2173794238
 20
51.1612169223
 11
316.1343395613
 21
51.1612169223
  0
LINE
  5
3FF
100
AcDbEntity
  8
606368120-000-00-ED1_FORMAT
100
AcDbLine
 62
2
  6
CONTINUOUS
 10
318.9626221679
 20
51.1612169223
 11
319.3507514132
 21
51.1612169223
  0
LINE
  5
400
100
AcDbEntity
  8
606368120-000-00-ED1_FORMAT
100
AcDbLine
 62
2
  6
CONTINUOUS
 10
320.1383810082
 20
51.1612169223
 11
320.5409560601
 21
51.1612169223
  0
LINE
  5
401
100
AcDbEntity
  8
606368120-000-00-ED1_FORMAT
100
AcDbLine
 62
2
  6
CONTINUOUS
 10
305.0850031937
 20
51.2612169223
 11
305.4976754456
 21
51.2612169223
  0
LINE
  5
402
100
AcDbEntity
  8
606368120-000-00-ED1_FORMAT
100
AcDbLine
 62
2
  6
CONTINUOUS
 10
306.0972541374
 20
51.2612169223
 11
306.4549593013
 21
51.2612169223
  0
LINE
  5
403
100
AcDbEntity
  8
606368120-000-00-ED1_FORMAT
100
AcDbLine
 62
2
  6
CONTINUOUS
 10
309.0186493655
 20
51.2612169223
 11
316.3404295668
 21
51.2612169223
  0
LINE
  5
404
100
AcDbEntity
  8
606368120-000-00-ED1_FORMAT
100
AcDbLine
 62
2
  6
CONTINUOUS
 10
318.7722336797
 20
51.2612169223
 11
319.1586741968
 21
51.2612169223
  0
LINE
  5
405
100
AcDbEntity
  8
606368120-000-00-ED1_FORMAT
100
AcDbLine
 62
2
  6
CONTINUOUS
 10
320.1383810082
 20
51.2612169223
 11
320.5409560601
 21
51.2612169223
  0
LINE
  5
406
100
AcDbEntity
  8
606368120-000-00-ED1_FORMAT
100
AcDbLine
 62
2
  6
CONTINUOUS
 10
305.0850031937
 20
51.3612169223
 11
305.4976754456
 21
51.3612169223
  0
LINE
  5
407
100
AcDbEntity
  8
606368120-000-00-ED1_FORMAT
100
AcDbLine
 62
2
  6
CONTINUOUS
 10
306.2746290301
 20
51.3612169223
 11
306.6277877884
 21
51.3612169223
  0
LINE
  5
408
100
AcDbEntity
  8
606368120-000-00-ED1_FORMAT
100
AcDbLine
 62
2
  6
CONTINUOUS
 10
308.8199193072
 20
51.3612169223
 11
316.5465195723
 21
51.3612169223
  0
LINE
  5
409
100
AcDbEntity
  8
606368120-000-00-ED1_FORMAT
100
AcDbLine
 62
2
  6
CONTINUOUS
 10
318.5818451914
 20
51.3612169223
 11
318.9665969803
 21
51.3612169223
  0
LINE
  5
40A
100
AcDbEntity
  8
606368120-000-00-ED1_FORMAT
100
AcDbLine
 62
2
  6
CONTINUOUS
 10
320.1383810082
 20
51.3612169223
 11
320.5409560601
 21
51.3612169223
  0
LINE
  5
40B
100
AcDbEntity
  8
606368120-000-00-ED1_FORMAT
100
AcDbLine
 62
2
  6
CONTINUOUS
 10
305.0850031937
 20
51.4612169223
 11
305.4976754456
 21
51.4612169223
  0
LINE
  5
40C
100
AcDbEntity
  8
606368120-000-00-ED1_FORMAT
100
AcDbLine
 62
2
  6
CONTINUOUS
 10
306.4520039228
 20
51.4612169223
 11
306.7262247592
 21
51.4612169223
  0
LINE
  5
40D
100
AcDbEntity
  8
606368120-000-00-ED1_FORMAT
100
AcDbLine
 62
2
  6
CONTINUOUS
 10
308.6211892489
 20
51.4612169223
 11
316.7526095778
 21
51.4612169223
  0
LINE
  5
40E
100
AcDbEntity
  8
606368120-000-00-ED1_FORMAT
100
AcDbLine
 62
2
  6
CONTINUOUS
 10
318.3914567032
 20
51.4612169223
 11
318.7745197639
 21
51.4612169223
  0
LINE
  5
40F
100
AcDbEntity
  8
606368120-000-00-ED1_FORMAT
100
AcDbLine
 62
2
  6
CONTINUOUS
 10
320.1383810082
 20
51.4612169223
 11
320.5409560601
 21
51.4612169223
  0
LINE
  5
410
100
AcDbEntity
  8
606368120-000-00-ED1_FORMAT
100
AcDbLine
 62
2
  6
CONTINUOUS
 10
305.0850031937
 20
51.5612169223
 11
305.4976754456
 21
51.5612169223
  0
LINE
  5
411
100
AcDbEntity
  8
606368120-000-00-ED1_FORMAT
100
AcDbLine
 62
2
  6
CONTINUOUS
 10
306.5876624558
 20
51.5612169223
 11
306.72608996
 21
51.5612169223
  0
LINE
  5
412
100
AcDbEntity
  8
606368120-000-00-ED1_FORMAT
100
AcDbLine
 62
2
  6
CONTINUOUS
 10
308.4224591907
 20
51.5612169223
 11
316.9586995833
 21
51.5612169223
  0
LINE
  5
413
100
AcDbEntity
  8
606368120-000-00-ED1_FORMAT
100
AcDbLine
 62
2
  6
CONTINUOUS
 10
318.2010682149
 20
51.5612169223
 11
318.5824425474
 21
51.5612169223
  0
LINE
  5
414
100
AcDbEntity
  8
606368120-000-00-ED1_FORMAT
100
AcDbLine
 62
2
  6
CONTINUOUS
 10
320.1383810082
 20
51.5612169223
 11
320.5409560601
 21
51.5612169223
  0
LINE
  5
415
100
AcDbEntity
  8
606368120-000-00-ED1_FORMAT
100
AcDbLine
 62
2
  6
CONTINUOUS
 10
305.0850031937
 20
51.6612169223
 11
305.4976754456
 21
51.6612169223
  0
LINE
  5
416
100
AcDbEntity
  8
606368120-000-00-ED1_FORMAT
100
AcDbLine
 62
2
  6
CONTINUOUS
 10
306.5876624558
 20
51.6612169223
 11
306.7259551609
 21
51.6612169223
  0
LINE
  5
417
100
AcDbEntity
  8
606368120-000-00-ED1_FORMAT
100
AcDbLine
 62
2
  6
CONTINUOUS
 10
308.2237291324
 20
51.6612169223
 11
317.1647895889
 21
51.6612169223
  0
LINE
  5
418
100
AcDbEntity
  8
606368120-000-00-ED1_FORMAT
100
AcDbLine
 62
2
  6
CONTINUOUS
 10
318.0106797267
 20
51.6612169223
 11
318.390365331
 21
51.6612169223
  0
LINE
  5
419
100
AcDbEntity
  8
606368120-000-00-ED1_FORMAT
100
AcDbLine
 62
2
  6
CONTINUOUS
 10
320.1383810082
 20
51.6612169223
 11
320.5409560601
 21
51.6612169223
  0
LINE
  5
41A
100
AcDbEntity
  8
606368120-000-00-ED1_FORMAT
100
AcDbLine
 62
2
  6
CONTINUOUS
 10
305.0850031937
 20
51.7612169223
 11
305.4976754456
 21
51.7612169223
  0
LINE
  5
41B
100
AcDbEntity
  8
606368120-000-00-ED1_FORMAT
100
AcDbLine
 62
2
  6
CONTINUOUS
 10
306.5876624558
 20
51.7612169223
 11
306.7258203617
 21
51.7612169223
  0
LINE
  5
41C
100
AcDbEntity
  8
606368120-000-00-ED1_FORMAT
100
AcDbLine
 62
2
  6
CONTINUOUS
 10
308.0249990741
 20
51.7612169223
 11
317.3708795944
 21
51.7612169223
  0
LINE
  5
41D
100
AcDbEntity
  8
606368120-000-00-ED1_FORMAT
100
AcDbLine
 62
2
  6
CONTINUOUS
 10
317.9768299493
 20
51.7612169223
 11
318.1982881145
 21
51.7612169223
  0
LINE
  5
41E
100
AcDbEntity
  8
606368120-000-00-ED1_FORMAT
100
AcDbLine
 62
2
  6
CONTINUOUS
 10
320.1383810082
 20
51.7612169223
 11
320.5409560601
 21
51.7612169223
  0
LINE
  5
41F
100
AcDbEntity
  8
606368120-000-00-ED1_FORMAT
100
AcDbLine
 62
2
  6
CONTINUOUS
 10
305.0850031937
 20
51.8612169223
 11
305.4976754456
 21
51.8612169223
  0
LINE
  5
420
100
AcDbEntity
  8
606368120-000-00-ED1_FORMAT
100
AcDbLine
 62
2
  6
CONTINUOUS
 10
306.5876624558
 20
51.8612169223
 11
306.7256855626
 21
51.8612169223
  0
LINE
  5
421
100
AcDbEntity
  8
606368120-000-00-ED1_FORMAT
100
AcDbLine
 62
2
  6
CONTINUOUS
 10
307.8262690158
 20
51.8612169223
 11
317.5769695999
 21
51.8612169223
  0
LINE
  5
422
100
AcDbEntity
  8
606368120-000-00-ED1_FORMAT
100
AcDbLine
 62
2
  6
CONTINUOUS
 10
317.9768299493
 20
51.8612169223
 11
318.1654360589
 21
51.8612169223
  0
LINE
  5
423
100
AcDbEntity
  8
606368120-000-00-ED1_FORMAT
100
AcDbLine
 62
2
  6
CONTINUOUS
 10
320.1383810082
 20
51.8612169223
 11
320.5409560601
 21
51.8612169223
  0
LINE
  5
424
100
AcDbEntity
  8
606368120-000-00-ED1_FORMAT
100
AcDbLine
 62
2
  6
CONTINUOUS
 10
305.0850031937
 20
51.9612169223
 11
305.4976754456
 21
51.9612169223
  0
LINE
  5
425
100
AcDbEntity
  8
606368120-000-00-ED1_FORMAT
100
AcDbLine
 62
2
  6
CONTINUOUS
 10
306.5876624558
 20
51.9612169223
 11
306.7255507634
 21
51.9612169223
  0
LINE
  5
426
100
AcDbEntity
  8
606368120-000-00-ED1_FORMAT
100
AcDbLine
 62
2
  6
CONTINUOUS
 10
307.6275389575
 20
51.9612169223
 11
317.4415652387
 21
51.9612169223
  0
LINE
  5
427
100
AcDbEntity
  8
606368120-000-00-ED1_FORMAT
100
AcDbLine
 62
2
  6
CONTINUOUS
 10
317.6038131628
 20
51.9612169223
 11
317.7830596054
 21
51.9612169223
  0
LINE
  5
428
100
AcDbEntity
  8
606368120-000-00-ED1_FORMAT
100
AcDbLine
 62
2
  6
CONTINUOUS
 10
317.9768299493
 20
51.9612169223
 11
318.1654360589
 21
51.9612169223
  0
LINE
  5
429
100
AcDbEntity
  8
606368120-000-00-ED1_FORMAT
100
AcDbLine
 62
2
  6
CONTINUOUS
 10
320.1117998511
 20
51.9612169223
 11
320.5409560601
 21
51.9612169223
  0
LINE
  5
42A
100
AcDbEntity
  8
606368120-000-00-ED1_FORMAT
100
AcDbLine
 62
2
  6
CONTINUOUS
 10
305.0850031937
 20
52.0612169223
 11
305.4976754456
 21
52.0612169223
  0
LINE
  5
42B
100
AcDbEntity
  8
606368120-000-00-ED1_FORMAT
100
AcDbLine
 62
2
  6
CONTINUOUS
 10
306.5876624558
 20
52.0612169223
 11
306.7254159642
 21
52.0612169223
  0
LINE
  5
42C
100
AcDbEntity
  8
606368120-000-00-ED1_FORMAT
100
AcDbLine
 62
2
  6
CONTINUOUS
 10
307.4288088992
 20
52.0612169223
 11
308.1737564759
 21
52.0612169223
  0
LINE
  5
42D
100
AcDbEntity
  8
606368120-000-00-ED1_FORMAT
100
AcDbLine
 62
2
  6
CONTINUOUS
 10
308.326562177
 20
52.0612169223
 11
316.9400481234
 21
52.0612169223
  0
LINE
  5
42E
100
AcDbEntity
  8
606368120-000-00-ED1_FORMAT
100
AcDbLine
 62
2
  6
CONTINUOUS
 10
317.5858212353
 20
52.0612169223
 11
318.1654360589
 21
52.0612169223
  0
LINE
  5
42F
100
AcDbEntity
  8
606368120-000-00-ED1_FORMAT
100
AcDbLine
 62
2
  6
CONTINUOUS
 10
319.8719349704
 20
52.0612169223
 11
320.5409560601
 21
52.0612169223
  0
LINE
  5
430
100
AcDbEntity
  8
606368120-000-00-ED1_FORMAT
100
AcDbLine
 62
2
  6
CONTINUOUS
 10
305.0850031937
 20
52.1612169223
 11
305.4976754456
 21
52.1612169223
  0
LINE
  5
431
100
AcDbEntity
  8
606368120-000-00-ED1_FORMAT
100
AcDbLine
 62
2
  6
CONTINUOUS
 10
306.5876624558
 20
52.1612169223
 11
306.7252811651
 21
52.1612169223
  0
LINE
  5
432
100
AcDbEntity
  8
606368120-000-00-ED1_FORMAT
100
AcDbLine
 62
2
  6
CONTINUOUS
 10
307.2343142672
 20
52.1612169223
 11
307.3763373641
 21
52.1612169223
  0
LINE
  5
433
100
AcDbEntity
  8
606368120-000-00-ED1_FORMAT
100
AcDbLine
 62
2
  6
CONTINUOUS
 10
307.4487604473
 20
52.1612169223
 11
308.1737564759
 21
52.1612169223
  0
LINE
  5
434
100
AcDbEntity
  8
606368120-000-00-ED1_FORMAT
100
AcDbLine
 62
2
  6
CONTINUOUS
 10
308.7697562103
 20
52.1612169223
 11
316.510623604
 21
52.1612169223
  0
LINE
  5
435
100
AcDbEntity
  8
606368120-000-00-ED1_FORMAT
100
AcDbLine
 62
2
  6
CONTINUOUS
 10
317.5678293079
 20
52.1612169223
 11
318.1654360589
 21
52.1612169223
  0
LINE
  5
436
100
AcDbEntity
  8
606368120-000-00-ED1_FORMAT
100
AcDbLine
 62
2
  6
CONTINUOUS
 10
319.6320700897
 20
52.1612169223
 11
320.2983439148
 21
52.1612169223
  0
LINE
  5
437
100
AcDbEntity
  8
606368120-000-00-ED1_FORMAT
100
AcDbLine
 62
2
  6
CONTINUOUS
 10
305.0850031937
 20
52.2612169223
 11
305.4976754456
 21
52.2612169223
  0
LINE
  5
438
100
AcDbEntity
  8
606368120-000-00-ED1_FORMAT
100
AcDbLine
 62
2
  6
CONTINUOUS
 10
306.5876624558
 20
52.2612169223
 11
306.7251463659
 21
52.2612169223
  0
LINE
  5
439
100
AcDbEntity
  8
606368120-000-00-ED1_FORMAT
100
AcDbLine
 62
2
  6
CONTINUOUS
 10
307.0339179266
 20
52.2612169223
 11
307.3358574011
 21
52.2612169223
  0
LINE
  5
43A
100
AcDbEntity
  8
606368120-000-00-ED1_FORMAT
100
AcDbLine
 62
2
  6
CONTINUOUS
 10
307.4899857745
 20
52.2612169223
 11
308.1737564759
 21
52.2612169223
  0
LINE
  5
43B
100
AcDbEntity
  8
606368120-000-00-ED1_FORMAT
100
AcDbLine
 62
2
  6
CONTINUOUS
 10
309.1516114228
 20
52.2612169223
 11
316.5030757086
 21
52.2612169223
  0
LINE
  5
43C
100
AcDbEntity
  8
606368120-000-00-ED1_FORMAT
100
AcDbLine
 62
2
  6
CONTINUOUS
 10
317.5498373805
 20
52.2612169223
 11
318.1654360589
 21
52.2612169223
  0
LINE
  5
43D
100
AcDbEntity
  8
606368120-000-00-ED1_FORMAT
100
AcDbLine
 62
2
  6
CONTINUOUS
 10
319.392205209
 20
52.2612169223
 11
320.0495911282
 21
52.2612169223
  0
LINE
  5
43E
100
AcDbEntity
  8
606368120-000-00-ED1_FORMAT
100
AcDbLine
 62
2
  6
CONTINUOUS
 10
305.0850031937
 20
52.3612169223
 11
305.4976754456
 21
52.3612169223
  0
LINE
  5
43F
100
AcDbEntity
  8
606368120-000-00-ED1_FORMAT
100
AcDbLine
 62
2
  6
CONTINUOUS
 10
306.5876624558
 20
52.3612169223
 11
306.7250115668
 21
52.3612169223
  0
LINE
  5
440
100
AcDbEntity
  8
606368120-000-00-ED1_FORMAT
100
AcDbLine
 62
2
  6
CONTINUOUS
 10
306.833521586
 20
52.3612169223
 11
307.2953774381
 21
52.3612169223
  0
LINE
  5
441
100
AcDbEntity
  8
606368120-000-00-ED1_FORMAT
100
AcDbLine
 62
2
  6
CONTINUOUS
 10
307.5312111018
 20
52.3612169223
 11
308.1737564759
 21
52.3612169223
  0
LINE
  5
442
100
AcDbEntity
  8
606368120-000-00-ED1_FORMAT
100
AcDbLine
 62
2
  6
CONTINUOUS
 10
309.1516114228
 20
52.3612169223
 11
309.4866702568
 21
52.3612169223
  0
LINE
  5
443
100
AcDbEntity
  8
606368120-000-00-ED1_FORMAT
100
AcDbLine
 62
2
  6
CONTINUOUS
 10
309.7733400551
 20
52.3612169223
 11
315.1266453693
 21
52.3612169223
  0
LINE
  5
444
100
AcDbEntity
  8
606368120-000-00-ED1_FORMAT
100
AcDbLine
 62
2
  6
CONTINUOUS
 10
315.8559823799
 20
52.3612169223
 11
316.4955278133
 21
52.3612169223
  0
LINE
  5
445
100
AcDbEntity
  8
606368120-000-00-ED1_FORMAT
100
AcDbLine
 62
2
  6
CONTINUOUS
 10
317.5318454531
 20
52.3612169223
 11
318.1654360589
 21
52.3612169223
  0
LINE
  5
446
100
AcDbEntity
  8
606368120-000-00-ED1_FORMAT
100
AcDbLine
 62
2
  6
CONTINUOUS
 10
319.2068127099
 20
52.3612169223
 11
319.8008383416
 21
52.3612169223
  0
LINE
  5
447
100
AcDbEntity
  8
606368120-000-00-ED1_FORMAT
100
AcDbLine
 62
2
  6
CONTINUOUS
 10
305.0850031937
 20
52.4612169223
 11
305.4976754456
 21
52.4612169223
  0
LINE
  5
448
100
AcDbEntity
  8
606368120-000-00-ED1_FORMAT
100
AcDbLine
 62
2
  6
CONTINUOUS
 10
306.5876624558
 20
52.4612169223
 11
307.2548974752
 21
52.4612169223
  0
LINE
  5
449
100
AcDbEntity
  8
606368120-000-00-ED1_FORMAT
100
AcDbLine
 62
2
  6
CONTINUOUS
 10
307.5724364291
 20
52.4612169223
 11
308.1737564759
 21
52.4612169223
  0
LINE
  5
44A
100
AcDbEntity
  8
606368120-000-00-ED1_FORMAT
100
AcDbLine
 62
2
  6
CONTINUOUS
 10
309.1516114228
 20
52.4612169223
 11
309.5134919565
 21
52.4612169223
  0
LINE
  5
44B
100
AcDbEntity
  8
606368120-000-00-ED1_FORMAT
100
AcDbLine
 62
2
  6
CONTINUOUS
 10
310.5298759797
 20
52.4612169223
 11
314.8545938863
 21
52.4612169223
  0
LINE
  5
44C
100
AcDbEntity
  8
606368120-000-00-ED1_FORMAT
100
AcDbLine
 62
2
  6
CONTINUOUS
 10
315.8741814988
 20
52.4612169223
 11
316.487979918
 21
52.4612169223
  0
LINE
  5
44D
100
AcDbEntity
  8
606368120-000-00-ED1_FORMAT
100
AcDbLine
 62
2
  6
CONTINUOUS
 10
317.5138535256
 20
52.4612169223
 11
318.1654360589
 21
52.4612169223
  0
LINE
  5
44E
100
AcDbEntity
  8
606368120-000-00-ED1_FORMAT
100
AcDbLine
 62
2
  6
CONTINUOUS
 10
319.2068127099
 20
52.4612169223
 11
319.559328991
 21
52.4612169223
  0
LINE
  5
44F
100
AcDbEntity
  8
606368120-000-00-ED1_FORMAT
100
AcDbLine
 62
2
  6
CONTINUOUS
 10
305.0850031937
 20
52.5612169223
 11
305.4976754456
 21
52.5612169223
  0
LINE
  5
450
100
AcDbEntity
  8
606368120-000-00-ED1_FORMAT
100
AcDbLine
 62
2
  6
CONTINUOUS
 10
306.5876624558
 20
52.5612169223
 11
307.2144175122
 21
52.5612169223
  0
LINE
  5
451
100
AcDbEntity
  8
606368120-000-00-ED1_FORMAT
100
AcDbLine
 62
2
  6
CONTINUOUS
 10
307.6136617564
 20
52.5612169223
 11
308.1737564759
 21
52.5612169223
  0
LINE
  5
452
100
AcDbEntity
  8
606368120-000-00-ED1_FORMAT
100
AcDbLine
 62
2
  6
CONTINUOUS
 10
309.1516114228
 20
52.5612169223
 11
309.5403136563
 21
52.5612169223
  0
LINE
  5
453
100
AcDbEntity
  8
606368120-000-00-ED1_FORMAT
100
AcDbLine
 62
2
  6
CONTINUOUS
 10
310.5516753979
 20
52.5612169223
 11
311.515468729
 21
52.5612169223
  0
LINE
  5
454
100
AcDbEntity
  8
606368120-000-00-ED1_FORMAT
100
AcDbLine
 62
2
  6
CONTINUOUS
 10
312.3546934437
 20
52.5612169223
 11
312.7687535783
 21
52.5612169223
  0
LINE
  5
455
100
AcDbEntity
  8
606368120-000-00-ED1_FORMAT
100
AcDbLine
 62
2
  6
CONTINUOUS
 10
313.6490428391
 20
52.5612169223
 11
314.8766440871
 21
52.5612169223
  0
LINE
  5
456
100
AcDbEntity
  8
606368120-000-00-ED1_FORMAT
100
AcDbLine
 62
2
  6
CONTINUOUS
 10
315.8923806178
 20
52.5612169223
 11
316.4804320227
 21
52.5612169223
  0
LINE
  5
457
100
AcDbEntity
  8
606368120-000-00-ED1_FORMAT
100
AcDbLine
 62
2
  6
CONTINUOUS
 10
317.4958615982
 20
52.5612169223
 11
318.1654360589
 21
52.5612169223
  0
LINE
  5
458
100
AcDbEntity
  8
606368120-000-00-ED1_FORMAT
100
AcDbLine
 62
2
  6
CONTINUOUS
 10
319.2068127099
 20
52.5612169223
 11
319.559328991
 21
52.5612169223
  0
LINE
  5
459
100
AcDbEntity
  8
606368120-000-00-ED1_FORMAT
100
AcDbLine
 62
2
  6
CONTINUOUS
 10
312.3943235597
 20
52.5618121345
 11
312.5391021943
 21
52.5618121345
  0
LINE
  5
45A
100
AcDbEntity
  8
606368120-000-00-ED1_FORMAT
100
AcDbLine
 62
2
  6
CONTINUOUS
 10
305.0850031937
 20
52.6612169223
 11
305.4976754456
 21
52.6612169223
  0
LINE
  5
45B
100
AcDbEntity
  8
606368120-000-00-ED1_FORMAT
100
AcDbLine
 62
2
  6
CONTINUOUS
 10
306.5876624558
 20
52.6612169223
 11
307.1739375492
 21
52.6612169223
  0
LINE
  5
45C
100
AcDbEntity
  8
606368120-000-00-ED1_FORMAT
100
AcDbLine
 62
2
  6
CONTINUOUS
 10
307.6548870837
 20
52.6612169223
 11
308.1737564759
 21
52.6612169223
  0
LINE
  5
45D
100
AcDbEntity
  8
606368120-000-00-ED1_FORMAT
100
AcDbLine
 62
2
  6
CONTINUOUS
 10
309.1516114228
 20
52.6612169223
 11
309.567135356
 21
52.6612169223
  0
LINE
  5
45E
100
AcDbEntity
  8
606368120-000-00-ED1_FORMAT
100
AcDbLine
 62
2
  6
CONTINUOUS
 10
310.5734748161
 20
52.6612169223
 11
311.4943348842
 21
52.6612169223
  0
LINE
  5
45F
100
AcDbEntity
  8
606368120-000-00-ED1_FORMAT
100
AcDbLine
 62
2
  6
CONTINUOUS
 10
312.514745064
 20
52.6612169223
 11
312.7687535783
 21
52.6612169223
  0
LINE
  5
460
100
AcDbEntity
  8
606368120-000-00-ED1_FORMAT
100
AcDbLine
 62
2
  6
CONTINUOUS
 10
313.6488696546
 20
52.6612169223
 11
314.8986942879
 21
52.6612169223
  0
LINE
  5
461
100
AcDbEntity
  8
606368120-000-00-ED1_FORMAT
100
AcDbLine
 62
2
  6
CONTINUOUS
 10
315.9105797367
 20
52.6612169223
 11
316.0647338538
 21
52.6612169223
  0
LINE
  5
462
100
AcDbEntity
  8
606368120-000-00-ED1_FORMAT
100
AcDbLine
 62
2
  6
CONTINUOUS
 10
317.4778696708
 20
52.6612169223
 11
318.1654360589
 21
52.6612169223
  0
LINE
  5
463
100
AcDbEntity
  8
606368120-000-00-ED1_FORMAT
100
AcDbLine
 62
2
  6
CONTINUOUS
 10
319.2068127099
 20
52.6612169223
 11
319.559328991
 21
52.6612169223
  0
LINE
  5
464
100
AcDbEntity
  8
606368120-000-00-ED1_FORMAT
100
AcDbLine
 62
2
  6
CONTINUOUS
 10
305.0850031937
 20
52.7612169223
 11
305.4976754456
 21
52.7612169223
  0
LINE
  5
465
100
AcDbEntity
  8
606368120-000-00-ED1_FORMAT
100
AcDbLine
 62
2
  6
CONTINUOUS
 10
306.5876624558
 20
52.7612169223
 11
307.1334575862
 21
52.7612169223
  0
LINE
  5
466
100
AcDbEntity
  8
606368120-000-00-ED1_FORMAT
100
AcDbLine
 62
2
  6
CONTINUOUS
 10
307.696112411
 20
52.7612169223
 11
308.1737564759
 21
52.7612169223
  0
LINE
  5
467
100
AcDbEntity
  8
606368120-000-00-ED1_FORMAT
100
AcDbLine
 62
2
  6
CONTINUOUS
 10
309.1516114228
 20
52.7612169223
 11
309.5939570558
 21
52.7612169223
  0
LINE
  5
468
100
AcDbEntity
  8
606368120-000-00-ED1_FORMAT
100
AcDbLine
 62
2
  6
CONTINUOUS
 10
310.5952742343
 20
52.7612169223
 11
311.4732010394
 21
52.7612169223
  0
LINE
  5
469
100
AcDbEntity
  8
606368120-000-00-ED1_FORMAT
100
AcDbLine
 62
2
  6
CONTINUOUS
 10
312.490242089
 20
52.7612169223
 11
312.7687535783
 21
52.7612169223
  0
LINE
  5
46A
100
AcDbEntity
  8
606368120-000-00-ED1_FORMAT
100
AcDbLine
 62
2
  6
CONTINUOUS
 10
313.6486964701
 20
52.7612169223
 11
314.9207444887
 21
52.7612169223
  0
LINE
  5
46B
100
AcDbEntity
  8
606368120-000-00-ED1_FORMAT
100
AcDbLine
 62
2
  6
CONTINUOUS
 10
317.4598777433
 20
52.7612169223
 11
318.1654360589
 21
52.7612169223
  0
LINE
  5
46C
100
AcDbEntity
  8
606368120-000-00-ED1_FORMAT
100
AcDbLine
 62
2
  6
CONTINUOUS
 10
319.2068127099
 20
52.7612169223
 11
319.559328991
 21
52.7612169223
  0
LINE
  5
46D
100
AcDbEntity
  8
606368120-000-00-ED1_FORMAT
100
AcDbLine
 62
2
  6
CONTINUOUS
 10
305.0850031937
 20
52.8612169223
 11
305.4976754456
 21
52.8612169223
  0
LINE
  5
46E
100
AcDbEntity
  8
606368120-000-00-ED1_FORMAT
100
AcDbLine
 62
2
  6
CONTINUOUS
 10
306.5876624558
 20
52.8612169223
 11
307.0929776233
 21
52.8612169223
  0
LINE
  5
46F
100
AcDbEntity
  8
606368120-000-00-ED1_FORMAT
100
AcDbLine
 62
2
  6
CONTINUOUS
 10
307.7373377383
 20
52.8612169223
 11
308.1737564759
 21
52.8612169223
  0
LINE
  5
470
100
AcDbEntity
  8
606368120-000-00-ED1_FORMAT
100
AcDbLine
 62
2
  6
CONTINUOUS
 10
309.1516114228
 20
52.8612169223
 11
309.6207787556
 21
52.8612169223
  0
LINE
  5
471
100
AcDbEntity
  8
606368120-000-00-ED1_FORMAT
100
AcDbLine
 62
2
  6
CONTINUOUS
 10
310.6170736525
 20
52.8612169223
 11
311.4520671946
 21
52.8612169223
  0
LINE
  5
472
100
AcDbEntity
  8
606368120-000-00-ED1_FORMAT
100
AcDbLine
 62
2
  6
CONTINUOUS
 10
312.465739114
 20
52.8612169223
 11
312.7687535783
 21
52.8612169223
  0
LINE
  5
473
100
AcDbEntity
  8
606368120-000-00-ED1_FORMAT
100
AcDbLine
 62
2
  6
CONTINUOUS
 10
313.6485232857
 20
52.8612169223
 11
314.9427946895
 21
52.8612169223
  0
LINE
  5
474
100
AcDbEntity
  8
606368120-000-00-ED1_FORMAT
100
AcDbLine
 62
2
  6
CONTINUOUS
 10
317.4418858159
 20
52.8612169223
 11
318.1654360589
 21
52.8612169223
  0
LINE
  5
475
100
AcDbEntity
  8
606368120-000-00-ED1_FORMAT
100
AcDbLine
 62
2
  6
CONTINUOUS
 10
319.2068127099
 20
52.8612169223
 11
319.6369745096
 21
52.8612169223
  0
LINE
  5
476
100
AcDbEntity
  8
606368120-000-00-ED1_FORMAT
100
AcDbLine
 62
7
  6
CONTINUOUS
 10
410.0
 20
52.9546823745
 11
365.999998592
 21
52.9546823745
  0
LINE
  5
477
100
AcDbEntity
  8
606368120-000-00-ED1_FORMAT
100
AcDbLine
 62
2
  6
CONTINUOUS
 10
305.0850031937
 20
52.9612169223
 11
305.4976754456
 21
52.9612169223
  0
LINE
  5
478
100
AcDbEntity
  8
606368120-000-00-ED1_FORMAT
100
AcDbLine
 62
2
  6
CONTINUOUS
 10
306.5876624558
 20
52.9612169223
 11
307.0524976603
 21
52.9612169223
  0
LINE
  5
479
100
AcDbEntity
  8
606368120-000-00-ED1_FORMAT
100
AcDbLine
 62
2
  6
CONTINUOUS
 10
307.7785630656
 20
52.9612169223
 11
308.1737564759
 21
52.9612169223
  0
LINE
  5
47A
100
AcDbEntity
  8
606368120-000-00-ED1_FORMAT
100
AcDbLine
 62
2
  6
CONTINUOUS
 10
309.1516114228
 20
52.9612169223
 11
309.6476004553
 21
52.9612169223
  0
LINE
  5
47B
100
AcDbEntity
  8
606368120-000-00-ED1_FORMAT
100
AcDbLine
 62
2
  6
CONTINUOUS
 10
310.6388730707
 20
52.9612169223
 11
311.4309333498
 21
52.9612169223
  0
LINE
  5
47C
100
AcDbEntity
  8
606368120-000-00-ED1_FORMAT
100
AcDbLine
 62
2
  6
CONTINUOUS
 10
312.441236139
 20
52.9612169223
 11
312.7687535783
 21
52.9612169223
  0
LINE
  5
47D
100
AcDbEntity
  8
606368120-000-00-ED1_FORMAT
100
AcDbLine
 62
2
  6
CONTINUOUS
 10
313.6483501012
 20
52.9612169223
 11
314.9648448903
 21
52.9612169223
  0
LINE
  5
47E
100
AcDbEntity
  8
606368120-000-00-ED1_FORMAT
100
AcDbLine
 62
2
  6
CONTINUOUS
 10
317.4238938885
 20
52.9612169223
 11
318.1654360589
 21
52.9612169223
  0
LINE
  5
47F
100
AcDbEntity
  8
606368120-000-00-ED1_FORMAT
100
AcDbLine
 62
2
  6
CONTINUOUS
 10
319.2068127099
 20
52.9612169223
 11
319.8430403031
 21
52.9612169223
  0
LINE
  5
480
100
AcDbEntity
  8
606368120-000-00-ED1_FORMAT
100
AcDbLine
 62
2
  6
CONTINUOUS
 10
305.0850031937
 20
53.0612169223
 11
305.4976754456
 21
53.0612169223
  0
LINE
  5
481
100
AcDbEntity
  8
606368120-000-00-ED1_FORMAT
100
AcDbLine
 62
2
  6
CONTINUOUS
 10
306.5876624558
 20
53.0612169223
 11
307.0120176973
 21
53.0612169223
  0
LINE
  5
482
100
AcDbEntity
  8
606368120-000-00-ED1_FORMAT
100
AcDbLine
 62
2
  6
CONTINUOUS
 10
307.8197883929
 20
53.0612169223
 11
308.1737564759
 21
53.0612169223
  0
LINE
  5
483
100
AcDbEntity
  8
606368120-000-00-ED1_FORMAT
100
AcDbLine
 62
2
  6
CONTINUOUS
 10
309.1516114228
 20
53.0612169223
 11
309.6744221551
 21
53.0612169223
  0
LINE
  5
484
100
AcDbEntity
  8
606368120-000-00-ED1_FORMAT
100
AcDbLine
 62
2
  6
CONTINUOUS
 10
310.6606724889
 20
53.0612169223
 11
311.409799505
 21
53.0612169223
  0
LINE
  5
485
100
AcDbEntity
  8
606368120-000-00-ED1_FORMAT
100
AcDbLine
 62
2
  6
CONTINUOUS
 10
312.416733164
 20
53.0612169223
 11
312.7687535783
 21
53.0612169223
  0
LINE
  5
486
100
AcDbEntity
  8
606368120-000-00-ED1_FORMAT
100
AcDbLine
 62
2
  6
CONTINUOUS
 10
313.6481769167
 20
53.0612169223
 11
314.9868950911
 21
53.0612169223
  0
LINE
  5
487
100
AcDbEntity
  8
606368120-000-00-ED1_FORMAT
100
AcDbLine
 62
2
  6
CONTINUOUS
 10
317.405901961
 20
53.0612169223
 11
318.1654360589
 21
53.0612169223
  0
LINE
  5
488
100
AcDbEntity
  8
606368120-000-00-ED1_FORMAT
100
AcDbLine
 62
2
  6
CONTINUOUS
 10
319.2068127099
 20
53.0612169223
 11
320.0491060967
 21
53.0612169223
  0
LINE
  5
489
100
AcDbEntity
  8
606368120-000-00-ED1_FORMAT
100
AcDbLine
 62
2
  6
CONTINUOUS
 10
305.0850031937
 20
53.1612169223
 11
305.4976754456
 21
53.1612169223
  0
LINE
  5
48A
100
AcDbEntity
  8
606368120-000-00-ED1_FORMAT
100
AcDbLine
 62
2
  6
CONTINUOUS
 10
306.5876624558
 20
53.1612169223
 11
306.9715377343
 21
53.1612169223
  0
LINE
  5
48B
100
AcDbEntity
  8
606368120-000-00-ED1_FORMAT
100
AcDbLine
 62
2
  6
CONTINUOUS
 10
307.8610137202
 20
53.1612169223
 11
308.1737564759
 21
53.1612169223
  0
LINE
  5
48C
100
AcDbEntity
  8
606368120-000-00-ED1_FORMAT
100
AcDbLine
 62
2
  6
CONTINUOUS
 10
309.1516114228
 20
53.1612169223
 11
309.7012438548
 21
53.1612169223
  0
LINE
  5
48D
100
AcDbEntity
  8
606368120-000-00-ED1_FORMAT
100
AcDbLine
 62
2
  6
CONTINUOUS
 10
310.7347689956
 20
53.1612169223
 11
311.3886656602
 21
53.1612169223
  0
LINE
  5
48E
100
AcDbEntity
  8
606368120-000-00-ED1_FORMAT
100
AcDbLine
 62
2
  6
CONTINUOUS
 10
312.3922301889
 20
53.1612169223
 11
312.7687535783
 21
53.1612169223
  0
LINE
  5
48F
100
AcDbEntity
  8
606368120-000-00-ED1_FORMAT
100
AcDbLine
 62
2
  6
CONTINUOUS
 10
313.6480037323
 20
53.1612169223
 11
315.0089452919
 21
53.1612169223
  0
LINE
  5
490
100
AcDbEntity
  8
606368120-000-00-ED1_FORMAT
100
AcDbLine
 62
2
  6
CONTINUOUS
 10
317.3879100336
 20
53.1612169223
 11
318.1654360589
 21
53.1612169223
  0
LINE
  5
491
100
AcDbEntity
  8
606368120-000-00-ED1_FORMAT
100
AcDbLine
 62
2
  6
CONTINUOUS
 10
319.2068127099
 20
53.1612169223
 11
320.2551718903
 21
53.1612169223
  0
LINE
  5
492
100
AcDbEntity
  8
606368120-000-00-ED1_FORMAT
100
AcDbLine
 62
2
  6
CONTINUOUS
 10
305.0440585598
 20
53.2612169223
 11
305.4976754456
 21
53.2612169223
  0
LINE
  5
493
100
AcDbEntity
  8
606368120-000-00-ED1_FORMAT
100
AcDbLine
 62
2
  6
CONTINUOUS
 10
306.5876624558
 20
53.2612169223
 11
306.9310577713
 21
53.2612169223
  0
LINE
  5
494
100
AcDbEntity
  8
606368120-000-00-ED1_FORMAT
100
AcDbLine
 62
2
  6
CONTINUOUS
 10
307.9022390474
 20
53.2612169223
 11
308.1737564759
 21
53.2612169223
  0
LINE
  5
495
100
AcDbEntity
  8
606368120-000-00-ED1_FORMAT
100
AcDbLine
 62
2
  6
CONTINUOUS
 10
309.1516114228
 20
53.2612169223
 11
309.7280655546
 21
53.2612169223
  0
LINE
  5
496
100
AcDbEntity
  8
606368120-000-00-ED1_FORMAT
100
AcDbLine
 62
2
  6
CONTINUOUS
 10
312.3677272139
 20
53.2612169223
 11
312.7687535783
 21
53.2612169223
  0
LINE
  5
497
100
AcDbEntity
  8
606368120-000-00-ED1_FORMAT
100
AcDbLine
 62
2
  6
CONTINUOUS
 10
313.8898374299
 20
53.2612169223
 11
315.0309954927
 21
53.2612169223
  0
LINE
  5
498
100
AcDbEntity
  8
606368120-000-00-ED1_FORMAT
100
AcDbLine
 62
2
  6
CONTINUOUS
 10
317.3699181062
 20
53.2612169223
 11
318.1654360589
 21
53.2612169223
  0
LINE
  5
499
100
AcDbEntity
  8
606368120-000-00-ED1_FORMAT
100
AcDbLine
 62
2
  6
CONTINUOUS
 10
319.2068127099
 20
53.2612169223
 11
320.4612376839
 21
53.2612169223
  0
LINE
  5
49A
100
AcDbEntity
  8
606368120-000-00-ED1_FORMAT
100
AcDbLine
 62
2
  6
CONTINUOUS
 10
304.8453278365
 20
53.3612169223
 11
305.4976754456
 21
53.3612169223
  0
LINE
  5
49B
100
AcDbEntity
  8
606368120-000-00-ED1_FORMAT
100
AcDbLine
 62
2
  6
CONTINUOUS
 10
306.5876624558
 20
53.3612169223
 11
306.8905778084
 21
53.3612169223
  0
LINE
  5
49C
100
AcDbEntity
  8
606368120-000-00-ED1_FORMAT
100
AcDbLine
 62
2
  6
CONTINUOUS
 10
307.9434643747
 20
53.3612169223
 11
308.1737564759
 21
53.3612169223
  0
LINE
  5
49D
100
AcDbEntity
  8
606368120-000-00-ED1_FORMAT
100
AcDbLine
 62
2
  6
CONTINUOUS
 10
309.1516114228
 20
53.3612169223
 11
309.7548872544
 21
53.3612169223
  0
LINE
  5
49E
100
AcDbEntity
  8
606368120-000-00-ED1_FORMAT
100
AcDbLine
 62
2
  6
CONTINUOUS
 10
312.3432242389
 20
53.3612169223
 11
312.7687535783
 21
53.3612169223
  0
LINE
  5
49F
100
AcDbEntity
  8
606368120-000-00-ED1_FORMAT
100
AcDbLine
 62
2
  6
CONTINUOUS
 10
314.3042703099
 20
53.3612169223
 11
315.0530456934
 21
53.3612169223
  0
LINE
  5
4A0
100
AcDbEntity
  8
606368120-000-00-ED1_FORMAT
100
AcDbLine
 62
2
  6
CONTINUOUS
 10
317.3519261787
 20
53.3612169223
 11
318.1654360589
 21
53.3612169223
  0
LINE
  5
4A1
100
AcDbEntity
  8
606368120-000-00-ED1_FORMAT
100
AcDbLine
 62
2
  6
CONTINUOUS
 10
319.2068127099
 20
53.3612169223
 11
320.6673034775
 21
53.3612169223
  0
LINE
  5
4A2
100
AcDbEntity
  8
606368120-000-00-ED1_FORMAT
100
AcDbLine
 62
2
  6
CONTINUOUS
 10
304.6465971132
 20
53.4612169223
 11
305.4976754456
 21
53.4612169223
  0
LINE
  5
4A3
100
AcDbEntity
  8
606368120-000-00-ED1_FORMAT
100
AcDbLine
 62
2
  6
CONTINUOUS
 10
306.5876624558
 20
53.4612169223
 11
306.8500978454
 21
53.4612169223
  0
LINE
  5
4A4
100
AcDbEntity
  8
606368120-000-00-ED1_FORMAT
100
AcDbLine
 62
2
  6
CONTINUOUS
 10
307.984689702
 20
53.4612169223
 11
308.1737564759
 21
53.4612169223
  0
LINE
  5
4A5
100
AcDbEntity
  8
606368120-000-00-ED1_FORMAT
100
AcDbLine
 62
2
  6
CONTINUOUS
 10
309.1516114228
 20
53.4612169223
 11
309.7817089541
 21
53.4612169223
  0
LINE
  5
4A6
100
AcDbEntity
  8
606368120-000-00-ED1_FORMAT
100
AcDbLine
 62
2
  6
CONTINUOUS
 10
312.3187212639
 20
53.4612169223
 11
312.7687535783
 21
53.4612169223
  0
LINE
  5
4A7
100
AcDbEntity
  8
606368120-000-00-ED1_FORMAT
100
AcDbLine
 62
2
  6
CONTINUOUS
 10
314.4961822423
 20
53.4612169223
 11
315.0750958942
 21
53.4612169223
  0
LINE
  5
4A8
100
AcDbEntity
  8
606368120-000-00-ED1_FORMAT
100
AcDbLine
 62
2
  6
CONTINUOUS
 10
317.3339342513
 20
53.4612169223
 11
318.1654360589
 21
53.4612169223
  0
LINE
  5
4A9
100
AcDbEntity
  8
606368120-000-00-ED1_FORMAT
100
AcDbLine
 62
2
  6
CONTINUOUS
 10
319.2068127099
 20
53.4612169223
 11
320.873369271
 21
53.4612169223
  0
LINE
  5
4AA
100
AcDbEntity
  8
606368120-000-00-ED1_FORMAT
100
AcDbLine
 62
2
  6
CONTINUOUS
 10
304.4478663899
 20
53.5612169223
 11
305.4976754456
 21
53.5612169223
  0
LINE
  5
4AB
100
AcDbEntity
  8
606368120-000-00-ED1_FORMAT
100
AcDbLine
 62
2
  6
CONTINUOUS
 10
306.5876624558
 20
53.5612169223
 11
306.8096178824
 21
53.5612169223
  0
LINE
  5
4AC
100
AcDbEntity
  8
606368120-000-00-ED1_FORMAT
100
AcDbLine
 62
2
  6
CONTINUOUS
 10
308.0259150293
 20
53.5612169223
 11
308.1737564759
 21
53.5612169223
  0
LINE
  5
4AD
100
AcDbEntity
  8
606368120-000-00-ED1_FORMAT
100
AcDbLine
 62
2
  6
CONTINUOUS
 10
309.1516114228
 20
53.5612169223
 11
309.8085306539
 21
53.5612169223
  0
LINE
  5
4AE
100
AcDbEntity
  8
606368120-000-00-ED1_FORMAT
100
AcDbLine
 62
2
  6
CONTINUOUS
 10
312.2942182889
 20
53.5612169223
 11
312.7687535783
 21
53.5612169223
  0
LINE
  5
4AF
100
AcDbEntity
  8
606368120-000-00-ED1_FORMAT
100
AcDbLine
 62
2
  6
CONTINUOUS
 10
314.6285894584
 20
53.5612169223
 11
315.097146095
 21
53.5612169223
  0
LINE
  5
4B0
100
AcDbEntity
  8
606368120-000-00-ED1_FORMAT
100
AcDbLine
 62
2
  6
CONTINUOUS
 10
317.3159423239
 20
53.5612169223
 11
318.1654360589
 21
53.5612169223
  0
LINE
  5
4B1
100
AcDbEntity
  8
606368120-000-00-ED1_FORMAT
100
AcDbLine
 62
2
  6
CONTINUOUS
 10
319.2068127099
 20
53.5612169223
 11
321.0794350646
 21
53.5612169223
  0
LINE
  5
4B2
100
AcDbEntity
  8
606368120-000-00-ED1_FORMAT
100
AcDbLine
 62
2
  6
CONTINUOUS
 10
304.2491356666
 20
53.6612169223
 11
305.4976754456
 21
53.6612169223
  0
LINE
  5
4B3
100
AcDbEntity
  8
606368120-000-00-ED1_FORMAT
100
AcDbLine
 62
2
  6
CONTINUOUS
 10
306.5876624558
 20
53.6612169223
 11
306.7691379194
 21
53.6612169223
  0
LINE
  5
4B4
100
AcDbEntity
  8
606368120-000-00-ED1_FORMAT
100
AcDbLine
 62
2
  6
CONTINUOUS
 10
308.0671403566
 20
53.6612169223
 11
308.1737564759
 21
53.6612169223
  0
LINE
  5
4B5
100
AcDbEntity
  8
606368120-000-00-ED1_FORMAT
100
AcDbLine
 62
2
  6
CONTINUOUS
 10
309.1516114228
 20
53.6612169223
 11
309.8353523536
 21
53.6612169223
  0
LINE
  5
4B6
100
AcDbEntity
  8
606368120-000-00-ED1_FORMAT
100
AcDbLine
 62
2
  6
CONTINUOUS
 10
312.2697153139
 20
53.6612169223
 11
312.7687535783
 21
53.6612169223
  0
LINE
  5
4B7
100
AcDbEntity
  8
606368120-000-00-ED1_FORMAT
100
AcDbLine
 62
2
  6
CONTINUOUS
 10
314.7313458744
 20
53.6612169223
 11
315.1191962958
 21
53.6612169223
  0
LINE
  5
4B8
100
AcDbEntity
  8
606368120-000-00-ED1_FORMAT
100
AcDbLine
 62
2
  6
CONTINUOUS
 10
316.0266224027
 20
53.6612169223
 11
316.4071912766
 21
53.6612169223
  0
LINE
  5
4B9
100
AcDbEntity
  8
606368120-000-00-ED1_FORMAT
100
AcDbLine
 62
2
  6
CONTINUOUS
 10
317.2979503964
 20
53.6612169223
 11
318.1654360589
 21
53.6612169223
  0
LINE
  5
4BA
100
AcDbEntity
  8
606368120-000-00-ED1_FORMAT
100
AcDbLine
 62
2
  6
CONTINUOUS
 10
319.2068127099
 20
53.6612169223
 11
321.2855008582
 21
53.6612169223
  0
LINE
  5
4BB
100
AcDbEntity
  8
606368120-000-00-ED1_FORMAT
100
AcDbLine
 62
2
  6
CONTINUOUS
 10
304.0504049433
 20
53.7612169223
 11
305.4976754456
 21
53.7612169223
  0
LINE
  5
4BC
100
AcDbEntity
  8
606368120-000-00-ED1_FORMAT
100
AcDbLine
 62
2
  6
CONTINUOUS
 10
306.5876624558
 20
53.7612169223
 11
306.7286579565
 21
53.7612169223
  0
LINE
  5
4BD
100
AcDbEntity
  8
606368120-000-00-ED1_FORMAT
100
AcDbLine
 62
2
  6
CONTINUOUS
 10
308.1083656839
 20
53.7612169223
 11
308.1737564759
 21
53.7612169223
  0
LINE
  5
4BE
100
AcDbEntity
  8
606368120-000-00-ED1_FORMAT
100
AcDbLine
 62
2
  6
CONTINUOUS
 10
309.1516114228
 20
53.7612169223
 11
309.8621740534
 21
53.7612169223
  0
LINE
  5
4BF
100
AcDbEntity
  8
606368120-000-00-ED1_FORMAT
100
AcDbLine
 62
2
  6
CONTINUOUS
 10
312.2452123389
 20
53.7612169223
 11
312.7687535783
 21
53.7612169223
  0
LINE
  5
4C0
100
AcDbEntity
  8
606368120-000-00-ED1_FORMAT
100
AcDbLine
 62
2
  6
CONTINUOUS
 10
314.8062069384
 20
53.7612169223
 11
315.1412464966
 21
53.7612169223
  0
LINE
  5
4C1
100
AcDbEntity
  8
606368120-000-00-ED1_FORMAT
100
AcDbLine
 62
2
  6
CONTINUOUS
 10
316.0181043406
 20
53.7612169223
 11
316.3923233886
 21
53.7612169223
  0
LINE
  5
4C2
100
AcDbEntity
  8
606368120-000-00-ED1_FORMAT
100
AcDbLine
 62
2
  6
CONTINUOUS
 10
317.279958469
 20
53.7612169223
 11
318.1654360589
 21
53.7612169223
  0
LINE
  5
4C3
100
AcDbEntity
  8
606368120-000-00-ED1_FORMAT
100
AcDbLine
 62
2
  6
CONTINUOUS
 10
319.2068127099
 20
53.7612169223
 11
321.4915666518
 21
53.7612169223
  0
LINE
  5
4C4
100
AcDbEntity
  8
606368120-000-00-ED1_FORMAT
100
AcDbLine
 62
2
  6
CONTINUOUS
 10
303.85167422
 20
53.8612169223
 11
305.4976754456
 21
53.8612169223
  0
LINE
  5
4C5
100
AcDbEntity
  8
606368120-000-00-ED1_FORMAT
100
AcDbLine
 62
2
  6
CONTINUOUS
 10
306.5876624558
 20
53.8612169223
 11
306.6881779935
 21
53.8612169223
  0
LINE
  5
4C6
100
AcDbEntity
  8
606368120-000-00-ED1_FORMAT
100
AcDbLine
 62
2
  6
CONTINUOUS
 10
308.1495910112
 20
53.8612169223
 11
308.1737564759
 21
53.8612169223
  0
LINE
  5
4C7
100
AcDbEntity
  8
606368120-000-00-ED1_FORMAT
100
AcDbLine
 62
2
  6
CONTINUOUS
 10
309.1516114228
 20
53.8612169223
 11
309.8889957532
 21
53.8612169223
  0
LINE
  5
4C8
100
AcDbEntity
  8
606368120-000-00-ED1_FORMAT
100
AcDbLine
 62
2
  6
CONTINUOUS
 10
312.2207093639
 20
53.8612169223
 11
312.7687535783
 21
53.8612169223
  0
LINE
  5
4C9
100
AcDbEntity
  8
606368120-000-00-ED1_FORMAT
100
AcDbLine
 62
2
  6
CONTINUOUS
 10
314.8663911181
 20
53.8612169223
 11
315.1632966974
 21
53.8612169223
  0
LINE
  5
4CA
100
AcDbEntity
  8
606368120-000-00-ED1_FORMAT
100
AcDbLine
 62
2
  6
CONTINUOUS
 10
316.0320994653
 20
53.8612169223
 11
316.3774555006
 21
53.8612169223
  0
LINE
  5
4CB
100
AcDbEntity
  8
606368120-000-00-ED1_FORMAT
100
AcDbLine
 62
2
  6
CONTINUOUS
 10
317.2619665416
 20
53.8612169223
 11
318.1654360589
 21
53.8612169223
  0
LINE
  5
4CC
100
AcDbEntity
  8
606368120-000-00-ED1_FORMAT
100
AcDbLine
 62
2
  6
CONTINUOUS
 10
319.2068127099
 20
53.8612169223
 11
321.6976324454
 21
53.8612169223
  0
LINE
  5
4CD
100
AcDbEntity
  8
606368120-000-00-ED1_FORMAT
100
AcDbLine
 62
2
  6
CONTINUOUS
 10
303.6529434967
 20
53.9612169223
 11
305.4976754456
 21
53.9612169223
  0
LINE
  5
4CE
100
AcDbEntity
  8
606368120-000-00-ED1_FORMAT
100
AcDbLine
 62
2
  6
CONTINUOUS
 10
306.5876624558
 20
53.9612169223
 11
306.6476980305
 21
53.9612169223
  0
LINE
  5
4CF
100
AcDbEntity
  8
606368120-000-00-ED1_FORMAT
100
AcDbLine
 62
2
  6
CONTINUOUS
 10
309.1516114228
 20
53.9612169223
 11
309.9158174529
 21
53.9612169223
  0
LINE
  5
4D0
100
AcDbEntity
  8
606368120-000-00-ED1_FORMAT
100
AcDbLine
 62
2
  6
CONTINUOUS
 10
310.768326453
 20
53.9612169223
 11
311.2820181671
 21
53.9612169223
  0
LINE
  5
4D1
100
AcDbEntity
  8
606368120-000-00-ED1_FORMAT
100
AcDbLine
 62
2
  6
CONTINUOUS
 10
312.1962063889
 20
53.9612169223
 11
312.7687535783
 21
53.9612169223
  0
LINE
  5
4D2
100
AcDbEntity
  8
606368120-000-00-ED1_FORMAT
100
AcDbLine
 62
2
  6
CONTINUOUS
 10
314.9130254495
 20
53.9612169223
 11
315.1853468982
 21
53.9612169223
  0
LINE
  5
4D3
100
AcDbEntity
  8
606368120-000-00-ED1_FORMAT
100
AcDbLine
 62
2
  6
CONTINUOUS
 10
316.0460945899
 20
53.9612169223
 11
316.3625876126
 21
53.9612169223
  0
LINE
  5
4D4
100
AcDbEntity
  8
606368120-000-00-ED1_FORMAT
100
AcDbLine
 62
2
  6
CONTINUOUS
 10
317.2439746141
 20
53.9612169223
 11
318.1654360589
 21
53.9612169223
  0
LINE
  5
4D5
100
AcDbEntity
  8
606368120-000-00-ED1_FORMAT
100
AcDbLine
 62
2
  6
CONTINUOUS
 10
319.2068127099
 20
53.9612169223
 11
321.9036982389
 21
53.9612169223
  0
LINE
  5
4D6
100
AcDbEntity
  8
606368120-000-00-ED1_FORMAT
100
AcDbLine
 62
2
  6
CONTINUOUS
 10
303.4542127734
 20
54.0612169223
 11
305.4976754456
 21
54.0612169223
  0
LINE
  5
4D7
100
AcDbEntity
  8
606368120-000-00-ED1_FORMAT
100
AcDbLine
 62
2
  6
CONTINUOUS
 10
306.5876624558
 20
54.0612169223
 11
306.6072180675
 21
54.0612169223
  0
LINE
  5
4D8
100
AcDbEntity
  8
606368120-000-00-ED1_FORMAT
100
AcDbLine
 62
2
  6
CONTINUOUS
 10
309.1516114228
 20
54.0612169223
 11
309.9426391527
 21
54.0612169223
  0
LINE
  5
4D9
100
AcDbEntity
  8
606368120-000-00-ED1_FORMAT
100
AcDbLine
 62
2
  6
CONTINUOUS
 10
310.7902723221
 20
54.0612169223
 11
311.2610721888
 21
54.0612169223
  0
LINE
  5
4DA
100
AcDbEntity
  8
606368120-000-00-ED1_FORMAT
100
AcDbLine
 62
2
  6
CONTINUOUS
 10
312.1717034139
 20
54.0612169223
 11
312.7687535783
 21
54.0612169223
  0
LINE
  5
4DB
100
AcDbEntity
  8
606368120-000-00-ED1_FORMAT
100
AcDbLine
 62
2
  6
CONTINUOUS
 10
313.625958211
 20
54.0612169223
 11
313.8935627257
 21
54.0612169223
  0
LINE
  5
4DC
100
AcDbEntity
  8
606368120-000-00-ED1_FORMAT
100
AcDbLine
 62
2
  6
CONTINUOUS
 10
314.9511286237
 20
54.0612169223
 11
315.207397099
 21
54.0612169223
  0
LINE
  5
4DD
100
AcDbEntity
  8
606368120-000-00-ED1_FORMAT
100
AcDbLine
 62
2
  6
CONTINUOUS
 10
316.0600897146
 20
54.0612169223
 11
316.3477197245
 21
54.0612169223
  0
LINE
  5
4DE
100
AcDbEntity
  8
606368120-000-00-ED1_FORMAT
100
AcDbLine
 62
2
  6
CONTINUOUS
 10
317.2259826867
 20
54.0612169223
 11
318.1654360589
 21
54.0612169223
  0
LINE
  5
4DF
100
AcDbEntity
  8
606368120-000-00-ED1_FORMAT
100
AcDbLine
 62
2
  6
CONTINUOUS
 10
319.2068127099
 20
54.0612169223
 11
322.1097640325
 21
54.0612169223
  0
LINE
  5
4E0
100
AcDbEntity
  8
606368120-000-00-ED1_FORMAT
100
AcDbLine
 62
2
  6
CONTINUOUS
 10
303.2554820501
 20
54.1612169223
 11
305.4976754456
 21
54.1612169223
  0
LINE
  5
4E1
100
AcDbEntity
  8
606368120-000-00-ED1_FORMAT
100
AcDbLine
 62
2
  6
CONTINUOUS
 10
309.1516114228
 20
54.1612169223
 11
309.9694608525
 21
54.1612169223
  0
LINE
  5
4E2
100
AcDbEntity
  8
606368120-000-00-ED1_FORMAT
100
AcDbLine
 62
2
  6
CONTINUOUS
 10
310.8122181913
 20
54.1612169223
 11
311.2401262105
 21
54.1612169223
  0
LINE
  5
4E3
100
AcDbEntity
  8
606368120-000-00-ED1_FORMAT
100
AcDbLine
 62
2
  6
CONTINUOUS
 10
312.1472004389
 20
54.1612169223
 11
312.7687535783
 21
54.1612169223
  0
LINE
  5
4E4
100
AcDbEntity
  8
606368120-000-00-ED1_FORMAT
100
AcDbLine
 62
2
  6
CONTINUOUS
 10
313.6255064219
 20
54.1612169223
 11
314.0790479951
 21
54.1612169223
  0
LINE
  5
4E5
100
AcDbEntity
  8
606368120-000-00-ED1_FORMAT
100
AcDbLine
 62
2
  6
CONTINUOUS
 10
314.9838524179
 20
54.1612169223
 11
315.2294472997
 21
54.1612169223
  0
LINE
  5
4E6
100
AcDbEntity
  8
606368120-000-00-ED1_FORMAT
100
AcDbLine
 62
2
  6
CONTINUOUS
 10
316.0740848392
 20
54.1612169223
 11
316.3328518365
 21
54.1612169223
  0
LINE
  5
4E7
100
AcDbEntity
  8
606368120-000-00-ED1_FORMAT
100
AcDbLine
 62
2
  6
CONTINUOUS
 10
317.2079907593
 20
54.1612169223
 11
318.1654360589
 21
54.1612169223
  0
LINE
  5
4E8
100
AcDbEntity
  8
606368120-000-00-ED1_FORMAT
100
AcDbLine
 62
2
  6
CONTINUOUS
 10
319.2068127099
 20
54.1612169223
 11
322.3158298261
 21
54.1612169223
  0
LINE
  5
4E9
100
AcDbEntity
  8
606368120-000-00-ED1_FORMAT
100
AcDbLine
 62
2
  6
CONTINUOUS
 10
303.1527285403
 20
54.2612169223
 11
305.4976754456
 21
54.2612169223
  0
LINE
  5
4EA
100
AcDbEntity
  8
606368120-000-00-ED1_FORMAT
100
AcDbLine
 62
2
  6
CONTINUOUS
 10
309.1516114228
 20
54.2612169223
 11
309.9962825522
 21
54.2612169223
  0
LINE
  5
4EB
100
AcDbEntity
  8
606368120-000-00-ED1_FORMAT
100
AcDbLine
 62
2
  6
CONTINUOUS
 10
310.8341640604
 20
54.2612169223
 11
311.2191802322
 21
54.2612169223
  0
LINE
  5
4EC
100
AcDbEntity
  8
606368120-000-00-ED1_FORMAT
100
AcDbLine
 62
2
  6
CONTINUOUS
 10
312.1226974639
 20
54.2612169223
 11
312.7687535783
 21
54.2612169223
  0
LINE
  5
4ED
100
AcDbEntity
  8
606368120-000-00-ED1_FORMAT
100
AcDbLine
 62
2
  6
CONTINUOUS
 10
313.6250546327
 20
54.2612169223
 11
314.1633385198
 21
54.2612169223
  0
LINE
  5
4EE
100
AcDbEntity
  8
606368120-000-00-ED1_FORMAT
100
AcDbLine
 62
2
  6
CONTINUOUS
 10
315.0064005294
 20
54.2612169223
 11
315.2514975005
 21
54.2612169223
  0
LINE
  5
4EF
100
AcDbEntity
  8
606368120-000-00-ED1_FORMAT
100
AcDbLine
 62
2
  6
CONTINUOUS
 10
316.0880799638
 20
54.2612169223
 11
316.3179839485
 21
54.2612169223
  0
LINE
  5
4F0
100
AcDbEntity
  8
606368120-000-00-ED1_FORMAT
100
AcDbLine
 62
2
  6
CONTINUOUS
 10
317.1899988319
 20
54.2612169223
 11
318.1654360589
 21
54.2612169223
  0
LINE
  5
4F1
100
AcDbEntity
  8
606368120-000-00-ED1_FORMAT
100
AcDbLine
 62
2
  6
CONTINUOUS
 10
319.2068127099
 20
54.2612169223
 11
322.4223775784
 21
54.2612169223
  0
LINE
  5
4F2
100
AcDbEntity
  8
606368120-000-00-ED1_FORMAT
100
AcDbLine
 62
2
  6
CONTINUOUS
 10
303.3670363022
 20
54.3612169223
 11
305.4976754456
 21
54.3612169223
  0
LINE
  5
4F3
100
AcDbEntity
  8
606368120-000-00-ED1_FORMAT
100
AcDbLine
 62
2
  6
CONTINUOUS
 10
309.1516114228
 20
54.3612169223
 11
310.023104252
 21
54.3612169223
  0
LINE
  5
4F4
100
AcDbEntity
  8
606368120-000-00-ED1_FORMAT
100
AcDbLine
 62
2
  6
CONTINUOUS
 10
310.8561099295
 20
54.3612169223
 11
311.1982342538
 21
54.3612169223
  0
LINE
  5
4F5
100
AcDbEntity
  8
606368120-000-00-ED1_FORMAT
100
AcDbLine
 62
2
  6
CONTINUOUS
 10
312.0981944889
 20
54.3612169223
 11
312.7687535783
 21
54.3612169223
  0
LINE
  5
4F6
100
AcDbEntity
  8
606368120-000-00-ED1_FORMAT
100
AcDbLine
 62
2
  6
CONTINUOUS
 10
313.6246028436
 20
54.3612169223
 11
314.2089542591
 21
54.3612169223
  0
LINE
  5
4F7
100
AcDbEntity
  8
606368120-000-00-ED1_FORMAT
100
AcDbLine
 62
2
  6
CONTINUOUS
 10
315.0288327876
 20
54.3612169223
 11
315.2735477013
 21
54.3612169223
  0
LINE
  5
4F8
100
AcDbEntity
  8
606368120-000-00-ED1_FORMAT
100
AcDbLine
 62
2
  6
CONTINUOUS
 10
316.1020750885
 20
54.3612169223
 11
316.3031160605
 21
54.3612169223
  0
LINE
  5
4F9
100
AcDbEntity
  8
606368120-000-00-ED1_FORMAT
100
AcDbLine
 62
2
  6
CONTINUOUS
 10
317.1720069044
 20
54.3612169223
 11
318.1654360589
 21
54.3612169223
  0
LINE
  5
4FA
100
AcDbEntity
  8
606368120-000-00-ED1_FORMAT
100
AcDbLine
 62
2
  6
CONTINUOUS
 10
319.2068127099
 20
54.3612169223
 11
322.2001669143
 21
54.3612169223
  0
LINE
  5
4FB
100
AcDbEntity
  8
606368120-000-00-ED1_FORMAT
100
AcDbLine
 62
2
  6
CONTINUOUS
 10
303.581344064
 20
54.4612169223
 11
305.4976754456
 21
54.4612169223
  0
LINE
  5
4FC
100
AcDbEntity
  8
606368120-000-00-ED1_FORMAT
100
AcDbLine
 62
2
  6
CONTINUOUS
 10
309.1516114228
 20
54.4612169223
 11
310.0499259517
 21
54.4612169223
  0
LINE
  5
4FD
100
AcDbEntity
  8
606368120-000-00-ED1_FORMAT
100
AcDbLine
 62
2
  6
CONTINUOUS
 10
310.8780557987
 20
54.4612169223
 11
311.1772882755
 21
54.4612169223
  0
LINE
  5
4FE
100
AcDbEntity
  8
606368120-000-00-ED1_FORMAT
100
AcDbLine
 62
2
  6
CONTINUOUS
 10
312.0736915139
 20
54.4612169223
 11
312.7687535783
 21
54.4612169223
  0
LINE
  5
4FF
100
AcDbEntity
  8
606368120-000-00-ED1_FORMAT
100
AcDbLine
 62
2
  6
CONTINUOUS
 10
313.6241510544
 20
54.4612169223
 11
314.2323556081
 21
54.4612169223
  0
LINE
  5
500
100
AcDbEntity
  8
606368120-000-00-ED1_FORMAT
100
AcDbLine
 62
2
  6
CONTINUOUS
 10
315.0389016175
 20
54.4612169223
 11
315.2955979021
 21
54.4612169223
  0
LINE
  5
501
100
AcDbEntity
  8
606368120-000-00-ED1_FORMAT
100
AcDbLine
 62
2
  6
CONTINUOUS
 10
316.1160702131
 20
54.4612169223
 11
316.2882481725
 21
54.4612169223
  0
LINE
  5
502
100
AcDbEntity
  8
606368120-000-00-ED1_FORMAT
100
AcDbLine
 62
2
  6
CONTINUOUS
 10
317.154014977
 20
54.4612169223
 11
318.1654360589
 21
54.4612169223
  0
LINE
  5
503
100
AcDbEntity
  8
606368120-000-00-ED1_FORMAT
100
AcDbLine
 62
2
  6
CONTINUOUS
 10
319.2068127099
 20
54.4612169223
 11
321.9779562502
 21
54.4612169223
  0
LINE
  5
504
100
AcDbEntity
  8
606368120-000-00-ED1_FORMAT
100
AcDbLine
 62
2
  6
CONTINUOUS
 10
303.7956518259
 20
54.5612169223
 11
305.4976754456
 21
54.5612169223
  0
LINE
  5
505
100
AcDbEntity
  8
606368120-000-00-ED1_FORMAT
100
AcDbLine
 62
2
  6
CONTINUOUS
 10
309.1516114228
 20
54.5612169223
 11
310.0767476515
 21
54.5612169223
  0
LINE
  5
506
100
AcDbEntity
  8
606368120-000-00-ED1_FORMAT
100
AcDbLine
 62
2
  6
CONTINUOUS
 10
310.9000016678
 20
54.5612169223
 11
311.1563422972
 21
54.5612169223
  0
LINE
  5
507
100
AcDbEntity
  8
606368120-000-00-ED1_FORMAT
100
AcDbLine
 62
2
  6
CONTINUOUS
 10
312.0491885388
 20
54.5612169223
 11
312.7687535783
 21
54.5612169223
  0
LINE
  5
508
100
AcDbEntity
  8
606368120-000-00-ED1_FORMAT
100
AcDbLine
 62
2
  6
CONTINUOUS
 10
313.6236992653
 20
54.5612169223
 11
314.2449481092
 21
54.5612169223
  0
LINE
  5
509
100
AcDbEntity
  8
606368120-000-00-ED1_FORMAT
100
AcDbLine
 62
2
  6
CONTINUOUS
 10
315.0489704474
 20
54.5612169223
 11
315.3176481029
 21
54.5612169223
  0
LINE
  5
50A
100
AcDbEntity
  8
606368120-000-00-ED1_FORMAT
100
AcDbLine
 62
2
  6
CONTINUOUS
 10
316.1300653377
 20
54.5612169223
 11
316.2733802845
 21
54.5612169223
  0
LINE
  5
50B
100
AcDbEntity
  8
606368120-000-00-ED1_FORMAT
100
AcDbLine
 62
2
  6
CONTINUOUS
 10
317.1360230496
 20
54.5612169223
 11
318.1654360589
 21
54.5612169223
  0
LINE
  5
50C
100
AcDbEntity
  8
606368120-000-00-ED1_FORMAT
100
AcDbLine
 62
2
  6
CONTINUOUS
 10
319.2068127099
 20
54.5612169223
 11
321.755745586
 21
54.5612169223
  0
LINE
  5
50D
100
AcDbEntity
  8
606368120-000-00-ED1_FORMAT
100
AcDbLine
 62
2
  6
CONTINUOUS
 10
304.0099595877
 20
54.6612169223
 11
305.4976754456
 21
54.6612169223
  0
LINE
  5
50E
100
AcDbEntity
  8
606368120-000-00-ED1_FORMAT
100
AcDbLine
 62
2
  6
CONTINUOUS
 10
309.1516114228
 20
54.6612169223
 11
310.1035693513
 21
54.6612169223
  0
LINE
  5
50F
100
AcDbEntity
  8
606368120-000-00-ED1_FORMAT
100
AcDbLine
 62
2
  6
CONTINUOUS
 10
310.9219475369
 20
54.6612169223
 11
311.1353963189
 21
54.6612169223
  0
LINE
  5
510
100
AcDbEntity
  8
606368120-000-00-ED1_FORMAT
100
AcDbLine
 62
2
  6
CONTINUOUS
 10
312.0246855638
 20
54.6612169223
 11
312.7687535783
 21
54.6612169223
  0
LINE
  5
511
100
AcDbEntity
  8
606368120-000-00-ED1_FORMAT
100
AcDbLine
 62
2
  6
CONTINUOUS
 10
313.6232474762
 20
54.6612169223
 11
314.2513308978
 21
54.6612169223
  0
LINE
  5
512
100
AcDbEntity
  8
606368120-000-00-ED1_FORMAT
100
AcDbLine
 62
2
  6
CONTINUOUS
 10
315.0549566033
 20
54.6612169223
 11
315.3396983037
 21
54.6612169223
  0
LINE
  5
513
100
AcDbEntity
  8
606368120-000-00-ED1_FORMAT
100
AcDbLine
 62
2
  6
CONTINUOUS
 10
316.1440604624
 20
54.6612169223
 11
316.2585123965
 21
54.6612169223
  0
LINE
  5
514
100
AcDbEntity
  8
606368120-000-00-ED1_FORMAT
100
AcDbLine
 62
2
  6
CONTINUOUS
 10
317.1180311221
 20
54.6612169223
 11
318.1654360589
 21
54.6612169223
  0
LINE
  5
515
100
AcDbEntity
  8
606368120-000-00-ED1_FORMAT
100
AcDbLine
 62
2
  6
CONTINUOUS
 10
319.2068127099
 20
54.6612169223
 11
321.5335349219
 21
54.6612169223
  0
LINE
  5
516
100
AcDbEntity
  8
606368120-000-00-ED1_FORMAT
100
AcDbLine
 62
2
  6
CONTINUOUS
 10
304.2242673496
 20
54.7612169223
 11
305.4976754456
 21
54.7612169223
  0
LINE
  5
517
100
AcDbEntity
  8
606368120-000-00-ED1_FORMAT
100
AcDbLine
 62
2
  6
CONTINUOUS
 10
309.1516114228
 20
54.7612169223
 11
310.130391051
 21
54.7612169223
  0
LINE
  5
518
100
AcDbEntity
  8
606368120-000-00-ED1_FORMAT
100
AcDbLine
 62
2
  6
CONTINUOUS
 10
310.9438934061
 20
54.7612169223
 11
311.1144503405
 21
54.7612169223
  0
LINE
  5
519
100
AcDbEntity
  8
606368120-000-00-ED1_FORMAT
100
AcDbLine
 62
2
  6
CONTINUOUS
 10
312.0001825888
 20
54.7612169223
 11
312.7687535783
 21
54.7612169223
  0
LINE
  5
51A
100
AcDbEntity
  8
606368120-000-00-ED1_FORMAT
100
AcDbLine
 62
2
  6
CONTINUOUS
 10
313.622795687
 20
54.7612169223
 11
314.243276854
 21
54.7612169223
  0
LINE
  5
51B
100
AcDbEntity
  8
606368120-000-00-ED1_FORMAT
100
AcDbLine
 62
2
  6
CONTINUOUS
 10
315.0549566033
 20
54.7612169223
 11
315.3617485045
 21
54.7612169223
  0
LINE
  5
51C
100
AcDbEntity
  8
606368120-000-00-ED1_FORMAT
100
AcDbLine
 62
2
  6
CONTINUOUS
 10
316.158055587
 20
54.7612169223
 11
316.2436445084
 21
54.7612169223
  0
LINE
  5
51D
100
AcDbEntity
  8
606368120-000-00-ED1_FORMAT
100
AcDbLine
 62
2
  6
CONTINUOUS
 10
317.1000391947
 20
54.7612169223
 11
318.1654360589
 21
54.7612169223
  0
LINE
  5
51E
100
AcDbEntity
  8
606368120-000-00-ED1_FORMAT
100
AcDbLine
 62
2
  6
CONTINUOUS
 10
319.2068127099
 20
54.7612169223
 11
321.3113242578
 21
54.7612169223
  0
LINE
  5
51F
100
AcDbEntity
  8
606368120-000-00-ED1_FORMAT
100
AcDbLine
 62
2
  6
CONTINUOUS
 10
304.4385751114
 20
54.8612169223
 11
305.4976754456
 21
54.8612169223
  0
LINE
  5
520
100
AcDbEntity
  8
606368120-000-00-ED1_FORMAT
100
AcDbLine
 62
2
  6
CONTINUOUS
 10
307.3074853576
 20
54.8612169223
 11
307.3805938489
 21
54.8612169223
  0
LINE
  5
521
100
AcDbEntity
  8
606368120-000-00-ED1_FORMAT
100
AcDbLine
 62
2
  6
CONTINUOUS
 10
309.1516114228
 20
54.8612169223
 11
310.1572127508
 21
54.8612169223
  0
LINE
  5
522
100
AcDbEntity
  8
606368120-000-00-ED1_FORMAT
100
AcDbLine
 62
2
  6
CONTINUOUS
 10
310.9658392752
 20
54.8612169223
 11
311.0935043622
 21
54.8612169223
  0
LINE
  5
523
100
AcDbEntity
  8
606368120-000-00-ED1_FORMAT
100
AcDbLine
 62
2
  6
CONTINUOUS
 10
311.9756796138
 20
54.8612169223
 11
312.7687535783
 21
54.8612169223
  0
LINE
  5
524
100
AcDbEntity
  8
606368120-000-00-ED1_FORMAT
100
AcDbLine
 62
2
  6
CONTINUOUS
 10
313.6223438979
 20
54.8612169223
 11
314.2224299404
 21
54.8612169223
  0
LINE
  5
525
100
AcDbEntity
  8
606368120-000-00-ED1_FORMAT
100
AcDbLine
 62
2
  6
CONTINUOUS
 10
315.0544618239
 20
54.8612169223
 11
315.3837987053
 21
54.8612169223
  0
LINE
  5
526
100
AcDbEntity
  8
606368120-000-00-ED1_FORMAT
100
AcDbLine
 62
2
  6
CONTINUOUS
 10
316.1720507117
 20
54.8612169223
 11
316.2287766204
 21
54.8612169223
  0
LINE
  5
527
100
AcDbEntity
  8
606368120-000-00-ED1_FORMAT
100
AcDbLine
 62
2
  6
CONTINUOUS
 10
317.0820472673
 20
54.8612169223
 11
318.1654360589
 21
54.8612169223
  0
LINE
  5
528
100
AcDbEntity
  8
606368120-000-00-ED1_FORMAT
100
AcDbLine
 62
2
  6
CONTINUOUS
 10
319.2068127099
 20
54.8612169223
 11
321.0891135937
 21
54.8612169223
  0
LINE
  5
529
100
AcDbEntity
  8
606368120-000-00-ED1_FORMAT
100
AcDbLine
 62
2
  6
CONTINUOUS
 10
304.6528828733
 20
54.9612169223
 11
305.4976754456
 21
54.9612169223
  0
LINE
  5
52A
100
AcDbEntity
  8
606368120-000-00-ED1_FORMAT
100
AcDbLine
 62
2
  6
CONTINUOUS
 10
307.2747904084
 20
54.9612169223
 11
307.4465769883
 21
54.9612169223
  0
LINE
  5
52B
100
AcDbEntity
  8
606368120-000-00-ED1_FORMAT
100
AcDbLine
 62
2
  6
CONTINUOUS
 10
309.1516114228
 20
54.9612169223
 11
310.1840344505
 21
54.9612169223
  0
LINE
  5
52C
100
AcDbEntity
  8
606368120-000-00-ED1_FORMAT
100
AcDbLine
 62
2
  6
CONTINUOUS
 10
310.9877851444
 20
54.9612169223
 11
311.0725583839
 21
54.9612169223
  0
LINE
  5
52D
100
AcDbEntity
  8
606368120-000-00-ED1_FORMAT
100
AcDbLine
 62
2
  6
CONTINUOUS
 10
311.9511766388
 20
54.9612169223
 11
312.7687535783
 21
54.9612169223
  0
LINE
  5
52E
100
AcDbEntity
  8
606368120-000-00-ED1_FORMAT
100
AcDbLine
 62
2
  6
CONTINUOUS
 10
313.6218921087
 20
54.9612169223
 11
314.1772743447
 21
54.9612169223
  0
LINE
  5
52F
100
AcDbEntity
  8
606368120-000-00-ED1_FORMAT
100
AcDbLine
 62
2
  6
CONTINUOUS
 10
315.0419741551
 20
54.9612169223
 11
315.4058489061
 21
54.9612169223
  0
LINE
  5
530
100
AcDbEntity
  8
606368120-000-00-ED1_FORMAT
100
AcDbLine
 62
2
  6
CONTINUOUS
 10
316.1860458363
 20
54.9612169223
 11
316.2139087324
 21
54.9612169223
  0
LINE
  5
531
100
AcDbEntity
  8
606368120-000-00-ED1_FORMAT
100
AcDbLine
 62
2
  6
CONTINUOUS
 10
317.0640553398
 20
54.9612169223
 11
318.1654360589
 21
54.9612169223
  0
LINE
  5
532
100
AcDbEntity
  8
606368120-000-00-ED1_FORMAT
100
AcDbLine
 62
2
  6
CONTINUOUS
 10
319.2068127099
 20
54.9612169223
 11
320.8669029295
 21
54.9612169223
  0
LINE
  5
533
100
AcDbEntity
  8
606368120-000-00-ED1_FORMAT
100
AcDbLine
 62
2
  6
CONTINUOUS
 10
304.8671906351
 20
55.0612169223
 11
305.4976754456
 21
55.0612169223
  0
LINE
  5
534
100
AcDbEntity
  8
606368120-000-00-ED1_FORMAT
100
AcDbLine
 62
2
  6
CONTINUOUS
 10
307.2420954592
 20
55.0612169223
 11
307.5125601276
 21
55.0612169223
  0
LINE
  5
535
100
AcDbEntity
  8
606368120-000-00-ED1_FORMAT
100
AcDbLine
 62
2
  6
CONTINUOUS
 10
309.1516114228
 20
55.0612169223
 11
310.2108561503
 21
55.0612169223
  0
LINE
  5
536
100
AcDbEntity
  8
606368120-000-00-ED1_FORMAT
100
AcDbLine
 62
2
  6
CONTINUOUS
 10
311.0097310135
 20
55.0612169223
 11
311.0516124055
 21
55.0612169223
  0
LINE
  5
537
100
AcDbEntity
  8
606368120-000-00-ED1_FORMAT
100
AcDbLine
 62
2
  6
CONTINUOUS
 10
311.9266736638
 20
55.0612169223
 11
312.7687535783
 21
55.0612169223
  0
LINE
  5
538
100
AcDbEntity
  8
606368120-000-00-ED1_FORMAT
100
AcDbLine
 62
2
  6
CONTINUOUS
 10
313.6214403196
 20
55.0612169223
 11
314.0823675722
 21
55.0612169223
  0
LINE
  5
539
100
AcDbEntity
  8
606368120-000-00-ED1_FORMAT
100
AcDbLine
 62
2
  6
CONTINUOUS
 10
315.0186315978
 20
55.0612169223
 11
315.4278991068
 21
55.0612169223
  0
LINE
  5
53A
100
AcDbEntity
  8
606368120-000-00-ED1_FORMAT
100
AcDbLine
 62
2
  6
CONTINUOUS
 10
317.0460634124
 20
55.0612169223
 11
318.1654360589
 21
55.0612169223
  0
LINE
  5
53B
100
AcDbEntity
  8
606368120-000-00-ED1_FORMAT
100
AcDbLine
 62
2
  6
CONTINUOUS
 10
319.2068127099
 20
55.0612169223
 11
320.6446922654
 21
55.0612169223
  0
LINE
  5
53C
100
AcDbEntity
  8
606368120-000-00-ED1_FORMAT
100
AcDbLine
 62
2
  6
CONTINUOUS
 10
305.081498397
 20
55.1612169223
 11
305.4976754456
 21
55.1612169223
  0
LINE
  5
53D
100
AcDbEntity
  8
606368120-000-00-ED1_FORMAT
100
AcDbLine
 62
2
  6
CONTINUOUS
 10
307.20940051
 20
55.1612169223
 11
307.578543267
 21
55.1612169223
  0
LINE
  5
53E
100
AcDbEntity
  8
606368120-000-00-ED1_FORMAT
100
AcDbLine
 62
2
  6
CONTINUOUS
 10
309.1516114228
 20
55.1612169223
 11
310.2376778501
 21
55.1612169223
  0
LINE
  5
53F
100
AcDbEntity
  8
606368120-000-00-ED1_FORMAT
100
AcDbLine
 62
2
  6
CONTINUOUS
 10
311.9021706888
 20
55.1612169223
 11
312.7687535783
 21
55.1612169223
  0
LINE
  5
540
100
AcDbEntity
  8
606368120-000-00-ED1_FORMAT
100
AcDbLine
 62
2
  6
CONTINUOUS
 10
313.6209885304
 20
55.1612169223
 11
313.648597506
 21
55.1612169223
  0
LINE
  5
541
100
AcDbEntity
  8
606368120-000-00-ED1_FORMAT
100
AcDbLine
 62
2
  6
CONTINUOUS
 10
314.9929590246
 20
55.1612169223
 11
315.4499493076
 21
55.1612169223
  0
LINE
  5
542
100
AcDbEntity
  8
606368120-000-00-ED1_FORMAT
100
AcDbLine
 62
2
  6
CONTINUOUS
 10
317.028071485
 20
55.1612169223
 11
318.1654360589
 21
55.1612169223
  0
LINE
  5
543
100
AcDbEntity
  8
606368120-000-00-ED1_FORMAT
100
AcDbLine
 62
2
  6
CONTINUOUS
 10
319.2068127099
 20
55.1612169223
 11
320.4224816013
 21
55.1612169223
  0
LINE
  5
544
100
AcDbEntity
  8
606368120-000-00-ED1_FORMAT
100
AcDbLine
 62
2
  6
CONTINUOUS
 10
305.0855867265
 20
55.2612169223
 11
305.4976754456
 21
55.2612169223
  0
LINE
  5
545
100
AcDbEntity
  8
606368120-000-00-ED1_FORMAT
100
AcDbLine
 62
2
  6
CONTINUOUS
 10
307.1767055608
 20
55.2612169223
 11
307.6445264063
 21
55.2612169223
  0
LINE
  5
546
100
AcDbEntity
  8
606368120-000-00-ED1_FORMAT
100
AcDbLine
 62
2
  6
CONTINUOUS
 10
309.1516114228
 20
55.2612169223
 11
310.2644995498
 21
55.2612169223
  0
LINE
  5
547
100
AcDbEntity
  8
606368120-000-00-ED1_FORMAT
100
AcDbLine
 62
2
  6
CONTINUOUS
 10
311.8776677138
 20
55.2612169223
 11
312.7687535783
 21
55.2612169223
  0
LINE
  5
548
100
AcDbEntity
  8
606368120-000-00-ED1_FORMAT
100
AcDbLine
 62
2
  6
CONTINUOUS
 10
314.952943952
 20
55.2612169223
 11
315.4719995084
 21
55.2612169223
  0
LINE
  5
549
100
AcDbEntity
  8
606368120-000-00-ED1_FORMAT
100
AcDbLine
 62
2
  6
CONTINUOUS
 10
317.0100795575
 20
55.2612169223
 11
318.1654360589
 21
55.2612169223
  0
LINE
  5
54A
100
AcDbEntity
  8
606368120-000-00-ED1_FORMAT
100
AcDbLine
 62
2
  6
CONTINUOUS
 10
319.2068127099
 20
55.2612169223
 11
320.2002709371
 21
55.2612169223
  0
LINE
  5
54B
100
AcDbEntity
  8
606368120-000-00-ED1_FORMAT
100
AcDbLine
 62
2
  6
CONTINUOUS
 10
305.0855867265
 20
55.3612169223
 11
305.4976754456
 21
55.3612169223
  0
LINE
  5
54C
100
AcDbEntity
  8
606368120-000-00-ED1_FORMAT
100
AcDbLine
 62
2
  6
CONTINUOUS
 10
307.1440106116
 20
55.3612169223
 11
307.7105095457
 21
55.3612169223
  0
LINE
  5
54D
100
AcDbEntity
  8
606368120-000-00-ED1_FORMAT
100
AcDbLine
 62
2
  6
CONTINUOUS
 10
309.1516114228
 20
55.3612169223
 11
310.2913212496
 21
55.3612169223
  0
LINE
  5
54E
100
AcDbEntity
  8
606368120-000-00-ED1_FORMAT
100
AcDbLine
 62
2
  6
CONTINUOUS
 10
311.8531647388
 20
55.3612169223
 11
312.7687535783
 21
55.3612169223
  0
LINE
  5
54F
100
AcDbEntity
  8
606368120-000-00-ED1_FORMAT
100
AcDbLine
 62
2
  6
CONTINUOUS
 10
314.8979235488
 20
55.3612169223
 11
315.4940497092
 21
55.3612169223
  0
LINE
  5
550
100
AcDbEntity
  8
606368120-000-00-ED1_FORMAT
100
AcDbLine
 62
2
  6
CONTINUOUS
 10
316.9920876301
 20
55.3612169223
 11
318.1654360589
 21
55.3612169223
  0
LINE
  5
551
100
AcDbEntity
  8
606368120-000-00-ED1_FORMAT
100
AcDbLine
 62
2
  6
CONTINUOUS
 10
319.2068127099
 20
55.3612169223
 11
319.978060273
 21
55.3612169223
  0
LINE
  5
552
100
AcDbEntity
  8
606368120-000-00-ED1_FORMAT
100
AcDbLine
 62
2
  6
CONTINUOUS
 10
305.0855867265
 20
55.4612169223
 11
305.4976754456
 21
55.4612169223
  0
LINE
  5
553
100
AcDbEntity
  8
606368120-000-00-ED1_FORMAT
100
AcDbLine
 62
2
  6
CONTINUOUS
 10
307.1113156624
 20
55.4612169223
 11
307.776492685
 21
55.4612169223
  0
LINE
  5
554
100
AcDbEntity
  8
606368120-000-00-ED1_FORMAT
100
AcDbLine
 62
2
  6
CONTINUOUS
 10
309.1516114228
 20
55.4612169223
 11
310.3181429493
 21
55.4612169223
  0
LINE
  5
555
100
AcDbEntity
  8
606368120-000-00-ED1_FORMAT
100
AcDbLine
 62
2
  6
CONTINUOUS
 10
311.8286617638
 20
55.4612169223
 11
312.7687535783
 21
55.4612169223
  0
LINE
  5
556
100
AcDbEntity
  8
606368120-000-00-ED1_FORMAT
100
AcDbLine
 62
2
  6
CONTINUOUS
 10
314.8293698291
 20
55.4612169223
 11
315.51609991
 21
55.4612169223
  0
LINE
  5
557
100
AcDbEntity
  8
606368120-000-00-ED1_FORMAT
100
AcDbLine
 62
2
  6
CONTINUOUS
 10
316.9740957027
 20
55.4612169223
 11
318.1654360589
 21
55.4612169223
  0
LINE
  5
558
100
AcDbEntity
  8
606368120-000-00-ED1_FORMAT
100
AcDbLine
 62
2
  6
CONTINUOUS
 10
319.2068127099
 20
55.4612169223
 11
319.7558496089
 21
55.4612169223
  0
LINE
  5
559
100
AcDbEntity
  8
606368120-000-00-ED1_FORMAT
100
AcDbLine
 62
2
  6
CONTINUOUS
 10
305.0855867265
 20
55.5612169223
 11
305.4976754456
 21
55.5612169223
  0
LINE
  5
55A
100
AcDbEntity
  8
606368120-000-00-ED1_FORMAT
100
AcDbLine
 62
2
  6
CONTINUOUS
 10
307.0786207132
 20
55.5612169223
 11
307.8424758243
 21
55.5612169223
  0
LINE
  5
55B
100
AcDbEntity
  8
606368120-000-00-ED1_FORMAT
100
AcDbLine
 62
2
  6
CONTINUOUS
 10
309.1516114228
 20
55.5612169223
 11
310.3449646491
 21
55.5612169223
  0
LINE
  5
55C
100
AcDbEntity
  8
606368120-000-00-ED1_FORMAT
100
AcDbLine
 62
2
  6
CONTINUOUS
 10
311.8041587888
 20
55.5612169223
 11
312.7687535783
 21
55.5612169223
  0
LINE
  5
55D
100
AcDbEntity
  8
606368120-000-00-ED1_FORMAT
100
AcDbLine
 62
2
  6
CONTINUOUS
 10
314.7385066587
 20
55.5612169223
 11
315.5381501108
 21
55.5612169223
  0
LINE
  5
55E
100
AcDbEntity
  8
606368120-000-00-ED1_FORMAT
100
AcDbLine
 62
2
  6
CONTINUOUS
 10
316.9561037752
 20
55.5612169223
 11
318.1654360589
 21
55.5612169223
  0
LINE
  5
55F
100
AcDbEntity
  8
606368120-000-00-ED1_FORMAT
100
AcDbLine
 62
2
  6
CONTINUOUS
 10
319.2068127099
 20
55.5612169223
 11
319.6064909387
 21
55.5612169223
  0
LINE
  5
560
100
AcDbEntity
  8
606368120-000-00-ED1_FORMAT
100
AcDbLine
 62
2
  6
CONTINUOUS
 10
305.0855867265
 20
55.6612169223
 11
305.4976754456
 21
55.6612169223
  0
LINE
  5
561
100
AcDbEntity
  8
606368120-000-00-ED1_FORMAT
100
AcDbLine
 62
2
  6
CONTINUOUS
 10
307.045925764
 20
55.6612169223
 11
307.9084589637
 21
55.6612169223
  0
LINE
  5
562
100
AcDbEntity
  8
606368120-000-00-ED1_FORMAT
100
AcDbLine
 62
2
  6
CONTINUOUS
 10
309.1516114228
 20
55.6612169223
 11
310.3717863489
 21
55.6612169223
  0
LINE
  5
563
100
AcDbEntity
  8
606368120-000-00-ED1_FORMAT
100
AcDbLine
 62
2
  6
CONTINUOUS
 10
311.7796558138
 20
55.6612169223
 11
312.7687535783
 21
55.6612169223
  0
LINE
  5
564
100
AcDbEntity
  8
606368120-000-00-ED1_FORMAT
100
AcDbLine
 62
2
  6
CONTINUOUS
 10
314.6299847361
 20
55.6612169223
 11
315.5602003116
 21
55.6612169223
  0
LINE
  5
565
100
AcDbEntity
  8
606368120-000-00-ED1_FORMAT
100
AcDbLine
 62
2
  6
CONTINUOUS
 10
316.9381118478
 20
55.6612169223
 11
318.1654360589
 21
55.6612169223
  0
LINE
  5
566
100
AcDbEntity
  8
606368120-000-00-ED1_FORMAT
100
AcDbLine
 62
2
  6
CONTINUOUS
 10
319.2068127099
 20
55.6612169223
 11
319.6064909387
 21
55.6612169223
  0
LINE
  5
567
100
AcDbEntity
  8
606368120-000-00-ED1_FORMAT
100
AcDbLine
 62
2
  6
CONTINUOUS
 10
305.0855867265
 20
55.7612169223
 11
305.4976754456
 21
55.7612169223
  0
LINE
  5
568
100
AcDbEntity
  8
606368120-000-00-ED1_FORMAT
100
AcDbLine
 62
2
  6
CONTINUOUS
 10
307.0132308148
 20
55.7612169223
 11
307.974442103
 21
55.7612169223
  0
LINE
  5
569
100
AcDbEntity
  8
606368120-000-00-ED1_FORMAT
100
AcDbLine
 62
2
  6
CONTINUOUS
 10
309.1516114228
 20
55.7612169223
 11
310.3986080486
 21
55.7612169223
  0
LINE
  5
56A
100
AcDbEntity
  8
606368120-000-00-ED1_FORMAT
100
AcDbLine
 62
2
  6
CONTINUOUS
 10
311.7551528388
 20
55.7612169223
 11
312.7687535783
 21
55.7612169223
  0
LINE
  5
56B
100
AcDbEntity
  8
606368120-000-00-ED1_FORMAT
100
AcDbLine
 62
2
  6
CONTINUOUS
 10
314.4704308002
 20
55.7612169223
 11
315.5822505124
 21
55.7612169223
  0
LINE
  5
56C
100
AcDbEntity
  8
606368120-000-00-ED1_FORMAT
100
AcDbLine
 62
2
  6
CONTINUOUS
 10
316.9201199204
 20
55.7612169223
 11
318.1654360589
 21
55.7612169223
  0
LINE
  5
56D
100
AcDbEntity
  8
606368120-000-00-ED1_FORMAT
100
AcDbLine
 62
2
  6
CONTINUOUS
 10
319.2068127099
 20
55.7612169223
 11
319.6064909387
 21
55.7612169223
  0
LINE
  5
56E
100
AcDbEntity
  8
606368120-000-00-ED1_FORMAT
100
AcDbLine
 62
2
  6
CONTINUOUS
 10
305.0855867265
 20
55.8612169223
 11
305.4976754456
 21
55.8612169223
  0
LINE
  5
56F
100
AcDbEntity
  8
606368120-000-00-ED1_FORMAT
100
AcDbLine
 62
2
  6
CONTINUOUS
 10
306.9805358656
 20
55.8612169223
 11
308.0404252424
 21
55.8612169223
  0
LINE
  5
570
100
AcDbEntity
  8
606368120-000-00-ED1_FORMAT
100
AcDbLine
 62
2
  6
CONTINUOUS
 10
309.1516114228
 20
55.8612169223
 11
310.4254297484
 21
55.8612169223
  0
LINE
  5
571
100
AcDbEntity
  8
606368120-000-00-ED1_FORMAT
100
AcDbLine
 62
2
  6
CONTINUOUS
 10
311.7306498637
 20
55.8612169223
 11
312.7687535783
 21
55.8612169223
  0
LINE
  5
572
100
AcDbEntity
  8
606368120-000-00-ED1_FORMAT
100
AcDbLine
 62
2
  6
CONTINUOUS
 10
314.2272767393
 20
55.8612169223
 11
315.6043007131
 21
55.8612169223
  0
LINE
  5
573
100
AcDbEntity
  8
606368120-000-00-ED1_FORMAT
100
AcDbLine
 62
2
  6
CONTINUOUS
 10
316.9021279929
 20
55.8612169223
 11
318.1654360589
 21
55.8612169223
  0
LINE
  5
574
100
AcDbEntity
  8
606368120-000-00-ED1_FORMAT
100
AcDbLine
 62
2
  6
CONTINUOUS
 10
319.2068127099
 20
55.8612169223
 11
319.6064909387
 21
55.8612169223
  0
LINE
  5
575
100
AcDbEntity
  8
606368120-000-00-ED1_FORMAT
100
AcDbLine
 62
2
  6
CONTINUOUS
 10
305.0855867265
 20
55.9612169223
 11
305.4976754456
 21
55.9612169223
  0
LINE
  5
576
100
AcDbEntity
  8
606368120-000-00-ED1_FORMAT
100
AcDbLine
 62
2
  6
CONTINUOUS
 10
306.9478409164
 20
55.9612169223
 11
308.1064083817
 21
55.9612169223
  0
LINE
  5
577
100
AcDbEntity
  8
606368120-000-00-ED1_FORMAT
100
AcDbLine
 62
2
  6
CONTINUOUS
 10
309.1516114228
 20
55.9612169223
 11
310.4522514481
 21
55.9612169223
  0
LINE
  5
578
100
AcDbEntity
  8
606368120-000-00-ED1_FORMAT
100
AcDbLine
 62
2
  6
CONTINUOUS
 10
310.5444356071
 20
55.9612169223
 11
315.6263509139
 21
55.9612169223
  0
LINE
  5
579
100
AcDbEntity
  8
606368120-000-00-ED1_FORMAT
100
AcDbLine
 62
2
  6
CONTINUOUS
 10
316.8841360655
 20
55.9612169223
 11
318.1654360589
 21
55.9612169223
  0
LINE
  5
57A
100
AcDbEntity
  8
606368120-000-00-ED1_FORMAT
100
AcDbLine
 62
2
  6
CONTINUOUS
 10
319.2068127099
 20
55.9612169223
 11
319.6064909387
 21
55.9612169223
  0
LINE
  5
57B
100
AcDbEntity
  8
606368120-000-00-ED1_FORMAT
100
AcDbLine
 62
2
  6
CONTINUOUS
 10
305.0855867265
 20
56.0612169223
 11
305.4976754456
 21
56.0612169223
  0
LINE
  5
57C
100
AcDbEntity
  8
606368120-000-00-ED1_FORMAT
100
AcDbLine
 62
2
  6
CONTINUOUS
 10
306.9151459672
 20
56.0612169223
 11
308.1723915211
 21
56.0612169223
  0
LINE
  5
57D
100
AcDbEntity
  8
606368120-000-00-ED1_FORMAT
100
AcDbLine
 62
2
  6
CONTINUOUS
 10
309.1516114228
 20
56.0612169223
 11
315.6484011147
 21
56.0612169223
  0
LINE
  5
57E
100
AcDbEntity
  8
606368120-000-00-ED1_FORMAT
100
AcDbLine
 62
2
  6
CONTINUOUS
 10
316.8661441381
 20
56.0612169223
 11
318.1654360589
 21
56.0612169223
  0
LINE
  5
57F
100
AcDbEntity
  8
606368120-000-00-ED1_FORMAT
100
AcDbLine
 62
2
  6
CONTINUOUS
 10
319.2068127099
 20
56.0612169223
 11
319.6064909387
 21
56.0612169223
  0
LINE
  5
580
100
AcDbEntity
  8
606368120-000-00-ED1_FORMAT
100
AcDbLine
 62
2
  6
CONTINUOUS
 10
305.0855867265
 20
56.1612169223
 11
305.4976754456
 21
56.1612169223
  0
LINE
  5
581
100
AcDbEntity
  8
606368120-000-00-ED1_FORMAT
100
AcDbLine
 62
2
  6
CONTINUOUS
 10
306.882451018
 20
56.1612169223
 11
307.0650673072
 21
56.1612169223
  0
LINE
  5
582
100
AcDbEntity
  8
606368120-000-00-ED1_FORMAT
100
AcDbLine
 62
2
  6
CONTINUOUS
 10
307.2244391185
 20
56.1612169223
 11
308.2383746604
 21
56.1612169223
  0
LINE
  5
583
100
AcDbEntity
  8
606368120-000-00-ED1_FORMAT
100
AcDbLine
 62
2
  6
CONTINUOUS
 10
308.9936781125
 20
56.1612169223
 11
315.9049870492
 21
56.1612169223
  0
LINE
  5
584
100
AcDbEntity
  8
606368120-000-00-ED1_FORMAT
100
AcDbLine
 62
2
  6
CONTINUOUS
 10
316.8481522107
 20
56.1612169223
 11
318.1654360589
 21
56.1612169223
  0
LINE
  5
585
100
AcDbEntity
  8
606368120-000-00-ED1_FORMAT
100
AcDbLine
 62
2
  6
CONTINUOUS
 10
319.2068127099
 20
56.1612169223
 11
319.6064909387
 21
56.1612169223
  0
LINE
  5
586
100
AcDbEntity
  8
606368120-000-00-ED1_FORMAT
100
AcDbLine
 62
2
  6
CONTINUOUS
 10
305.0855867265
 20
56.2612169223
 11
305.4976754456
 21
56.2612169223
  0
LINE
  5
587
100
AcDbEntity
  8
606368120-000-00-ED1_FORMAT
100
AcDbLine
 62
2
  6
CONTINUOUS
 10
306.8497560688
 20
56.2612169223
 11
307.0311892349
 21
56.2612169223
  0
LINE
  5
588
100
AcDbEntity
  8
606368120-000-00-ED1_FORMAT
100
AcDbLine
 62
2
  6
CONTINUOUS
 10
307.4387402694
 20
56.2612169223
 11
308.3043577998
 21
56.2612169223
  0
LINE
  5
589
100
AcDbEntity
  8
606368120-000-00-ED1_FORMAT
100
AcDbLine
 62
2
  6
CONTINUOUS
 10
308.5068560725
 20
56.2612169223
 11
316.3485939609
 21
56.2612169223
  0
LINE
  5
58A
100
AcDbEntity
  8
606368120-000-00-ED1_FORMAT
100
AcDbLine
 62
2
  6
CONTINUOUS
 10
316.8301602832
 20
56.2612169223
 11
318.1654360589
 21
56.2612169223
  0
LINE
  5
58B
100
AcDbEntity
  8
606368120-000-00-ED1_FORMAT
100
AcDbLine
 62
2
  6
CONTINUOUS
 10
319.2068127099
 20
56.2612169223
 11
319.6064909387
 21
56.2612169223
  0
LINE
  5
58C
100
AcDbEntity
  8
606368120-000-00-ED1_FORMAT
100
AcDbLine
 62
2
  6
CONTINUOUS
 10
305.0855867265
 20
56.3612169223
 11
305.4976754456
 21
56.3612169223
  0
LINE
  5
58D
100
AcDbEntity
  8
606368120-000-00-ED1_FORMAT
100
AcDbLine
 62
2
  6
CONTINUOUS
 10
306.8170611196
 20
56.3612169223
 11
306.9973111626
 21
56.3612169223
  0
LINE
  5
58E
100
AcDbEntity
  8
606368120-000-00-ED1_FORMAT
100
AcDbLine
 62
2
  6
CONTINUOUS
 10
307.6530414203
 20
56.3612169223
 11
316.7922008727
 21
56.3612169223
  0
LINE
  5
58F
100
AcDbEntity
  8
606368120-000-00-ED1_FORMAT
100
AcDbLine
 62
2
  6
CONTINUOUS
 10
316.8121683558
 20
56.3612169223
 11
317.7559843721
 21
56.3612169223
  0
LINE
  5
590
100
AcDbEntity
  8
606368120-000-00-ED1_FORMAT
100
AcDbLine
 62
2
  6
CONTINUOUS
 10
317.9768299493
 20
56.3612169223
 11
318.1654360589
 21
56.3612169223
  0
LINE
  5
591
100
AcDbEntity
  8
606368120-000-00-ED1_FORMAT
100
AcDbLine
 62
2
  6
CONTINUOUS
 10
319.2068127099
 20
56.3612169223
 11
319.6064909387
 21
56.3612169223
  0
LINE
  5
592
100
AcDbEntity
  8
606368120-000-00-ED1_FORMAT
100
AcDbLine
 62
2
  6
CONTINUOUS
 10
305.0855867265
 20
56.4612169223
 11
305.4976754456
 21
56.4612169223
  0
LINE
  5
593
100
AcDbEntity
  8
606368120-000-00-ED1_FORMAT
100
AcDbLine
 62
2
  6
CONTINUOUS
 10
306.7843661705
 20
56.4612169223
 11
306.9634330903
 21
56.4612169223
  0
LINE
  5
594
100
AcDbEntity
  8
606368120-000-00-ED1_FORMAT
100
AcDbLine
 62
2
  6
CONTINUOUS
 10
307.8673425713
 20
56.4612169223
 11
317.5337737463
 21
56.4612169223
  0
LINE
  5
595
100
AcDbEntity
  8
606368120-000-00-ED1_FORMAT
100
AcDbLine
 62
2
  6
CONTINUOUS
 10
317.9768299493
 20
56.4612169223
 11
318.1654360589
 21
56.4612169223
  0
LINE
  5
596
100
AcDbEntity
  8
606368120-000-00-ED1_FORMAT
100
AcDbLine
 62
2
  6
CONTINUOUS
 10
319.2068127099
 20
56.4612169223
 11
319.6064909387
 21
56.4612169223
  0
LINE
  5
597
100
AcDbEntity
  8
606368120-000-00-ED1_FORMAT
100
AcDbLine
 62
2
  6
CONTINUOUS
 10
305.0855867265
 20
56.5612169223
 11
305.4976754456
 21
56.5612169223
  0
LINE
  5
598
100
AcDbEntity
  8
606368120-000-00-ED1_FORMAT
100
AcDbLine
 62
2
  6
CONTINUOUS
 10
306.7516712213
 20
56.5612169223
 11
306.929555018
 21
56.5612169223
  0
LINE
  5
599
100
AcDbEntity
  8
606368120-000-00-ED1_FORMAT
100
AcDbLine
 62
2
  6
CONTINUOUS
 10
308.0816437222
 20
56.5612169223
 11
317.3115631205
 21
56.5612169223
  0
LINE
  5
59A
100
AcDbEntity
  8
606368120-000-00-ED1_FORMAT
100
AcDbLine
 62
2
  6
CONTINUOUS
 10
317.9768299493
 20
56.5612169223
 11
318.1654360589
 21
56.5612169223
  0
LINE
  5
59B
100
AcDbEntity
  8
606368120-000-00-ED1_FORMAT
100
AcDbLine
 62
2
  6
CONTINUOUS
 10
319.2068127099
 20
56.5612169223
 11
319.6064909387
 21
56.5612169223
  0
LINE
  5
59C
100
AcDbEntity
  8
606368120-000-00-ED1_FORMAT
100
AcDbLine
 62
2
  6
CONTINUOUS
 10
305.0855867265
 20
56.6612169223
 11
305.4976754456
 21
56.6612169223
  0
LINE
  5
59D
100
AcDbEntity
  8
606368120-000-00-ED1_FORMAT
100
AcDbLine
 62
2
  6
CONTINUOUS
 10
306.7189762721
 20
56.6612169223
 11
306.8956769457
 21
56.6612169223
  0
LINE
  5
59E
100
AcDbEntity
  8
606368120-000-00-ED1_FORMAT
100
AcDbLine
 62
2
  6
CONTINUOUS
 10
308.2959448731
 20
56.6612169223
 11
317.0893524946
 21
56.6612169223
  0
LINE
  5
59F
100
AcDbEntity
  8
606368120-000-00-ED1_FORMAT
100
AcDbLine
 62
2
  6
CONTINUOUS
 10
317.9768299493
 20
56.6612169223
 11
318.1654360589
 21
56.6612169223
  0
LINE
  5
5A0
100
AcDbEntity
  8
606368120-000-00-ED1_FORMAT
100
AcDbLine
 62
2
  6
CONTINUOUS
 10
319.2068127099
 20
56.6612169223
 11
319.6064909387
 21
56.6612169223
  0
LINE
  5
5A1
100
AcDbEntity
  8
606368120-000-00-ED1_FORMAT
100
AcDbLine
 62
2
  6
CONTINUOUS
 10
305.0855867265
 20
56.7612169223
 11
305.4976754456
 21
56.7612169223
  0
LINE
  5
5A2
100
AcDbEntity
  8
606368120-000-00-ED1_FORMAT
100
AcDbLine
 62
2
  6
CONTINUOUS
 10
306.6862813229
 20
56.7612169223
 11
306.8617988734
 21
56.7612169223
  0
LINE
  5
5A3
100
AcDbEntity
  8
606368120-000-00-ED1_FORMAT
100
AcDbLine
 62
2
  6
CONTINUOUS
 10
308.510246024
 20
56.7612169223
 11
316.8671418688
 21
56.7612169223
  0
LINE
  5
5A4
100
AcDbEntity
  8
606368120-000-00-ED1_FORMAT
100
AcDbLine
 62
2
  6
CONTINUOUS
 10
317.9768299493
 20
56.7612169223
 11
318.1654360589
 21
56.7612169223
  0
LINE
  5
5A5
100
AcDbEntity
  8
606368120-000-00-ED1_FORMAT
100
AcDbLine
 62
2
  6
CONTINUOUS
 10
319.2068127099
 20
56.7612169223
 11
319.6064909387
 21
56.7612169223
  0
LINE
  5
5A6
100
AcDbEntity
  8
606368120-000-00-ED1_FORMAT
100
AcDbLine
 62
2
  6
CONTINUOUS
 10
305.0855867265
 20
56.8612169223
 11
305.4976754456
 21
56.8612169223
  0
LINE
  5
5A7
100
AcDbEntity
  8
606368120-000-00-ED1_FORMAT
100
AcDbLine
 62
2
  6
CONTINUOUS
 10
306.6535863737
 20
56.8612169223
 11
306.8279208011
 21
56.8612169223
  0
LINE
  5
5A8
100
AcDbEntity
  8
606368120-000-00-ED1_FORMAT
100
AcDbLine
 62
2
  6
CONTINUOUS
 10
308.7245471749
 20
56.8612169223
 11
316.6449312429
 21
56.8612169223
  0
LINE
  5
5A9
100
AcDbEntity
  8
606368120-000-00-ED1_FORMAT
100
AcDbLine
 62
2
  6
CONTINUOUS
 10
317.9768299493
 20
56.8612169223
 11
318.1654360589
 21
56.8612169223
  0
LINE
  5
5AA
100
AcDbEntity
  8
606368120-000-00-ED1_FORMAT
100
AcDbLine
 62
2
  6
CONTINUOUS
 10
319.2068127099
 20
56.8612169223
 11
319.6064909387
 21
56.8612169223
  0
LINE
  5
5AB
100
AcDbEntity
  8
606368120-000-00-ED1_FORMAT
100
AcDbLine
 62
2
  6
CONTINUOUS
 10
305.0855867265
 20
56.9612169223
 11
305.4976754456
 21
56.9612169223
  0
LINE
  5
5AC
100
AcDbEntity
  8
606368120-000-00-ED1_FORMAT
100
AcDbLine
 62
2
  6
CONTINUOUS
 10
306.6208914245
 20
56.9612169223
 11
306.7940427288
 21
56.9612169223
  0
LINE
  5
5AD
100
AcDbEntity
  8
606368120-000-00-ED1_FORMAT
100
AcDbLine
 62
2
  6
CONTINUOUS
 10
308.9388483258
 20
56.9612169223
 11
316.4227206171
 21
56.9612169223
  0
LINE
  5
5AE
100
AcDbEntity
  8
606368120-000-00-ED1_FORMAT
100
AcDbLine
 62
2
  6
CONTINUOUS
 10
317.9768299493
 20
56.9612169223
 11
318.1654360589
 21
56.9612169223
  0
LINE
  5
5AF
100
AcDbEntity
  8
606368120-000-00-ED1_FORMAT
100
AcDbLine
 62
2
  6
CONTINUOUS
 10
319.2068127099
 20
56.9612169223
 11
319.6064909387
 21
56.9612169223
  0
LINE
  5
5B0
100
AcDbEntity
  8
606368120-000-00-ED1_FORMAT
100
AcDbLine
 62
2
  6
CONTINUOUS
 10
305.0855867265
 20
57.0612169223
 11
305.4976754456
 21
57.0612169223
  0
LINE
  5
5B1
100
AcDbEntity
  8
606368120-000-00-ED1_FORMAT
100
AcDbLine
 62
2
  6
CONTINUOUS
 10
306.5881964753
 20
57.0612169223
 11
306.7601646565
 21
57.0612169223
  0
LINE
  5
5B2
100
AcDbEntity
  8
606368120-000-00-ED1_FORMAT
100
AcDbLine
 62
2
  6
CONTINUOUS
 10
309.1531494768
 20
57.0612169223
 11
316.2005099913
 21
57.0612169223
  0
LINE
  5
5B3
100
AcDbEntity
  8
606368120-000-00-ED1_FORMAT
100
AcDbLine
 62
2
  6
CONTINUOUS
 10
317.9768299493
 20
57.0612169223
 11
318.3455606316
 21
57.0612169223
  0
LINE
  5
5B4
100
AcDbEntity
  8
606368120-000-00-ED1_FORMAT
100
AcDbLine
 62
2
  6
CONTINUOUS
 10
319.2068127099
 20
57.0612169223
 11
319.6064909387
 21
57.0612169223
  0
LINE
  5
5B5
100
AcDbEntity
  8
606368120-000-00-ED1_FORMAT
100
AcDbLine
 62
2
  6
CONTINUOUS
 10
305.0855867265
 20
57.1612169223
 11
305.4976754456
 21
57.1612169223
  0
LINE
  5
5B6
100
AcDbEntity
  8
606368120-000-00-ED1_FORMAT
100
AcDbLine
 62
2
  6
CONTINUOUS
 10
306.4555411246
 20
57.1612169223
 11
306.7262865842
 21
57.1612169223
  0
LINE
  5
5B7
100
AcDbEntity
  8
606368120-000-00-ED1_FORMAT
100
AcDbLine
 62
2
  6
CONTINUOUS
 10
309.3674506277
 20
57.1612169223
 11
315.9782993654
 21
57.1612169223
  0
LINE
  5
5B8
100
AcDbEntity
  8
606368120-000-00-ED1_FORMAT
100
AcDbLine
 62
2
  6
CONTINUOUS
 10
318.1329117395
 20
57.1612169223
 11
318.5860115167
 21
57.1612169223
  0
LINE
  5
5B9
100
AcDbEntity
  8
606368120-000-00-ED1_FORMAT
100
AcDbLine
 62
2
  6
CONTINUOUS
 10
319.2068127099
 20
57.1612169223
 11
319.5794487609
 21
57.1612169223
  0
LINE
  5
5BA
100
AcDbEntity
  8
606368120-000-00-ED1_FORMAT
100
AcDbLine
 62
2
  6
CONTINUOUS
 10
305.0855867265
 20
57.2612169223
 11
305.4976754456
 21
57.2612169223
  0
LINE
  5
5BB
100
AcDbEntity
  8
606368120-000-00-ED1_FORMAT
100
AcDbLine
 62
2
  6
CONTINUOUS
 10
306.2508372927
 20
57.2612169223
 11
306.6290258773
 21
57.2612169223
  0
LINE
  5
5BC
100
AcDbEntity
  8
606368120-000-00-ED1_FORMAT
100
AcDbLine
 62
2
  6
CONTINUOUS
 10
309.5817517786
 20
57.2612169223
 11
315.7560887396
 21
57.2612169223
  0
LINE
  5
5BD
100
AcDbEntity
  8
606368120-000-00-ED1_FORMAT
100
AcDbLine
 62
2
  6
CONTINUOUS
 10
318.3681701388
 20
57.2612169223
 11
318.8264624019
 21
57.2612169223
  0
LINE
  5
5BE
100
AcDbEntity
  8
606368120-000-00-ED1_FORMAT
100
AcDbLine
 62
2
  6
CONTINUOUS
 10
319.2068127099
 20
57.2612169223
 11
319.511321886
 21
57.2612169223
  0
LINE
  5
5BF
100
AcDbEntity
  8
606368120-000-00-ED1_FORMAT
100
AcDbLine
 62
2
  6
CONTINUOUS
 10
305.0855867265
 20
57.3612169223
 11
305.4976754456
 21
57.3612169223
  0
LINE
  5
5C0
100
AcDbEntity
  8
606368120-000-00-ED1_FORMAT
100
AcDbLine
 62
2
  6
CONTINUOUS
 10
306.0461334607
 20
57.3612169223
 11
306.4241101874
 21
57.3612169223
  0
LINE
  5
5C1
100
AcDbEntity
  8
606368120-000-00-ED1_FORMAT
100
AcDbLine
 62
2
  6
CONTINUOUS
 10
309.7960529295
 20
57.3612169223
 11
315.5338781138
 21
57.3612169223
  0
LINE
  5
5C2
100
AcDbEntity
  8
606368120-000-00-ED1_FORMAT
100
AcDbLine
 62
2
  6
CONTINUOUS
 10
318.603428538
 20
57.3612169223
 11
319.066913287
 21
57.3612169223
  0
LINE
  5
5C3
100
AcDbEntity
  8
606368120-000-00-ED1_FORMAT
100
AcDbLine
 62
2
  6
CONTINUOUS
 10
319.2068127099
 20
57.3612169223
 11
319.443195011
 21
57.3612169223
  0
LINE
  5
5C4
100
AcDbEntity
  8
606368120-000-00-ED1_FORMAT
100
AcDbLine
 62
2
  6
CONTINUOUS
 10
305.0855867265
 20
57.4612169223
 11
305.4976754456
 21
57.4612169223
  0
LINE
  5
5C5
100
AcDbEntity
  8
606368120-000-00-ED1_FORMAT
100
AcDbLine
 62
2
  6
CONTINUOUS
 10
305.8414296288
 20
57.4612169223
 11
306.2191944974
 21
57.4612169223
  0
LINE
  5
5C6
100
AcDbEntity
  8
606368120-000-00-ED1_FORMAT
100
AcDbLine
 62
2
  6
CONTINUOUS
 10
310.0103540804
 20
57.4612169223
 11
315.3116674879
 21
57.4612169223
  0
LINE
  5
5C7
100
AcDbEntity
  8
606368120-000-00-ED1_FORMAT
100
AcDbLine
 62
2
  6
CONTINUOUS
 10
318.8386869373
 20
57.4612169223
 11
319.375068136
 21
57.4612169223
  0
LINE
  5
5C8
100
AcDbEntity
  8
606368120-000-00-ED1_FORMAT
100
AcDbLine
 62
2
  6
CONTINUOUS
 10
305.0855867265
 20
57.5612169223
 11
305.4976754456
 21
57.5612169223
  0
LINE
  5
5C9
100
AcDbEntity
  8
606368120-000-00-ED1_FORMAT
100
AcDbLine
 62
2
  6
CONTINUOUS
 10
305.6367257968
 20
57.5612169223
 11
306.0142788074
 21
57.5612169223
  0
LINE
  5
5CA
100
AcDbEntity
  8
606368120-000-00-ED1_FORMAT
100
AcDbLine
 62
2
  6
CONTINUOUS
 10
310.2246552313
 20
57.5612169223
 11
315.0894568621
 21
57.5612169223
  0
LINE
  5
5CB
100
AcDbEntity
  8
606368120-000-00-ED1_FORMAT
100
AcDbLine
 62
2
  6
CONTINUOUS
 10
319.0739453365
 20
57.5612169223
 11
319.306941261
 21
57.5612169223
  0
LINE
  5
5CC
100
AcDbEntity
  8
606368120-000-00-ED1_FORMAT
100
AcDbLine
 62
2
  6
CONTINUOUS
 10
305.154016136
 20
57.6612169223
 11
305.8093631174
 21
57.6612169223
  0
LINE
  5
5CD
100
AcDbEntity
  8
606368120-000-00-ED1_FORMAT
100
AcDbLine
 62
2
  6
CONTINUOUS
 10
310.4389563822
 20
57.6612169223
 11
314.8672462362
 21
57.6612169223
  0
LINE
  5
5CE
100
AcDbEntity
  8
606368120-000-00-ED1_FORMAT
100
AcDbLine
 62
2
  6
CONTINUOUS
 10
305.3624826996
 20
57.7612169223
 11
305.6044474274
 21
57.7612169223
  0
LINE
  5
5CF
100
AcDbEntity
  8
606368120-000-00-ED1_FORMAT
100
AcDbLine
 62
2
  6
CONTINUOUS
 10
310.6532575332
 20
57.7612169223
 11
314.6450356104
 21
57.7612169223
  0
LINE
  5
5D0
100
AcDbEntity
  8
606368120-000-00-ED1_FORMAT
100
AcDbLine
 62
2
  6
CONTINUOUS
 10
310.8675586841
 20
57.8612169223
 11
314.4228249846
 21
57.8612169223
  0
LINE
  5
5D1
100
AcDbEntity
  8
606368120-000-00-ED1_FORMAT
100
AcDbLine
 62
2
  6
CONTINUOUS
 10
311.081859835
 20
57.9612169223
 11
314.2006143587
 21
57.9612169223
  0
LINE
  5
5D2
100
AcDbEntity
  8
606368120-000-00-ED1_FORMAT
100
AcDbLine
 62
2
  6
CONTINUOUS
 10
311.2961609859
 20
58.0612169223
 11
313.9784037329
 21
58.0612169223
  0
LINE
  5
5D3
100
AcDbEntity
  8
606368120-000-00-ED1_FORMAT
100
AcDbLine
 62
2
  6
CONTINUOUS
 10
311.5104621368
 20
58.1612169223
 11
313.756193107
 21
58.1612169223
  0
LINE
  5
5D4
100
AcDbEntity
  8
606368120-000-00-ED1_FORMAT
100
AcDbLine
 62
2
  6
CONTINUOUS
 10
311.7247632877
 20
58.2612169223
 11
313.5339824812
 21
58.2612169223
  0
LINE
  5
5D5
100
AcDbEntity
  8
606368120-000-00-ED1_FORMAT
100
AcDbLine
 62
2
  6
CONTINUOUS
 10
311.9390644386
 20
58.3612169223
 11
313.3117718554
 21
58.3612169223
  0
LINE
  5
5D6
100
AcDbEntity
  8
606368120-000-00-ED1_FORMAT
100
AcDbLine
 62
2
  6
CONTINUOUS
 10
312.1533655896
 20
58.4612169223
 11
313.0895612295
 21
58.4612169223
  0
LINE
  5
5D7
100
AcDbEntity
  8
606368120-000-00-ED1_FORMAT
100
AcDbLine
 62
2
  6
CONTINUOUS
 10
312.3676667405
 20
58.5612169223
 11
312.8673506037
 21
58.5612169223
  0
LINE
  5
5D8
100
AcDbEntity
  8
606368120-000-00-ED1_FORMAT
100
AcDbLine
 62
2
  6
CONTINUOUS
 10
312.5819678914
 20
58.6612169223
 11
312.6451399778
 21
58.6612169223
  0
LINE
  5
5D9
100
AcDbEntity
  8
606368120-000-00-ED1_FORMAT
100
AcDbLine
 62
7
  6
CONTINUOUS
 10
410.0
 20
58.9546825665
 11
365.999998592
 21
58.9546825665
  0
LINE
  5
5DA
100
AcDbEntity
  8
606368120-000-00-ED1_FORMAT
100
AcDbLine
 62
2
  6
CONTINUOUS
 10
311.7224794206
 20
55.894561621
 11
311.4496882966
 21
55.9014380805
  0
LINE
  5
5DB
100
AcDbEntity
  8
606368120-000-00-ED1_FORMAT
100
AcDbLine
 62
2
  6
CONTINUOUS
 10
311.7224794206
 20
55.894561621
 11
311.1712806703
 21
55.9102124213
  0
LINE
  5
5DC
100
AcDbEntity
  8
606368120-000-00-ED1_FORMAT
100
AcDbLine
 62
2
  6
CONTINUOUS
 10
311.4496882966
 20
55.9014380805
 11
311.1712806703
 21
55.9102124213
  0
LINE
  5
5DD
100
AcDbEntity
  8
606368120-000-00-ED1_FORMAT
100
AcDbLine
 62
2
  6
CONTINUOUS
 10
312.7687535783
 20
52.5591239173
 11
312.9504198167
 21
52.5526130553
  0
LINE
  5
5DE
100
AcDbEntity
  8
606368120-000-00-ED1_FORMAT
100
AcDbLine
 62
2
  6
CONTINUOUS
 10
313.7515477128
 20
55.1560492255
 11
313.6209822678
 21
55.162603099
  0
LINE
  5
5DF
100
AcDbEntity
  8
606368120-000-00-ED1_FORMAT
100
AcDbLine
 62
2
  6
CONTINUOUS
 10
311.1712806703
 20
55.9102124213
 11
310.8879963776
 21
55.9259116095
  0
LINE
  5
5E0
100
AcDbEntity
  8
606368120-000-00-ED1_FORMAT
100
AcDbLine
 62
2
  6
CONTINUOUS
 10
312.9504198167
 20
52.5526130553
 11
313.2565348267
 21
52.5334030555
  0
LINE
  5
5E1
100
AcDbEntity
  8
606368120-000-00-ED1_FORMAT
100
AcDbLine
 62
2
  6
CONTINUOUS
 10
313.5203541352
 20
52.5109618186
 11
313.6491481416
 21
52.5004132544
  0
LINE
  5
5E2
100
AcDbEntity
  8
606368120-000-00-ED1_FORMAT
100
AcDbLine
 62
2
  6
CONTINUOUS
 10
313.2565348267
 20
52.5334030555
 11
313.3911850007
 21
52.5222093192
  0
LINE
  5
5E3
100
AcDbEntity
  8
606368120-000-00-ED1_FORMAT
100
AcDbLine
 62
2
  6
CONTINUOUS
 10
313.2565348267
 20
52.5334030555
 11
313.6491481416
 21
52.5004132544
  0
LINE
  5
5E4
100
AcDbEntity
  8
606368120-000-00-ED1_FORMAT
100
AcDbLine
 62
2
  6
CONTINUOUS
 10
313.3911850007
 20
52.5222093192
 11
313.5203541352
 21
52.5109618186
  0
LINE
  5
5E5
100
AcDbEntity
  8
606368120-000-00-ED1_FORMAT
100
AcDbLine
 62
7
  6
CONTINUOUS
 10
135.000019298
 20
287.0000045341
 11
135.000019298
 21
259.0000098321
  0
LINE
  5
5E6
100
AcDbEntity
  8
606368120-000-00-ED1_FORMAT
100
AcDbLine
 62
7
  6
CONTINUOUS
 10
146.999991584
 20
65.00000176
 11
410.0
 21
65.00000176
  0
LINE
  5
5E7
100
AcDbEntity
  8
606368120-000-00-ED1_FORMAT
100
AcDbLine
 62
7
  6
CONTINUOUS
 10
146.999993584
 20
72.500002
 11
410.0
 21
72.500002
  0
LINE
  5
5E8
100
AcDbEntity
  8
606368120-000-00-ED1_FORMAT
100
AcDbLine
 62
2
  6
CONTINUOUS
 10
310.8879963776
 20
55.9259116095
 11
310.6005648347
 21
55.9535357291
  0
LINE
  5
5E9
100
AcDbEntity
  8
606368120-000-00-ED1_FORMAT
100
AcDbLine
 62
2
  6
CONTINUOUS
 10
316.4130664758
 20
53.6217008918
 11
316.0044268517
 21
53.6634865394
  0
LINE
  5
5EA
100
AcDbEntity
  8
606368120-000-00-ED1_FORMAT
100
AcDbLine
 62
2
  6
CONTINUOUS
 10
314.8399247979
 20
52.3946910499
 11
315.8408084466
 21
52.2778396262
  0
LINE
  5
5EB
100
AcDbEntity
  8
606368120-000-00-ED1_FORMAT
100
AcDbLine
 62
2
  6
CONTINUOUS
 10
313.8717033509
 20
55.14090381
 11
313.7515477128
 21
55.1560492255
  0
LINE
  5
5EC
100
AcDbEntity
  8
606368120-000-00-ED1_FORMAT
100
AcDbLine
 62
2
  6
CONTINUOUS
 10
310.6005648347
 20
55.9535357291
 11
310.4555152741
 21
55.9733855246
  0
LINE
  5
5ED
100
AcDbEntity
  8
606368120-000-00-ED1_FORMAT
100
AcDbLine
 62
2
  6
CONTINUOUS
 10
314.0345193986
 20
55.9111586738
 11
313.8726828523
 21
55.9364870559
  0
LINE
  5
5EE
100
AcDbEntity
  8
606368120-000-00-ED1_FORMAT
100
AcDbLine
 62
2
  6
CONTINUOUS
 10
315.9152088677
 20
52.6866529395
 11
316.4781928948
 21
52.5908825149
  0
LINE
  5
5EF
100
AcDbEntity
  8
606368120-000-00-ED1_FORMAT
100
AcDbLine
 62
2
  6
CONTINUOUS
 10
316.5117251855
 20
52.14662237
 11
317.609850393
 21
51.9276617057
  0
LINE
  5
5F0
100
AcDbEntity
  8
606368120-000-00-ED1_FORMAT
100
AcDbLine
 62
7
  6
CONTINUOUS
 10
146.999991584
 20
10.0
 11
146.999993584
 21
72.500002
  0
LINE
  5
5F1
100
AcDbEntity
  8
606368120-000-00-ED1_FORMAT
100
AcDbLine
 62
2
  6
CONTINUOUS
 10
309.1516114228
 20
56.1287752295
 11
308.3285281083
 21
56.2978479598
  0
LINE
  5
5F2
100
AcDbEntity
  8
606368120-000-00-ED1_FORMAT
100
AcDbLine
 62
2
  6
CONTINUOUS
 10
314.1823667901
 20
55.8760075461
 11
314.0345193986
 21
55.9111586738
  0
LINE
  5
5F3
100
AcDbEntity
  8
606368120-000-00-ED1_FORMAT
100
AcDbLine
 62
2
  6
CONTINUOUS
 10
313.9792609345
 20
55.1134248542
 11
313.8717033509
 21
55.14090381
  0
LINE
  5
5F4
100
AcDbEntity
  8
606368120-000-00-ED1_FORMAT
100
AcDbLine
 62
7
  6
CONTINUOUS
 10
154.499993824
 20
65.00000176
 11
154.499993824
 21
72.500002
  0
LINE
  5
5F5
100
AcDbEntity
  8
606368120-000-00-ED1_FORMAT
100
AcDbLine
 62
3
  6
CONTINUOUS
 10
160.0
 20
10.0
 11
160.0
 21
5.0
  0
LINE
  5
5F6
100
AcDbEntity
  8
606368120-000-00-ED1_FORMAT
100
AcDbLine
 62
3
  6
CONTINUOUS
 10
160.0
 20
287.0
 11
160.0
 21
292.0
  0
LINE
  5
5F7
100
AcDbEntity
  8
606368120-000-00-ED1_FORMAT
100
AcDbLine
 62
7
  6
CONTINUOUS
 10
161.999994064
 20
65.00000176
 11
161.999994064
 21
72.500002
  0
LINE
  5
5F8
100
AcDbEntity
  8
606368120-000-00-ED1_FORMAT
100
AcDbLine
 62
3
  6
CONTINUOUS
 10
22.9999999122
 20
93.4999984459
 11
28.9999998068
 21
93.4999984459
  0
LINE
  5
5F9
100
AcDbEntity
  8
606368120-000-00-ED1_FORMAT
100
AcDbLine
 62
3
  6
CONTINUOUS
 10
23.0
 20
98.5
 11
18.0
 21
98.5
  0
LINE
  5
5FA
100
AcDbEntity
  8
606368120-000-00-ED1_FORMAT
100
AcDbLine
 62
3
  6
CONTINUOUS
 10
410.0
 20
98.5
 11
415.0
 21
98.5
  0
LINE
  5
5FB
100
AcDbEntity
  8
606368120-000-00-ED1_FORMAT
100
AcDbLine
 62
2
  6
CONTINUOUS
 10
314.3167043572
 20
55.8317648681
 11
314.1823667901
 21
55.8760075461
  0
LINE
  5
5FC
100
AcDbEntity
  8
606368120-000-00-ED1_FORMAT
100
AcDbLine
 62
2
  6
CONTINUOUS
 10
319.559328991
 20
52.4583050208
 11
320.5409560601
 21
52.0636854941
  0
LINE
  5
5FD
100
AcDbEntity
  8
606368120-000-00-ED1_FORMAT
100
AcDbLine
 62
2
  6
CONTINUOUS
 10
320.1383810082
 20
51.9501352012
 11
319.2068127099
 21
52.3385073111
  0
LINE
  5
5FE
100
AcDbEntity
  8
606368120-000-00-ED1_FORMAT
100
AcDbLine
 62
2
  6
CONTINUOUS
 10
314.4380166406
 20
55.7791618346
 11
314.3167043572
 21
55.8317648681
  0
LINE
  5
5FF
100
AcDbEntity
  8
606368120-000-00-ED1_FORMAT
100
AcDbLine
 62
2
  6
CONTINUOUS
 10
307.412287964
 20
52.0724060706
 11
306.724938527
 21
52.4154010749
  0
LINE
  5
600
100
AcDbEntity
  8
606368120-000-00-ED1_FORMAT
100
AcDbLine
 62
2
  6
CONTINUOUS
 10
302.29999432
 20
54.25000176
 11
305.0850031937
 21
52.8486018943
  0
LINE
  5
601
100
AcDbEntity
  8
606368120-000-00-ED1_FORMAT
100
AcDbLine
 62
2
  6
CONTINUOUS
 10
306.7254647485
 20
52.0231256736
 11
312.6103036057
 21
49.0619039283
  0
LINE
  5
602
100
AcDbEntity
  8
606368120-000-00-ED1_FORMAT
100
AcDbLine
 62
2
  6
CONTINUOUS
 10
305.0850031937
 20
53.2406138503
 11
303.1029301255
 21
54.2379800528
  0
LINE
  5
603
100
AcDbEntity
  8
606368120-000-00-ED1_FORMAT
100
AcDbLine
 62
2
  6
CONTINUOUS
 10
312.6129816041
 20
49.4525663993
 11
306.724938527
 21
52.4154010749
  0
LINE
  5
604
100
AcDbEntity
  8
606368120-000-00-ED1_FORMAT
100
AcDbLine
 62
2
  6
CONTINUOUS
 10
305.491402469
 20
50.7036949256
 11
305.0850031937
 21
50.9150103003
  0
LINE
  5
605
100
AcDbEntity
  8
606368120-000-00-ED1_FORMAT
100
AcDbLine
 62
7
  6
CONTINUOUS
 10
171.3988033648
 20
65.00000176
 11
171.3988033648
 21
72.500002
  0
LINE
  5
606
100
AcDbEntity
  8
606368120-000-00-ED1_FORMAT
100
AcDbLine
 62
7
  6
CONTINUOUS
 10
176.3988035248
 20
65.00000176
 11
176.3988035248
 21
72.500002
  0
LINE
  5
607
100
AcDbEntity
  8
606368120-000-00-ED1_FORMAT
100
AcDbLine
 62
2
  6
CONTINUOUS
 10
319.6064909387
 20
55.5284318198
 11
322.4740123803
 21
54.2379800528
  0
LINE
  5
608
100
AcDbEntity
  8
606368120-000-00-ED1_FORMAT
100
AcDbLine
 62
2
  6
CONTINUOUS
 10
312.6129816041
 20
58.6756889457
 11
317.9768299493
 21
56.2618312262
  0
LINE
  5
609
100
AcDbEntity
  8
606368120-000-00-ED1_FORMAT
100
AcDbLine
 62
2
  6
CONTINUOUS
 10
323.3012846261
 20
54.2500824065
 11
319.6064909387
 21
55.9128307448
  0
LINE
  5
60A
100
AcDbEntity
  8
606368120-000-00-ED1_FORMAT
100
AcDbLine
 62
2
  6
CONTINUOUS
 10
317.9768299493
 20
56.6462193984
 11
312.6104703294
 21
59.0612169219
  0
LINE
  5
60B
100
AcDbEntity
  8
606368120-000-00-ED1_FORMAT
100
AcDbLine
 62
2
  6
CONTINUOUS
 10
314.0720426362
 20
55.0698542304
 11
313.9792609345
 21
55.1134248542
  0
LINE
  5
60C
100
AcDbEntity
  8
606368120-000-00-ED1_FORMAT
100
AcDbLine
 62
2
  6
CONTINUOUS
 10
305.4845042786
 20
57.8197498481
 11
306.7049629517
 21
57.2241592063
  0
LINE
  5
60D
100
AcDbEntity
  8
606368120-000-00-ED1_FORMAT
100
AcDbLine
 62
2
  6
CONTINUOUS
 10
306.5745017091
 20
57.103103411
 11
305.4976754456
 21
57.6291444983
  0
LINE
  5
60E
100
AcDbEntity
  8
606368120-000-00-ED1_FORMAT
100
AcDbLine
 62
2
  6
CONTINUOUS
 10
318.1654360589
 20
51.7783204894
 11
320.1383810082
 21
50.7511580878
  0
LINE
  5
60F
100
AcDbEntity
  8
606368120-000-00-ED1_FORMAT
100
AcDbLine
 62
2
  6
CONTINUOUS
 10
320.1637855218
 20
50.5303156714
 11
317.9768299493
 21
51.6789962417
  0
LINE
  5
610
100
AcDbEntity
  8
606368120-000-00-ED1_FORMAT
100
AcDbLine
 62
2
  6
CONTINUOUS
 10
314.5468246514
 20
55.7189242644
 11
314.4380166406
 21
55.7791618346
  0
LINE
  5
611
100
AcDbEntity
  8
606368120-000-00-ED1_FORMAT
100
AcDbLine
 62
2
  6
CONTINUOUS
 10
314.6435868798
 20
55.6517779761
 11
314.5468246514
 21
55.7189242644
  0
LINE
  5
612
100
AcDbEntity
  8
606368120-000-00-ED1_FORMAT
100
AcDbLine
 62
7
  6
CONTINUOUS
 10
207.999993536
 20
65.00000176
 11
207.999993536
 21
72.500002
  0
LINE
  5
613
100
AcDbEntity
  8
606368120-000-00-ED1_FORMAT
100
AcDbLine
 62
7
  6
CONTINUOUS
 10
210.0
 20
292.0
 11
210.0
 21
277.0
  0
LINE
  5
614
100
AcDbEntity
  8
606368120-000-00-ED1_FORMAT
100
AcDbLine
 62
3
  6
CONTINUOUS
 10
210.0
 20
10.0
 11
210.0
 21
5.0
  0
LINE
  5
615
100
AcDbEntity
  8
606368120-000-00-ED1_FORMAT
100
AcDbLine
 62
7
  6
CONTINUOUS
 10
415.0
 20
148.5
 11
400.0
 21
148.5
  0
LINE
  5
616
100
AcDbEntity
  8
606368120-000-00-ED1_FORMAT
100
AcDbLine
 62
7
  6
CONTINUOUS
 10
18.0
 20
148.5
 11
33.0
 21
148.5
  0
LINE
  5
617
100
AcDbEntity
  8
606368120-000-00-ED1_FORMAT
100
AcDbLine
 62
3
  6
CONTINUOUS
 10
23.0
 20
148.515014696
 11
29.000000192
 21
148.515014696
  0
LINE
  5
618
100
AcDbEntity
  8
606368120-000-00-ED1_FORMAT
100
AcDbLine
 62
2
  6
CONTINUOUS
 10
314.1478289475
 20
55.0064553168
 11
314.0720426362
 21
55.0698542304
  0
LINE
  5
619
100
AcDbEntity
  8
606368120-000-00-ED1_FORMAT
100
AcDbLine
 62
7
  6
CONTINUOUS
 10
223.999992048
 20
10.0
 11
223.999992048
 21
65.00000176
  0
LINE
  5
61A
100
AcDbEntity
  8
606368120-000-00-ED1_FORMAT
100
AcDbLine
 62
2
  6
CONTINUOUS
 10
314.8029955132
 20
55.4996894019
 11
314.6435868798
 21
55.6517779761
  0
LINE
  5
61B
100
AcDbEntity
  8
606368120-000-00-ED1_FORMAT
100
AcDbLine
 62
2
  6
CONTINUOUS
 10
314.9202022271
 20
55.3287187903
 11
314.8029955132
 21
55.4996894019
  0
LINE
  5
61C
100
AcDbEntity
  8
606368120-000-00-ED1_FORMAT
100
AcDbLine
 62
2
  6
CONTINUOUS
 10
319.2546207116
 20
57.638015615
 11
319.6064909387
 21
57.121523075
  0
LINE
  5
61D
100
AcDbEntity
  8
606368120-000-00-ED1_FORMAT
100
AcDbLine
 62
2
  6
CONTINUOUS
 10
314.2044576714
 20
54.9194538566
 11
314.1478289475
 21
55.0064553168
  0
LINE
  5
61E
100
AcDbEntity
  8
606368120-000-00-ED1_FORMAT
100
AcDbLine
 62
3
  6
CONTINUOUS
 10
260.0
 20
10.0
 11
260.0
 21
5.0
  0
LINE
  5
61F
100
AcDbEntity
  8
606368120-000-00-ED1_FORMAT
100
AcDbLine
 62
3
  6
CONTINUOUS
 10
260.0
 20
287.0
 11
260.0
 21
292.0
  0
LINE
  5
620
100
AcDbEntity
  8
606368120-000-00-ED1_FORMAT
100
AcDbLine
 62
7
  6
CONTINUOUS
 10
260.999993232
 20
43.500001072
 11
260.999993232
 21
35.0000008
  0
LINE
  5
621
100
AcDbEntity
  8
606368120-000-00-ED1_FORMAT
100
AcDbLine
 62
7
  6
CONTINUOUS
 10
264.9013593819
 20
287.0
 11
264.9013593819
 21
225.000007
  0
LINE
  5
622
100
AcDbEntity
  8
606368120-000-00-ED1_FORMAT
100
AcDbLine
 62
3
  6
CONTINUOUS
 10
23.0
 20
198.5
 11
18.0
 21
198.5
  0
LINE
  5
623
100
AcDbEntity
  8
606368120-000-00-ED1_FORMAT
100
AcDbLine
 62
3
  6
CONTINUOUS
 10
410.0
 20
198.5
 11
415.0
 21
198.5
  0
LINE
  5
624
100
AcDbEntity
  8
606368120-000-00-ED1_FORMAT
100
AcDbLine
 62
2
  6
CONTINUOUS
 10
314.9642172662
 20
55.2379753318
 11
314.9202022271
 21
55.3287187903
  0
LINE
  5
625
100
AcDbEntity
  8
606368120-000-00-ED1_FORMAT
100
AcDbLine
 62
2
  6
CONTINUOUS
 10
306.5876624558
 20
54.1095262839
 11
307.412287964
 21
52.0724060706
  0
LINE
  5
626
100
AcDbEntity
  8
606368120-000-00-ED1_FORMAT
100
AcDbLine
 62
7
  6
CONTINUOUS
 10
274.9014193732
 20
225.000007
 11
274.9014193732
 21
287.0000007463
  0
LINE
  5
627
100
AcDbEntity
  8
606368120-000-00-ED1_FORMAT
100
AcDbLine
 62
3
  6
CONTINUOUS
 10
28.9999998068
 20
209.9999964
 11
22.9999999122
 21
209.9999964
  0
LINE
  5
628
100
AcDbEntity
  8
606368120-000-00-ED1_FORMAT
100
AcDbLine
 62
2
  6
CONTINUOUS
 10
314.9991458672
 20
55.1446941962
 11
314.9642172662
 21
55.2379753318
  0
LINE
  5
629
100
AcDbEntity
  8
606368120-000-00-ED1_FORMAT
100
AcDbLine
 62
2
  6
CONTINUOUS
 10
306.7049629517
 20
57.2241592063
 11
307.0868225922
 21
56.0970005027
  0
LINE
  5
62A
100
AcDbEntity
  8
606368120-000-00-ED1_FORMAT
100
AcDbLine
 62
2
  6
CONTINUOUS
 10
307.3317083482
 20
54.7871290549
 11
306.5745017091
 21
57.103103411
  0
LINE
  5
62B
100
AcDbEntity
  8
606368120-000-00-ED1_FORMAT
100
AcDbLine
 62
2
  6
CONTINUOUS
 10
314.2397405602
 20
54.8051239806
 11
314.2044576714
 21
54.9194538566
  0
LINE
  5
62C
100
AcDbEntity
  8
606368120-000-00-ED1_FORMAT
100
AcDbLine
 62
7
  6
CONTINUOUS
 10
294.99999432
 20
65.00000176
 11
294.99999432
 21
35.0000008
  0
LINE
  5
62D
100
AcDbEntity
  8
606368120-000-00-ED1_FORMAT
100
AcDbLine
 62
7
  6
CONTINUOUS
 10
264.9013593819
 20
225.000007
 11
410.0000007463
 21
225.000007
  0
LINE
  5
62E
100
AcDbEntity
  8
606368120-000-00-ED1_FORMAT
100
AcDbLine
 62
7
  6
CONTINUOUS
 10
274.9014193732
 20
229.5500015411
 11
376.900004085
 21
229.5500015411
  0
LINE
  5
62F
100
AcDbEntity
  8
606368120-000-00-ED1_FORMAT
100
AcDbLine
 62
7
  6
CONTINUOUS
 10
264.9013593819
 20
234.0999960821
 11
410.0000007463
 21
234.0999960821
  0
LINE
  5
630
100
AcDbEntity
  8
606368120-000-00-ED1_FORMAT
100
AcDbLine
 62
2
  6
CONTINUOUS
 10
312.5391021943
 20
52.5618121345
 11
311.7224794206
 21
55.894561621
  0
LINE
  5
631
100
AcDbEntity
  8
606368120-000-00-ED1_FORMAT
100
AcDbLine
 62
2
  6
CONTINUOUS
 10
315.0437861199
 20
54.9534544272
 11
314.9991458672
 21
55.1446941962
  0
LINE
  5
632
100
AcDbEntity
  8
606368120-000-00-ED1_FORMAT
100
AcDbLine
 62
2
  6
CONTINUOUS
 10
311.3784660447
 20
53.2094789191
 11
311.5221922364
 21
52.5294029883
  0
LINE
  5
633
100
AcDbEntity
  8
606368120-000-00-ED1_FORMAT
100
AcDbLine
 62
2
  6
CONTINUOUS
 10
311.0311598771
 20
55.1588611007
 11
311.2880080537
 21
53.9326200889
  0
LINE
  5
634
100
AcDbEntity
  8
606368120-000-00-ED1_FORMAT
100
AcDbLine
 62
2
  6
CONTINUOUS
 10
317.609850393
 20
51.9276617057
 11
316.811390075
 21
56.3655426444
  0
LINE
  5
635
100
AcDbEntity
  8
606368120-000-00-ED1_FORMAT
100
AcDbLine
 62
2
  6
CONTINUOUS
 10
314.2397405602
 20
54.8051239806
 11
314.2514528954
 21
54.659702185
  0
LINE
  5
636
100
AcDbEntity
  8
606368120-000-00-ED1_FORMAT
100
AcDbLine
 62
2
  6
CONTINUOUS
 10
316.4781928948
 20
52.5908825149
 11
316.5117251855
 21
52.14662237
  0
LINE
  5
637
100
AcDbEntity
  8
606368120-000-00-ED1_FORMAT
100
AcDbLine
 62
2
  6
CONTINUOUS
 10
313.6209822678
 20
55.162603099
 11
313.62612986
 21
54.0232237601
  0
LINE
  5
638
100
AcDbEntity
  8
606368120-000-00-ED1_FORMAT
100
AcDbLine
 62
2
  6
CONTINUOUS
 10
313.6491481416
 20
52.5004132544
 11
313.6478560334
 21
53.2465010459
  0
LINE
  5
639
100
AcDbEntity
  8
606368120-000-00-ED1_FORMAT
100
AcDbLine
 62
2
  6
CONTINUOUS
 10
306.724938527
 20
52.4154010749
 11
306.7262827363
 21
51.4182069182
  0
LINE
  5
63A
100
AcDbEntity
  8
606368120-000-00-ED1_FORMAT
100
AcDbLine
 62
7
  6
CONTINUOUS
 10
299.9999903875
 20
10.0
 11
299.999990634
 21
24.250000456
  0
LINE
  5
63B
100
AcDbEntity
  8
606368120-000-00-ED1_FORMAT
100
AcDbLine
 62
2
  6
CONTINUOUS
 10
305.0850031937
 20
50.9150103003
 11
305.0850031937
 21
53.2406138503
  0
LINE
  5
63C
100
AcDbEntity
  8
606368120-000-00-ED1_FORMAT
100
AcDbLine
 62
2
  6
CONTINUOUS
 10
305.0855867265
 20
55.1631246131
 11
305.0855867265
 21
57.6283917975
  0
LINE
  5
63D
100
AcDbEntity
  8
606368120-000-00-ED1_FORMAT
100
AcDbLine
 62
2
  6
CONTINUOUS
 10
305.4976754456
 20
57.6291444983
 11
305.4976754456
 21
50.923187857
  0
LINE
  5
63E
100
AcDbEntity
  8
606368120-000-00-ED1_FORMAT
100
AcDbLine
 62
2
  6
CONTINUOUS
 10
306.5876624558
 20
51.5376981711
 11
306.5876624558
 21
54.1095262839
  0
LINE
  5
63F
100
AcDbEntity
  8
606368120-000-00-ED1_FORMAT
100
AcDbLine
 62
2
  6
CONTINUOUS
 10
308.1737564759
 20
53.919834928
 11
308.1737564759
 21
52.0267386374
  0
LINE
  5
640
100
AcDbEntity
  8
606368120-000-00-ED1_FORMAT
100
AcDbLine
 62
2
  6
CONTINUOUS
 10
309.1516114228
 20
52.2473767493
 11
309.1516114228
 21
56.1287752295
  0
LINE
  5
641
100
AcDbEntity
  8
606368120-000-00-ED1_FORMAT
100
AcDbLine
 62
3
  6
CONTINUOUS
 10
310.0
 20
10.0
 11
310.0
 21
5.0
  0
LINE
  5
642
100
AcDbEntity
  8
606368120-000-00-ED1_FORMAT
100
AcDbLine
 62
3
  6
CONTINUOUS
 10
310.0
 20
287.0
 11
310.0
 21
292.0
  0
LINE
  5
643
100
AcDbEntity
  8
606368120-000-00-ED1_FORMAT
100
AcDbLine
 62
2
  6
CONTINUOUS
 10
312.7687535783
 20
55.9176103949
 11
312.7687535783
 21
52.5591239173
  0
LINE
  5
644
100
AcDbEntity
  8
606368120-000-00-ED1_FORMAT
100
AcDbLine
 62
7
  6
CONTINUOUS
 10
314.0000008808
 20
65.00000176
 11
314.0000008808
 21
72.500002
  0
LINE
  5
645
100
AcDbEntity
  8
606368120-000-00-ED1_FORMAT
100
AcDbLine
 62
7
  6
CONTINUOUS
 10
274.9014193732
 20
238.6499906232
 11
376.900004085
 21
238.6499906232
  0
LINE
  5
646
100
AcDbEntity
  8
606368120-000-00-ED1_FORMAT
100
AcDbLine
 62
7
  6
CONTINUOUS
 10
264.9013593819
 20
243.1999851642
 11
410.0000007463
 21
243.1999851642
  0
LINE
  5
647
100
AcDbEntity
  8
606368120-000-00-ED1_FORMAT
100
AcDbLine
 62
7
  6
CONTINUOUS
 10
274.9014193732
 20
247.7499797053
 11
376.900004085
 21
247.7499797053
  0
LINE
  5
648
100
AcDbEntity
  8
606368120-000-00-ED1_FORMAT
100
AcDbLine
 62
3
  6
CONTINUOUS
 10
23.0
 20
248.5
 11
18.0
 21
248.5
  0
LINE
  5
649
100
AcDbEntity
  8
606368120-000-00-ED1_FORMAT
100
AcDbLine
 62
3
  6
CONTINUOUS
 10
410.0
 20
248.5
 11
415.0
 21
248.5
  0
LINE
  5
64A
100
AcDbEntity
  8
606368120-000-00-ED1_FORMAT
100
AcDbLine
 62
7
  6
CONTINUOUS
 10
264.9013593819
 20
252.2999732463
 11
410.0000007463
 21
252.2999732463
  0
LINE
  5
64B
100
AcDbEntity
  8
606368120-000-00-ED1_FORMAT
100
AcDbLine
 62
2
  6
CONTINUOUS
 10
316.1995560235
 20
55.0577518767
 11
316.4130664758
 21
53.6217008918
  0
LINE
  5
64C
100
AcDbEntity
  8
606368120-000-00-ED1_FORMAT
100
AcDbLine
 62
2
  6
CONTINUOUS
 10
315.0549566033
 20
54.8569420546
 11
315.0437861199
 21
54.9534544272
  0
LINE
  5
64D
100
AcDbEntity
  8
606368120-000-00-ED1_FORMAT
100
AcDbLine
 62
2
  6
CONTINUOUS
 10
315.0549566033
 20
54.6206692717
 11
315.0549566033
 21
54.8569420546
  0
LINE
  5
64E
100
AcDbEntity
  8
606368120-000-00-ED1_FORMAT
100
AcDbLine
 62
2
  6
CONTINUOUS
 10
317.9768299493
 20
51.6789962417
 11
317.9768299493
 21
52.0552391158
  0
LINE
  5
64F
100
AcDbEntity
  8
606368120-000-00-ED1_FORMAT
100
AcDbLine
 62
2
  6
CONTINUOUS
 10
317.9768299493
 20
56.2618312262
 11
317.9768299493
 21
57.09487209
  0
LINE
  5
650
100
AcDbEntity
  8
606368120-000-00-ED1_FORMAT
100
AcDbLine
 62
2
  6
CONTINUOUS
 10
318.1654360589
 20
56.9863057517
 11
318.1654360589
 21
51.7783204894
  0
LINE
  5
651
100
AcDbEntity
  8
606368120-000-00-ED1_FORMAT
100
AcDbLine
 62
2
  6
CONTINUOUS
 10
319.2068127099
 20
52.3385073111
 11
319.2068127099
 21
57.4193990424
  0
LINE
  5
652
100
AcDbEntity
  8
606368120-000-00-ED1_FORMAT
100
AcDbLine
 62
2
  6
CONTINUOUS
 10
319.559328991
 20
52.8235369574
 11
319.559328991
 21
52.4583050208
  0
LINE
  5
653
100
AcDbEntity
  8
606368120-000-00-ED1_FORMAT
100
AcDbLine
 62
2
  6
CONTINUOUS
 10
319.6064909387
 20
57.121523075
 11
319.6064909387
 21
55.5284318198
  0
LINE
  5
654
100
AcDbEntity
  8
606368120-000-00-ED1_FORMAT
100
AcDbLine
 62
2
  6
CONTINUOUS
 10
320.1383810082
 20
50.7511580878
 11
320.1383810082
 21
51.9501352012
  0
LINE
  5
655
100
AcDbEntity
  8
606368120-000-00-ED1_FORMAT
100
AcDbLine
 62
2
  6
CONTINUOUS
 10
320.5409560601
 20
52.0636854941
 11
320.5409560601
 21
50.825024919
  0
LINE
  5
656
100
AcDbEntity
  8
606368120-000-00-ED1_FORMAT
100
AcDbLine
 62
2
  6
CONTINUOUS
 10
314.2514528954
 20
54.659702185
 11
314.2408242638
 21
54.4987801291
  0
LINE
  5
657
100
AcDbEntity
  8
606368120-000-00-ED1_FORMAT
100
AcDbLine
 62
2
  6
CONTINUOUS
 10
315.0287393121
 20
54.3602885573
 11
315.0549566033
 21
54.6206692717
  0
LINE
  5
658
100
AcDbEntity
  8
606368120-000-00-ED1_FORMAT
100
AcDbLine
 62
2
  6
CONTINUOUS
 10
316.1995560235
 20
55.0577518767
 11
316.0044268517
 21
53.6634865394
  0
LINE
  5
659
100
AcDbEntity
  8
606368120-000-00-ED1_FORMAT
100
AcDbLine
 62
2
  6
CONTINUOUS
 10
310.5265291215
 20
52.4458639518
 11
310.6816029405
 21
53.1572307303
  0
LINE
  5
65A
100
AcDbEntity
  8
606368120-000-00-ED1_FORMAT
100
AcDbLine
 62
2
  6
CONTINUOUS
 10
311.0311598771
 20
55.1588611007
 11
310.7557428559
 21
53.9038776709
  0
LINE
  5
65B
100
AcDbEntity
  8
606368120-000-00-ED1_FORMAT
100
AcDbLine
 62
7
  6
CONTINUOUS
 10
274.9014193732
 20
256.8499677874
 11
376.900004085
 21
256.8499677874
  0
LINE
  5
65C
100
AcDbEntity
  8
606368120-000-00-ED1_FORMAT
100
AcDbLine
 62
7
  6
CONTINUOUS
 10
135.0000610636
 20
259.0000097341
 11
23.0001
 21
259.0000097341
  0
LINE
  5
65D
100
AcDbEntity
  8
606368120-000-00-ED1_FORMAT
100
AcDbLine
 62
7
  6
CONTINUOUS
 10
264.9013593819
 20
261.3999623285
 11
410.0000007463
 21
261.3999623285
  0
LINE
  5
65E
100
AcDbEntity
  8
606368120-000-00-ED1_FORMAT
100
AcDbLine
 62
7
  6
CONTINUOUS
 10
135.0000610636
 20
265.0000076482
 11
23.0001
 21
265.0000076482
  0
LINE
  5
65F
100
AcDbEntity
  8
606368120-000-00-ED1_FORMAT
100
AcDbLine
 62
7
  6
CONTINUOUS
 10
274.9014193732
 20
265.9499568695
 11
376.900004085
 21
265.9499568695
  0
LINE
  5
660
100
AcDbEntity
  8
606368120-000-00-ED1_FORMAT
100
AcDbLine
 62
2
  6
CONTINUOUS
 10
315.8408084466
 20
52.2778396262
 11
315.9152088677
 21
52.6866529395
  0
LINE
  5
661
100
AcDbEntity
  8
606368120-000-00-ED1_FORMAT
100
AcDbLine
 62
2
  6
CONTINUOUS
 10
315.6581835473
 20
56.1055812919
 11
314.8399247979
 21
52.3946910499
  0
LINE
  5
662
100
AcDbEntity
  8
606368120-000-00-ED1_FORMAT
100
AcDbLine
 62
2
  6
CONTINUOUS
 10
314.2408242638
 20
54.4987801291
 11
314.2106472863
 21
54.3649284202
  0
LINE
  5
663
100
AcDbEntity
  8
606368120-000-00-ED1_FORMAT
100
AcDbLine
 62
2
  6
CONTINUOUS
 10
314.9760546441
 20
54.126634098
 11
315.0287393121
 21
54.3602885573
  0
LINE
  5
664
100
AcDbEntity
  8
606368120-000-00-ED1_FORMAT
100
AcDbLine
 62
2
  6
CONTINUOUS
 10
310.4555152741
 20
55.9733855246
 11
309.4726377778
 21
52.3088992873
  0
LINE
  5
665
100
AcDbEntity
  8
606368120-000-00-ED1_FORMAT
100
AcDbLine
 62
2
  6
CONTINUOUS
 10
314.897298568
 20
53.9199424567
 11
314.9760546441
 21
54.126634098
  0
LINE
  5
666
100
AcDbEntity
  8
606368120-000-00-ED1_FORMAT
100
AcDbLine
 62
2
  6
CONTINUOUS
 10
307.412287964
 20
52.0724060706
 11
308.1737564759
 21
53.919834928
  0
LINE
  5
667
100
AcDbEntity
  8
606368120-000-00-ED1_FORMAT
100
AcDbLine
 62
2
  6
CONTINUOUS
 10
307.4111900432
 20
52.070082645
 11
308.1737564759
 21
53.919834928
  0
LINE
  5
668
100
AcDbEntity
  8
606368120-000-00-ED1_FORMAT
100
AcDbLine
 62
2
  6
CONTINUOUS
 10
308.3285281083
 20
56.2978479598
 11
307.3317083482
 21
54.7871290549
  0
LINE
  5
669
100
AcDbEntity
  8
606368120-000-00-ED1_FORMAT
100
AcDbLine
 62
2
  6
CONTINUOUS
 10
306.7262827363
 20
51.4182069182
 11
305.491402469
 21
50.7036949256
  0
LINE
  5
66A
100
AcDbEntity
  8
606368120-000-00-ED1_FORMAT
100
AcDbLine
 62
2
  6
CONTINUOUS
 10
305.4976754456
 20
50.923187857
 11
306.5876624558
 21
51.5376981711
  0
LINE
  5
66B
100
AcDbEntity
  8
606368120-000-00-ED1_FORMAT
100
AcDbLine
 62
2
  6
CONTINUOUS
 10
305.0855867265
 20
57.6283917975
 11
305.4845042786
 21
57.8197498481
  0
LINE
  5
66C
100
AcDbEntity
  8
606368120-000-00-ED1_FORMAT
100
AcDbLine
 62
2
  6
CONTINUOUS
 10
305.0855867265
 20
55.5498515342
 11
302.29999432
 21
54.25000176
  0
LINE
  5
66D
100
AcDbEntity
  8
606368120-000-00-ED1_FORMAT
100
AcDbLine
 62
2
  6
CONTINUOUS
 10
312.6104703294
 20
59.0612169219
 11
306.9737006074
 21
56.4309093329
  0
LINE
  5
66E
100
AcDbEntity
  8
606368120-000-00-ED1_FORMAT
100
AcDbLine
 62
2
  6
CONTINUOUS
 10
303.1029301255
 20
54.2379800528
 11
305.0855867265
 21
55.1631246131
  0
LINE
  5
66F
100
AcDbEntity
  8
606368120-000-00-ED1_FORMAT
100
AcDbLine
 62
2
  6
CONTINUOUS
 10
307.0868225922
 20
56.0970005027
 11
312.6129816041
 21
58.6756889457
  0
LINE
  5
670
100
AcDbEntity
  8
606368120-000-00-ED1_FORMAT
100
AcDbLine
 62
2
  6
CONTINUOUS
 10
314.2304457177
 20
53.3293357696
 11
314.4218236077
 21
53.411982318
  0
LINE
  5
671
100
AcDbEntity
  8
606368120-000-00-ED1_FORMAT
100
AcDbLine
 62
2
  6
CONTINUOUS
 10
317.9768299493
 20
57.09487209
 11
319.2546207116
 21
57.638015615
  0
LINE
  5
672
100
AcDbEntity
  8
606368120-000-00-ED1_FORMAT
100
AcDbLine
 62
2
  6
CONTINUOUS
 10
314.004113176
 20
54.106655268
 11
313.8970140824
 21
54.0619609694
  0
LINE
  5
673
100
AcDbEntity
  8
606368120-000-00-ED1_FORMAT
100
AcDbLine
 62
2
  6
CONTINUOUS
 10
319.2068127099
 20
57.4193990424
 11
318.1654360589
 21
56.9863057517
  0
LINE
  5
674
100
AcDbEntity
  8
606368120-000-00-ED1_FORMAT
100
AcDbLine
 62
2
  6
CONTINUOUS
 10
314.125727646
 20
53.2985664359
 11
314.2304457177
 21
53.3293357696
  0
LINE
  5
675
100
AcDbEntity
  8
606368120-000-00-ED1_FORMAT
100
AcDbLine
 62
7
  6
CONTINUOUS
 10
264.9013593819
 20
270.4999514106
 11
410.0000007463
 21
270.4999514106
  0
LINE
  5
676
100
AcDbEntity
  8
606368120-000-00-ED1_FORMAT
100
AcDbLine
 62
7
  6
CONTINUOUS
 10
274.9014193732
 20
275.0499459516
 11
376.900004085
 21
275.0499459516
  0
LINE
  5
677
100
AcDbEntity
  8
606368120-000-00-ED1_FORMAT
100
AcDbLine
 62
7
  6
CONTINUOUS
 10
264.9013593819
 20
279.5999404927
 11
410.0000007463
 21
279.5999404927
  0
LINE
  5
678
100
AcDbEntity
  8
606368120-000-00-ED1_FORMAT
100
AcDbLine
 62
7
  6
CONTINUOUS
 10
135.0000610636
 20
281.0000010853
 11
23.0001
 21
281.0000010853
  0
LINE
  5
679
100
AcDbEntity
  8
606368120-000-00-ED1_FORMAT
100
AcDbLine
 62
7
  6
CONTINUOUS
 10
344.9999968815
 20
13.500000112
 11
344.9999968815
 21
24.250000456
  0
LINE
  5
67A
100
AcDbEntity
  8
606368120-000-00-ED1_FORMAT
100
AcDbLine
 62
2
  6
CONTINUOUS
 10
314.2106472863
 20
54.3649284202
 11
314.1610626359
 21
54.2562276709
  0
LINE
  5
67B
100
AcDbEntity
  8
606368120-000-00-ED1_FORMAT
100
AcDbLine
 62
2
  6
CONTINUOUS
 10
314.8482609795
 20
53.8267688498
 11
314.897298568
 21
53.9199424567
  0
LINE
  5
67C
100
AcDbEntity
  8
606368120-000-00-ED1_FORMAT
100
AcDbLine
 62
2
  6
CONTINUOUS
 10
314.7928670525
 20
53.7404233146
 11
314.8482609795
 21
53.8267688498
  0
LINE
  5
67D
100
AcDbEntity
  8
606368120-000-00-ED1_FORMAT
100
AcDbLine
 62
2
  6
CONTINUOUS
 10
314.731116787
 20
53.6609219802
 11
314.7928670525
 21
53.7404233146
  0
LINE
  5
67E
100
AcDbEntity
  8
606368120-000-00-ED1_FORMAT
100
AcDbLine
 62
2
  6
CONTINUOUS
 10
314.1610626359
 20
54.2562276709
 11
314.0921745149
 21
54.1707746238
  0
LINE
  5
67F
100
AcDbEntity
  8
606368120-000-00-ED1_FORMAT
100
AcDbLine
 62
2
  6
CONTINUOUS
 10
314.5888598473
 20
53.5225809485
 11
314.731116787
 21
53.6609219802
  0
LINE
  5
680
100
AcDbEntity
  8
606368120-000-00-ED1_FORMAT
100
AcDbLine
 62
2
  6
CONTINUOUS
 10
320.5409560601
 20
50.825024919
 11
320.1637855218
 21
50.5303156714
  0
LINE
  5
681
100
AcDbEntity
  8
606368120-000-00-ED1_FORMAT
100
AcDbLine
 62
2
  6
CONTINUOUS
 10
314.0921745149
 20
54.1707746238
 11
314.004113176
 21
54.106655268
  0
LINE
  5
682
100
AcDbEntity
  8
606368120-000-00-ED1_FORMAT
100
AcDbLine
 62
2
  6
CONTINUOUS
 10
314.4218236077
 20
53.411982318
 11
314.5888598473
 21
53.5225809485
  0
LINE
  5
683
100
AcDbEntity
  8
606368120-000-00-ED1_FORMAT
100
AcDbLine
 62
2
  6
CONTINUOUS
 10
317.9768299493
 20
52.0552391158
 11
312.6129816041
 21
49.4525663993
  0
LINE
  5
684
100
AcDbEntity
  8
606368120-000-00-ED1_FORMAT
100
AcDbLine
 62
2
  6
CONTINUOUS
 10
322.4740123803
 20
54.2379800528
 11
319.559328991
 21
52.8235369574
  0
LINE
  5
685
100
AcDbEntity
  8
606368120-000-00-ED1_FORMAT
100
AcDbLine
 62
2
  6
CONTINUOUS
 10
312.6103036057
 20
49.0619039283
 11
317.9894905251
 21
51.6723455924
  0
LINE
  5
686
100
AcDbEntity
  8
606368120-000-00-ED1_FORMAT
100
AcDbLine
 62
2
  6
CONTINUOUS
 10
319.5865362039
 20
52.4473693534
 11
323.3012846261
 21
54.2500824065
  0
LINE
  5
687
100
AcDbEntity
  8
606368120-000-00-ED1_FORMAT
100
AcDbLine
 62
7
  6
CONTINUOUS
 10
410.0
 20
287.0
 11
264.9013593819
 21
287.0
  0
LINE
  5
688
100
AcDbEntity
  8
606368120-000-00-ED1_FORMAT
100
AcDbLine
 62
3
  6
CONTINUOUS
 10
23.0
 20
287.0
 11
23.0001
 21
287.0
  0
LINE
  5
689
100
AcDbEntity
  8
606368120-000-00-ED1_FORMAT
100
AcDbLine
 62
7
  6
CONTINUOUS
 10
23.0001
 20
287.0
 11
135.0000610636
 21
287.0
  0
LINE
  5
68A
100
AcDbEntity
  8
606368120-000-00-ED1_FORMAT
100
AcDbLine
 62
3
  6
CONTINUOUS
 10
135.0000610636
 20
287.0
 11
264.9013593819
 21
287.0
  0
LINE
  5
68B
100
AcDbEntity
  8
606368120-000-00-ED1_FORMAT
100
AcDbLine
 62
7
  6
CONTINUOUS
 10
415.0
 20
292.0
 11
18.0
 21
292.0
  0
LINE
  5
68C
100
AcDbEntity
  8
606368120-000-00-ED1_FORMAT
100
AcDbLine
 62
6
  6
HIDDEN
 10
420.0
 20
297.0
 11
0.0
 21
297.0
  0
LINE
  5
68D
100
AcDbEntity
  8
606368120-000-00-ED1_FORMAT
100
AcDbLine
 62
3
  6
CONTINUOUS
 10
360.0
 20
10.0
 11
360.0
 21
5.0
  0
LINE
  5
68E
100
AcDbEntity
  8
606368120-000-00-ED1_FORMAT
100
AcDbLine
 62
3
  6
CONTINUOUS
 10
360.0
 20
287.0
 11
360.0
 21
292.0
  0
LINE
  5
68F
100
AcDbEntity
  8
606368120-000-00-ED1_FORMAT
100
AcDbLine
 62
7
  6
CONTINUOUS
 10
365.999998592
 20
35.0000008
 11
366.0000025448
 21
72.500002
  0
LINE
  5
690
100
AcDbEntity
  8
606368120-000-00-ED1_FORMAT
100
AcDbLine
 62
7
  6
CONTINUOUS
 10
376.8994429408
 20
40.9546819905
 11
376.8994429408
 21
65.00000176
  0
LINE
  5
691
100
AcDbEntity
  8
606368120-000-00-ED1_FORMAT
100
AcDbLine
 62
7
  6
CONTINUOUS
 10
376.900004085
 20
225.000007
 11
376.900004085
 21
287.0000007463
  0
LINE
  5
692
100
AcDbEntity
  8
606368120-000-00-ED1_FORMAT
100
AcDbLine
 62
7
  6
CONTINUOUS
 10
377.7325379674
 20
13.500000112
 11
377.7325379674
 21
10.0
  0
LINE
  5
693
100
AcDbEntity
  8
606368120-000-00-ED1_FORMAT
100
AcDbLine
 62
7
  6
CONTINUOUS
 10
391.8994434208
 20
65.00000176
 11
391.8994434208
 21
35.0000008
  0
LINE
  5
694
100
AcDbEntity
  8
606368120-000-00-ED1_FORMAT
100
AcDbLine
 62
7
  6
CONTINUOUS
 10
391.900002572
 20
225.000007
 11
391.900002572
 21
287.0000007463
  0
LINE
  5
695
100
AcDbEntity
  8
606368120-000-00-ED1_FORMAT
100
AcDbLine
 62
7
  6
CONTINUOUS
 10
399.9999602137
 20
13.500000112
 11
399.9999602137
 21
35.0000008
  0
LINE
  5
696
100
AcDbEntity
  8
606368120-000-00-ED1_FORMAT
100
AcDbLine
 62
7
  6
CONTINUOUS
 10
410.0
 20
10.0
 11
410.0
 21
78.4999970131
  0
LINE
  5
697
100
AcDbEntity
  8
606368120-000-00-ED1_FORMAT
100
AcDbLine
 62
3
  6
CONTINUOUS
 10
410.0
 20
78.4999970131
 11
410.0000007463
 21
225.000007
  0
LINE
  5
698
100
AcDbEntity
  8
606368120-000-00-ED1_FORMAT
100
AcDbLine
 62
7
  6
CONTINUOUS
 10
410.0000007463
 20
225.000007
 11
410.0000007463
 21
287.0000007463
  0
LINE
  5
699
100
AcDbEntity
  8
606368120-000-00-ED1_FORMAT
100
AcDbLine
 62
7
  6
CONTINUOUS
 10
415.0
 20
5.0
 11
415.0
 21
292.0
  0
LINE
  5
69A
100
AcDbEntity
  8
606368120-000-00-ED1_FORMAT
100
AcDbLine
 62
6
  6
HIDDEN
 10
420.0
 20
0.0
 11
420.0
 21
297.0
  0
LINE
  5
69B
100
AcDbEntity
  8
30338729_CL
100
AcDbLine
 62
7
  6
CONTINUOUS
 10
115.9638798129
 20
148.6241339576
 11
115.9638798129
 21
165.3925906533
  0
LINE
  5
69C
100
AcDbEntity
  8
30338729_CL
100
AcDbLine
 62
9
  6
CONTINUOUS
 10
116.3638798129
 20
150.4511806678
 11
116.3638798129
 21
163.5655400218
  0
LINE
  5
69D
100
AcDbEntity
  8
30338729_CL
100
AcDbLine
 62
9
  6
CONTINUOUS
 10
116.3917257185
 20
165.8873570493
 11
116.3917257185
 21
148.1293636403
  0
LINE
  5
69E
100
AcDbEntity
  8
30338729_HL
100
AcDbLine
 62
6
  6
HIDDEN
 10
116.8959306205
 20
163.2583603448
 11
116.8959306205
 21
150.7583603448
  0
LINE
  5
69F
100
AcDbEntity
  8
30338729_HL
100
AcDbLine
 62
6
  6
HIDDEN
 10
122.9638798129
 20
163.2583603448
 11
122.9638798129
 21
150.7583603448
  0
LINE
  5
6A0
100
AcDbEntity
  8
30338729_HL
100
AcDbLine
 62
6
  6
HIDDEN
 10
123.1082173802
 20
163.0083603448
 11
123.1082173802
 21
151.0083603448
  0
LINE
  5
6A1
100
AcDbEntity
  8
30338729_HL
100
AcDbLine
 62
6
  6
HIDDEN
 10
123.6278326225
 20
162.1083603448
 11
123.6278326225
 21
151.9083603448
  0
LINE
  5
6A2
100
AcDbEntity
  8
30338729_HL
100
AcDbLine
 62
6
  6
HIDDEN
 10
123.6278326225
 20
151.9083603448
 11
122.9638798129
 21
150.7583603448
  0
LINE
  5
6A3
100
AcDbEntity
  8
30338729_HL
100
AcDbLine
 62
6
  6
HIDDEN
 10
123.6278326225
 20
162.1083603448
 11
122.9638798129
 21
163.2583603448
  0
LINE
  5
6A4
100
AcDbEntity
  8
30338729_HL
100
AcDbLine
 62
6
  6
HIDDEN
 10
139.9638798129
 20
163.0083603448
 11
139.9638798129
 21
151.0083603448
  0
LINE
  5
6A5
100
AcDbEntity
  8
30338729_HL
100
AcDbLine
 62
6
  6
HIDDEN
 10
149.9638798129
 20
162.1083603448
 11
149.9638798129
 21
151.9083603448
  0
LINE
  5
6A6
100
AcDbEntity
  8
30338729_HL
100
AcDbLine
 62
6
  6
HIDDEN
 10
150.8876402436
 20
160.5083603448
 11
150.8876402436
 21
153.5083603448
  0
LINE
  5
6A7
100
AcDbEntity
  8
30338729_HL
100
AcDbLine
 62
6
  6
HIDDEN
 10
150.8876402436
 20
153.5083603448
 11
149.9638798129
 21
151.9083603448
  0
LINE
  5
6A8
100
AcDbEntity
  8
30338729_HL
100
AcDbLine
 62
6
  6
HIDDEN
 10
116.8959306205
 20
150.7583603448
 11
116.3638798129
 21
150.4511806678
  0
LINE
  5
6A9
100
AcDbEntity
  8
30338729_CL
100
AcDbLine
 62
7
  6
CONTINUOUS
 10
166.3638798129
 20
134.0083603448
 11
173.9339388534
 21
134.0083603448
  0
LINE
  5
6AA
100
AcDbEntity
  8
30338729_CL
100
AcDbLine
 62
7
  6
CONTINUOUS
 10
181.9938207724
 20
134.0083603448
 11
186.3638798129
 21
134.0083603448
  0
LINE
  5
6AB
100
AcDbEntity
  8
30338729_HL
100
AcDbLine
 62
6
  6
HIDDEN
 10
116.8959306205
 20
163.2583603448
 11
116.3638798129
 21
163.5655400218
  0
LINE
  5
6AC
100
AcDbEntity
  8
30338729_HL
100
AcDbLine
 62
6
  6
HIDDEN
 10
150.8876402436
 20
160.5083603448
 11
149.9638798129
 21
162.1083603448
  0
LINE
  5
6AD
100
AcDbEntity
  8
30338729_CL
100
AcDbLine
 62
7
  6
CONTINUOUS
 10
164.3638798129
 20
172.8833603448
 11
164.3638798129
 21
141.1333603448
  0
LINE
  5
6AE
100
AcDbEntity
  8
30338729_CL
100
AcDbLine
 62
7
  6
CONTINUOUS
 10
204.8921632363
 20
140.0083603448
 11
248.4423389086
 21
143.4358335027
  0
LINE
  5
6AF
100
AcDbEntity
  8
30338729_CL
100
AcDbLine
 62
7
  6
CONTINUOUS
 10
178.9638798129
 20
138.5421030209
 11
176.9638798129
 21
138.5421030209
  0
LINE
  5
6B0
100
AcDbEntity
  8
30338729_CL
100
AcDbLine
 62
7
  6
CONTINUOUS
 10
116.3917257185
 20
148.1293636403
 11
164.3638798129
 21
141.1333603448
  0
LINE
  5
6B1
100
AcDbEntity
  8
30338729_CL
100
AcDbLine
 62
9
  6
CONTINUOUS
 10
165.0594233554
 20
172.6969900143
 11
165.0594233554
 21
141.3197306753
  0
LINE
  5
6B2
100
AcDbEntity
  8
30338729_CL
100
AcDbLine
 62
9
  6
CONTINUOUS
 10
165.1629509735
 20
172.6833603448
 11
165.1629509735
 21
141.3333603448
  0
LINE
  5
6B3
100
AcDbEntity
  8
30338729_CL
100
AcDbLine
 62
9
  6
CONTINUOUS
 10
166.1638798129
 20
172.6833603448
 11
166.1638798129
 21
141.3333603448
  0
LINE
  5
6B4
100
AcDbEntity
  8
30338729_CL
100
AcDbLine
 62
7
  6
CONTINUOUS
 10
166.3638798129
 20
134.0083603448
 11
166.3638798129
 21
150.9325941265
  0
LINE
  5
6B5
100
AcDbEntity
  8
30338729_CL
100
AcDbLine
 62
7
  6
CONTINUOUS
 10
166.3638798129
 20
163.0841265631
 11
166.3638798129
 21
180.0083603448
  0
LINE
  5
6B6
100
AcDbEntity
  8
30338729_CL
100
AcDbLine
 62
9
  6
CONTINUOUS
 10
166.5502501434
 20
140.3083603448
 11
166.5502501434
 21
153.3751799199
  0
LINE
  5
6B7
100
AcDbEntity
  8
30338729_CL
100
AcDbLine
 62
9
  6
CONTINUOUS
 10
166.5502501434
 20
160.6415407697
 11
166.5502501434
 21
173.7083603448
  0
LINE
  5
6B8
100
AcDbEntity
  8
30338729_HL
100
AcDbLine
 62
6
  6
HIDDEN
 10
166.5638798129
 20
153.8853977249
 11
166.5638798129
 21
140.4224057855
  0
LINE
  5
6B9
100
AcDbEntity
  8
30338729_HL
100
AcDbLine
 62
6
  6
HIDDEN
 10
166.5638798129
 20
140.4118879629
 11
166.5638798129
 21
140.4224057855
  0
LINE
  5
6BA
100
AcDbEntity
  8
30338729_CL
100
AcDbLine
 62
7
  6
CONTINUOUS
 10
166.5638798129
 20
153.8853977249
 11
166.5638798129
 21
160.1313229647
  0
LINE
  5
6BB
100
AcDbEntity
  8
30338729_HL
100
AcDbLine
 62
6
  6
HIDDEN
 10
166.5638798129
 20
160.1313229647
 11
166.5638798129
 21
173.603709732
  0
LINE
  5
6BC
100
AcDbEntity
  8
30338729_HL
100
AcDbLine
 62
6
  6
HIDDEN
 10
166.5638798129
 20
173.603709732
 11
166.5638798129
 21
173.6048327268
  0
LINE
  5
6BD
100
AcDbEntity
  8
30338729_CL
100
AcDbLine
 62
7
  6
CONTINUOUS
 10
187.3638798129
 20
140.0083603448
 11
188.3638798129
 21
140.0083603448
  0
LINE
  5
6BE
100
AcDbEntity
  8
30338729_CL
100
AcDbLine
 62
7
  6
CONTINUOUS
 10
196.3638798129
 20
140.0083603448
 11
204.8921632363
 21
140.0083603448
  0
LINE
  5
6BF
100
AcDbEntity
  8
30338729_CL
100
AcDbLine
 62
7
  6
CONTINUOUS
 10
188.3638798129
 20
140.1583603448
 11
189.8638798129
 21
140.1583603448
  0
LINE
  5
6C0
100
AcDbEntity
  8
30338729_CL
100
AcDbLine
 62
7
  6
CONTINUOUS
 10
194.8638798129
 20
140.1583603448
 11
196.3638798129
 21
140.1583603448
  0
LINE
  5
6C1
100
AcDbEntity
  8
30338729_CL
100
AcDbLine
 62
7
  6
CONTINUOUS
 10
166.1638798129
 20
141.3333603448
 11
165.1629509735
 21
141.3333603448
  0
LINE
  5
6C2
100
AcDbEntity
  8
30338729_HL
100
AcDbLine
 62
6
  6
HIDDEN
 10
166.5502501434
 20
140.3083603448
 11
166.3638798129
 21
139.6128168023
  0
LINE
  5
6C3
100
AcDbEntity
  8
30338729_CL
100
AcDbLine
 62
7
  6
CONTINUOUS
 10
181.9938207724
 20
180.0083603448
 11
179.9638798129
 21
176.4746176688
  0
LINE
  5
6C4
100
AcDbEntity
  8
30338729_CL
100
AcDbLine
 62
7
  6
CONTINUOUS
 10
165.0594233554
 20
141.3197306753
 11
164.3638798129
 21
141.1333603448
  0
LINE
  5
6C5
100
AcDbEntity
  8
30338729_HL
100
AcDbLine
 62
6
  6
HIDDEN
 10
195.3638798129
 20
146.6583603448
 11
189.3638798129
 21
146.6583603448
  0
LINE
  5
6C6
100
AcDbEntity
  8
30338729_CL
100
AcDbLine
 62
7
  6
CONTINUOUS
 10
181.9938207724
 20
134.0083603448
 11
179.9638798129
 21
137.5421030209
  0
LINE
  5
6C7
100
AcDbEntity
  8
30338729_HL
100
AcDbLine
 62
6
  6
HIDDEN
 10
166.5502501434
 20
173.7083603448
 11
166.3638798129
 21
174.4039038873
  0
LINE
  5
6C8
100
AcDbEntity
  8
30338729_CL
100
AcDbLine
 62
7
  6
CONTINUOUS
 10
173.9339388534
 20
134.0083603448
 11
173.9339388534
 21
148.9583603448
  0
LINE
  5
6C9
100
AcDbEntity
  8
30338729_CL
100
AcDbLine
 62
7
  6
CONTINUOUS
 10
173.9339388534
 20
165.0583603448
 11
173.9339388534
 21
180.0083603448
  0
LINE
  5
6CA
100
AcDbEntity
  8
30338729_CL
100
AcDbLine
 62
9
  6
CONTINUOUS
 10
175.3138798129
 20
165.0583603448
 11
175.3138798129
 21
163.4583603448
  0
LINE
  5
6CB
100
AcDbEntity
  8
30338729_CL
100
AcDbLine
 62
9
  6
CONTINUOUS
 10
175.3138798129
 20
150.5583603448
 11
175.3138798129
 21
148.9583603448
  0
LINE
  5
6CC
100
AcDbEntity
  8
30338729_CL
100
AcDbLine
 62
7
  6
CONTINUOUS
 10
175.9638798129
 20
137.5421030209
 11
175.9638798129
 21
148.9927555301
  0
LINE
  5
6CD
100
AcDbEntity
  8
30338729_CL
100
AcDbLine
 62
7
  6
CONTINUOUS
 10
175.9638798129
 20
165.0239651595
 11
175.9638798129
 21
176.4746176688
  0
LINE
  5
6CE
100
AcDbEntity
  8
30338729_CL
100
AcDbLine
 62
9
  6
CONTINUOUS
 10
176.9638798129
 20
175.4746176688
 11
176.9638798129
 21
164.5075367642
  0
LINE
  5
6CF
100
AcDbEntity
  8
30338729_CL
100
AcDbLine
 62
9
  6
CONTINUOUS
 10
176.9638798129
 20
149.5091839254
 11
176.9638798129
 21
138.5421030209
  0
LINE
  5
6D0
100
AcDbEntity
  8
30338729_HL
100
AcDbLine
 62
6
  6
HIDDEN
 10
194.8638798129
 20
148.6583603448
 11
189.8638798129
 21
148.6583603448
  0
LINE
  5
6D1
100
AcDbEntity
  8
30338729_CL
100
AcDbLine
 62
7
  6
CONTINUOUS
 10
166.3638798129
 20
148.9583603448
 11
175.3138798129
 21
148.9583603448
  0
LINE
  5
6D2
100
AcDbEntity
  8
30338729_HL
100
AcDbLine
 62
6
  6
HIDDEN
 10
200.8638798129
 20
149.8583603448
 11
213.3638798129
 21
149.8583603448
  0
LINE
  5
6D3
100
AcDbEntity
  8
30338729_HL
100
AcDbLine
 62
6
  6
HIDDEN
 10
213.3638798129
 20
150.0083603448
 11
247.3638798129
 21
150.0083603448
  0
LINE
  5
6D4
100
AcDbEntity
  8
30338729_CL
100
AcDbLine
 62
9
  6
CONTINUOUS
 10
166.3638798129
 20
150.5583603448
 11
175.3138798129
 21
150.5583603448
  0
LINE
  5
6D5
100
AcDbEntity
  8
30338729_HL
100
AcDbLine
 62
6
  6
HIDDEN
 10
122.9638798129
 20
150.7583603448
 11
116.8959306205
 21
150.7583603448
  0
LINE
  5
6D6
100
AcDbEntity
  8
30338729_HL
100
AcDbLine
 62
6
  6
HIDDEN
 10
123.1082173802
 20
151.0083603448
 11
139.9638798129
 21
151.0083603448
  0
LINE
  5
6D7
100
AcDbEntity
  8
30338729_HL
100
AcDbLine
 62
6
  6
HIDDEN
 10
149.9638798129
 20
151.9083603448
 11
123.6278326225
 21
151.9083603448
  0
LINE
  5
6D8
100
AcDbEntity
  8
30338729_HL
100
AcDbLine
 62
6
  6
HIDDEN
 10
200.8638798129
 20
152.0083603448
 11
184.3638798129
 21
152.0083603448
  0
LINE
  5
6D9
100
AcDbEntity
  8
30252542_HP_HL
100
AcDbLine
 62
6
  6
HIDDEN
 10
189.4788798129
 20
152.0083603448
 11
195.6638798129
 21
152.0083603448
  0
LINE
  5
6DA
100
AcDbEntity
  8
30252542_HP_HL
100
AcDbLine
 62
6
  6
HIDDEN
 10
200.8638798129
 20
152.1083603448
 11
202.3638798129
 21
152.1083603448
  0
LINE
  5
6DB
100
AcDbEntity
  8
30338729_HL
100
AcDbLine
 62
6
  6
HIDDEN
 10
181.3638798129
 20
152.5083603448
 11
200.2638798129
 21
152.5083603448
  0
LINE
  5
6DC
100
AcDbEntity
  8
30252542_HP_HL
100
AcDbLine
 62
6
  6
HIDDEN
 10
188.8638798129
 20
152.6233603448
 11
196.7290910596
 21
152.6233603448
  0
LINE
  5
6DD
100
AcDbEntity
  8
30338729_CL
100
AcDbLine
 62
9
  6
CONTINUOUS
 10
178.9638798129
 20
175.4746176688
 11
178.9638798129
 21
163.9497050171
  0
LINE
  5
6DE
100
AcDbEntity
  8
30338729_CL
100
AcDbLine
 62
9
  6
CONTINUOUS
 10
178.9638798129
 20
150.0670156725
 11
178.9638798129
 21
138.5421030209
  0
LINE
  5
6DF
100
AcDbEntity
  8
30338729_CL
100
AcDbLine
 62
7
  6
CONTINUOUS
 10
179.9638798129
 20
176.4746176688
 11
179.9638798129
 21
163.5795094072
  0
LINE
  5
6E0
100
AcDbEntity
  8
30338729_CL
100
AcDbLine
 62
7
  6
CONTINUOUS
 10
179.9638798129
 20
150.4372112824
 11
179.9638798129
 21
137.5421030209
  0
LINE
  5
6E1
100
AcDbEntity
  8
30338729_HL
100
AcDbLine
 62
6
  6
HIDDEN
 10
180.7865295437
 20
160.5083603448
 11
180.7865295437
 21
153.5083603448
  0
LINE
  5
6E2
100
AcDbEntity
  8
30338729_HL
100
AcDbLine
 62
6
  6
HIDDEN
 10
181.3638798129
 20
152.5083603448
 11
181.3638798129
 21
161.5083603448
  0
LINE
  5
6E3
100
AcDbEntity
  8
30338729_CL
100
AcDbLine
 62
7
  6
CONTINUOUS
 10
181.9938207724
 20
180.0083603448
 11
181.9938207724
 21
161.500674757
  0
LINE
  5
6E4
100
AcDbEntity
  8
30338729_CL
100
AcDbLine
 62
7
  6
CONTINUOUS
 10
181.9938207724
 20
152.5160459327
 11
181.9938207724
 21
134.0083603448
  0
LINE
  5
6E5
100
AcDbEntity
  8
30338729_HL
100
AcDbLine
 62
6
  6
HIDDEN
 10
180.7865295437
 20
160.5083603448
 11
181.3638798129
 21
161.5083603448
  0
LINE
  5
6E6
100
AcDbEntity
  8
30338729_HL
100
AcDbLine
 62
6
  6
HIDDEN
 10
194.8638798129
 20
165.3583603448
 11
192.3638798129
 21
163.8562087973
  0
LINE
  5
6E7
100
AcDbEntity
  8
30252542_HP_HL
100
AcDbLine
 62
6
  6
HIDDEN
 10
197.8700975956
 20
153.1583603448
 11
200.0638798129
 21
153.1583603448
  0
LINE
  5
6E8
100
AcDbEntity
  8
30338729_HL
100
AcDbLine
 62
6
  6
HIDDEN
 10
180.7865295437
 20
153.5083603448
 11
150.8876402436
 21
153.5083603448
  0
LINE
  5
6E9
100
AcDbEntity
  8
30252542_HP_HL
100
AcDbLine
 62
6
  6
HIDDEN
 10
188.987128467
 20
154.5083603448
 11
202.2406311589
 21
154.5083603448
  0
LINE
  5
6EA
100
AcDbEntity
  8
30252542_HP_HL
100
AcDbLine
 62
6
  6
HIDDEN
 10
202.2406311589
 20
157.0083603448
 11
197.3638798129
 21
157.0083603448
  0
LINE
  5
6EB
100
AcDbEntity
  8
30338729_AXIS
100
AcDbLine
 62
3
  6
CENTER
 10
192.3638798129
 20
157.0083603448
 11
186.8638798129
 21
157.0083603448
  0
LINE
  5
6EC
100
AcDbEntity
  8
30338729_AXIS
100
AcDbLine
 62
3
  6
CENTER
 10
186.8638798129
 20
157.0083603448
 11
186.3638798129
 21
157.0083603448
  0
LINE
  5
6ED
100
AcDbEntity
  8
30252542_HP_AXIS
100
AcDbLine
 62
3
  6
CENTER
 10
205.3638798129
 20
157.0083603448
 11
202.2406311589
 21
157.0083603448
  0
LINE
  5
6EE
100
AcDbEntity
  8
30252542_HP_AXIS
100
AcDbLine
 62
3
  6
CENTER
 10
197.3638798129
 20
157.0083603448
 11
193.8638798129
 21
157.0083603448
  0
LINE
  5
6EF
100
AcDbEntity
  8
30252542_HP_AXIS
100
AcDbLine
 62
3
  6
CENTER
 10
188.987128467
 20
157.0083603448
 11
185.8638798129
 21
157.0083603448
  0
LINE
  5
6F0
100
AcDbEntity
  8
30338729_AXIS
100
AcDbLine
 62
3
  6
CENTER
 10
254.3638798129
 20
157.0083603448
 11
110.9638798129
 21
157.0083603448
  0
LINE
  5
6F1
100
AcDbEntity
  8
30252542_HP_HL
100
AcDbLine
 62
6
  6
HIDDEN
 10
188.987128467
 20
157.0083603448
 11
193.8638798129
 21
157.0083603448
  0
LINE
  5
6F2
100
AcDbEntity
  8
30338729_AXIS
100
AcDbLine
 62
3
  6
CENTER
 10
192.3638798129
 20
157.0083603448
 11
197.8638798129
 21
157.0083603448
  0
LINE
  5
6F3
100
AcDbEntity
  8
30338729_AXIS
100
AcDbLine
 62
3
  6
CENTER
 10
197.8638798129
 20
157.0083603448
 11
198.3638798129
 21
157.0083603448
  0
LINE
  5
6F4
100
AcDbEntity
  8
30338729_HL
100
AcDbLine
 62
6
  6
HIDDEN
 10
247.3638798129
 20
150.0083603448
 11
248.4510355557
 21
149.9132465418
  0
LINE
  5
6F5
100
AcDbEntity
  8
30338729_HL
100
AcDbLine
 62
6
  6
HIDDEN
 10
194.8638798129
 20
148.6583603448
 11
192.3638798129
 21
150.1605118924
  0
LINE
  5
6F6
100
AcDbEntity
  8
30338729_HL
100
AcDbLine
 62
6
  6
HIDDEN
 10
180.7865295437
 20
153.5083603448
 11
181.3638798129
 21
152.5083603448
  0
LINE
  5
6F7
100
AcDbEntity
  8
30338729_HL
100
AcDbLine
 62
6
  6
HIDDEN
 10
184.3638798129
 20
162.0083603448
 11
184.3638798129
 21
152.0083603448
  0
LINE
  5
6F8
100
AcDbEntity
  8
30338729_CL
100
AcDbLine
 62
7
  6
CONTINUOUS
 10
186.3638798129
 20
180.0083588513
 11
186.3638798129
 21
134.0083618384
  0
LINE
  5
6F9
100
AcDbEntity
  8
30338729_CL
100
AcDbLine
 62
9
  6
CONTINUOUS
 10
187.3638798129
 20
174.0083603448
 11
187.3638798129
 21
140.0083603448
  0
LINE
  5
6FA
100
AcDbEntity
  8
30338729_CL
100
AcDbLine
 62
7
  6
CONTINUOUS
 10
175.9638798129
 20
137.5421030209
 11
173.9339388534
 21
134.0083603448
  0
LINE
  5
6FB
100
AcDbEntity
  8
30252542_HP_HL
100
AcDbLine
 62
6
  6
HIDDEN
 10
188.8638798129
 20
161.3933603448
 11
189.4788798129
 21
162.0083603448
  0
LINE
  5
6FC
100
AcDbEntity
  8
30338729_HL
100
AcDbLine
 62
6
  6
HIDDEN
 10
247.3638798129
 20
164.0083603448
 11
248.4510355557
 21
164.1034741478
  0
LINE
  5
6FD
100
AcDbEntity
  8
30252542_HP_HL
100
AcDbLine
 62
6
  6
HIDDEN
 10
188.987128467
 20
159.5083603448
 11
202.2406311589
 21
159.5083603448
  0
LINE
  5
6FE
100
AcDbEntity
  8
30338729_HL
100
AcDbLine
 62
6
  6
HIDDEN
 10
180.7865295437
 20
160.5083603448
 11
150.8876402436
 21
160.5083603448
  0
LINE
  5
6FF
100
AcDbEntity
  8
30252542_HP_HL
100
AcDbLine
 62
6
  6
HIDDEN
 10
197.8700975956
 20
160.8583603448
 11
200.0638798129
 21
160.8583603448
  0
LINE
  5
700
100
AcDbEntity
  8
30252542_HP_HL
100
AcDbLine
 62
6
  6
HIDDEN
 10
188.8638798129
 20
161.3933603448
 11
196.7290910596
 21
161.3933603448
  0
LINE
  5
701
100
AcDbEntity
  8
30338729_HL
100
AcDbLine
 62
6
  6
HIDDEN
 10
181.3638798129
 20
161.5083603448
 11
200.2638798129
 21
161.5083603448
  0
LINE
  5
702
100
AcDbEntity
  8
30252542_HP_HL
100
AcDbLine
 62
6
  6
HIDDEN
 10
200.8638798129
 20
161.9083603448
 11
202.3638798129
 21
161.9083603448
  0
LINE
  5
703
100
AcDbEntity
  8
30338729_HL
100
AcDbLine
 62
6
  6
HIDDEN
 10
200.8638798129
 20
162.0083603448
 11
184.3638798129
 21
162.0083603448
  0
LINE
  5
704
100
AcDbEntity
  8
30252542_HP_HL
100
AcDbLine
 62
6
  6
HIDDEN
 10
189.4788798129
 20
162.0083603448
 11
195.6638798129
 21
162.0083603448
  0
LINE
  5
705
100
AcDbEntity
  8
30338729_HL
100
AcDbLine
 62
6
  6
HIDDEN
 10
149.9638798129
 20
162.1083603448
 11
123.6278326225
 21
162.1083603448
  0
LINE
  5
706
100
AcDbEntity
  8
30252542_HP_HL
100
AcDbLine
 62
6
  6
HIDDEN
 10
188.8638798129
 20
152.6233603448
 11
189.4788798129
 21
152.0083603448
  0
LINE
  5
707
100
AcDbEntity
  8
30338729_CL
100
AcDbLine
 62
7
  6
CONTINUOUS
 10
175.9638798129
 20
176.4746176688
 11
173.9339388534
 21
180.0083603448
  0
LINE
  5
708
100
AcDbEntity
  8
30338729_CL
100
AcDbLine
 62
7
  6
CONTINUOUS
 10
188.3638798129
 20
174.0083603448
 11
188.3638798129
 21
140.0083603448
  0
LINE
  5
709
100
AcDbEntity
  8
30252542_HP_HL
100
AcDbLine
 62
6
  6
HIDDEN
 10
188.8638798129
 20
161.3933603448
 11
188.8638798129
 21
152.6233603448
  0
LINE
  5
70A
100
AcDbEntity
  8
30338729_HL
100
AcDbLine
 62
6
  6
HIDDEN
 10
189.3638798129
 20
146.6583603448
 11
189.3638798129
 21
140.1583603531
  0
LINE
  5
70B
100
AcDbEntity
  8
30338729_HL
100
AcDbLine
 62
6
  6
HIDDEN
 10
189.3638798129
 20
167.3583603448
 11
189.3638798129
 21
173.8583603365
  0
LINE
  5
70C
100
AcDbEntity
  8
30252542_HP_HL
100
AcDbLine
 62
6
  6
HIDDEN
 10
189.4788798129
 20
162.0083603448
 11
189.4788798129
 21
152.0083603448
  0
LINE
  5
70D
100
AcDbEntity
  8
30338729_HL
100
AcDbLine
 62
6
  6
HIDDEN
 10
189.8638798129
 20
173.8583603448
 11
189.8638798129
 21
165.3583603448
  0
LINE
  5
70E
100
AcDbEntity
  8
30338729_HL
100
AcDbLine
 62
6
  6
HIDDEN
 10
189.8638798129
 20
140.1583603448
 11
189.8638798129
 21
148.6583603448
  0
LINE
  5
70F
100
AcDbEntity
  8
30338729_AXIS
100
AcDbLine
 62
3
  6
CENTER
 10
192.3638798129
 20
157.0083603448
 11
192.3638798129
 21
139.3406583009
  0
LINE
  5
710
100
AcDbEntity
  8
30338729_CL
100
AcDbLine
 62
30
  6
CONTINUOUS
 10
192.3638798129
 20
140.3445755794
 11
192.3638798129
 21
140.9157385697
  0
LINE
  5
711
100
AcDbEntity
  8
30338729_CL
100
AcDbLine
 62
30
  6
CONTINUOUS
 10
192.3638798129
 20
152.0133603448
 11
192.3638798129
 21
162.0033603419
  0
LINE
  5
712
100
AcDbEntity
  8
30338729_AXIS
100
AcDbLine
 62
3
  6
CENTER
 10
192.3638798129
 20
157.0083603448
 11
192.3638798129
 21
162.5083603448
  0
LINE
  5
713
100
AcDbEntity
  8
30338729_AXIS
100
AcDbLine
 62
3
  6
CENTER
 10
192.3638798129
 20
162.5083603448
 11
192.3638798129
 21
163.0083603448
  0
LINE
  5
714
100
AcDbEntity
  8
30338729_CL
100
AcDbLine
 62
30
  6
CONTINUOUS
 10
192.3638798129
 20
173.1009821014
 11
192.3638798129
 21
173.6721451102
  0
LINE
  5
715
100
AcDbEntity
  8
30338729_AXIS
100
AcDbLine
 62
3
  6
CENTER
 10
192.3638798129
 20
163.0083603448
 11
192.3638798129
 21
174.3700557738
  0
LINE
  5
716
100
AcDbEntity
  8
30252542_HP_HL
100
AcDbLine
 62
6
  6
HIDDEN
 10
188.8638798129
 20
153.9983603448
 11
189.3738723653
 21
154.5083528972
  0
LINE
  5
717
100
AcDbEntity
  8
30338729_HL
100
AcDbLine
 62
6
  6
HIDDEN
 10
123.1082173802
 20
163.0083603448
 11
139.9638798129
 21
163.0083603448
  0
LINE
  5
718
100
AcDbEntity
  8
30338729_HL
100
AcDbLine
 62
6
  6
HIDDEN
 10
122.9638798129
 20
163.2583603448
 11
116.8959306205
 21
163.2583603448
  0
LINE
  5
719
100
AcDbEntity
  8
30338729_CL
100
AcDbLine
 62
9
  6
CONTINUOUS
 10
175.3138798129
 20
163.4583603448
 11
166.3638798129
 21
163.4583603448
  0
LINE
  5
71A
100
AcDbEntity
  8
30338729_HL
100
AcDbLine
 62
6
  6
HIDDEN
 10
213.3638798129
 20
164.0083603448
 11
247.3638798129
 21
164.0083603448
  0
LINE
  5
71B
100
AcDbEntity
  8
30338729_HL
100
AcDbLine
 62
6
  6
HIDDEN
 10
200.8638798129
 20
164.1583603448
 11
213.3638798129
 21
164.1583603448
  0
LINE
  5
71C
100
AcDbEntity
  8
30338729_CL
100
AcDbLine
 62
7
  6
CONTINUOUS
 10
166.3638798129
 20
165.0583603448
 11
175.3138798129
 21
165.0583603448
  0
LINE
  5
71D
100
AcDbEntity
  8
30338729_HL
100
AcDbLine
 62
6
  6
HIDDEN
 10
194.8638798129
 20
165.3583603448
 11
189.8638798129
 21
165.3583603448
  0
LINE
  5
71E
100
AcDbEntity
  8
30252542_HP_HL
100
AcDbLine
 62
6
  6
HIDDEN
 10
188.8638798129
 20
160.0183603448
 11
189.3738723653
 21
159.5083677925
  0
LINE
  5
71F
100
AcDbEntity
  8
30252542_HP_HL
100
AcDbLine
 62
6
  6
HIDDEN
 10
193.8638798129
 20
154.5083603448
 11
193.8638798129
 21
159.5083603448
  0
LINE
  5
720
100
AcDbEntity
  8
30338729_HL
100
AcDbLine
 62
6
  6
HIDDEN
 10
194.8638798129
 20
173.8583603448
 11
194.8638798129
 21
165.3583603448
  0
LINE
  5
721
100
AcDbEntity
  8
30338729_HL
100
AcDbLine
 62
6
  6
HIDDEN
 10
194.8638798129
 20
140.1583603448
 11
194.8638798129
 21
148.6583603448
  0
LINE
  5
722
100
AcDbEntity
  8
30338729_HL
100
AcDbLine
 62
6
  6
HIDDEN
 10
195.3638798129
 20
146.6583603448
 11
195.3638798129
 21
140.1583603531
  0
LINE
  5
723
100
AcDbEntity
  8
30338729_HL
100
AcDbLine
 62
6
  6
HIDDEN
 10
195.3638798129
 20
167.3583603448
 11
195.3638798129
 21
173.8583603365
  0
LINE
  5
724
100
AcDbEntity
  8
30252542_HP_HL
100
AcDbLine
 62
6
  6
HIDDEN
 10
195.6638798129
 20
162.0083603448
 11
195.6638798129
 21
152.0083603448
  0
LINE
  5
725
100
AcDbEntity
  8
30338729_CL
100
AcDbLine
 62
7
  6
CONTINUOUS
 10
196.3638798129
 20
174.0083603448
 11
196.3638798129
 21
140.0083603448
  0
LINE
  5
726
100
AcDbEntity
  8
30252542_HP_HL
100
AcDbLine
 62
6
  6
HIDDEN
 10
196.7290910596
 20
161.3933603448
 11
196.7290910596
 21
152.6233603448
  0
LINE
  5
727
100
AcDbEntity
  8
30252542_HP_HL
100
AcDbLine
 62
6
  6
HIDDEN
 10
197.3638798129
 20
159.5083603448
 11
197.3638798129
 21
154.5083603448
  0
LINE
  5
728
100
AcDbEntity
  8
30338729_HL
100
AcDbLine
 62
6
  6
HIDDEN
 10
200.2638798129
 20
161.5083603448
 11
200.8638798129
 21
162.5475908294
  0
LINE
  5
729
100
AcDbEntity
  8
30252542_HP_HL
100
AcDbLine
 62
6
  6
HIDDEN
 10
201.8538872605
 20
159.5083677925
 11
202.3638798129
 21
160.0183603448
  0
LINE
  5
72A
100
AcDbEntity
  8
30338729_HL
100
AcDbLine
 62
6
  6
HIDDEN
 10
189.8638798129
 20
148.6583603448
 11
192.3638798129
 21
150.1605118924
  0
LINE
  5
72B
100
AcDbEntity
  8
30252542_HP_HL
100
AcDbLine
 62
6
  6
HIDDEN
 10
195.6638798129
 20
152.0083603448
 11
197.4700975956
 21
153.0511806678
  0
LINE
  5
72C
100
AcDbEntity
  8
30338729_HL
100
AcDbLine
 62
6
  6
HIDDEN
 10
195.3638798129
 20
167.3583603448
 11
189.3638798129
 21
167.3583603448
  0
LINE
  5
72D
100
AcDbEntity
  8
30338729_CL
100
AcDbLine
 62
7
  6
CONTINUOUS
 10
165.0594233554
 20
172.6969900143
 11
164.3638798129
 21
172.8833603448
  0
LINE
  5
72E
100
AcDbEntity
  8
30252542_HP_HL
100
AcDbLine
 62
6
  6
HIDDEN
 10
195.6638798129
 20
162.0083603448
 11
197.4700975956
 21
160.9655400218
  0
LINE
  5
72F
100
AcDbEntity
  8
30338729_HL
100
AcDbLine
 62
6
  6
HIDDEN
 10
189.8638798129
 20
165.3583603448
 11
192.3638798129
 21
163.8562087973
  0
LINE
  5
730
100
AcDbEntity
  8
30252542_HP_HL
100
AcDbLine
 62
6
  6
HIDDEN
 10
201.8538872605
 20
154.5083528972
 11
202.3638798129
 21
153.9983603448
  0
LINE
  5
731
100
AcDbEntity
  8
30338729_HL
100
AcDbLine
 62
6
  6
HIDDEN
 10
200.2638798129
 20
152.5083603448
 11
200.8638798129
 21
151.4691298603
  0
LINE
  5
732
100
AcDbEntity
  8
30252542_HP_CL
100
AcDbLine
 62
9
  6
CONTINUOUS
 10
197.4700975956
 20
153.0511806678
 11
197.4700975956
 21
160.9655400218
  0
LINE
  5
733
100
AcDbEntity
  8
30252542_HP_CL
100
AcDbLine
 62
9
  6
CONTINUOUS
 10
197.8700975956
 20
153.1583603448
 11
197.8700975956
 21
160.8583603448
  0
LINE
  5
734
100
AcDbEntity
  8
30252542_HP_CL
100
AcDbLine
 62
9
  6
CONTINUOUS
 10
200.0638798129
 20
153.1583603448
 11
200.0638798129
 21
160.8583603448
  0
LINE
  5
735
100
AcDbEntity
  8
30338729_HL
100
AcDbLine
 62
6
  6
HIDDEN
 10
200.2638798129
 20
152.5083603448
 11
200.2638798129
 21
161.5083603448
  0
LINE
  5
736
100
AcDbEntity
  8
30338729_HL
100
AcDbLine
 62
6
  6
HIDDEN
 10
200.8638798129
 20
164.1583603448
 11
200.8638798129
 21
149.8583603448
  0
LINE
  5
737
100
AcDbEntity
  8
30252542_HP_HL
100
AcDbLine
 62
6
  6
HIDDEN
 10
200.8638798129
 20
152.1083813711
 11
200.8638798129
 21
161.9083393186
  0
LINE
  5
738
100
AcDbEntity
  8
30338729_CL
100
AcDbLine
 62
7
  6
CONTINUOUS
 10
116.3917257185
 20
165.8873570493
 11
164.3638798129
 21
172.8833603448
  0
LINE
  5
739
100
AcDbEntity
  8
30338729_CL
100
AcDbLine
 62
7
  6
CONTINUOUS
 10
166.1638798129
 20
172.6833603448
 11
165.1629509735
 21
172.6833603448
  0
LINE
  5
73A
100
AcDbEntity
  8
30338729_CL
100
AcDbLine
 62
7
  6
CONTINUOUS
 10
188.3638798129
 20
173.8583603448
 11
189.8638798129
 21
173.8583603448
  0
LINE
  5
73B
100
AcDbEntity
  8
30338729_CL
100
AcDbLine
 62
7
  6
CONTINUOUS
 10
194.8638798129
 20
173.8583603448
 11
196.3638798129
 21
173.8583603448
  0
LINE
  5
73C
100
AcDbEntity
  8
30338729_CL
100
AcDbLine
 62
7
  6
CONTINUOUS
 10
187.3638798129
 20
174.0083603448
 11
188.3638798129
 21
174.0083603448
  0
LINE
  5
73D
100
AcDbEntity
  8
30338729_CL
100
AcDbLine
 62
7
  6
CONTINUOUS
 10
196.3638798129
 20
174.0083603448
 11
204.8921632363
 21
174.0083603448
  0
LINE
  5
73E
100
AcDbEntity
  8
30338729_CL
100
AcDbLine
 62
7
  6
CONTINUOUS
 10
178.9638798129
 20
175.4746176688
 11
176.9638798129
 21
175.4746176688
  0
LINE
  5
73F
100
AcDbEntity
  8
30338729_CL
100
AcDbLine
 62
7
  6
CONTINUOUS
 10
204.8921632363
 20
174.0083603448
 11
248.4423389086
 21
170.5808871869
  0
LINE
  5
740
100
AcDbEntity
  8
30252542_HP_HL
100
AcDbLine
 62
6
  6
HIDDEN
 10
202.3638798129
 20
152.1083813711
 11
202.3638798129
 21
161.9083393186
  0
LINE
  5
741
100
AcDbEntity
  8
30338729_CL
100
AcDbLine
 62
7
  6
CONTINUOUS
 10
204.8921632363
 20
174.0083603448
 11
204.8921632363
 21
140.0083603448
  0
LINE
  5
742
100
AcDbEntity
  8
30338729_CL
100
AcDbLine
 62
7
  6
CONTINUOUS
 10
166.3638798129
 20
180.0083603448
 11
173.9339388534
 21
180.0083603448
  0
LINE
  5
743
100
AcDbEntity
  8
30338729_CL
100
AcDbLine
 62
7
  6
CONTINUOUS
 10
181.9938207724
 20
180.0083603448
 11
186.3638798129
 21
180.0083603448
  0
LINE
  5
744
100
AcDbEntity
  8
30338729_HL
100
AcDbLine
 62
6
  6
HIDDEN
 10
213.3638798129
 20
164.1583603448
 11
213.3638798129
 21
149.8583603448
  0
LINE
  5
745
100
AcDbEntity
  8
30338729_HL
100
AcDbLine
 62
6
  6
HIDDEN
 10
247.3638798129
 20
164.0083603448
 11
247.3638798129
 21
150.0083603448
  0
LINE
  5
746
100
AcDbEntity
  8
30338729_CL
100
AcDbLine
 62
9
  6
CONTINUOUS
 10
248.4423389086
 20
170.5808871869
 11
248.4423389086
 21
143.4358335027
  0
LINE
  5
747
100
AcDbEntity
  8
30338729_CL
100
AcDbLine
 62
9
  6
CONTINUOUS
 10
248.4510355557
 20
164.1034741478
 11
248.4510355557
 21
149.9132465418
  0
LINE
  5
748
100
AcDbEntity
  8
30338729_CL
100
AcDbLine
 62
7
  6
CONTINUOUS
 10
249.3638798129
 20
169.5839698532
 11
249.3638798129
 21
144.4327508365
  0
ARC
  5
749
100
AcDbEntity
  8
30338729_HL
100
AcDbCircle
 62
6
  6
HIDDEN
 10
93.6349395465
 20
156.2742676712
 40
73.0470596972
100
AcDbArc
 50
4.708541155
 51
5.3492032199
  0
ARC
  5
74A
100
AcDbEntity
  8
30338729_CL
100
AcDbCircle
 62
7
  6
CONTINUOUS
 10
96.8441452652
 20
156.5513384099
 40
69.8260038427
100
AcDbArc
 50
3.3581409157
 51
5.3683353123
  0
ARC
  5
74B
100
AcDbEntity
  8
30338729_HL
100
AcDbCircle
 62
6
  6
HIDDEN
 10
99.7072217149
 20
156.7424442733
 40
66.9566531645
100
AcDbArc
 50
3.3384020645
 51
4.0374253305
  0
ARC
  5
74C
100
AcDbEntity
  8
30338729_HL
100
AcDbCircle
 62
6
  6
HIDDEN
 10
155.5739208536
 20
153.885100018
 40
10.9899589633
100
AcDbArc
 50
359.6874398979
 51
0.001552085
  0
ARC
  5
74D
100
AcDbEntity
  8
30338729_HL
100
AcDbCircle
 62
6
  6
HIDDEN
 10
159.5030060162
 20
153.7857599058
 40
7.0591944096
100
AcDbArc
 50
356.6656557961
 51
357.0973775504
  0
ARC
  5
74E
100
AcDbEntity
  8
30338729_HL
100
AcDbCircle
 62
6
  6
HIDDEN
 10
116.7638798129
 20
149.7583603448
 40
0.8
100
AcDbArc
 50
120.0
 51
180.0
  0
ARC
  5
74F
100
AcDbEntity
  8
30338729_CL
100
AcDbCircle
 62
7
  6
CONTINUOUS
 10
116.4638798129
 20
148.6241300363
 40
0.5
100
AcDbArc
 50
180.0
 51
261.70278
  0
ARC
  5
750
100
AcDbEntity
  8
30338729_HL
100
AcDbCircle
 62
6
  6
HIDDEN
 10
166.1638798129
 20
140.4118879629
 40
0.4
100
AcDbArc
 50
345.0
 51
360.0
  0
ARC
  5
751
100
AcDbEntity
  8
30338729_HL
100
AcDbCircle
 62
6
  6
HIDDEN
 10
166.1638798129
 20
140.9333603448
 40
0.4
100
AcDbArc
 50
0.0
 51
60.0
  0
ARC
  5
752
100
AcDbEntity
  8
30338729_CL
100
AcDbCircle
 62
7
  6
CONTINUOUS
 10
166.1638798129
 20
140.9333603448
 40
0.4
100
AcDbArc
 50
60.0
 51
90.0
  0
ARC
  5
753
100
AcDbEntity
  8
30338729_CL
100
AcDbCircle
 62
7
  6
CONTINUOUS
 10
165.1629509735
 20
140.9333603448
 40
0.4
100
AcDbArc
 50
90.0
 51
105.0
  0
ARC
  5
754
100
AcDbEntity
  8
30338729_HL
100
AcDbCircle
 62
6
  6
HIDDEN
 10
93.6349522325
 20
157.7424518988
 40
73.047046962
100
AcDbArc
 50
354.6507967268
 51
355.291458997
  0
ARC
  5
755
100
AcDbEntity
  8
30338729_CL
100
AcDbCircle
 62
7
  6
CONTINUOUS
 10
96.8441452652
 20
157.4653822797
 40
69.8260038427
100
AcDbArc
 50
354.6316646877
 51
356.6418590843
  0
ARC
  5
756
100
AcDbEntity
  8
30338729_HL
100
AcDbCircle
 62
6
  6
HIDDEN
 10
99.7072057805
 20
157.2742774483
 40
66.9566691319
100
AcDbArc
 50
355.9625749308
 51
356.661597848
  0
ARC
  5
757
100
AcDbEntity
  8
30338729_HL
100
AcDbCircle
 62
6
  6
HIDDEN
 10
116.7638798129
 20
164.2583603448
 40
0.8
100
AcDbArc
 50
180.0
 51
240.0
  0
ARC
  5
758
100
AcDbEntity
  8
30338729_CL
100
AcDbCircle
 62
7
  6
CONTINUOUS
 10
116.4638798129
 20
165.3925906533
 40
0.5
100
AcDbArc
 50
98.29722
 51
180.0
  0
ARC
  5
759
100
AcDbEntity
  8
30338729_HL
100
AcDbCircle
 62
6
  6
HIDDEN
 10
166.1638798129
 20
173.6048327268
 40
0.4
100
AcDbArc
 50
0.0
 51
15.0
  0
ARC
  5
75A
100
AcDbEntity
  8
30338729_HL
100
AcDbCircle
 62
6
  6
HIDDEN
 10
166.1638798129
 20
173.0833603448
 40
0.4
100
AcDbArc
 50
300.0
 51
360.0
  0
ARC
  5
75B
100
AcDbEntity
  8
30338729_CL
100
AcDbCircle
 62
7
  6
CONTINUOUS
 10
166.1638798129
 20
173.0833603448
 40
0.4
100
AcDbArc
 50
270.0
 51
300.0
  0
ARC
  5
75C
100
AcDbEntity
  8
30338729_CL
100
AcDbCircle
 62
7
  6
CONTINUOUS
 10
165.1629509735
 20
173.0833603448
 40
0.4
100
AcDbArc
 50
255.0
 51
270.0
  0
ARC
  5
75D
100
AcDbEntity
  8
30338729_HL
100
AcDbCircle
 62
6
  6
HIDDEN
 10
192.4542434235
 20
122.7029199359
 40
17.6465969383
100
AcDbArc
 50
97.3470066811
 51
98.441012382
  0
ARC
  5
75E
100
AcDbEntity
  8
30338729_HL
100
AcDbCircle
 62
6
  6
HIDDEN
 10
192.374080349
 20
123.391590637
 40
16.9533313595
100
AcDbArc
 50
90.4536707052
 51
97.3759400612
  0
ARC
  5
75F
100
AcDbEntity
  8
30338729_HL
100
AcDbCircle
 62
6
  6
HIDDEN
 10
192.3639156338
 20
123.6761692656
 40
16.6686830453
100
AcDbArc
 50
90.0001231283
 51
90.4264775912
  0
ARC
  5
760
100
AcDbEntity
  8
30338729_HL
100
AcDbCircle
 62
6
  6
HIDDEN
 10
192.363863304
 20
123.6905364522
 40
16.6543158586
100
AcDbArc
 50
89.7864243983
 51
89.9999432046
  0
ARC
  5
761
100
AcDbEntity
  8
30338729_CL
100
AcDbCircle
 62
7
  6
CONTINUOUS
 10
187.3638798129
 20
139.0083603448
 40
1.0
100
AcDbArc
 50
90.0
 51
180.0
  0
ARC
  5
762
100
AcDbEntity
  8
30338729_CL
100
AcDbCircle
 62
7
  6
CONTINUOUS
 10
178.9638798129
 20
137.5421030209
 40
1.0
100
AcDbArc
 50
0.0
 51
90.0
  0
ARC
  5
763
100
AcDbEntity
  8
30338729_CL
100
AcDbCircle
 62
7
  6
CONTINUOUS
 10
176.9638798129
 20
137.5421030209
 40
1.0
100
AcDbArc
 50
90.0
 51
180.0
  0
ARC
  5
764
100
AcDbEntity
  8
30338729_CL
100
AcDbCircle
 62
7
  6
CONTINUOUS
 10
175.3138798129
 20
157.0083603448
 40
8.05
100
AcDbArc
 50
85.9939422965
 51
90.0
  0
ARC
  5
765
100
AcDbEntity
  8
30338729_CL
100
AcDbCircle
 62
7
  6
CONTINUOUS
 10
175.3138798129
 20
157.0083603448
 40
8.05
100
AcDbArc
 50
270.0
 51
274.0060577035
  0
ARC
  5
766
100
AcDbEntity
  8
30338729_CL
100
AcDbCircle
 62
7
  6
CONTINUOUS
 10
175.3138798129
 20
157.0083603448
 40
8.05
100
AcDbArc
 50
304.6329749284
 51
55.3670250716
  0
ARC
  5
767
100
AcDbEntity
  8
30338729_CL
100
AcDbCircle
 62
9
  6
CONTINUOUS
 10
175.3138798129
 20
157.0083603448
 40
6.45
100
AcDbArc
 50
270.0
 51
90.0
  0
ARC
  5
768
100
AcDbEntity
  8
30252542_HP_HL
100
AcDbCircle
 62
6
  6
HIDDEN
 10
197.8700975956
 20
152.3583603448
 40
0.8
100
AcDbArc
 50
90.0
 51
120.0
  0
ARC
  5
769
100
AcDbEntity
  8
30252542_HP_HL
100
AcDbCircle
 62
6
  6
HIDDEN
 10
200.0638798129
 20
152.3583603448
 40
0.8
100
AcDbArc
 50
0.0
 51
90.0
  0
ARC
  5
76A
100
AcDbEntity
  8
30338729_HL
100
AcDbCircle
 62
6
  6
HIDDEN
 10
192.3638798129
 20
157.0083603448
 40
3.0
100
AcDbArc
 50
194.9197471001
 51
195.0
  0
ARC
  5
76B
100
AcDbEntity
  8
30338729_HL
100
AcDbCircle
 62
6
  6
HIDDEN
 10
192.3638798129
 20
157.0083603448
 40
3.0
100
AcDbArc
 50
255.0
 51
255.0838982979
  0
ARC
  5
76C
100
AcDbEntity
  8
30338729_CL
100
AcDbCircle
 62
3
  6
CONTINUOUS
 10
192.363870266
 20
157.0082533862
 40
2.9998928838
100
AcDbArc
 50
255.0838982979
 51
194.9197471001
  0
CIRCLE
  5
76D
100
AcDbEntity
  8
30338729_CL
100
AcDbCircle
 62
7
  6
CONTINUOUS
 10
192.3638798129
 20
157.0083603448
 40
2.5
  0
ARC
  5
76E
100
AcDbEntity
  8
30338729_HL
100
AcDbCircle
 62
6
  6
HIDDEN
 10
248.3638798129
 20
148.9170518438
 40
1.0
100
AcDbArc
 50
0.0
 51
85.0
  0
ARC
  5
76F
100
AcDbEntity
  8
30338729_CL
100
AcDbCircle
 62
7
  6
CONTINUOUS
 10
248.3638798129
 20
144.4327508365
 40
1.0
100
AcDbArc
 50
274.5
 51
360.0
  0
ARC
  5
770
100
AcDbEntity
  8
30338729_HL
100
AcDbCircle
 62
6
  6
HIDDEN
 10
192.268512016
 20
191.3489879594
 40
17.6821375504
100
AcDbArc
 50
277.6216966635
 51
278.4403150958
  0
ARC
  5
771
100
AcDbEntity
  8
30338729_HL
100
AcDbCircle
 62
6
  6
HIDDEN
 10
192.3522437166
 20
190.6511533802
 40
16.9793652825
100
AcDbArc
 50
270.457819436
 51
277.6539665504
  0
ARC
  5
772
100
AcDbEntity
  8
30338729_HL
100
AcDbCircle
 62
6
  6
HIDDEN
 10
192.3638439919
 20
190.34055142
 40
16.6686830412
100
AcDbArc
 50
270.0001231285
 51
270.4264775763
  0
ARC
  5
773
100
AcDbEntity
  8
30338729_HL
100
AcDbCircle
 62
6
  6
HIDDEN
 10
192.3638963218
 20
190.3261842133
 40
16.6543158344
100
AcDbArc
 50
269.7864244144
 51
269.9999432044
  0
ARC
  5
774
100
AcDbEntity
  8
30338729_HL
100
AcDbCircle
 62
6
  6
HIDDEN
 10
248.3638798129
 20
165.0996688459
 40
1.0
100
AcDbArc
 50
275.0
 51
360.0
  0
ARC
  5
775
100
AcDbEntity
  8
30338729_CL
100
AcDbCircle
 62
7
  6
CONTINUOUS
 10
187.3638798129
 20
175.0083603448
 40
1.0
100
AcDbArc
 50
180.0
 51
270.0
  0
ARC
  5
776
100
AcDbEntity
  8
30338729_CL
100
AcDbCircle
 62
7
  6
CONTINUOUS
 10
248.3638798129
 20
169.5839698532
 40
1.0
100
AcDbArc
 50
0.0
 51
85.5
  0
ARC
  5
777
100
AcDbEntity
  8
30338729_CL
100
AcDbCircle
 62
7
  6
CONTINUOUS
 10
176.9638798129
 20
176.4746176688
 40
1.0
100
AcDbArc
 50
180.0
 51
270.0
  0
ARC
  5
778
100
AcDbEntity
  8
30338729_CL
100
AcDbCircle
 62
7
  6
CONTINUOUS
 10
178.9638798129
 20
176.4746176688
 40
1.0
100
AcDbArc
 50
270.0
 51
360.0
  0
ARC
  5
779
100
AcDbEntity
  8
30252542_HP_HL
100
AcDbCircle
 62
6
  6
HIDDEN
 10
197.8700975956
 20
161.6583603448
 40
0.8
100
AcDbArc
 50
240.0
 51
270.0
  0
ARC
  5
77A
100
AcDbEntity
  8
30252542_HP_HL
100
AcDbCircle
 62
6
  6
HIDDEN
 10
200.0638798129
 20
161.6583603448
 40
0.8
100
AcDbArc
 50
270.0
 51
360.0
  0
SPLINE
  5
77B
100
AcDbEntity
  8
30252542_HP_HL
100
AcDbSpline
 62
6
  6
HIDDEN
 70
0
 71
3
 72
15
 73
11
 74
0
 42
0.0000001
 43
0.0000001
 44
0.0000000001
 40
0.0
 40
0.0
 40
0.0
 40
0.0
 40
0.126812495
 40
0.2523288371
 40
0.3765810707
 40
0.5000000582
 40
0.6234190356
 40
0.7476712706
 40
0.8731875969
 40
1.0
 40
1.0
 40
1.0
 40
1.0
 10
202.2406311589
 20
154.5083603448
 30
0.0
 10
202.1847091073
 20
154.6052201794
 30
0.0
 10
202.0805741015
 20
154.8022592672
 30
0.0
 10
201.9555833758
 20
155.1107586964
 30
0.0
 10
201.8732628714
 20
155.4307041246
 30
0.0
 10
201.8442208712
 20
155.7583604919
 30
0.0
 10
201.8732629453
 20
156.0860168508
 30
0.0
 10
201.9555834541
 20
156.4059622535
 30
0.0
 10
202.080574162
 20
156.7144615905
 30
0.0
 10
202.1847091478
 20
156.9115005804
 30
0.0
 10
202.2406311589
 20
157.0083603448
 30
0.0
  0
SPLINE
  5
77C
100
AcDbEntity
  8
30252542_HP_HL
100
AcDbSpline
 62
6
  6
HIDDEN
 70
0
 71
3
 72
15
 73
11
 74
0
 42
0.0000001
 43
0.0000001
 44
0.0000000001
 40
0.0
 40
0.0
 40
0.0
 40
0.0
 40
0.1268123969
 40
0.2523287379
 40
0.3765809926
 40
0.4999999925
 40
0.6234189813
 40
0.7476712065
 40
0.8731875237
 40
1.0
 40
1.0
 40
1.0
 40
1.0
 10
202.2406311589
 20
157.0083603448
 30
0.0
 10
202.1847091505
 20
157.1052201045
 30
0.0
 10
202.0805741579
 20
157.3022590993
 30
0.0
 10
201.9555834448
 20
157.6107584614
 30
0.0
 10
201.8732629293
 20
157.9307039143
 30
0.0
 10
201.8442208666
 20
158.2583603144
 30
0.0
 10
201.8732629038
 20
158.5860166913
 30
0.0
 10
201.9555834045
 20
158.9059620904
 30
0.0
 10
202.080574127
 20
159.2144614717
 30
0.0
 10
202.1847091156
 20
159.4115005246
 30
0.0
 10
202.2406311589
 20
159.5083603448
 30
0.0
  0
SPLINE
  5
77D
100
AcDbEntity
  8
30252542_HP_HL
100
AcDbSpline
 62
6
  6
HIDDEN
 70
0
 71
3
 72
15
 73
11
 74
0
 42
0.0000001
 43
0.0000001
 44
0.0000000001
 40
0.0
 40
0.0
 40
0.0
 40
0.0
 40
0.126812495
 40
0.2523288371
 40
0.3765810707
 40
0.5000000582
 40
0.6234190356
 40
0.7476712706
 40
0.8731875969
 40
1.0
 40
1.0
 40
1.0
 40
1.0
 10
188.987128467
 20
154.5083603448
 30
0.0
 10
189.0430505185
 20
154.6052201794
 30
0.0
 10
189.1471855243
 20
154.8022592672
 30
0.0
 10
189.27217625
 20
155.1107586964
 30
0.0
 10
189.3544967544
 20
155.4307041246
 30
0.0
 10
189.3835387547
 20
155.7583604919
 30
0.0
 10
189.3544966805
 20
156.0860168508
 30
0.0
 10
189.2721761717
 20
156.4059622535
 30
0.0
 10
189.1471854638
 20
156.7144615905
 30
0.0
 10
189.043050478
 20
156.9115005804
 30
0.0
 10
188.987128467
 20
157.0083603448
 30
0.0
  0
SPLINE
  5
77E
100
AcDbEntity
  8
30252542_HP_HL
100
AcDbSpline
 62
6
  6
HIDDEN
 70
0
 71
3
 72
15
 73
11
 74
0
 42
0.0000001
 43
0.0000001
 44
0.0000000001
 40
0.0
 40
0.0
 40
0.0
 40
0.0
 40
0.1268123969
 40
0.2523287379
 40
0.3765809926
 40
0.4999999925
 40
0.6234189813
 40
0.7476712065
 40
0.8731875237
 40
1.0
 40
1.0
 40
1.0
 40
1.0
 10
188.987128467
 20
157.0083603448
 30
0.0
 10
189.0430504753
 20
157.1052201045
 30
0.0
 10
189.1471854679
 20
157.3022590993
 30
0.0
 10
189.272176181
 20
157.6107584614
 30
0.0
 10
189.3544966965
 20
157.9307039143
 30
0.0
 10
189.3835387592
 20
158.2583603144
 30
0.0
 10
189.354496722
 20
158.5860166913
 30
0.0
 10
189.2721762214
 20
158.9059620904
 30
0.0
 10
189.1471854988
 20
159.2144614717
 30
0.0
 10
189.0430505103
 20
159.4115005246
 30
0.0
 10
188.987128467
 20
159.5083603448
 30
0.0
  0
SPLINE
  5
77F
100
AcDbEntity
  8
30338729_HL
100
AcDbSpline
 62
6
  6
HIDDEN
 70
0
 71
3
 72
29
 73
25
 74
0
 42
0.0000001
 43
0.0000001
 44
0.0000000001
 40
0.0
 40
0.0
 40
0.0
 40
0.0
 40
0.0454545327
 40
0.0909090654
 40
0.1363635981
 40
0.1818181307
 40
0.2272726634
 40
0.2727271961
 40
0.3181817288
 40
0.3636362615
 40
0.4090907942
 40
0.4545453269
 40
0.4999998595
 40
0.5454543922
 40
0.5909089249
 40
0.6363634576
 40
0.6818179903
 40
0.727272523
 40
0.7727270556
 40
0.8181815883
 40
0.863636121
 40
0.9090906537
 40
0.9545451864
 40
1.0
 40
1.0
 40
1.0
 40
1.0
 10
192.3638798129
 20
140.4275732706
 30
0.0
 10
192.4347660944
 20
140.4275692996
 30
0.0
 10
192.5765896514
 20
140.4266645914
 30
0.0
 10
192.7884468951
 20
140.422584833
 30
0.0
 10
192.9982374734
 20
140.415879573
 30
0.0
 10
193.2053227363
 20
140.4066576082
 30
0.0
 10
193.4082631411
 20
140.3951171684
 30
0.0
 10
193.6065727882
 20
140.3814502195
 30
0.0
 10
193.7985975547
 20
140.3659711851
 30
0.0
 10
193.9839404109
 20
140.34894123
 30
0.0
 10
194.16087564
 20
140.3307744881
 30
0.0
 10
194.3290732486
 20
140.3117816783
 30
0.0
 10
194.4868731726
 20
140.292440668
 30
0.0
 10
194.634027016
 20
140.2730818077
 30
0.0
 10
194.7690774868
 20
140.2541951489
 30
0.0
 10
194.8918734138
 20
140.2360956867
 30
0.0
 10
195.0012570551
 20
140.219231696
 30
0.0
 10
195.0971628924
 20
140.2038732814
 30
0.0
 10
195.1787734965
 20
140.1903836175
 30
0.0
 10
195.2460687893
 20
140.1789705182
 30
0.0
 10
195.298557441
 20
140.1698868938
 30
0.0
 10
195.3362232151
 20
140.1632707558
 30
0.0
 10
195.3588419363
 20
140.1592583788
 30
0.0
 10
195.3638797598
 20
140.1583603542
 30
0.0
 10
195.3638798129
 20
140.1583603448
 30
0.0
  0
SPLINE
  5
780
100
AcDbEntity
  8
30338729_HL
100
AcDbSpline
 62
6
  6
HIDDEN
 70
0
 71
3
 72
29
 73
25
 74
0
 42
0.0000001
 43
0.0000001
 44
0.0000000001
 40
0.0
 40
0.0
 40
0.0
 40
0.0
 40
0.0454542773
 40
0.0909088355
 40
0.1363633937
 40
0.181817952
 40
0.2272725102
 40
0.2727270684
 40
0.3181816266
 40
0.3636361849
 40
0.4090907431
 40
0.4545453013
 40
0.4999998595
 40
0.5454544178
 40
0.590908976
 40
0.6363635342
 40
0.6818180924
 40
0.7272726507
 40
0.7727272089
 40
0.8181817671
 40
0.8636363253
 40
0.9090908836
 40
0.9545454418
 40
1.0
 40
1.0
 40
1.0
 40
1.0
 10
189.3638798129
 20
140.1583603448
 30
0.0
 10
189.3638797598
 20
140.1583603354
 30
0.0
 10
189.3689172775
 20
140.1592583057
 30
0.0
 10
189.3915362904
 20
140.1632707341
 30
0.0
 10
189.4292009154
 20
140.1698866728
 30
0.0
 10
189.4816904339
 20
140.1789704487
 30
0.0
 10
189.5489844193
 20
140.1903833311
 30
0.0
 10
189.6305958822
 20
140.2038731428
 30
0.0
 10
189.72650068
 20
140.2192313982
 30
0.0
 10
189.8358847996
 20
140.2360954744
 30
0.0
 10
189.9586802576
 20
140.2541948772
 30
0.0
 10
190.0937305918
 20
140.2730815352
 30
0.0
 10
190.2408847173
 20
140.2924404455
 30
0.0
 10
190.3986837912
 20
140.3117813757
 30
0.0
 10
190.5668824937
 20
140.3307743252
 30
0.0
 10
190.7438162018
 20
140.3489409388
 30
0.0
 10
190.9291608913
 20
140.365971082
 30
0.0
 10
191.1211836957
 20
140.3814499861
 30
0.0
 10
191.3194956772
 20
140.395117118
 30
0.0
 10
191.5224340601
 20
140.4066574649
 30
0.0
 10
191.7295216762
 20
140.4158795582
 30
0.0
 10
191.9393109516
 20
140.4225847866
 30
0.0
 10
192.1511699205
 20
140.4266645963
 30
0.0
 10
192.2929935258
 20
140.4275693022
 30
0.0
 10
192.3638798129
 20
140.4275732706
 30
0.0
  0
LINE
  5
781
100
AcDbEntity
  8
30338729_HL
100
AcDbLine
 62
6
  6
HIDDEN
 10
166.4354771826
 20
162.2704873384
 11
166.4475700447
 21
162.1216731615
  0
LINE
  5
782
100
AcDbEntity
  8
30338729_HL
100
AcDbLine
 62
6
  6
HIDDEN
 10
166.4475700447
 20
162.1216731615
 11
166.45727392
 21
161.9993447549
  0
LINE
  5
783
100
AcDbEntity
  8
30338729_HL
100
AcDbLine
 62
6
  6
HIDDEN
 10
166.45727392
 20
161.9993447549
 11
166.4679992976
 21
161.8608672673
  0
LINE
  5
784
100
AcDbEntity
  8
30338729_HL
100
AcDbLine
 62
6
  6
HIDDEN
 10
166.4679992976
 20
161.8608672673
 11
166.4780253923
 21
161.7280528478
  0
LINE
  5
785
100
AcDbEntity
  8
30338729_HL
100
AcDbLine
 62
6
  6
HIDDEN
 10
166.4780253923
 20
161.7280528478
 11
166.4878106872
 21
161.5950157797
  0
LINE
  5
786
100
AcDbEntity
  8
30338729_HL
100
AcDbLine
 62
6
  6
HIDDEN
 10
166.4878106872
 20
161.5950157797
 11
166.4977067356
 21
161.4567325214
  0
LINE
  5
787
100
AcDbEntity
  8
30338729_HL
100
AcDbLine
 62
6
  6
HIDDEN
 10
166.4977067505
 20
152.5599883806
 11
166.4878101236
 21
152.4216971418
  0
LINE
  5
788
100
AcDbEntity
  8
30338729_HL
100
AcDbLine
 62
6
  6
HIDDEN
 10
166.4878101236
 20
152.4216971418
 11
166.4780254046
 21
152.2886680045
  0
LINE
  5
789
100
AcDbEntity
  8
30338729_HL
100
AcDbLine
 62
6
  6
HIDDEN
 10
166.4780254046
 20
152.2886680045
 11
166.4679984812
 21
152.1558427433
  0
LINE
  5
78A
100
AcDbEntity
  8
30338729_HL
100
AcDbLine
 62
6
  6
HIDDEN
 10
166.4679984812
 20
152.1558427433
 11
166.4572739395
 21
152.0173761846
  0
LINE
  5
78B
100
AcDbEntity
  8
30338729_HL
100
AcDbLine
 62
6
  6
HIDDEN
 10
166.4572739395
 20
152.0173761846
 11
166.4475693871
 21
151.8950393307
  0
LINE
  5
78C
100
AcDbEntity
  8
30338729_HL
100
AcDbLine
 62
6
  6
HIDDEN
 10
166.4475693871
 20
151.8950393307
 11
166.4354771924
 21
151.7462334702
  0
SPLINE
  5
78D
100
AcDbEntity
  8
30338729_HL
100
AcDbSpline
 62
6
  6
HIDDEN
 70
0
 71
3
 72
29
 73
25
 74
0
 42
0.0000001
 43
0.0000001
 44
0.0000000001
 40
0.0
 40
0.0
 40
0.0
 40
0.0
 40
0.0454545455
 40
0.0909090909
 40
0.1363636364
 40
0.1818181818
 40
0.2272727273
 40
0.2727272727
 40
0.3181818182
 40
0.3636363636
 40
0.4090909091
 40
0.4545454545
 40
0.5
 40
0.5454545455
 40
0.5909090909
 40
0.6363636364
 40
0.6818181818
 40
0.7272727273
 40
0.7727272727
 40
0.8181818182
 40
0.8636363636
 40
0.9090909091
 40
0.9545454545
 40
1.0
 40
1.0
 40
1.0
 40
1.0
 10
195.3638798129
 20
173.8583603448
 30
0.0
 10
195.3638798971
 20
173.8583603598
 30
0.0
 10
195.358842395
 20
173.8574623922
 30
0.0
 10
195.3362233354
 20
173.8534499556
 30
0.0
 10
195.2985587104
 20
173.8468340169
 30
0.0
 10
195.2460691919
 20
173.8377502409
 30
0.0
 10
195.1787752065
 20
173.8263373585
 30
0.0
 10
195.0971637436
 20
173.8128475468
 30
0.0
 10
195.0012589458
 20
173.7974892915
 30
0.0
 10
194.8918748262
 20
173.7806252153
 30
0.0
 10
194.7690793683
 20
173.7625258124
 30
0.0
 10
194.634029034
 20
173.7436391545
 30
0.0
 10
194.4868749085
 20
173.7242802442
 30
0.0
 10
194.3290758346
 20
173.704939314
 30
0.0
 10
194.1608771321
 20
173.6859463645
 30
0.0
 10
193.9839434241
 20
173.6677797509
 30
0.0
 10
193.7985987345
 20
173.6507496076
 30
0.0
 10
193.6065759302
 20
173.6352707036
 30
0.0
 10
193.4082639486
 20
173.6216035716
 30
0.0
 10
193.2053255657
 20
173.6100632247
 30
0.0
 10
192.9982379496
 20
173.6008411315
 30
0.0
 10
192.7884486742
 20
173.5941359031
 30
0.0
 10
192.5765897054
 20
173.5900560933
 30
0.0
 10
192.4347661
 20
173.5891513875
 30
0.0
 10
192.3638798129
 20
173.589147419
 30
0.0
  0
SPLINE
  5
78E
100
AcDbEntity
  8
30338729_HL
100
AcDbSpline
 62
6
  6
HIDDEN
 70
0
 71
3
 72
29
 73
25
 74
0
 42
0.0000001
 43
0.0000001
 44
0.0000000001
 40
0.0
 40
0.0
 40
0.0
 40
0.0
 40
0.0454545455
 40
0.0909090909
 40
0.1363636364
 40
0.1818181818
 40
0.2272727273
 40
0.2727272727
 40
0.3181818182
 40
0.3636363636
 40
0.4090909091
 40
0.4545454545
 40
0.5
 40
0.5454545455
 40
0.5909090909
 40
0.6363636364
 40
0.6818181818
 40
0.7272727273
 40
0.7727272727
 40
0.8181818182
 40
0.8636363636
 40
0.9090909091
 40
0.9545454545
 40
1.0
 40
1.0
 40
1.0
 40
1.0
 10
192.3638798129
 20
173.589147419
 30
0.0
 10
192.2929935314
 20
173.5891513901
 30
0.0
 10
192.1511699745
 20
173.5900560982
 30
0.0
 10
191.9393127308
 20
173.5941358566
 30
0.0
 10
191.7295221525
 20
173.6008411167
 30
0.0
 10
191.5224368895
 20
173.6100630815
 30
0.0
 10
191.3194964847
 20
173.6216035213
 30
0.0
 10
191.1211868376
 20
173.6352704702
 30
0.0
 10
190.9291620711
 20
173.6507495046
 30
0.0
 10
190.743819215
 20
173.6677794597
 30
0.0
 10
190.5668839858
 20
173.6859462016
 30
0.0
 10
190.3986863772
 20
173.7049390113
 30
0.0
 10
190.2408864533
 20
173.7242800216
 30
0.0
 10
190.0937326099
 20
173.743638882
 30
0.0
 10
189.958682139
 20
173.7625255407
 30
0.0
 10
189.835886212
 20
173.7806250029
 30
0.0
 10
189.7265025707
 20
173.7974889936
 30
0.0
 10
189.6305967334
 20
173.8128474082
 30
0.0
 10
189.5489861293
 20
173.8263370722
 30
0.0
 10
189.4816908365
 20
173.8377501714
 30
0.0
 10
189.4292021848
 20
173.8468337959
 30
0.0
 10
189.3915364107
 20
173.8534499338
 30
0.0
 10
189.3689177361
 20
173.8574623026
 30
0.0
 10
189.3638798971
 20
173.8583603299
 30
0.0
 10
189.3638798129
 20
173.8583603448
 30
0.0
  0
LINE
  5
78F
100
AcDbEntity
  8
30338729_HL
100
AcDbLine
 62
6
  6
HIDDEN
 10
194.8638798129
 20
140.1583603448
 11
194.8630124426
 21
140.1584890859
  0
SPLINE
  5
790
100
AcDbEntity
  8
30338729_HL
100
AcDbSpline
 62
6
  6
HIDDEN
 70
0
 71
3
 72
10
 73
6
 74
0
 42
0.0000001
 43
0.0000001
 44
0.0000000001
 40
0.0
 40
0.0
 40
0.0
 40
0.0
 40
0.301950709
 40
0.6224151102
 40
1.0
 40
1.0
 40
1.0
 40
1.0
 10
194.8630124426
 20
140.1584890859
 30
0.0
 10
194.6194832398
 20
140.1946180418
 30
0.0
 10
194.1158711298
 20
140.2586433011
 30
0.0
 10
193.3030319927
 20
140.3256642746
 30
0.0
 10
192.7338042914
 20
140.3435893239
 30
0.0
 10
192.4259437456
 20
140.3447366052
 30
0.0
  0
LINE
  5
791
100
AcDbEntity
  8
30338729_HL
100
AcDbLine
 62
6
  6
HIDDEN
 10
189.8638798129
 20
173.8583603448
 11
189.8647084408
 21
173.8582373515
  0
SPLINE
  5
792
100
AcDbEntity
  8
30338729_HL
100
AcDbSpline
 62
6
  6
HIDDEN
 70
0
 71
3
 72
10
 73
6
 74
0
 42
0.0000001
 43
0.0000001
 44
0.0000000001
 40
0.0
 40
0.0
 40
0.0
 40
0.0
 40
0.3017461853
 40
0.6222814205
 40
1.0
 40
1.0
 40
1.0
 40
1.0
 10
189.8647084408
 20
173.8582373515
 30
0.0
 10
190.1080764115
 20
173.822131142
 30
0.0
 10
190.6115872381
 20
173.7581114969
 30
0.0
 10
191.4244377413
 20
173.6910681479
 30
0.0
 10
191.9938414132
 20
173.6731317902
 30
0.0
 10
192.301815885
 20
173.6719840844
 30
0.0
  0
SPLINE
  5
793
100
AcDbEntity
  8
30338729_HL
100
AcDbSpline
 62
6
  6
HIDDEN
 70
0
 71
3
 72
8
 73
4
 74
0
 42
0.0000001
 43
0.0000001
 44
0.0000000001
 40
0.0
 40
0.0
 40
0.0
 40
0.0
 40
1.0
 40
1.0
 40
1.0
 40
1.0
 10
166.5637162909
 20
153.8251478595
 30
0.0
 10
166.562990809
 20
153.6928175661
 30
0.0
 10
166.5598492113
 20
153.5604541043
 30
0.0
 10
166.5531437652
 20
153.4282918182
 30
0.0
  0
SPLINE
  5
794
100
AcDbEntity
  8
30338729_CL
100
AcDbSpline
 62
3
  6
CONTINUOUS
 70
0
 71
3
 72
29
 73
25
 74
0
 42
0.0000001
 43
0.0000001
 44
0.0000000001
 40
0.0
 40
0.0
 40
0.0
 40
0.0
 40
0.0454542773
 40
0.0909088355
 40
0.1363633937
 40
0.181817952
 40
0.2272725102
 40
0.2727270684
 40
0.3181816266
 40
0.3636361849
 40
0.4090907431
 40
0.4545453013
 40
0.4999998595
 40
0.5454544178
 40
0.590908976
 40
0.6363635342
 40
0.6818180924
 40
0.7272726507
 40
0.7727272089
 40
0.8181817671
 40
0.8636363253
 40
0.9090908836
 40
0.9545454418
 40
1.0
 40
1.0
 40
1.0
 40
1.0
 10
195.3638798129
 20
140.1583603448
 30
0.0
 10
195.363879866
 20
140.1583603354
 30
0.0
 10
195.3588423484
 20
140.1592583057
 30
0.0
 10
195.3362233354
 20
140.1632707341
 30
0.0
 10
195.2985587104
 20
140.1698866728
 30
0.0
 10
195.2460691919
 20
140.1789704487
 30
0.0
 10
195.1787752065
 20
140.1903833311
 30
0.0
 10
195.0971637436
 20
140.2038731428
 30
0.0
 10
195.0012589458
 20
140.2192313982
 30
0.0
 10
194.8918748262
 20
140.2360954744
 30
0.0
 10
194.7690793683
 20
140.2541948772
 30
0.0
 10
194.634029034
 20
140.2730815352
 30
0.0
 10
194.4868749085
 20
140.2924404455
 30
0.0
 10
194.3290758346
 20
140.3117813757
 30
0.0
 10
194.1608771321
 20
140.3307743252
 30
0.0
 10
193.9839434241
 20
140.3489409388
 30
0.0
 10
193.7985987345
 20
140.365971082
 30
0.0
 10
193.6065759302
 20
140.3814499861
 30
0.0
 10
193.4082639486
 20
140.395117118
 30
0.0
 10
193.2053255657
 20
140.4066574649
 30
0.0
 10
192.9982379496
 20
140.4158795582
 30
0.0
 10
192.7884486742
 20
140.4225847866
 30
0.0
 10
192.5765897054
 20
140.4266645963
 30
0.0
 10
192.4347661
 20
140.4275693022
 30
0.0
 10
192.3638798129
 20
140.4275732706
 30
0.0
  0
SPLINE
  5
795
100
AcDbEntity
  8
30338729_CL
100
AcDbSpline
 62
3
  6
CONTINUOUS
 70
0
 71
3
 72
29
 73
25
 74
0
 42
0.0000001
 43
0.0000001
 44
0.0000000001
 40
0.0
 40
0.0
 40
0.0
 40
0.0
 40
0.0454545327
 40
0.0909090654
 40
0.1363635981
 40
0.1818181307
 40
0.2272726634
 40
0.2727271961
 40
0.3181817288
 40
0.3636362615
 40
0.4090907942
 40
0.4545453269
 40
0.4999998595
 40
0.5454543922
 40
0.5909089249
 40
0.6363634576
 40
0.6818179903
 40
0.727272523
 40
0.7727270556
 40
0.8181815883
 40
0.863636121
 40
0.9090906537
 40
0.9545451864
 40
1.0
 40
1.0
 40
1.0
 40
1.0
 10
192.3638798129
 20
140.4275732706
 30
0.0
 10
192.2929935314
 20
140.4275692996
 30
0.0
 10
192.1511699745
 20
140.4266645914
 30
0.0
 10
191.9393127308
 20
140.422584833
 30
0.0
 10
191.7295221525
 20
140.415879573
 30
0.0
 10
191.5224368895
 20
140.4066576082
 30
0.0
 10
191.3194964847
 20
140.3951171684
 30
0.0
 10
191.1211868376
 20
140.3814502195
 30
0.0
 10
190.9291620711
 20
140.3659711851
 30
0.0
 10
190.743819215
 20
140.34894123
 30
0.0
 10
190.5668839858
 20
140.3307744881
 30
0.0
 10
190.3986863772
 20
140.3117816783
 30
0.0
 10
190.2408864533
 20
140.292440668
 30
0.0
 10
190.0937326099
 20
140.2730818077
 30
0.0
 10
189.958682139
 20
140.2541951489
 30
0.0
 10
189.835886212
 20
140.2360956867
 30
0.0
 10
189.7265025707
 20
140.219231696
 30
0.0
 10
189.6305967334
 20
140.2038732814
 30
0.0
 10
189.5489861293
 20
140.1903836175
 30
0.0
 10
189.4816908365
 20
140.1789705182
 30
0.0
 10
189.4292021848
 20
140.1698868938
 30
0.0
 10
189.3915364107
 20
140.1632707558
 30
0.0
 10
189.3689176895
 20
140.1592583788
 30
0.0
 10
189.363879866
 20
140.1583603542
 30
0.0
 10
189.3638798129
 20
140.1583603448
 30
0.0
  0
SPLINE
  5
796
100
AcDbEntity
  8
30338729_CL
100
AcDbSpline
 62
3
  6
CONTINUOUS
 70
0
 71
3
 72
29
 73
25
 74
0
 42
0.0000001
 43
0.0000001
 44
0.0000000001
 40
0.0
 40
0.0
 40
0.0
 40
0.0
 40
0.0454545455
 40
0.0909090909
 40
0.1363636364
 40
0.1818181818
 40
0.2272727273
 40
0.2727272727
 40
0.3181818182
 40
0.3636363636
 40
0.4090909091
 40
0.4545454545
 40
0.5
 40
0.5454545455
 40
0.5909090909
 40
0.6363636364
 40
0.6818181818
 40
0.7272727273
 40
0.7727272727
 40
0.8181818182
 40
0.8636363636
 40
0.9090909091
 40
0.9545454545
 40
1.0
 40
1.0
 40
1.0
 40
1.0
 10
192.3638798129
 20
173.589147419
 30
0.0
 10
192.4347660944
 20
173.5891513901
 30
0.0
 10
192.5765896514
 20
173.5900560982
 30
0.0
 10
192.7884468951
 20
173.5941358566
 30
0.0
 10
192.9982374734
 20
173.6008411167
 30
0.0
 10
193.2053227363
 20
173.6100630815
 30
0.0
 10
193.4082631411
 20
173.6216035213
 30
0.0
 10
193.6065727882
 20
173.6352704702
 30
0.0
 10
193.7985975547
 20
173.6507495046
 30
0.0
 10
193.9839404109
 20
173.6677794597
 30
0.0
 10
194.16087564
 20
173.6859462016
 30
0.0
 10
194.3290732486
 20
173.7049390113
 30
0.0
 10
194.4868731726
 20
173.7242800216
 30
0.0
 10
194.634027016
 20
173.743638882
 30
0.0
 10
194.7690774868
 20
173.7625255407
 30
0.0
 10
194.8918734138
 20
173.7806250029
 30
0.0
 10
195.0012570551
 20
173.7974889936
 30
0.0
 10
195.0971628924
 20
173.8128474082
 30
0.0
 10
195.1787734965
 20
173.8263370722
 30
0.0
 10
195.2460687893
 20
173.8377501714
 30
0.0
 10
195.298557441
 20
173.8468337959
 30
0.0
 10
195.3362232151
 20
173.8534499338
 30
0.0
 10
195.3588418897
 20
173.8574623026
 30
0.0
 10
195.3638797287
 20
173.8583603299
 30
0.0
 10
195.3638798129
 20
173.8583603448
 30
0.0
  0
SPLINE
  5
797
100
AcDbEntity
  8
30338729_CL
100
AcDbSpline
 62
3
  6
CONTINUOUS
 70
0
 71
3
 72
29
 73
25
 74
0
 42
0.0000001
 43
0.0000001
 44
0.0000000001
 40
0.0
 40
0.0
 40
0.0
 40
0.0
 40
0.0454545455
 40
0.0909090909
 40
0.1363636364
 40
0.1818181818
 40
0.2272727273
 40
0.2727272727
 40
0.3181818182
 40
0.3636363636
 40
0.4090909091
 40
0.4545454545
 40
0.5
 40
0.5454545455
 40
0.5909090909
 40
0.6363636364
 40
0.6818181818
 40
0.7272727273
 40
0.7727272727
 40
0.8181818182
 40
0.8636363636
 40
0.9090909091
 40
0.9545454545
 40
1.0
 40
1.0
 40
1.0
 40
1.0
 10
189.3638798129
 20
173.8583603448
 30
0.0
 10
189.3638797287
 20
173.8583603598
 30
0.0
 10
189.3689172309
 20
173.8574623922
 30
0.0
 10
189.3915362904
 20
173.8534499556
 30
0.0
 10
189.4292009154
 20
173.8468340169
 30
0.0
 10
189.4816904339
 20
173.8377502409
 30
0.0
 10
189.5489844193
 20
173.8263373585
 30
0.0
 10
189.6305958822
 20
173.8128475468
 30
0.0
 10
189.72650068
 20
173.7974892915
 30
0.0
 10
189.8358847996
 20
173.7806252153
 30
0.0
 10
189.9586802576
 20
173.7625258124
 30
0.0
 10
190.0937305918
 20
173.7436391545
 30
0.0
 10
190.2408847173
 20
173.7242802442
 30
0.0
 10
190.3986837912
 20
173.704939314
 30
0.0
 10
190.5668824937
 20
173.6859463645
 30
0.0
 10
190.7438162018
 20
173.6677797509
 30
0.0
 10
190.9291608913
 20
173.6507496076
 30
0.0
 10
191.1211836957
 20
173.6352707036
 30
0.0
 10
191.3194956772
 20
173.6216035716
 30
0.0
 10
191.5224340601
 20
173.6100632247
 30
0.0
 10
191.7295216762
 20
173.6008411315
 30
0.0
 10
191.9393109516
 20
173.5941359031
 30
0.0
 10
192.1511699205
 20
173.5900560933
 30
0.0
 10
192.2929935258
 20
173.5891513875
 30
0.0
 10
192.3638798129
 20
173.589147419
 30
0.0
  0
SPLINE
  5
798
100
AcDbEntity
  8
30338729_CL
100
AcDbSpline
 62
7
  6
CONTINUOUS
 70
0
 71
3
 72
8
 73
4
 74
0
 42
0.0000001
 43
0.0000001
 44
0.0000000001
 40
0.0
 40
0.0
 40
0.0
 40
0.0
 40
1.0
 40
1.0
 40
1.0
 40
1.0
 10
166.5502501434
 20
153.3751799199
 30
0.0
 10
166.5601510634
 20
153.5450248565
 30
0.0
 10
166.5638798129
 20
153.7152644515
 30
0.0
 10
166.5638798129
 20
153.8853977249
 30
0.0
  0
SPLINE
  5
799
100
AcDbEntity
  8
30338729_CL
100
AcDbSpline
 62
7
  6
CONTINUOUS
 70
0
 71
3
 72
10
 73
6
 74
0
 42
0.0000001
 43
0.0000001
 44
0.0000000001
 40
0.0
 40
0.0
 40
0.0
 40
0.0
 40
0.2941947562
 40
0.618208213
 40
1.0
 40
1.0
 40
1.0
 40
1.0
 10
189.8638798129
 20
140.1583603448
 30
0.0
 10
190.1072732596
 20
140.1944949641
 30
0.0
 10
190.6203152732
 20
140.2597314549
 30
0.0
 10
191.4541501113
 20
140.3278501491
 30
0.0
 10
192.0445796924
 20
140.3448523108
 30
0.0
 10
192.3638798129
 20
140.3448523108
 30
0.0
  0
SPLINE
  5
79A
100
AcDbEntity
  8
30338729_CL
100
AcDbSpline
 62
7
  6
CONTINUOUS
 70
0
 71
3
 72
10
 73
6
 74
0
 42
0.0000001
 43
0.0000001
 44
0.0000000001
 40
0.0
 40
0.0
 40
0.0
 40
0.0
 40
0.2941947563
 40
0.6182082132
 40
1.0
 40
1.0
 40
1.0
 40
1.0
 10
194.8638798129
 20
173.8583603448
 30
0.0
 10
194.6204863661
 20
173.8222257255
 30
0.0
 10
194.1074443524
 20
173.7569892348
 30
0.0
 10
193.2736095143
 20
173.6888705406
 30
0.0
 10
192.6831799333
 20
173.6718683788
 30
0.0
 10
192.3638798129
 20
173.6718683788
 30
0.0
  0
SPLINE
  5
79B
100
AcDbEntity
  8
30338729_CL
100
AcDbSpline
 62
7
  6
CONTINUOUS
 70
0
 71
3
 72
10
 73
6
 74
0
 42
0.0000001
 43
0.0000001
 44
0.0000000001
 40
0.0
 40
0.0
 40
0.0
 40
0.0
 40
0.3817917893
 40
0.705805246
 40
1.0
 40
1.0
 40
1.0
 40
1.0
 10
192.3638798129
 20
140.3448523108
 30
0.0
 10
192.6831799353
 20
140.3448523108
 30
0.0
 10
193.2736095183
 20
140.327850149
 30
0.0
 10
194.1074443564
 20
140.2597314544
 30
0.0
 10
194.620486368
 20
140.1944949638
 30
0.0
 10
194.8638798129
 20
140.1583603448
 30
0.0
  0
SPLINE
  5
79C
100
AcDbEntity
  8
30338729_CL
100
AcDbSpline
 62
7
  6
CONTINUOUS
 70
0
 71
3
 72
10
 73
6
 74
0
 42
0.0000001
 43
0.0000001
 44
0.0000000001
 40
0.0
 40
0.0
 40
0.0
 40
0.0
 40
0.3817917892
 40
0.7058052459
 40
1.0
 40
1.0
 40
1.0
 40
1.0
 10
192.3638798129
 20
173.6718683788
 30
0.0
 10
192.0445796906
 20
173.6718683788
 30
0.0
 10
191.4541501077
 20
173.6888705407
 30
0.0
 10
190.6203152696
 20
173.7569892352
 30
0.0
 10
190.1072732579
 20
173.8222257258
 30
0.0
 10
189.8638798129
 20
173.8583603448
 30
0.0
  0
SPLINE
  5
79D
100
AcDbEntity
  8
30338729_CL
100
AcDbSpline
 62
7
  6
CONTINUOUS
 70
0
 71
3
 72
8
 73
4
 74
0
 42
0.0000001
 43
0.0000001
 44
0.0000000001
 40
0.0
 40
0.0
 40
0.0
 40
0.0
 40
1.0
 40
1.0
 40
1.0
 40
1.0
 10
166.5638798129
 20
160.1313229647
 30
0.0
 10
166.5638798129
 20
160.3014562381
 30
0.0
 10
166.5601510634
 20
160.4716958331
 30
0.0
 10
166.5502501434
 20
160.6415407697
 30
0.0
  0
SPLINE
  5
79E
100
AcDbEntity
  8
30338729_CL
100
AcDbSpline
 62
7
  6
CONTINUOUS
 70
0
 71
3
 72
14
 73
10
 74
0
 42
0.0000001
 43
0.0000001
 44
0.0000000001
 40
0.0
 40
0.0
 40
0.0
 40
0.0
 40
0.0731923227
 40
0.1628517203
 40
0.2695972023
 40
0.3925051136
 40
0.529650245
 40
0.6785085495
 40
1.0
 40
1.0
 40
1.0
 40
1.0
 10
179.8888291458
 20
163.6319800955
 30
0.0
 10
179.8691615833
 20
163.645564526
 30
0.0
 10
179.8217401666
 20
163.6703850774
 30
0.0
 10
179.7392269223
 20
163.7012494641
 30
0.0
 10
179.6394127307
 20
163.7315899185
 30
0.0
 10
179.5239946035
 20
163.7636214444
 30
0.0
 10
179.3953835832
 20
163.7996014216
 30
0.0
 10
179.2054637287
 20
163.8569680079
 30
0.0
 10
179.0607650075
 20
163.909251166
 30
0.0
 10
178.9638798129
 20
163.9497050171
 30
0.0
  0
SPLINE
  5
79F
100
AcDbEntity
  8
30338729_CL
100
AcDbSpline
 62
7
  6
CONTINUOUS
 70
0
 71
3
 72
9
 73
5
 74
0
 42
0.0000001
 43
0.0000001
 44
0.0000000001
 40
0.0
 40
0.0
 40
0.0
 40
0.0
 40
0.2558791903
 40
1.0
 40
1.0
 40
1.0
 40
1.0
 10
175.9638798129
 20
165.0239651595
 30
0.0
 10
175.9565447142
 20
165.0258904139
 30
0.0
 10
175.9277235335
 20
165.0328011092
 30
0.0
 10
175.8982682528
 20
165.0371507959
 30
0.0
 10
175.8762684515
 20
165.0386915347
 30
0.0
  0
SPLINE
  5
7A0
100
AcDbEntity
  8
30338729_CL
100
AcDbSpline
 62
7
  6
CONTINUOUS
 70
0
 71
3
 72
20
 73
16
 74
0
 42
0.0000001
 43
0.0000001
 44
0.0000000001
 40
0.0
 40
0.0
 40
0.0
 40
0.0
 40
0.1732481091
 40
0.3439557331
 40
0.5074970603
 40
0.6585185987
 40
0.7273266392
 40
0.7904015631
 40
0.84673665
 40
0.8953476601
 40
0.9353700522
 40
0.966178154
 40
0.9875316237
 40
0.9947856027
 40
1.0
 40
1.0
 40
1.0
 40
1.0
 10
176.9638798129
 20
164.5075367642
 30
0.0
 10
176.8983042614
 20
164.5179946985
 30
0.0
 10
176.7691525041
 20
164.5459658823
 30
0.0
 10
176.5841930991
 20
164.607251441
 30
0.0
 10
176.4139761339
 20
164.6828964145
 30
0.0
 10
176.2853334034
 20
164.7543142647
 30
0.0
 10
176.1940772097
 20
164.812932231
 30
0.0
 10
176.1350409002
 20
164.8544325084
 30
0.0
 10
176.0839755629
 20
164.8937117928
 30
0.0
 10
176.04155723
 20
164.9296255155
 30
0.0
 10
176.0082331005
 20
164.9610892634
 30
0.0
 10
175.9843826813
 20
164.987143035
 30
0.0
 10
175.9706842395
 20
165.0055388136
 30
0.0
 10
175.9650398336
 20
165.0172259204
 30
0.0
 10
175.9638798129
 20
165.0219665344
 30
0.0
 10
175.9638798129
 20
165.0239651595
 30
0.0
  0
SPLINE
  5
7A1
100
AcDbEntity
  8
30338729_CL
100
AcDbSpline
 62
7
  6
CONTINUOUS
 70
0
 71
3
 72
14
 73
10
 74
0
 42
0.0000001
 43
0.0000001
 44
0.0000000001
 40
0.0
 40
0.0
 40
0.0
 40
0.0
 40
0.3214914555
 40
0.4703497659
 40
0.607494901
 40
0.7304028158
 40
0.8371483005
 40
0.9268077054
 40
1.0
 40
1.0
 40
1.0
 40
1.0
 10
178.9638798129
 20
150.0670156725
 30
0.0
 10
179.0607650058
 20
150.1074695229
 30
0.0
 10
179.2054637255
 20
150.1597526807
 30
0.0
 10
179.3953835783
 20
150.2171192667
 30
0.0
 10
179.5239945985
 20
150.2530992437
 30
0.0
 10
179.6394127249
 20
150.2851307699
 30
0.0
 10
179.7392269181
 20
150.3154712228
 30
0.0
 10
179.8217401525
 20
150.3463356096
 30
0.0
 10
179.8691615648
 20
150.371156151
 30
0.0
 10
179.8888291192
 20
150.3847405758
 30
0.0
  0
SPLINE
  5
7A2
100
AcDbEntity
  8
30338729_CL
100
AcDbSpline
 62
7
  6
CONTINUOUS
 70
0
 71
3
 72
9
 73
5
 74
0
 42
0.0000001
 43
0.0000001
 44
0.0000000001
 40
0.0
 40
0.0
 40
0.0
 40
0.0
 40
0.4987481037
 40
1.0
 40
1.0
 40
1.0
 40
1.0
 10
178.9638798129
 20
150.0670156725
 30
0.0
 10
178.6447826232
 20
149.9337784915
 30
0.0
 10
177.9865933706
 20
149.7092011688
 30
0.0
 10
177.3070752373
 20
149.5639164455
 30
0.0
 10
176.9638798129
 20
149.5091839254
 30
0.0
  0
SPLINE
  5
7A3
100
AcDbEntity
  8
30338729_CL
100
AcDbSpline
 62
7
  6
CONTINUOUS
 70
0
 71
3
 72
9
 73
5
 74
0
 42
0.0000001
 43
0.0000001
 44
0.0000000001
 40
0.0
 40
0.0
 40
0.0
 40
0.0
 40
0.2447591152
 40
1.0
 40
1.0
 40
1.0
 40
1.0
 10
175.8762684515
 20
148.9780291549
 30
0.0
 10
175.883504947
 20
148.9785359572
 30
0.0
 10
175.9130166089
 20
148.9813501416
 30
0.0
 10
175.9422291797
 20
148.987072856
 30
0.0
 10
175.9638798129
 20
148.9927555301
 30
0.0
  0
SPLINE
  5
7A4
100
AcDbEntity
  8
30338729_CL
100
AcDbSpline
 62
7
  6
CONTINUOUS
 70
0
 71
3
 72
20
 73
16
 74
0
 42
0.0000001
 43
0.0000001
 44
0.0000000001
 40
0.0
 40
0.0
 40
0.0
 40
0.0
 40
0.0052143971
 40
0.0124683758
 40
0.0338218444
 40
0.0646299445
 40
0.1046523343
 40
0.1532633416
 40
0.2095984254
 40
0.2726733455
 40
0.3414813825
 40
0.4925029171
 40
0.6560442497
 40
0.8267518778
 40
1.0
 40
1.0
 40
1.0
 40
1.0
 10
175.9638798129
 20
148.9927555301
 30
0.0
 10
175.9638798129
 20
148.9947541552
 30
0.0
 10
175.9650398335
 20
148.999494769
 30
0.0
 10
175.9706842392
 20
149.0111818753
 30
0.0
 10
175.98438268
 20
149.029577653
 30
0.0
 10
176.0082330978
 20
149.0556314233
 30
0.0
 10
176.0415572251
 20
149.0870951697
 30
0.0
 10
176.0839755553
 20
149.1230088907
 30
0.0
 10
176.1350408893
 20
149.1622881733
 30
0.0
 10
176.1940771952
 20
149.203788449
 30
0.0
 10
176.2853333846
 20
149.2624064139
 30
0.0
 10
176.4139761136
 20
149.3338242653
 30
0.0
 10
176.58419308
 20
149.4094692416
 30
0.0
 10
176.7691524927
 20
149.4707548048
 30
0.0
 10
176.8983042564
 20
149.4987259904
 30
0.0
 10
176.9638798129
 20
149.5091839254
 30
0.0
  0
SPLINE
  5
7A5
100
AcDbEntity
  8
30338729_CL
100
AcDbSpline
 62
7
  6
CONTINUOUS
 70
0
 71
3
 72
9
 73
5
 74
0
 42
0.0000001
 43
0.0000001
 44
0.0000000001
 40
0.0
 40
0.0
 40
0.0
 40
0.0
 40
0.5012518963
 40
1.0
 40
1.0
 40
1.0
 40
1.0
 10
176.9638798129
 20
164.5075367642
 30
0.0
 10
177.3070752373
 20
164.4528042442
 30
0.0
 10
177.9865933706
 20
164.3075195208
 30
0.0
 10
178.6447826232
 20
164.0829421982
 30
0.0
 10
178.9638798129
 20
163.9497050171
 30
0.0
  0
ENDSEC
  0
SECTION
  2
OBJECTS
  0
DICTIONARY
  5
C
100
AcDbDictionary
280
0
281
1
  3
ACAD_GROUP
350
D
  3
ACAD_MLINESTYLE
350
17
  3
ACAD_LAYOUT
350
1A
  3
ACAD_PLOTSETTINGS
350
19
  3
ACAD_PLOTSTYLENAME
350
E
  0
DICTIONARY
  5
D
102
{ACAD_REACTORS
330
C
102
}
100
AcDbDictionary
280
0
281
1
  0
ACDBDICTIONARYWDFLT
  5
E
102
{ACAD_REACTORS
330
C
102
}
100
AcDbDictionary
281
1
  3
Normal
350
F
100
AcDbDictionaryWithDefault
340
F
  0
DICTIONARY
  5
17
102
{ACAD_REACTORS
330
C
102
}
100
AcDbDictionary
280
0
281
1
  3
Standard
350
18
  0
DICTIONARY
  5
19
102
{ACAD_REACTORS
330
C
102
}
100
AcDbDictionary
281
1
  0
DICTIONARY
  5
1A
102
{ACAD_REACTORS
330
C
102
}
100
AcDbDictionary
281
1
  3
Model
350
7A6
  3
Layout1
350
7A7
  0
ACDBPLACEHOLDER
  5
F
102
{ACAD_REACTORS
330
E
102
}
  0
MLINESTYLE
  5
18
102
{ACAD_REACTORS
330
17
102
}
100
AcDbMlineStyle
  2
STANDARD
 70
0
  3

 62
256
 51
90.0
 52
90.0
 71
2
 49
0.5
 62
256
  6
BYLAYER
 49
-0.5
 62
256
  6
BYLAYER
  0
LAYOUT
  5
7A6
102
{ACAD_REACTORS
330
1A
102
}
100
AcDbPlotSettings
  1

  2
none_device
  4
ISO_A3_(420.00_x_297.00_MM)
  6

 40
0.0
 41
0.0
 42
0.0
 43
0.0
 44
420.0
 45
297.0
 46
0.0
 47
0.0
 48
0.0
 49
0.0
140
0.0
141
0.0
142
1.0
143
1.0
 70
1024
 72
1
 73
0
 74
0
  7

 75
0
147
1.0
148
0.0
149
0.0
100
AcDbLayout
  1
Model
 70
0
 71
0
 10
0.0
 20
0.0
 11
420.0
 21
297.0
 12
0.0
 22
0.0
 32
0.0
 14
0.0
 24
0.0
 34
0.0
 15
0.0
 25
0.0
 35
0.0
146
0.0
 13
0.0
 23
0.0
 33
0.0
 16
1.0
 26
0.0
 36
0.0
 17
0.0
 27
1.0
 37
0.0
 76
0
330
218
345
0
346
0
  0
LAYOUT
  5
7A7
102
{ACAD_REACTORS
330
1A
102
}
100
AcDbPlotSettings
  1

  2
none_device
  4
ISO_A3_(420.00_x_297.00_MM)
  6

 40
0.0
 41
0.0
 42
0.0
 43
0.0
 44
420.0
 45
297.0
 46
0.0
 47
0.0
 48
0.0
 49
0.0
140
0.0
141
0.0
142
1.0
143
1.0
 70
0
 72
1
 73
0
 74
0
  7

 75
0
147
1.0
148
0.0
149
0.0
100
AcDbLayout
  1
Layout1
 70
0
 71
1
 10
0.0
 20
0.0
 11
420.0
 21
297.0
 12
0.0
 22
0.0
 32
0.0
 14
0.0
 24
0.0
 34
0.0
 15
0.0
 25
0.0
 35
0.0
146
0.0
 13
0.0
 23
0.0
 33
0.0
 16
1.0
 26
0.0
 36
0.0
 17
0.0
 27
1.0
 37
0.0
 76
0
330
219
345
0
346
0
  0
ENDSEC
  0
EOF
