999
DXF file: 606202915-000-00-ed1.dxf
999
Pro/ENGINEER 2011220 by Parametric Technology Corporation
  0
SECTION
  2
HEADER
  9
$ACADVER
  1
AC1015
  9
$DWGCODEPAGE
  3
ANSI_1252
  9
$EXTMAX
 10
594.0
 20
420.0
 30
0.0
  9
$EXTMIN
 10
0.0
 20
0.0
 30
0.0
  9
$LIMMIN
 10
0.0
 20
0.0
  9
$LIMMAX
 10
594.0
 20
420.0
  9
$VIEWCTR
 10
297.0
 20
210.0
  9
$VIEWSIZE
 40
420.0
  9
$CLAYER
  8
0
  9
$LTSCALE
 40
32.67
  9
$CELTYPE
  6
BYLAYER
  9
$DIMSCALE
 40
1.0
  9
$DIMASZ
 40
3.5
  9
$DIMEXO
 40
3.7125
  9
$DIMDLI
 40
22.572
  9
$DIMEXE
 40
10.692
  9
$DIMCEN
 40
5.346
  9
$DIMLFAC
 40
1.0
  9
$DIMBLK
  1
_FILLED
  9
$DIMTXT
 40
3.5
  9
$DIMTOL
 70
1
  9
$DIMLIM
 70
0
  9
$DIMTFAC
 40
1.0
  9
$DIMTP
 40
0.005
  9
$DIMTM
 40
0.005
  9
$PDMODE
 70
3
  9
$PDSIZE
 40
0.3125
  9
$HANDSEED
  5
806
  9
$TILEMODE
 70
1
  9
$MEASUREMENT
 70
1
  9
$INSUNITS
 70
4
  0
ENDSEC
  0
SECTION
  2
CLASSES
  0
CLASS
  1
ACDBDICTIONARYWDFLT
  2
AcDbDictionaryWithDefault
  3
AutoCAD 2000
 90
0
280
0
281
0
  0
CLASS
  1
ACDBPLACEHOLDER
  2
AcDbPlaceHolder
  3
AutoCAD 2000
 90
0
280
0
281
0
  0
CLASS
  1
LAYOUT
  2
AcDbLayout
  3
AutoCAD 2000
 90
0
280
0
281
0
  0
ENDSEC
  0
SECTION
  2
TABLES
  0
TABLE
  2
VPORT
  5
8
100
AcDbSymbolTable
 70
2
  0
VPORT
  5
1F4
100
AcDbSymbolTableRecord
100
AcDbViewportTableRecord
  2
*ACTIVE
 70
0
 10
0.0
 20
0.0
 11
1.0
 21
1.0
 12
297.0
 22
210.0
 13
0.0
 23
0.0
 14
1.0
 24
1.0
 15
0.0
 25
0.0
 16
0.0
 26
0.0
 36
1.0
 17
0.0
 27
0.0
 37
0.0
 40
420.0
 41
1.4142857143
 42
50.0
 43
0.0
 44
0.0
 50
0.0
 51
0.0
 71
0
 72
100
 73
1
 74
1
 75
0
 76
0
 77
0
 78
0
  0
ENDTAB
  0
TABLE
  2
LTYPE
  5
5
100
AcDbSymbolTable
 70
6
  0
LTYPE
  5
14
100
AcDbSymbolTableRecord
100
AcDbLinetypeTableRecord
  2
BYBLOCK
 70
0
  3

 72
65
 73
0
 40
0.0
  0
LTYPE
  5
15
100
AcDbSymbolTableRecord
100
AcDbLinetypeTableRecord
  2
BYLAYER
 70
0
  3

 72
65
 73
0
 40
0.0
  0
LTYPE
  5
16
100
AcDbSymbolTableRecord
100
AcDbLinetypeTableRecord
  2
CONTINUOUS
 70
64
  3
Solid line
 72
65
 73
0
 40
0.0
  0
LTYPE
  5
1F5
100
AcDbSymbolTableRecord
100
AcDbLinetypeTableRecord
  2
CENTER
 70
64
  3
____ _ ____ _ ____ _ ____ _ ____ _ ____ _ ____
 72
65
 73
4
 40
0.6
 49
0.375
 74
0
 49
-0.075
 74
0
 49
0.075
 74
0
 49
-0.075
 74
0
  0
LTYPE
  5
1F6
100
AcDbSymbolTableRecord
100
AcDbLinetypeTableRecord
  2
HIDDEN
 70
64
  3
- - - - - - - - - - - - - - - - - - - -
 72
65
 73
2
 40
0.2
 49
0.1
 74
0
 49
-0.1
 74
0
  0
LTYPE
  5
1F7
100
AcDbSymbolTableRecord
100
AcDbLinetypeTableRecord
  2
PHANTOM
 70
64
  3
_____ _ _ _____ _ _ _____ _ _ _____
 72
65
 73
6
 40
0.8
 49
0.45
 74
0
 49
-0.05
 74
0
 49
0.1
 74
0
 49
-0.05
 74
0
 49
0.1
 74
0
 49
-0.05
 74
0
  0
LTYPE
  5
1F8
100
AcDbSymbolTableRecord
100
AcDbLinetypeTableRecord
  2
DOT
 70
64
  3
. . . . . . . . . . . . . . . . . . . .
 72
65
 73
2
 40
0.2
 49
0.1
 74
0
 49
-0.1
 74
0
  0
LTYPE
  5
1F9
100
AcDbSymbolTableRecord
100
AcDbLinetypeTableRecord
  2
DASHED
 70
64
  3
- - - - - - - - - - - - - - - - - - - -
 72
65
 73
2
 40
0.2
 49
0.1
 74
0
 49
-0.1
 74
0
  0
ENDTAB
  0
TABLE
  2
LAYER
  5
2
100
AcDbSymbolTable
 70
36
  0
LAYER
  5
10
100
AcDbSymbolTableRecord
100
AcDbLayerTableRecord
  2
0
 70
0
 62
7
  6
CONTINUOUS
370
-3
390
F
  0
LAYER
  5
1FA
100
AcDbSymbolTableRecord
100
AcDbLayerTableRecord
  2
DEFAULT_1
 70
0
 62
7
  6
CENTER
370
-3
390
F
  0
LAYER
  5
1FB
100
AcDbSymbolTableRecord
100
AcDbLayerTableRecord
  2
DEFAULT_2
 70
0
 62
6
  6
HIDDEN
370
-3
390
F
  0
LAYER
  5
1FC
100
AcDbSymbolTableRecord
100
AcDbLayerTableRecord
  2
DEFAULT_3
 70
0
 62
7
  6
PHANTOM
370
-3
390
F
  0
LAYER
  5
1FD
100
AcDbSymbolTableRecord
100
AcDbLayerTableRecord
  2
ASSEMBLIES
 70
0
 62
7
  6
CONTINUOUS
370
-3
390
F
  0
LAYER
  5
1FE
100
AcDbSymbolTableRecord
100
AcDbLayerTableRecord
  2
CRV_CAST
 70
0
 62
7
  6
CONTINUOUS
370
-3
390
F
  0
LAYER
  5
1FF
100
AcDbSymbolTableRecord
100
AcDbLayerTableRecord
  2
COLLECTION01
 70
0
 62
7
  6
CONTINUOUS
370
-3
390
F
  0
LAYER
  5
200
100
AcDbSymbolTableRecord
100
AcDbLayerTableRecord
  2
COLLECTION02
 70
0
 62
7
  6
CONTINUOUS
370
-3
390
F
  0
LAYER
  5
201
100
AcDbSymbolTableRecord
100
AcDbLayerTableRecord
  2
COLLECTION03
 70
0
 62
7
  6
CONTINUOUS
370
-3
390
F
  0
LAYER
  5
202
100
AcDbSymbolTableRecord
100
AcDbLayerTableRecord
  2
COLLECTION12
 70
0
 62
7
  6
CONTINUOUS
370
-3
390
F
  0
LAYER
  5
203
100
AcDbSymbolTableRecord
100
AcDbLayerTableRecord
  2
COLLECTION04
 70
0
 62
7
  6
CONTINUOUS
370
-3
390
F
  0
LAYER
  5
204
100
AcDbSymbolTableRecord
100
AcDbLayerTableRecord
  2
COLLECTION06
 70
0
 62
7
  6
CONTINUOUS
370
-3
390
F
  0
LAYER
  5
205
100
AcDbSymbolTableRecord
100
AcDbLayerTableRecord
  2
COLLECTION07
 70
0
 62
7
  6
CONTINUOUS
370
-3
390
F
  0
LAYER
  5
206
100
AcDbSymbolTableRecord
100
AcDbLayerTableRecord
  2
COLLECTION09
 70
0
 62
7
  6
CONTINUOUS
370
-3
390
F
  0
LAYER
  5
207
100
AcDbSymbolTableRecord
100
AcDbLayerTableRecord
  2
COLLECTION10
 70
0
 62
7
  6
CONTINUOUS
370
-3
390
F
  0
LAYER
  5
208
100
AcDbSymbolTableRecord
100
AcDbLayerTableRecord
  2
COLLECTION13
 70
0
 62
7
  6
CONTINUOUS
370
-3
390
F
  0
LAYER
  5
209
100
AcDbSymbolTableRecord
100
AcDbLayerTableRecord
  2
COLLECTION15
 70
0
 62
7
  6
CONTINUOUS
370
-3
390
F
  0
LAYER
  5
20A
100
AcDbSymbolTableRecord
100
AcDbLayerTableRecord
  2
TURNING_GEOMETRY
 70
0
 62
7
  6
CONTINUOUS
370
-3
390
F
  0
LAYER
  5
20B
100
AcDbSymbolTableRecord
100
AcDbLayerTableRecord
  2
COLLECTION16
 70
0
 62
7
  6
CONTINUOUS
370
-3
390
F
  0
LAYER
  5
20C
100
AcDbSymbolTableRecord
100
AcDbLayerTableRecord
  2
COLLECTION17
 70
0
 62
7
  6
CONTINUOUS
370
-3
390
F
  0
LAYER
  5
20D
100
AcDbSymbolTableRecord
100
AcDbLayerTableRecord
  2
606202915-000-00-ED1_FORMAT
 70
0
 62
7
  6
CONTINUOUS
370
-3
390
F
  0
LAYER
  5
20E
100
AcDbSymbolTableRecord
100
AcDbLayerTableRecord
  2
30381075_DIM
 70
0
 62
7
  6
CONTINUOUS
370
-3
390
F
  0
LAYER
  5
20F
100
AcDbSymbolTableRecord
100
AcDbLayerTableRecord
  2
10083256#AF0_DIM
 70
0
 62
7
  6
CONTINUOUS
370
-3
390
F
  0
LAYER
  5
210
100
AcDbSymbolTableRecord
100
AcDbLayerTableRecord
  2
606202915-000-00-ED1_CL
 70
0
 62
7
  6
CONTINUOUS
370
-3
390
F
  0
LAYER
  5
211
100
AcDbSymbolTableRecord
100
AcDbLayerTableRecord
  2
606202915-000-00-ED1_TEXT
 70
0
 62
7
  6
CONTINUOUS
370
-3
390
F
  0
LAYER
  5
212
100
AcDbSymbolTableRecord
100
AcDbLayerTableRecord
  2
10083256_CL
 70
0
 62
7
  6
CONTINUOUS
370
-3
390
F
  0
LAYER
  5
213
100
AcDbSymbolTableRecord
100
AcDbLayerTableRecord
  2
10083256_HL
 70
0
 62
7
  6
CONTINUOUS
370
-3
390
F
  0
LAYER
  5
214
100
AcDbSymbolTableRecord
100
AcDbLayerTableRecord
  2
10083314_CL
 70
0
 62
7
  6
CONTINUOUS
370
-3
390
F
  0
LAYER
  5
215
100
AcDbSymbolTableRecord
100
AcDbLayerTableRecord
  2
10083314_HL
 70
0
 62
7
  6
CONTINUOUS
370
-3
390
F
  0
LAYER
  5
216
100
AcDbSymbolTableRecord
100
AcDbLayerTableRecord
  2
MN5218-50_HL
 70
0
 62
7
  6
CONTINUOUS
370
-3
390
F
  0
LAYER
  5
217
100
AcDbSymbolTableRecord
100
AcDbLayerTableRecord
  2
10083196_HL
 70
0
 62
7
  6
CONTINUOUS
370
-3
390
F
  0
LAYER
  5
218
100
AcDbSymbolTableRecord
100
AcDbLayerTableRecord
  2
10083196_CL
 70
0
 62
7
  6
CONTINUOUS
370
-3
390
F
  0
LAYER
  5
219
100
AcDbSymbolTableRecord
100
AcDbLayerTableRecord
  2
10083384_HP_HL
 70
0
 62
7
  6
CONTINUOUS
370
-3
390
F
  0
LAYER
  5
21A
100
AcDbSymbolTableRecord
100
AcDbLayerTableRecord
  2
10083384_HP_CL
 70
0
 62
7
  6
CONTINUOUS
370
-3
390
F
  0
LAYER
  5
21B
100
AcDbSymbolTableRecord
100
AcDbLayerTableRecord
  2
10083256#AF0_AXIS
 70
0
 62
7
  6
CONTINUOUS
370
-3
390
F
  0
LAYER
  5
21C
100
AcDbSymbolTableRecord
100
AcDbLayerTableRecord
  2
30381075_AXIS
 70
0
 62
7
  6
CONTINUOUS
370
-3
390
F
  0
LAYER
  5
21D
100
AcDbSymbolTableRecord
100
AcDbLayerTableRecord
  2
10002541_HP_HL
 70
0
 62
7
  6
CONTINUOUS
370
-3
390
F
  0
ENDTAB
  0
TABLE
  2
STYLE
  5
3
100
AcDbSymbolTable
 70
1
  0
STYLE
  5
11
100
AcDbSymbolTableRecord
100
AcDbTextStyleTableRecord
  2
STANDARD
 70
0
 40
0.0
 41
0.7
 50
0.0
 71
0
 42
0.2
  3
TXT.SHX
  4

  0
STYLE
  5
21E
100
AcDbSymbolTableRecord
100
AcDbTextStyleTableRecord
  2
TEXTSTYLE_1
 70
0
 40
0.0
 41
0.8
 50
0.0
 71
0
 42
0.2
  3
gdt
  4

  0
STYLE
  5
21F
100
AcDbSymbolTableRecord
100
AcDbTextStyleTableRecord
  2
TEXTSTYLE_2
 70
0
 40
0.0
 41
0.675
 50
0.0
 71
0
 42
0.2
  3
TXT.SHX
  4

  0
STYLE
  5
220
100
AcDbSymbolTableRecord
100
AcDbTextStyleTableRecord
  2
TEXTSTYLE_3
 70
0
 40
0.0
 41
0.7
 50
0.0
 71
0
 42
0.2
  3
gdt
  4

  0
ENDTAB
  0
TABLE
  2
VIEW
  5
6
100
AcDbSymbolTable
 70
0
  0
ENDTAB
  0
TABLE
  2
UCS
  5
7
100
AcDbSymbolTable
 70
0
  0
ENDTAB
  0
TABLE
  2
APPID
  5
9
100
AcDbSymbolTable
 70
1
  0
APPID
  5
221
100
AcDbSymbolTableRecord
100
AcDbRegAppTableRecord
  2
ACAD
 70
0
  0
ENDTAB
  0
TABLE
  2
BLOCK_RECORD
  5
1
100
AcDbSymbolTable
 70
0
  0
BLOCK_RECORD
  5
222
100
AcDbSymbolTableRecord
100
AcDbBlockTableRecord
  2
*Model_Space
  0
BLOCK_RECORD
  5
223
100
AcDbSymbolTableRecord
100
AcDbBlockTableRecord
  2
*Paper_Space
  0
BLOCK_RECORD
  5
224
100
AcDbSymbolTableRecord
100
AcDbBlockTableRecord
  2
_FILLED
  0
BLOCK_RECORD
  5
225
100
AcDbSymbolTableRecord
100
AcDbBlockTableRecord
  2
_DOT
  0
BLOCK_RECORD
  5
226
100
AcDbSymbolTableRecord
100
AcDbBlockTableRecord
  2
*D0
  0
BLOCK_RECORD
  5
227
100
AcDbSymbolTableRecord
100
AcDbBlockTableRecord
  2
*D1
  0
BLOCK_RECORD
  5
228
100
AcDbSymbolTableRecord
100
AcDbBlockTableRecord
  2
*D2
  0
BLOCK_RECORD
  5
229
100
AcDbSymbolTableRecord
100
AcDbBlockTableRecord
  2
*D3
  0
BLOCK_RECORD
  5
22A
100
AcDbSymbolTableRecord
100
AcDbBlockTableRecord
  2
*D4
  0
BLOCK_RECORD
  5
22B
100
AcDbSymbolTableRecord
100
AcDbBlockTableRecord
  2
*D5
  0
BLOCK_RECORD
  5
22C
100
AcDbSymbolTableRecord
100
AcDbBlockTableRecord
  2
*D6
  0
BLOCK_RECORD
  5
22D
100
AcDbSymbolTableRecord
100
AcDbBlockTableRecord
  2
*D7
  0
BLOCK_RECORD
  5
22E
100
AcDbSymbolTableRecord
100
AcDbBlockTableRecord
  2
*D8
  0
BLOCK_RECORD
  5
22F
100
AcDbSymbolTableRecord
100
AcDbBlockTableRecord
  2
*D9
  0
BLOCK_RECORD
  5
230
100
AcDbSymbolTableRecord
100
AcDbBlockTableRecord
  2
BOMBALLOON_BL6
  0
BLOCK_RECORD
  5
231
100
AcDbSymbolTableRecord
100
AcDbBlockTableRecord
  2
BOMBALLOON_BL5
  0
BLOCK_RECORD
  5
232
100
AcDbSymbolTableRecord
100
AcDbBlockTableRecord
  2
BOMBALLOON_BL4
  0
BLOCK_RECORD
  5
233
100
AcDbSymbolTableRecord
100
AcDbBlockTableRecord
  2
GEOM_TOLERANCE_SYMBOLS_BL3
  0
BLOCK_RECORD
  5
234
100
AcDbSymbolTableRecord
100
AcDbBlockTableRecord
  2
GEOM_TOLERANCE_SYMBOLS_BL2
  0
BLOCK_RECORD
  5
235
100
AcDbSymbolTableRecord
100
AcDbBlockTableRecord
  2
GEOM_TOLERANCE_SYMBOLS_BL1
  0
BLOCK_RECORD
  5
236
100
AcDbSymbolTableRecord
100
AcDbBlockTableRecord
  2
BARCODEBOX_BL0
  0
ENDTAB
  0
TABLE
  2
DIMSTYLE
  5
A
100
AcDbSymbolTable
 70
1
100
AcDbDimStyleTable
 71
0
  0
DIMSTYLE
105
237
100
AcDbSymbolTableRecord
100
AcDbDimStyleTableRecord
  2
STANDARD
 70
0
  3

  4

 40
1.0
 41
3.5
 42
0.0625
 43
0.38
 44
0.18
 45
0.0
 46
0.0
 47
0.005
 48
0.005
140
3.5
141
0.09
142
0.0
143
25.4
144
1.0
145
0.0
146
1.0
147
0.09
 71
1.0
 72
0.0
 73
0
 74
0
 75
0
 76
0
 77
1
 78
8
170
0
171
2
172
0
173
0
174
0
175
0
176
0
177
0
178
2
270
2
271
3
272
3
273
2
274
2
275
0
280
0
281
0
282
0
283
1
284
8
285
0
286
0
287
3
288
0
340
11
341
224
342
224
343
224
344
224
  0
DIMSTYLE
105
238
100
AcDbSymbolTableRecord
100
AcDbDimStyleTableRecord
  2
DIMSTYLE_1
 70
0
  3

  4

 40
1.0
 41
3.5
 42
0.0625
 43
0.38
 44
0.18
 45
0.0
 46
0.0
 47
0.15
 48
0.15
140
3.5
141
0.09
142
0.0
143
25.4
144
1.0
145
0.0
146
1.0
147
0.09
 71
0.0
 72
0.0
 73
0
 74
0
 75
0
 76
0
 77
1
 78
8
170
0
171
2
172
0
173
0
174
0
175
0
176
0
177
0
178
2
270
2
271
3
272
3
273
2
274
2
275
0
280
0
281
0
282
0
283
1
284
8
285
0
286
0
287
3
288
0
340
11
341
224
342
224
343
224
344
224
  0
DIMSTYLE
105
239
100
AcDbSymbolTableRecord
100
AcDbDimStyleTableRecord
  2
DIMSTYLE_2
 70
0
  3

  4

 40
1.0
 41
3.5
 42
0.0625
 43
0.38
 44
0.18
 45
0.0
 46
0.0
 47
0.1
 48
0.1
140
3.5
141
0.09
142
0.0
143
25.4
144
1.0
145
0.0
146
1.0
147
0.09
 71
0.0
 72
0.0
 73
0
 74
0
 75
0
 76
0
 77
1
 78
8
170
0
171
2
172
0
173
0
174
0
175
0
176
0
177
0
178
2
270
2
271
3
272
3
273
2
274
2
275
0
280
0
281
0
282
0
283
1
284
8
285
0
286
0
287
3
288
0
340
11
341
224
342
224
343
224
344
224
  0
DIMSTYLE
105
23A
100
AcDbSymbolTableRecord
100
AcDbDimStyleTableRecord
  2
DIMSTYLE_3
 70
0
  3

  4

 40
1.0
 41
3.5
 42
0.0625
 43
0.38
 44
0.18
 45
0.0
 46
0.0
 47
0.1
 48
0.1
140
3.5
141
0.09
142
0.0
143
25.4
144
1.0
145
0.0
146
1.0
147
0.09
 71
0.0
 72
0.0
 73
0
 74
0
 75
0
 76
0
 77
1
 78
8
170
0
171
2
172
0
173
0
174
0
175
0
176
0
177
0
178
2
270
2
271
3
272
3
273
2
274
2
275
0
280
0
281
0
282
0
283
1
284
8
285
0
286
0
287
3
288
0
340
11
341
224
342
224
343
224
344
224
  0
DIMSTYLE
105
23B
100
AcDbSymbolTableRecord
100
AcDbDimStyleTableRecord
  2
DIMSTYLE_4
 70
0
  3

  4

 40
1.0
 41
3.5
 42
0.0625
 43
0.38
 44
0.18
 45
0.0
 46
0.0
 47
0.05
 48
0.05
140
3.5
141
0.09
142
0.0
143
25.4
144
1.0
145
0.0
146
1.0
147
0.09
 71
0.0
 72
0.0
 73
0
 74
0
 75
0
 76
0
 77
1
 78
8
170
0
171
2
172
0
173
0
174
0
175
0
176
0
177
0
178
2
270
2
271
3
272
3
273
2
274
2
275
0
280
0
281
0
282
0
283
1
284
8
285
0
286
0
287
3
288
0
340
11
341
224
342
224
343
224
344
224
  0
DIMSTYLE
105
23C
100
AcDbSymbolTableRecord
100
AcDbDimStyleTableRecord
  2
DIMSTYLE_5
 70
0
  3

  4

 40
1.0
 41
3.5
 42
0.0625
 43
0.38
 44
0.18
 45
0.0
 46
0.0
 47
0.25
 48
0.25
140
3.5
141
0.09
142
0.0
143
25.4
144
1.0
145
0.0
146
1.0
147
0.09
 71
1.0
 72
0.0
 73
0
 74
0
 75
0
 76
0
 77
1
 78
8
170
0
171
2
172
0
173
0
174
0
175
0
176
0
177
0
178
2
270
2
271
3
272
3
273
2
274
2
275
0
280
0
281
0
282
0
283
1
284
8
285
0
286
0
287
3
288
0
340
11
341
224
342
224
343
224
344
224
  0
ENDTAB
  0
ENDSEC
  0
SECTION
  2
BLOCKS
  0
BLOCK
  5
20
100
AcDbEntity
  8
0
100
AcDbBlockBegin
  2
*Model_Space
 70
0
 10
0.0
 20
0.0
 30
0.0
  3
*Model_Space
  1

  0
ENDBLK
  5
21
100
AcDbEntity
  8
0
100
AcDbBlockEnd
  0
BLOCK
  5
1C
100
AcDbEntity
  8
0
100
AcDbBlockBegin
  2
*Paper_Space
 70
0
 10
0.0
 20
0.0
 30
0.0
  3
*Paper_Space
  1

  0
ENDBLK
  5
1D
100
AcDbEntity
  8
0
100
AcDbBlockEnd
  0
BLOCK
  5
23D
100
AcDbEntity
  8
606202915-000-00-ED1_CL
100
AcDbBlockBegin
 62
3
  6
CONTINUOUS
  2
BOMBALLOON_BL6
 70
64
 10
272.9415572128
 20
295.2613943056
  3
BOMBALLOON_BL6
  1

  0
CIRCLE
  5
23E
100
AcDbEntity
  8
606202915-000-00-ED1_CL
100
AcDbCircle
 62
3
  6
CONTINUOUS
 10
272.9415572128
 20
295.2613943056
 40
6.125
  0
LINE
  5
23F
100
AcDbEntity
  8
606202915-000-00-ED1_CL
100
AcDbLine
 62
3
  6
CONTINUOUS
 10
266.8165572128
 20
295.2613943056
 11
279.0665572128
 21
295.2613943056
  0
TEXT
  5
240
100
AcDbEntity
  8
606202915-000-00-ED1_CL
100
AcDbText
 62
2
  6
CONTINUOUS
 10
271.5867395045
 20
296.200196389
  7
STANDARD
 40
3.5
  1
3
 41
0.7142857143
 72
0
100
AcDbText
  0
TEXT
  5
241
100
AcDbEntity
  8
606202915-000-00-ED1_CL
100
AcDbText
 62
2
  6
CONTINUOUS
 10
271.9369999212
 20
291.086915139
  7
STANDARD
 40
3.5
  1
1
 41
0.5714285714
 72
0
100
AcDbText
  0
ENDBLK
  5
242
100
AcDbEntity
  8
0
  6
BYBLOCK
 62
0
100
AcDbBlockEnd
  0
BLOCK
  5
243
100
AcDbEntity
  8
606202915-000-00-ED1_CL
100
AcDbBlockBegin
 62
3
  6
CONTINUOUS
  2
BOMBALLOON_BL5
 70
64
 10
319.4279352834
 20
185.6468129083
  3
BOMBALLOON_BL5
  1

  0
CIRCLE
  5
244
100
AcDbEntity
  8
606202915-000-00-ED1_CL
100
AcDbCircle
 62
3
  6
CONTINUOUS
 10
319.4279352834
 20
185.6468129083
 40
6.125
  0
LINE
  5
245
100
AcDbEntity
  8
606202915-000-00-ED1_CL
100
AcDbLine
 62
3
  6
CONTINUOUS
 10
313.3029352834
 20
185.6468129083
 11
325.5529352834
 21
185.6468129083
  0
TEXT
  5
246
100
AcDbEntity
  8
606202915-000-00-ED1_CL
100
AcDbText
 62
2
  6
CONTINUOUS
 10
317.9481175751
 20
186.5856149916
  7
STANDARD
 40
3.5
  1
2
 41
0.7857142857
 72
0
100
AcDbText
  0
TEXT
  5
247
100
AcDbEntity
  8
606202915-000-00-ED1_CL
100
AcDbText
 62
2
  6
CONTINUOUS
 10
318.4233779918
 20
181.4723337416
  7
STANDARD
 40
3.5
  1
1
 41
0.5714285714
 72
0
100
AcDbText
  0
ENDBLK
  5
248
100
AcDbEntity
  8
0
  6
BYBLOCK
 62
0
100
AcDbBlockEnd
  0
BLOCK
  5
249
100
AcDbEntity
  8
606202915-000-00-ED1_CL
100
AcDbBlockBegin
 62
3
  6
CONTINUOUS
  2
BOMBALLOON_BL4
 70
64
 10
378.8441805271
 20
259.2613943056
  3
BOMBALLOON_BL4
  1

  0
CIRCLE
  5
24A
100
AcDbEntity
  8
606202915-000-00-ED1_CL
100
AcDbCircle
 62
3
  6
CONTINUOUS
 10
378.8441805271
 20
259.2613943056
 40
6.125
  0
LINE
  5
24B
100
AcDbEntity
  8
606202915-000-00-ED1_CL
100
AcDbLine
 62
3
  6
CONTINUOUS
 10
372.7191805271
 20
259.2613943056
 11
384.9691805271
 21
259.2613943056
  0
TEXT
  5
24C
100
AcDbEntity
  8
606202915-000-00-ED1_CL
100
AcDbText
 62
2
  6
CONTINUOUS
 10
377.7393628188
 20
260.200196389
  7
STANDARD
 40
3.5
  1
1
 41
0.5714285714
 72
0
100
AcDbText
  0
TEXT
  5
24D
100
AcDbEntity
  8
606202915-000-00-ED1_CL
100
AcDbText
 62
2
  6
CONTINUOUS
 10
377.8396232355
 20
255.086915139
  7
STANDARD
 40
3.5
  1
1
 41
0.5714285714
 72
0
100
AcDbText
  0
ENDBLK
  5
24E
100
AcDbEntity
  8
0
  6
BYBLOCK
 62
0
100
AcDbBlockEnd
  0
BLOCK
  5
24F
100
AcDbEntity
  8
606202915-000-00-ED1_CL
100
AcDbBlockBegin
 62
3
  6
CONTINUOUS
  2
GEOM_TOLERANCE_SYMBOLS_BL3
 70
64
 10
253.663728267
 20
273.0467174772
  3
GEOM_TOLERANCE_SYMBOLS_BL3
  1

  0
LINE
  5
250
100
AcDbEntity
  8
606202915-000-00-ED1_CL
100
AcDbLine
 62
3
  6
CONTINUOUS
 10
251.617057342
 20
266.6571033221
 11
254.0388695356
 21
268.2803179411
  0
LINE
  5
251
100
AcDbEntity
  8
606202915-000-00-ED1_CL
100
AcDbLine
 62
3
  6
CONTINUOUS
 10
254.0440128264
 20
268.1776578556
 11
253.872912684
 21
268.1690857042
  0
LINE
  5
252
100
AcDbEntity
  8
606202915-000-00-ED1_CL
100
AcDbLine
 62
3
  6
CONTINUOUS
 10
254.0490165706
 20
268.0777831214
 11
253.7114585378
 21
268.0608713963
  0
LINE
  5
253
100
AcDbEntity
  8
606202915-000-00-ED1_CL
100
AcDbLine
 62
3
  6
CONTINUOUS
 10
254.0540203148
 20
267.9779083871
 11
253.5500043916
 21
267.9526570884
  0
LINE
  5
254
100
AcDbEntity
  8
606202915-000-00-ED1_CL
100
AcDbLine
 62
3
  6
CONTINUOUS
 10
254.059024059
 20
267.8780336529
 11
253.3885502453
 21
267.8444427804
  0
LINE
  5
255
100
AcDbEntity
  8
606202915-000-00-ED1_CL
100
AcDbLine
 62
3
  6
CONTINUOUS
 10
254.0640278032
 20
267.7781589186
 11
253.2270960991
 21
267.7362284725
  0
LINE
  5
256
100
AcDbEntity
  8
606202915-000-00-ED1_CL
100
AcDbLine
 62
3
  6
CONTINUOUS
 10
254.0690315474
 20
267.6782841843
 11
253.0656419529
 21
267.6280141646
  0
LINE
  5
257
100
AcDbEntity
  8
606202915-000-00-ED1_CL
100
AcDbLine
 62
3
  6
CONTINUOUS
 10
254.0740352916
 20
267.5784094501
 11
252.9041878066
 21
267.5197998566
  0
LINE
  5
258
100
AcDbEntity
  8
606202915-000-00-ED1_CL
100
AcDbLine
 62
3
  6
CONTINUOUS
 10
254.0790390358
 20
267.4785347158
 11
252.7427336604
 21
267.4115855487
  0
LINE
  5
259
100
AcDbEntity
  8
606202915-000-00-ED1_CL
100
AcDbLine
 62
3
  6
CONTINUOUS
 10
254.08404278
 20
267.3786599815
 11
252.5812795142
 21
267.3033712408
  0
LINE
  5
25A
100
AcDbEntity
  8
606202915-000-00-ED1_CL
100
AcDbLine
 62
3
  6
CONTINUOUS
 10
254.0890465242
 20
267.2787852473
 11
252.4198253679
 21
267.1951569328
  0
LINE
  5
25B
100
AcDbEntity
  8
606202915-000-00-ED1_CL
100
AcDbLine
 62
3
  6
CONTINUOUS
 10
254.0940502684
 20
267.178910513
 11
252.2583712217
 21
267.0869426249
  0
LINE
  5
25C
100
AcDbEntity
  8
606202915-000-00-ED1_CL
100
AcDbLine
 62
3
  6
CONTINUOUS
 10
254.0990540126
 20
267.0790357788
 11
252.0969170755
 21
266.978728317
  0
LINE
  5
25D
100
AcDbEntity
  8
606202915-000-00-ED1_CL
100
AcDbLine
 62
3
  6
CONTINUOUS
 10
254.1040577568
 20
266.9791610445
 11
251.9354629292
 21
266.870514009
  0
LINE
  5
25E
100
AcDbEntity
  8
606202915-000-00-ED1_CL
100
AcDbLine
 62
3
  6
CONTINUOUS
 10
254.109061501
 20
266.8792863102
 11
251.774008783
 21
266.7622997011
  0
LINE
  5
25F
100
AcDbEntity
  8
606202915-000-00-ED1_CL
100
AcDbLine
 62
3
  6
CONTINUOUS
 10
254.1140652452
 20
266.779411576
 11
251.6218391406
 21
266.6545505487
  0
LINE
  5
260
100
AcDbEntity
  8
606202915-000-00-ED1_CL
100
AcDbLine
 62
3
  6
CONTINUOUS
 10
254.0391486289
 20
268.2747472387
 11
256.6110731484
 21
266.9017198299
  0
LINE
  5
261
100
AcDbEntity
  8
606202915-000-00-ED1_CL
100
AcDbLine
 62
3
  6
CONTINUOUS
 10
254.1140652452
 20
266.779411576
 11
256.6062913499
 21
266.9042726033
  0
LINE
  5
262
100
AcDbEntity
  8
606202915-000-00-ED1_CL
100
AcDbLine
 62
3
  6
CONTINUOUS
 10
254.109061501
 20
266.8792863102
 11
256.4348297152
 21
266.9958077639
  0
LINE
  5
263
100
AcDbEntity
  8
606202915-000-00-ED1_CL
100
AcDbLine
 62
3
  6
CONTINUOUS
 10
254.1040577568
 20
266.9791610445
 11
256.2633680806
 21
267.0873429245
  0
LINE
  5
264
100
AcDbEntity
  8
606202915-000-00-ED1_CL
100
AcDbLine
 62
3
  6
CONTINUOUS
 10
254.0990540126
 20
267.0790357788
 11
256.0919064459
 21
267.178878085
  0
LINE
  5
265
100
AcDbEntity
  8
606202915-000-00-ED1_CL
100
AcDbLine
 62
3
  6
CONTINUOUS
 10
254.0940502684
 20
267.178910513
 11
255.9204448113
 21
267.2704132456
  0
LINE
  5
266
100
AcDbEntity
  8
606202915-000-00-ED1_CL
100
AcDbLine
 62
3
  6
CONTINUOUS
 10
254.0890465242
 20
267.2787852473
 11
255.7489831767
 21
267.3619484062
  0
LINE
  5
267
100
AcDbEntity
  8
606202915-000-00-ED1_CL
100
AcDbLine
 62
3
  6
CONTINUOUS
 10
254.08404278
 20
267.3786599815
 11
255.577521542
 21
267.4534835668
  0
LINE
  5
268
100
AcDbEntity
  8
606202915-000-00-ED1_CL
100
AcDbLine
 62
3
  6
CONTINUOUS
 10
254.0790390358
 20
267.4785347158
 11
255.4060599074
 21
267.5450187274
  0
LINE
  5
269
100
AcDbEntity
  8
606202915-000-00-ED1_CL
100
AcDbLine
 62
3
  6
CONTINUOUS
 10
254.0740352916
 20
267.5784094501
 11
255.2345982728
 21
267.636553888
  0
LINE
  5
26A
100
AcDbEntity
  8
606202915-000-00-ED1_CL
100
AcDbLine
 62
3
  6
CONTINUOUS
 10
254.0690315474
 20
267.6782841843
 11
255.0631366381
 21
267.7280890486
  0
LINE
  5
26B
100
AcDbEntity
  8
606202915-000-00-ED1_CL
100
AcDbLine
 62
3
  6
CONTINUOUS
 10
254.0640278032
 20
267.7781589186
 11
254.8916750035
 21
267.8196242092
  0
LINE
  5
26C
100
AcDbEntity
  8
606202915-000-00-ED1_CL
100
AcDbLine
 62
3
  6
CONTINUOUS
 10
254.059024059
 20
267.8780336529
 11
254.7202133688
 21
267.9111593698
  0
LINE
  5
26D
100
AcDbEntity
  8
606202915-000-00-ED1_CL
100
AcDbLine
 62
3
  6
CONTINUOUS
 10
254.0540203148
 20
267.9779083871
 11
254.5487517342
 21
268.0026945304
  0
LINE
  5
26E
100
AcDbEntity
  8
606202915-000-00-ED1_CL
100
AcDbLine
 62
3
  6
CONTINUOUS
 10
254.0490165706
 20
268.0777831214
 11
254.3772900996
 21
268.094229691
  0
LINE
  5
26F
100
AcDbEntity
  8
606202915-000-00-ED1_CL
100
AcDbLine
 62
3
  6
CONTINUOUS
 10
254.0440128264
 20
268.1776578556
 11
254.2058284649
 21
268.1857648516
  0
LINE
  5
270
100
AcDbEntity
  8
606202915-000-00-ED1_CL
100
AcDbLine
 62
3
  6
CONTINUOUS
 10
249.9929815208
 20
279.0886223117
 11
256.9842129192
 21
279.4388844058
  0
LINE
  5
271
100
AcDbEntity
  8
606202915-000-00-ED1_CL
100
AcDbLine
 62
3
  6
CONTINUOUS
 10
256.9842129192
 20
279.4388844058
 11
257.3344750133
 21
272.4476530075
  0
LINE
  5
272
100
AcDbEntity
  8
606202915-000-00-ED1_CL
100
AcDbLine
 62
3
  6
CONTINUOUS
 10
257.3344750133
 20
272.4476530075
 11
250.3432436149
 21
272.0973909133
  0
LINE
  5
273
100
AcDbEntity
  8
606202915-000-00-ED1_CL
100
AcDbLine
 62
3
  6
CONTINUOUS
 10
250.3432436149
 20
272.0973909133
 11
249.9929815208
 21
279.0886223117
  0
LINE
  5
274
100
AcDbEntity
  8
606202915-000-00-ED1_CL
100
AcDbLine
 62
3
  6
CONTINUOUS
 10
253.9889716402
 20
269.2762799325
 11
253.8388593141
 21
272.2725219604
  0
LINE
  5
275
100
AcDbEntity
  8
606202915-000-00-ED1_CL
100
AcDbLine
 62
3
  6
CONTINUOUS
 10
254.1140652452
 20
266.779411576
 11
253.9889716402
 21
269.2762799325
  0
TEXT
  5
276
100
AcDbEntity
  8
606202915-000-00-ED1_CL
100
AcDbText
 62
2
  6
CONTINUOUS
 10
252.6560100444
 20
273.9626138429
  7
STANDARD
 40
3.5
  1
A
 50
2.868131941
 41
0.8571428571
 72
0
100
AcDbText
  0
ENDBLK
  5
277
100
AcDbEntity
  8
0
  6
BYBLOCK
 62
0
100
AcDbBlockEnd
  0
BLOCK
  5
278
100
AcDbEntity
  8
606202915-000-00-ED1_CL
100
AcDbBlockBegin
 62
3
  6
CONTINUOUS
  2
GEOM_TOLERANCE_SYMBOLS_BL2
 70
64
 10
415.8442404505
 20
201.2613944176
  3
GEOM_TOLERANCE_SYMBOLS_BL2
  1

  0
LINE
  5
279
100
AcDbEntity
  8
606202915-000-00-ED1_CL
100
AcDbLine
 62
3
  6
CONTINUOUS
 10
403.8442399865
 20
204.7613945296
 11
403.8442399865
 21
197.7613943056
  0
LINE
  5
27A
100
AcDbEntity
  8
606202915-000-00-ED1_CL
100
AcDbLine
 62
3
  6
CONTINUOUS
 10
403.8442399865
 20
197.7613943056
 11
425.8442406905
 21
197.7613943056
  0
LINE
  5
27B
100
AcDbEntity
  8
606202915-000-00-ED1_CL
100
AcDbLine
 62
3
  6
CONTINUOUS
 10
432.8442409145
 20
197.7613943056
 11
432.8442409145
 21
204.7613945296
  0
LINE
  5
27C
100
AcDbEntity
  8
606202915-000-00-ED1_CL
100
AcDbLine
 62
3
  6
CONTINUOUS
 10
425.8442406905
 20
204.7613945296
 11
403.8442399865
 21
204.7613945296
  0
LINE
  5
27D
100
AcDbEntity
  8
606202915-000-00-ED1_CL
100
AcDbLine
 62
3
  6
CONTINUOUS
 10
410.8442402105
 20
204.7613945296
 11
410.8442402105
 21
197.7613943056
  0
LINE
  5
27E
100
AcDbEntity
  8
606202915-000-00-ED1_CL
100
AcDbLine
 62
3
  6
CONTINUOUS
 10
425.8442406905
 20
204.7613945296
 11
425.8442406905
 21
197.7613943056
  0
LINE
  5
27F
100
AcDbEntity
  8
606202915-000-00-ED1_CL
100
AcDbLine
 62
3
  6
CONTINUOUS
 10
425.8442406905
 20
204.7613945296
 11
432.8442409145
 21
204.7613945296
  0
LINE
  5
280
100
AcDbEntity
  8
606202915-000-00-ED1_CL
100
AcDbLine
 62
3
  6
CONTINUOUS
 10
425.8442406905
 20
197.7613943056
 11
432.8442409145
 21
197.7613943056
  0
LINE
  5
281
100
AcDbEntity
  8
606202915-000-00-ED1_CL
100
AcDbLine
 62
3
  6
CONTINUOUS
 10
398.8442399865
 20
201.2613943056
 11
403.8442399865
 21
201.2613943056
  0
TEXT
  5
282
100
AcDbEntity
  8
606202915-000-00-ED1_CL
100
AcDbText
 62
2
  6
CONTINUOUS
 10
403.9942399913
 20
200.0613943792
  7
TEXTSTYLE_3
 40
2.4000000768
  1
t
 41
1.0
 72
0
100
AcDbText
  0
TEXT
  5
283
100
AcDbEntity
  8
606202915-000-00-ED1_CL
100
AcDbText
 62
2
  6
CONTINUOUS
 10
411.9692402465
 20
199.5113943616
  7
STANDARD
 40
3.500000112
  1
0.003
 41
0.7285714286
 72
0
100
AcDbText
  0
TEXT
  5
284
100
AcDbEntity
  8
606202915-000-00-ED1_CL
100
AcDbText
 62
2
  6
CONTINUOUS
 10
426.4692407105
 20
199.5113943616
  7
STANDARD
 40
3.500000112
  1
AB
 41
0.8214285714
 72
0
100
AcDbText
  0
ENDBLK
  5
285
100
AcDbEntity
  8
0
  6
BYBLOCK
 62
0
100
AcDbBlockEnd
  0
BLOCK
  5
286
100
AcDbEntity
  8
606202915-000-00-ED1_CL
100
AcDbBlockBegin
 62
3
  6
CONTINUOUS
  2
GEOM_TOLERANCE_SYMBOLS_BL1
 70
64
 10
277.5941805271
 20
181.3416257382
  3
GEOM_TOLERANCE_SYMBOLS_BL1
  1

  0
LINE
  5
287
100
AcDbEntity
  8
606202915-000-00-ED1_CL
100
AcDbLine
 62
3
  6
CONTINUOUS
 10
283.8441805271
 20
179.8416257382
 11
281.3441805271
 21
181.3416257382
  0
LINE
  5
288
100
AcDbEntity
  8
606202915-000-00-ED1_CL
100
AcDbLine
 62
3
  6
CONTINUOUS
 10
281.3441805271
 20
181.3416257382
 11
283.8441805271
 21
182.8416257382
  0
LINE
  5
289
100
AcDbEntity
  8
606202915-000-00-ED1_CL
100
AcDbLine
 62
3
  6
CONTINUOUS
 10
283.8441805271
 20
182.8416257382
 11
283.8441805271
 21
179.8416257382
  0
LINE
  5
28A
100
AcDbEntity
  8
606202915-000-00-ED1_CL
100
AcDbLine
 62
3
  6
CONTINUOUS
 10
281.3441805271
 20
181.3416257382
 11
278.3441805271
 21
181.3416257382
  0
LINE
  5
28B
100
AcDbEntity
  8
606202915-000-00-ED1_CL
100
AcDbLine
 62
3
  6
CONTINUOUS
 10
278.3441805271
 20
177.8416257382
 11
278.3441805271
 21
184.8416257382
  0
LINE
  5
28C
100
AcDbEntity
  8
606202915-000-00-ED1_CL
100
AcDbLine
 62
3
  6
CONTINUOUS
 10
278.3441805271
 20
184.8416257382
 11
271.3441805271
 21
184.8416257382
  0
LINE
  5
28D
100
AcDbEntity
  8
606202915-000-00-ED1_CL
100
AcDbLine
 62
3
  6
CONTINUOUS
 10
271.3441805271
 20
184.8416257382
 11
271.3441805271
 21
177.8416257382
  0
LINE
  5
28E
100
AcDbEntity
  8
606202915-000-00-ED1_CL
100
AcDbLine
 62
3
  6
CONTINUOUS
 10
271.3441805271
 20
177.8416257382
 11
278.3441805271
 21
177.8416257382
  0
LINE
  5
28F
100
AcDbEntity
  8
606202915-000-00-ED1_CL
100
AcDbLine
 62
3
  6
CONTINUOUS
 10
283.8441805271
 20
182.7388368936
 11
283.6728657861
 21
182.7388368936
  0
LINE
  5
290
100
AcDbEntity
  8
606202915-000-00-ED1_CL
100
AcDbLine
 62
3
  6
CONTINUOUS
 10
283.8441805271
 20
182.6388368936
 11
283.5061991194
 21
182.6388368936
  0
LINE
  5
291
100
AcDbEntity
  8
606202915-000-00-ED1_CL
100
AcDbLine
 62
3
  6
CONTINUOUS
 10
283.8441805271
 20
182.5388368936
 11
283.3395324528
 21
182.5388368936
  0
LINE
  5
292
100
AcDbEntity
  8
606202915-000-00-ED1_CL
100
AcDbLine
 62
3
  6
CONTINUOUS
 10
283.8441805271
 20
182.4388368936
 11
283.1728657861
 21
182.4388368936
  0
LINE
  5
293
100
AcDbEntity
  8
606202915-000-00-ED1_CL
100
AcDbLine
 62
3
  6
CONTINUOUS
 10
283.8441805271
 20
182.3388368936
 11
283.0061991194
 21
182.3388368936
  0
LINE
  5
294
100
AcDbEntity
  8
606202915-000-00-ED1_CL
100
AcDbLine
 62
3
  6
CONTINUOUS
 10
283.8441805271
 20
182.2388368936
 11
282.8395324528
 21
182.2388368936
  0
LINE
  5
295
100
AcDbEntity
  8
606202915-000-00-ED1_CL
100
AcDbLine
 62
3
  6
CONTINUOUS
 10
283.8441805271
 20
182.1388368936
 11
282.6728657861
 21
182.1388368936
  0
LINE
  5
296
100
AcDbEntity
  8
606202915-000-00-ED1_CL
100
AcDbLine
 62
3
  6
CONTINUOUS
 10
283.8441805271
 20
182.0388368936
 11
282.5061991194
 21
182.0388368936
  0
LINE
  5
297
100
AcDbEntity
  8
606202915-000-00-ED1_CL
100
AcDbLine
 62
3
  6
CONTINUOUS
 10
283.8441805271
 20
181.9388368936
 11
282.3395324528
 21
181.9388368936
  0
LINE
  5
298
100
AcDbEntity
  8
606202915-000-00-ED1_CL
100
AcDbLine
 62
3
  6
CONTINUOUS
 10
283.8441805271
 20
181.8388368936
 11
282.1728657861
 21
181.8388368936
  0
LINE
  5
299
100
AcDbEntity
  8
606202915-000-00-ED1_CL
100
AcDbLine
 62
3
  6
CONTINUOUS
 10
283.8441805271
 20
181.7388368936
 11
282.0061991194
 21
181.7388368936
  0
LINE
  5
29A
100
AcDbEntity
  8
606202915-000-00-ED1_CL
100
AcDbLine
 62
3
  6
CONTINUOUS
 10
283.8441805271
 20
181.6388368936
 11
281.8395324528
 21
181.6388368936
  0
LINE
  5
29B
100
AcDbEntity
  8
606202915-000-00-ED1_CL
100
AcDbLine
 62
3
  6
CONTINUOUS
 10
283.8441805271
 20
181.5388368936
 11
281.6728657861
 21
181.5388368936
  0
LINE
  5
29C
100
AcDbEntity
  8
606202915-000-00-ED1_CL
100
AcDbLine
 62
3
  6
CONTINUOUS
 10
283.8441805271
 20
181.4388368936
 11
281.5061991194
 21
181.4388368936
  0
LINE
  5
29D
100
AcDbEntity
  8
606202915-000-00-ED1_CL
100
AcDbLine
 62
3
  6
CONTINUOUS
 10
283.8441805271
 20
181.3388368936
 11
281.3488286015
 21
181.3388368936
  0
LINE
  5
29E
100
AcDbEntity
  8
606202915-000-00-ED1_CL
100
AcDbLine
 62
3
  6
CONTINUOUS
 10
283.8441805271
 20
181.2388368936
 11
281.5154952682
 21
181.2388368936
  0
LINE
  5
29F
100
AcDbEntity
  8
606202915-000-00-ED1_CL
100
AcDbLine
 62
3
  6
CONTINUOUS
 10
283.8441805271
 20
181.1388368936
 11
281.6821619348
 21
181.1388368936
  0
LINE
  5
2A0
100
AcDbEntity
  8
606202915-000-00-ED1_CL
100
AcDbLine
 62
3
  6
CONTINUOUS
 10
283.8441805271
 20
181.0388368936
 11
281.8488286015
 21
181.0388368936
  0
LINE
  5
2A1
100
AcDbEntity
  8
606202915-000-00-ED1_CL
100
AcDbLine
 62
3
  6
CONTINUOUS
 10
283.8441805271
 20
180.9388368936
 11
282.0154952682
 21
180.9388368936
  0
LINE
  5
2A2
100
AcDbEntity
  8
606202915-000-00-ED1_CL
100
AcDbLine
 62
3
  6
CONTINUOUS
 10
283.8441805271
 20
180.8388368936
 11
282.1821619348
 21
180.8388368936
  0
LINE
  5
2A3
100
AcDbEntity
  8
606202915-000-00-ED1_CL
100
AcDbLine
 62
3
  6
CONTINUOUS
 10
283.8441805271
 20
180.7388368936
 11
282.3488286015
 21
180.7388368936
  0
LINE
  5
2A4
100
AcDbEntity
  8
606202915-000-00-ED1_CL
100
AcDbLine
 62
3
  6
CONTINUOUS
 10
283.8441805271
 20
180.6388368936
 11
282.5154952682
 21
180.6388368936
  0
LINE
  5
2A5
100
AcDbEntity
  8
606202915-000-00-ED1_CL
100
AcDbLine
 62
3
  6
CONTINUOUS
 10
283.8441805271
 20
180.5388368936
 11
282.6821619348
 21
180.5388368936
  0
LINE
  5
2A6
100
AcDbEntity
  8
606202915-000-00-ED1_CL
100
AcDbLine
 62
3
  6
CONTINUOUS
 10
283.8441805271
 20
180.4388368936
 11
282.8488286015
 21
180.4388368936
  0
LINE
  5
2A7
100
AcDbEntity
  8
606202915-000-00-ED1_CL
100
AcDbLine
 62
3
  6
CONTINUOUS
 10
283.8441805271
 20
180.3388368936
 11
283.0154952682
 21
180.3388368936
  0
LINE
  5
2A8
100
AcDbEntity
  8
606202915-000-00-ED1_CL
100
AcDbLine
 62
3
  6
CONTINUOUS
 10
283.8441805271
 20
180.2388368936
 11
283.1821619348
 21
180.2388368936
  0
LINE
  5
2A9
100
AcDbEntity
  8
606202915-000-00-ED1_CL
100
AcDbLine
 62
3
  6
CONTINUOUS
 10
283.8441805271
 20
180.1388368936
 11
283.3488286015
 21
180.1388368936
  0
LINE
  5
2AA
100
AcDbEntity
  8
606202915-000-00-ED1_CL
100
AcDbLine
 62
3
  6
CONTINUOUS
 10
283.8441805271
 20
180.0388368936
 11
283.5154952682
 21
180.0388368936
  0
LINE
  5
2AB
100
AcDbEntity
  8
606202915-000-00-ED1_CL
100
AcDbLine
 62
3
  6
CONTINUOUS
 10
283.8441805271
 20
179.9388368936
 11
283.6821619348
 21
179.9388368936
  0
TEXT
  5
2AC
100
AcDbEntity
  8
606202915-000-00-ED1_CL
100
AcDbText
 62
2
  6
CONTINUOUS
 10
273.8691805271
 20
179.5916257382
  7
STANDARD
 40
3.5
  1
B
 41
0.7857142857
 72
0
100
AcDbText
  0
ENDBLK
  5
2AD
100
AcDbEntity
  8
0
  6
BYBLOCK
 62
0
100
AcDbBlockEnd
  0
BLOCK
  5
2AE
100
AcDbEntity
  8
606202915-000-00-ED1_FORMAT
100
AcDbBlockBegin
 62
3
  6
CONTINUOUS
  2
BARCODEBOX_BL0
 70
64
 10
74.5
 20
46.5
  3
BARCODEBOX_BL0
  1

  0
LINE
  5
2AF
100
AcDbEntity
  8
606202915-000-00-ED1_FORMAT
100
AcDbLine
 62
3
  6
CONTINUOUS
 10
35.0
 20
83.0
 11
40.0
 21
83.0
  0
LINE
  5
2B0
100
AcDbEntity
  8
606202915-000-00-ED1_FORMAT
100
AcDbLine
 62
3
  6
CONTINUOUS
 10
40.0
 20
83.0
 11
40.0
 21
78.0
  0
LINE
  5
2B1
100
AcDbEntity
  8
606202915-000-00-ED1_FORMAT
100
AcDbLine
 62
3
  6
CONTINUOUS
 10
122.0
 20
65.0
 11
127.0
 21
65.0
  0
LINE
  5
2B2
100
AcDbEntity
  8
606202915-000-00-ED1_FORMAT
100
AcDbLine
 62
3
  6
CONTINUOUS
 10
127.0
 20
65.0
 11
127.0
 21
60.0
  0
LINE
  5
2B3
100
AcDbEntity
  8
606202915-000-00-ED1_FORMAT
100
AcDbLine
 62
3
  6
CONTINUOUS
 10
78.5
 20
65.0
 11
88.5
 21
65.0
  0
LINE
  5
2B4
100
AcDbEntity
  8
606202915-000-00-ED1_FORMAT
100
AcDbLine
 62
3
  6
CONTINUOUS
 10
127.0
 20
42.5
 11
127.0
 21
32.5
  0
LINE
  5
2B5
100
AcDbEntity
  8
606202915-000-00-ED1_FORMAT
100
AcDbLine
 62
3
  6
CONTINUOUS
 10
127.0
 20
10.0
 11
127.0
 21
15.0
  0
LINE
  5
2B6
100
AcDbEntity
  8
606202915-000-00-ED1_FORMAT
100
AcDbLine
 62
3
  6
CONTINUOUS
 10
27.0
 20
83.0
 11
22.0
 21
83.0
  0
LINE
  5
2B7
100
AcDbEntity
  8
606202915-000-00-ED1_FORMAT
100
AcDbLine
 62
3
  6
CONTINUOUS
 10
45.0
 20
65.0
 11
35.0
 21
65.0
  0
LINE
  5
2B8
100
AcDbEntity
  8
606202915-000-00-ED1_FORMAT
100
AcDbLine
 62
3
  6
CONTINUOUS
 10
40.0
 20
65.0
 11
40.0
 21
70.0
  0
LINE
  5
2B9
100
AcDbEntity
  8
606202915-000-00-ED1_FORMAT
100
AcDbLine
 62
3
  6
CONTINUOUS
 10
22.0
 20
65.0
 11
27.0
 21
65.0
  0
TEXT
  5
2BA
100
AcDbEntity
  8
606202915-000-00-ED1_FORMAT
100
AcDbText
 62
2
  6
CONTINUOUS
 10
126.0
 20
11.0
  7
STANDARD
 40
2.0
  1
BARCODE-ZONE
 50
90.0
 41
0.7876984127
 72
0
100
AcDbText
  0
ENDBLK
  5
2BB
100
AcDbEntity
  8
0
  6
BYBLOCK
 62
0
100
AcDbBlockEnd
  0
BLOCK
  5
2BC
100
AcDbEntity
  8
0
100
AcDbBlockBegin
  2
_FILLED
 70
64
 10
0.0
 20
0.0
  3
_FILLED
  1

  0
SOLID
  5
2BD
100
AcDbEntity
  8
0
  6
BYBLOCK
 62
0
100
AcDbTrace
 10
0.0
 20
0.0
 11
-1.0
 21
0.125
 12
-1.0
 22
-0.125
 13
-1.0
 23
-0.125
  0
ENDBLK
  5
2BE
100
AcDbEntity
  8
0
  6
BYBLOCK
 62
0
100
AcDbBlockEnd
  0
BLOCK
  5
2BF
100
AcDbEntity
  8
0
100
AcDbBlockBegin
  2
_DOT
 70
64
 10
0.0
 20
0.0
  3
_DOT
  1

  0
LWPOLYLINE
  5
2C0
100
AcDbEntity
  8
0
  6
BYBLOCK
 62
0
100
AcDbPolyline
 90
2
 70
1
 43
0.125
 10
-0.0625
 20
0.0
 42
1.0
 10
0.0625
 20
0.0
 42
1.0
  0
LINE
  5
2C1
100
AcDbEntity
  8
0
  6
BYBLOCK
 62
0
100
AcDbLine
 10
-0.125
 20
0.0
 11
-1.0
 21
0.0
  0
ENDBLK
  5
2C2
100
AcDbEntity
  8
0
  6
BYBLOCK
 62
0
100
AcDbBlockEnd
  0
BLOCK
  5
2C3
100
AcDbEntity
  8
30381075_DIM
100
AcDbBlockBegin
 62
3
  6
CONTINUOUS
  2
*D0
 70
65
 10
0.0
 20
0.0
  3
*D0
  1

  0
TEXT
  5
2C4
100
AcDbEntity
  8
30381075_DIM
100
AcDbText
 62
2
  6
CONTINUOUS
 10
348.2191805271
 20
179.2377567771
  7
STANDARD
 40
3.5
  1
36
 41
0.75
 72
1
 11
350.8441805271
 21
179.2377567771
100
AcDbText
  0
LINE
  5
2C5
100
AcDbEntity
  8
30381075_DIM
100
AcDbLine
 62
3
  6
CONTINUOUS
 10
368.8441805271
 20
214.2613943056
 11
368.8441805271
 21
176.8627567771
  0
LINE
  5
2C6
100
AcDbEntity
  8
30381075_DIM
100
AcDbLine
 62
3
  6
CONTINUOUS
 10
332.8441805271
 20
226.2613943056
 11
332.8441805271
 21
176.8627567771
  0
LINE
  5
2C7
100
AcDbEntity
  8
30381075_DIM
100
AcDbLine
 62
3
  6
CONTINUOUS
 10
368.8441805271
 20
178.3627567771
 11
350.8441805271
 21
178.3627567771
  0
LINE
  5
2C8
100
AcDbEntity
  8
30381075_DIM
100
AcDbLine
 62
3
  6
CONTINUOUS
 10
332.8441805271
 20
178.3627567771
 11
350.8441805271
 21
178.3627567771
  0
INSERT
  5
2C9
100
AcDbEntity
  8
30381075_DIM
100
AcDbBlockReference
 62
3
  6
CONTINUOUS
  2
_FILLED
 10
368.8441805271
 20
178.3627567771
 41
3.5
 42
3.5
 43
3.5
  0
INSERT
  5
2CA
100
AcDbEntity
  8
30381075_DIM
100
AcDbBlockReference
 62
3
  6
CONTINUOUS
  2
_FILLED
 10
332.8441805271
 20
178.3627567771
 41
3.5
 42
3.5
 43
3.5
 50
180.0
  0
ENDBLK
  5
2CB
100
AcDbEntity
  8
0
  6
BYBLOCK
 62
0
100
AcDbBlockEnd
  0
BLOCK
  5
2CC
100
AcDbEntity
  8
30381075_DIM
100
AcDbBlockBegin
 62
3
  6
CONTINUOUS
  2
*D1
 70
65
 10
0.0
 20
0.0
  3
*D1
  1

  0
TEXT
  5
2CD
100
AcDbEntity
  8
30381075_DIM
100
AcDbText
 62
2
  6
CONTINUOUS
 10
345.8777242864
 20
189.2377567771
  7
STANDARD
 40
3.5
  1
10
 41
0.6785714286
 72
0
100
AcDbText
  0
TEXT
  5
2CE
100
AcDbEntity
  8
30381075_DIM
100
AcDbText
 62
2
  6
CONTINUOUS
 10
350.6277242864
 20
189.2377567771
  7
STANDARD
 40
3.5
  1
 VERSTELLWEG
 41
0.8015873016
 72
0
100
AcDbText
  0
LINE
  5
2CF
100
AcDbEntity
  8
30381075_DIM
100
AcDbLine
 62
3
  6
CONTINUOUS
 10
332.8441805271
 20
226.2613943056
 11
332.8441805271
 21
186.8627567771
  0
LINE
  5
2D0
100
AcDbEntity
  8
30381075_DIM
100
AcDbLine
 62
3
  6
CONTINUOUS
 10
342.8441805271
 20
226.2613943056
 11
342.8441805271
 21
186.8627567771
  0
LINE
  5
2D1
100
AcDbEntity
  8
30381075_DIM
100
AcDbLine
 62
3
  6
CONTINUOUS
 10
332.8441805271
 20
188.3627567771
 11
337.8441805271
 21
188.3627567771
  0
LINE
  5
2D2
100
AcDbEntity
  8
30381075_DIM
100
AcDbLine
 62
3
  6
CONTINUOUS
 10
342.8441805271
 20
188.3627567771
 11
337.8441805271
 21
188.3627567771
  0
LINE
  5
2D3
100
AcDbEntity
  8
30381075_DIM
100
AcDbLine
 62
3
  6
CONTINUOUS
 10
337.8441805271
 20
188.3627567771
 11
384.294390953
 21
188.3627567771
  0
INSERT
  5
2D4
100
AcDbEntity
  8
30381075_DIM
100
AcDbBlockReference
 62
3
  6
CONTINUOUS
  2
_FILLED
 10
332.8441805271
 20
188.3627567771
 41
3.5
 42
3.5
 43
3.5
 50
180.0
  0
INSERT
  5
2D5
100
AcDbEntity
  8
30381075_DIM
100
AcDbBlockReference
 62
3
  6
CONTINUOUS
  2
_FILLED
 10
342.8441805271
 20
188.3627567771
 41
3.5
 42
3.5
 43
3.5
  0
ENDBLK
  5
2D6
100
AcDbEntity
  8
0
  6
BYBLOCK
 62
0
100
AcDbBlockEnd
  0
BLOCK
  5
2D7
100
AcDbEntity
  8
10083256#AF0_DIM
100
AcDbBlockBegin
 62
3
  6
CONTINUOUS
  2
*D2
 70
65
 10
0.0
 20
0.0
  3
*D2
  1

  0
TEXT
  5
2D8
100
AcDbEntity
  8
10083256#AF0_DIM
100
AcDbText
 62
2
  6
CONTINUOUS
 10
407.9691805271
 20
225.5530609723
  7
TEXTSTYLE_3
 40
3.5
  1
n
 50
90.0
 41
1.0
 72
1
 11
407.9691805271
 21
227.8863943056
100
AcDbText
  0
TEXT
  5
2D9
100
AcDbEntity
  8
10083256#AF0_DIM
100
AcDbText
 62
2
  6
CONTINUOUS
 10
407.9691805271
 20
230.219727639
  7
STANDARD
 40
3.5
  1
21
 50
90.0
 41
0.6785714286
 72
1
 11
407.9691805271
 21
232.594727639
100
AcDbText
  0
LINE
  5
2DA
100
AcDbEntity
  8
10083256#AF0_DIM
100
AcDbLine
 62
3
  6
CONTINUOUS
 10
368.8441805271
 20
240.7613943056
 11
410.3441805271
 21
240.7613943056
  0
LINE
  5
2DB
100
AcDbEntity
  8
10083256#AF0_DIM
100
AcDbLine
 62
3
  6
CONTINUOUS
 10
368.8441805271
 20
219.7613943056
 11
410.3441805271
 21
219.7613943056
  0
LINE
  5
2DC
100
AcDbEntity
  8
10083256#AF0_DIM
100
AcDbLine
 62
3
  6
CONTINUOUS
 10
408.8441805271
 20
240.7613943056
 11
408.8441805271
 21
230.2613943056
  0
LINE
  5
2DD
100
AcDbEntity
  8
10083256#AF0_DIM
100
AcDbLine
 62
3
  6
CONTINUOUS
 10
408.8441805271
 20
219.7613943056
 11
408.8441805271
 21
230.2613943056
  0
INSERT
  5
2DE
100
AcDbEntity
  8
10083256#AF0_DIM
100
AcDbBlockReference
 62
3
  6
CONTINUOUS
  2
_FILLED
 10
408.8441805271
 20
240.7613943056
 41
3.5
 42
3.5
 43
3.5
 50
90.0
  0
INSERT
  5
2DF
100
AcDbEntity
  8
10083256#AF0_DIM
100
AcDbBlockReference
 62
3
  6
CONTINUOUS
  2
_FILLED
 10
408.8441805271
 20
219.7613943056
 41
3.5
 42
3.5
 43
3.5
 50
270.0
  0
ENDBLK
  5
2E0
100
AcDbEntity
  8
0
  6
BYBLOCK
 62
0
100
AcDbBlockEnd
  0
BLOCK
  5
2E1
100
AcDbEntity
  8
10083256#AF0_DIM
100
AcDbBlockBegin
 62
3
  6
CONTINUOUS
  2
*D3
 70
65
 10
0.0
 20
0.0
  3
*D3
  1

  0
TEXT
  5
2E2
100
AcDbEntity
  8
10083256#AF0_DIM
100
AcDbText
 62
2
  6
CONTINUOUS
 10
320.2161197152
 20
212.2916953177
  7
STANDARD
 40
3.5
  1
R
 50
-56.7616710197
 41
0.7857142857
 72
1
 11
320.9697886595
 21
211.1416483089
100
AcDbText
  0
TEXT
  5
2E3
100
AcDbEntity
  8
10083256#AF0_DIM
100
AcDbText
 62
2
  6
CONTINUOUS
 10
321.7234576038
 20
209.9916013001
  7
STANDARD
 40
3.5
  1
10
 50
-56.7616710197
 41
0.6785714286
 72
1
 11
323.0252494166
 21
208.0051564667
100
AcDbText
  0
LINE
  5
2E4
100
AcDbEntity
  8
10083256#AF0_DIM
100
AcDbLine
 62
3
  6
CONTINUOUS
 10
317.3129518415
 20
215.1253725514
 11
323.5951931329
 21
205.5391041233
  0
INSERT
  5
2E5
100
AcDbEntity
  8
10083256#AF0_DIM
100
AcDbBlockReference
 62
3
  6
CONTINUOUS
  2
_FILLED
 10
317.3129518415
 20
215.1253725514
 41
3.5
 42
3.5
 43
3.5
 50
123.2383289803
  0
ENDBLK
  5
2E6
100
AcDbEntity
  8
0
  6
BYBLOCK
 62
0
100
AcDbBlockEnd
  0
BLOCK
  5
2E7
100
AcDbEntity
  8
10083256#AF0_DIM
100
AcDbBlockBegin
 62
3
  6
CONTINUOUS
  2
*D4
 70
65
 10
0.0
 20
0.0
  3
*D4
  1

  0
TEXT
  5
2E8
100
AcDbEntity
  8
10083256#AF0_DIM
100
AcDbText
 62
2
  6
CONTINUOUS
 10
330.667647754
 20
176.1127567771
  7
STANDARD
 40
3.5
  1
M
 50
90.0
 41
0.8571428571
 72
2
 11
330.667647754
 21
179.1127567771
100
AcDbText
  0
TEXT
  5
2E9
100
AcDbEntity
  8
10083256#AF0_DIM
100
AcDbText
 62
2
  6
CONTINUOUS
 10
330.667647754
 20
179.1127567771
  7
STANDARD
 40
3.5
  1
10
 50
90.0
 41
0.6785714286
 72
2
 11
330.667647754
 21
183.8627567771
100
AcDbText
  0
TEXT
  5
2EA
100
AcDbEntity
  8
10083256#AF0_DIM
100
AcDbText
 62
2
  6
CONTINUOUS
 10
330.667647754
 20
183.8627567771
  7
STANDARD
 40
3.5
  1
x1
 50
90.0
 41
0.6428571429
 72
2
 11
330.667647754
 21
188.3627567771
100
AcDbText
  0
LINE
  5
2EB
100
AcDbEntity
  8
10083256#AF0_DIM
100
AcDbLine
 62
3
  6
CONTINUOUS
 10
338.8977703656
 20
235.2613943056
 11
330.042647754
 21
235.2613943056
  0
LINE
  5
2EC
100
AcDbEntity
  8
10083256#AF0_DIM
100
AcDbLine
 62
3
  6
CONTINUOUS
 10
338.8977703656
 20
225.2613943056
 11
330.042647754
 21
225.2613943056
  0
LINE
  5
2ED
100
AcDbEntity
  8
10083256#AF0_DIM
100
AcDbLine
 62
3
  6
CONTINUOUS
 10
331.542647754
 20
235.2613943056
 11
331.542647754
 21
241.2613943056
  0
LINE
  5
2EE
100
AcDbEntity
  8
10083256#AF0_DIM
100
AcDbLine
 62
3
  6
CONTINUOUS
 10
331.542647754
 20
241.2613943056
 11
331.542647754
 21
230.2613943056
  0
LINE
  5
2EF
100
AcDbEntity
  8
10083256#AF0_DIM
100
AcDbLine
 62
3
  6
CONTINUOUS
 10
331.542647754
 20
225.2613943056
 11
331.542647754
 21
176.1127567771
  0
LINE
  5
2F0
100
AcDbEntity
  8
10083256#AF0_DIM
100
AcDbLine
 62
3
  6
CONTINUOUS
 10
331.542647754
 20
176.1127567771
 11
331.542647754
 21
230.2613943056
  0
INSERT
  5
2F1
100
AcDbEntity
  8
10083256#AF0_DIM
100
AcDbBlockReference
 62
3
  6
CONTINUOUS
  2
_FILLED
 10
331.542647754
 20
235.2613943056
 41
3.5
 42
3.5
 43
3.5
 50
270.0
  0
INSERT
  5
2F2
100
AcDbEntity
  8
10083256#AF0_DIM
100
AcDbBlockReference
 62
3
  6
CONTINUOUS
  2
_FILLED
 10
331.542647754
 20
225.2613943056
 41
3.5
 42
3.5
 43
3.5
 50
90.0
  0
ENDBLK
  5
2F3
100
AcDbEntity
  8
0
  6
BYBLOCK
 62
0
100
AcDbBlockEnd
  0
BLOCK
  5
2F4
100
AcDbEntity
  8
10083256#AF0_DIM
100
AcDbBlockBegin
 62
3
  6
CONTINUOUS
  2
*D5
 70
65
 10
0.0
 20
0.0
  3
*D5
  1

  0
TEXT
  5
2F5
100
AcDbEntity
  8
10083256#AF0_DIM
100
AcDbText
 62
2
  6
CONTINUOUS
 10
337.5021114889
 20
260.1363943056
  7
STANDARD
 40
3.5
  1
M
 41
0.8571428571
 72
0
100
AcDbText
  0
TEXT
  5
2F6
100
AcDbEntity
  8
10083256#AF0_DIM
100
AcDbText
 62
2
  6
CONTINUOUS
 10
340.5021114889
 20
260.1363943056
  7
STANDARD
 40
3.5
  1
6
 41
0.7857142857
 72
0
100
AcDbText
  0
TEXT
  5
2F7
100
AcDbEntity
  8
10083256#AF0_DIM
100
AcDbText
 62
2
  6
CONTINUOUS
 10
343.2521114889
 20
260.1363943056
  7
STANDARD
 40
3.5
  1
(
 41
0.4285714286
 72
0
100
AcDbText
  0
TEXT
  5
2F8
100
AcDbEntity
  8
10083256#AF0_DIM
100
AcDbText
 62
2
  6
CONTINUOUS
 10
344.7521114889
 20
260.1363943056
  7
STANDARD
 40
3.5
  1
4
 41
0.7857142857
 72
0
100
AcDbText
  0
TEXT
  5
2F9
100
AcDbEntity
  8
10083256#AF0_DIM
100
AcDbText
 62
2
  6
CONTINUOUS
 10
347.5021114889
 20
260.1363943056
  7
STANDARD
 40
3.5
  1
x)
 41
0.5714285714
 72
0
100
AcDbText
  0
LINE
  5
2FA
100
AcDbEntity
  8
10083256#AF0_DIM
100
AcDbLine
 62
3
  6
CONTINUOUS
 10
330.3441805271
 20
239.7613943056
 11
330.3441805271
 21
260.7613943056
  0
LINE
  5
2FB
100
AcDbEntity
  8
10083256#AF0_DIM
100
AcDbLine
 62
3
  6
CONTINUOUS
 10
324.3441805271
 20
239.7613943056
 11
324.3441805271
 21
260.7613943056
  0
LINE
  5
2FC
100
AcDbEntity
  8
10083256#AF0_DIM
100
AcDbLine
 62
3
  6
CONTINUOUS
 10
330.3441805271
 20
259.2613943056
 11
351.5021114889
 21
259.2613943056
  0
LINE
  5
2FD
100
AcDbEntity
  8
10083256#AF0_DIM
100
AcDbLine
 62
3
  6
CONTINUOUS
 10
351.5021114889
 20
259.2613943056
 11
327.3441805271
 21
259.2613943056
  0
LINE
  5
2FE
100
AcDbEntity
  8
10083256#AF0_DIM
100
AcDbLine
 62
3
  6
CONTINUOUS
 10
324.3441805271
 20
259.2613943056
 11
318.3441805271
 21
259.2613943056
  0
LINE
  5
2FF
100
AcDbEntity
  8
10083256#AF0_DIM
100
AcDbLine
 62
3
  6
CONTINUOUS
 10
318.3441805271
 20
259.2613943056
 11
327.3441805271
 21
259.2613943056
  0
INSERT
  5
300
100
AcDbEntity
  8
10083256#AF0_DIM
100
AcDbBlockReference
 62
3
  6
CONTINUOUS
  2
_FILLED
 10
330.3441805271
 20
259.2613943056
 41
3.5
 42
3.5
 43
3.5
 50
180.0
  0
INSERT
  5
301
100
AcDbEntity
  8
10083256#AF0_DIM
100
AcDbBlockReference
 62
3
  6
CONTINUOUS
  2
_FILLED
 10
324.3441805271
 20
259.2613943056
 41
3.5
 42
3.5
 43
3.5
  0
ENDBLK
  5
302
100
AcDbEntity
  8
0
  6
BYBLOCK
 62
0
100
AcDbBlockEnd
  0
BLOCK
  5
303
100
AcDbEntity
  8
10083256#AF0_DIM
100
AcDbBlockBegin
 62
3
  6
CONTINUOUS
  2
*D6
 70
65
 10
0.0
 20
0.0
  3
*D6
  1

  0
TEXT
  5
304
100
AcDbEntity
  8
10083256#AF0_DIM
100
AcDbText
 62
2
  6
CONTINUOUS
 10
323.7191805271
 20
169.2377567771
  7
STANDARD
 40
3.5
  1
85
 41
0.75
 72
1
 11
326.3441805271
 21
169.2377567771
100
AcDbText
  0
LINE
  5
305
100
AcDbEntity
  8
10083256#AF0_DIM
100
AcDbLine
 62
3
  6
CONTINUOUS
 10
368.8441805271
 20
226.2613943056
 11
368.8441805271
 21
166.8627567771
  0
LINE
  5
306
100
AcDbEntity
  8
10083256#AF0_DIM
100
AcDbLine
 62
3
  6
CONTINUOUS
 10
283.8441805271
 20
226.2613943056
 11
283.8441805271
 21
166.8627567771
  0
LINE
  5
307
100
AcDbEntity
  8
10083256#AF0_DIM
100
AcDbLine
 62
3
  6
CONTINUOUS
 10
368.8441805271
 20
168.3627567771
 11
326.3441805271
 21
168.3627567771
  0
LINE
  5
308
100
AcDbEntity
  8
10083256#AF0_DIM
100
AcDbLine
 62
3
  6
CONTINUOUS
 10
283.8441805271
 20
168.3627567771
 11
326.3441805271
 21
168.3627567771
  0
INSERT
  5
309
100
AcDbEntity
  8
10083256#AF0_DIM
100
AcDbBlockReference
 62
3
  6
CONTINUOUS
  2
_FILLED
 10
368.8441805271
 20
168.3627567771
 41
3.5
 42
3.5
 43
3.5
  0
INSERT
  5
30A
100
AcDbEntity
  8
10083256#AF0_DIM
100
AcDbBlockReference
 62
3
  6
CONTINUOUS
  2
_FILLED
 10
283.8441805271
 20
168.3627567771
 41
3.5
 42
3.5
 43
3.5
 50
180.0
  0
ENDBLK
  5
30B
100
AcDbEntity
  8
0
  6
BYBLOCK
 62
0
100
AcDbBlockEnd
  0
BLOCK
  5
30C
100
AcDbEntity
  8
10083256#AF0_DIM
100
AcDbBlockBegin
 62
3
  6
CONTINUOUS
  2
*D7
 70
65
 10
0.0
 20
0.0
  3
*D7
  1

  0
TEXT
  5
30D
100
AcDbEntity
  8
10083256#AF0_DIM
100
AcDbText
 62
2
  6
CONTINUOUS
 10
417.9691805271
 20
225.1780609723
  7
TEXTSTYLE_3
 40
3.5
  1
n
 50
90.0
 41
1.0
 72
1
 11
417.9691805271
 21
227.5113943056
100
AcDbText
  0
TEXT
  5
30E
100
AcDbEntity
  8
10083256#AF0_DIM
100
AcDbText
 62
2
  6
CONTINUOUS
 10
417.9691805271
 20
229.844727639
  7
STANDARD
 40
3.5
  1
27
 50
90.0
 41
0.7857142857
 72
1
 11
417.9691805271
 21
232.594727639
100
AcDbText
  0
LINE
  5
30F
100
AcDbEntity
  8
10083256#AF0_DIM
100
AcDbLine
 62
3
  6
CONTINUOUS
 10
323.3441805271
 20
243.7613943056
 11
420.3441805271
 21
243.7613943056
  0
LINE
  5
310
100
AcDbEntity
  8
10083256#AF0_DIM
100
AcDbLine
 62
3
  6
CONTINUOUS
 10
323.3441805271
 20
216.7613943056
 11
420.3441805271
 21
216.7613943056
  0
LINE
  5
311
100
AcDbEntity
  8
10083256#AF0_DIM
100
AcDbLine
 62
3
  6
CONTINUOUS
 10
418.8441805271
 20
243.7613943056
 11
418.8441805271
 21
230.2613943056
  0
LINE
  5
312
100
AcDbEntity
  8
10083256#AF0_DIM
100
AcDbLine
 62
3
  6
CONTINUOUS
 10
418.8441805271
 20
216.7613943056
 11
418.8441805271
 21
230.2613943056
  0
INSERT
  5
313
100
AcDbEntity
  8
10083256#AF0_DIM
100
AcDbBlockReference
 62
3
  6
CONTINUOUS
  2
_FILLED
 10
418.8441805271
 20
243.7613943056
 41
3.5
 42
3.5
 43
3.5
 50
90.0
  0
INSERT
  5
314
100
AcDbEntity
  8
10083256#AF0_DIM
100
AcDbBlockReference
 62
3
  6
CONTINUOUS
  2
_FILLED
 10
418.8441805271
 20
216.7613943056
 41
3.5
 42
3.5
 43
3.5
 50
270.0
  0
ENDBLK
  5
315
100
AcDbEntity
  8
0
  6
BYBLOCK
 62
0
100
AcDbBlockEnd
  0
BLOCK
  5
316
100
AcDbEntity
  8
10083256#AF0_DIM
100
AcDbBlockBegin
 62
3
  6
CONTINUOUS
  2
*D8
 70
65
 10
0.0
 20
0.0
  3
*D8
  1

  0
TEXT
  5
317
100
AcDbEntity
  8
10083256#AF0_DIM
100
AcDbText
 62
2
  6
CONTINUOUS
 10
397.9691805271
 20
249.7613943056
  7
TEXTSTYLE_3
 40
3.5
  1
n
 50
90.0
 41
1.0
 72
0
100
AcDbText
  0
TEXT
  5
318
100
AcDbEntity
  8
10083256#AF0_DIM
100
AcDbText
 62
2
  6
CONTINUOUS
 10
397.9691805271
 20
254.4280609723
  7
STANDARD
 40
3.5
  1
8
 50
90.0
 41
0.7857142857
 72
0
100
AcDbText
  0
LINE
  5
319
100
AcDbEntity
  8
10083256#AF0_DIM
100
AcDbLine
 62
3
  6
CONTINUOUS
 10
368.8441805271
 20
234.2613943056
 11
400.3441805271
 21
234.2613943056
  0
LINE
  5
31A
100
AcDbEntity
  8
10083256#AF0_DIM
100
AcDbLine
 62
3
  6
CONTINUOUS
 10
368.8441805271
 20
226.2613943056
 11
400.3441805271
 21
226.2613943056
  0
LINE
  5
31B
100
AcDbEntity
  8
10083256#AF0_DIM
100
AcDbLine
 62
3
  6
CONTINUOUS
 10
398.8441805271
 20
234.2613943056
 11
398.8441805271
 21
257.1780609723
  0
LINE
  5
31C
100
AcDbEntity
  8
10083256#AF0_DIM
100
AcDbLine
 62
3
  6
CONTINUOUS
 10
398.8441805271
 20
257.1780609723
 11
398.8441805271
 21
230.2613943056
  0
LINE
  5
31D
100
AcDbEntity
  8
10083256#AF0_DIM
100
AcDbLine
 62
3
  6
CONTINUOUS
 10
398.8441805271
 20
226.2613943056
 11
398.8441805271
 21
220.2613943056
  0
LINE
  5
31E
100
AcDbEntity
  8
10083256#AF0_DIM
100
AcDbLine
 62
3
  6
CONTINUOUS
 10
398.8441805271
 20
220.2613943056
 11
398.8441805271
 21
230.2613943056
  0
INSERT
  5
31F
100
AcDbEntity
  8
10083256#AF0_DIM
100
AcDbBlockReference
 62
3
  6
CONTINUOUS
  2
_FILLED
 10
398.8441805271
 20
234.2613943056
 41
3.5
 42
3.5
 43
3.5
 50
270.0
  0
INSERT
  5
320
100
AcDbEntity
  8
10083256#AF0_DIM
100
AcDbBlockReference
 62
3
  6
CONTINUOUS
  2
_FILLED
 10
398.8441805271
 20
226.2613943056
 41
3.5
 42
3.5
 43
3.5
 50
90.0
  0
ENDBLK
  5
321
100
AcDbEntity
  8
0
  6
BYBLOCK
 62
0
100
AcDbBlockEnd
  0
BLOCK
  5
322
100
AcDbEntity
  8
10083256#AF0_DIM
100
AcDbBlockBegin
 62
3
  6
CONTINUOUS
  2
*D9
 70
65
 10
0.0
 20
0.0
  3
*D9
  1

  0
TEXT
  5
323
100
AcDbEntity
  8
10083256#AF0_DIM
100
AcDbText
 62
2
  6
CONTINUOUS
 10
348.0059404412
 20
283.5278366629
  7
STANDARD
 40
3.5
  1
4
 50
-39.0734373971
 41
0.7857142857
 72
1
 11
349.0734061647
 21
282.6611522168
100
AcDbText
  0
TEXT
  5
324
100
AcDbEntity
  8
10083256#AF0_DIM
100
AcDbText
 62
2
  6
CONTINUOUS
 10
350.1408718883
 20
281.7944677708
  7
TEXTSTYLE_3
 40
3.5
  1
~
 50
-39.0734373971
 41
1.0
 72
1
 11
351.046600381
 21
281.0590991499
100
AcDbText
  0
TEXT
  5
325
100
AcDbEntity
  8
10083256#AF0_DIM
100
AcDbText
 62
2
  6
CONTINUOUS
 10
351.9523288737
 20
280.323730529
  7
STANDARD
 40
3.5
  1
30'
 50
-39.0734373971
 41
0.6904761905
 72
1
 11
354.7665566903
 21
278.0388351712
100
AcDbText
  0
TEXT
  5
326
100
AcDbEntity
  8
10083256#AF0_DIM
100
AcDbText
 62
2
  6
CONTINUOUS
 10
357.9117003864
 20
276.1615176351
  7
TEXTSTYLE_3
 40
2.45
  1
`
 50
-39.0734373971
 41
1.0
 72
1
 11
359.02121779
 21
275.2606910745
100
AcDbText
  0
TEXT
  5
327
100
AcDbEntity
  8
10083256#AF0_DIM
100
AcDbText
 62
2
  6
CONTINUOUS
 10
360.1307351935
 20
274.3598645139
  7
STANDARD
 40
2.45
  1
0
 50
-39.0734373971
 41
0.7857142857
 72
1
 11
360.8779612
 21
273.7531854017
100
AcDbText
  0
TEXT
  5
328
100
AcDbEntity
  8
10083256#AF0_DIM
100
AcDbText
 62
2
  6
CONTINUOUS
 10
361.6251872065
 20
273.1465062895
  7
TEXTSTYLE_3
 40
2.45
  1
~
 50
-39.0734373971
 41
1.0
 72
1
 11
362.2591971514
 21
272.6317482548
100
AcDbText
  0
TEXT
  5
329
100
AcDbEntity
  8
10083256#AF0_DIM
100
AcDbText
 62
2
  6
CONTINUOUS
 10
362.8932070963
 20
272.1169902202
  7
STANDARD
 40
2.45
  1
15'
 50
-39.0734373971
 41
0.619047619
 72
1
 11
364.6593776571
 21
270.6830214095
100
AcDbText
  0
LINE
  5
32A
100
AcDbEntity
  8
10083256#AF0_DIM
100
AcDbLine
 62
3
  6
CONTINUOUS
 10
354.8441805271
 20
241.8632182012
 11
370.3673102786
 21
240.6415213945
  0
LINE
  5
32B
100
AcDbEntity
  8
10083256#AF0_DIM
100
AcDbLine
 62
3
  6
CONTINUOUS
 10
354.8441805271
 20
243.7613943056
 11
370.4898904191
 21
243.7613943056
  0
ARC
  5
32C
100
AcDbEntity
  8
10083256#AF0_DIM
100
AcDbCircle
 62
3
  6
CONTINUOUS
 10
330.7255663186
 20
243.7613943056
 40
38.2643241005
100
AcDbArc
 50
346.515791206
 51
355.5
  0
ARC
  5
32D
100
AcDbEntity
  8
10083256#AF0_DIM
100
AcDbCircle
 62
3
  6
CONTINUOUS
 10
330.7255663186
 20
243.7613943056
 40
38.2643241005
100
AcDbArc
 50
0.0
 51
50.9265626029
  0
ARC
  5
32E
100
AcDbEntity
  8
10083256#AF0_DIM
100
AcDbCircle
 62
3
  6
CONTINUOUS
 10
330.7255663186
 20
243.7613943056
 40
38.2643241005
100
AcDbArc
 50
355.5
 51
360.0
  0
SOLID
  5
32F
100
AcDbEntity
  8
10083256#AF0_DIM
100
AcDbTrace
 62
3
  6
CONTINUOUS
 10
368.8722188243
 20
237.2319722847
 11
368.871934278
 21
240.7592100381
 12
368.0039669298
 22
237.3404326349
 13
368.0039669298
 23
237.3404326349
  0
SOLID
  5
330
100
AcDbEntity
  8
10083256#AF0_DIM
100
AcDbTrace
 62
3
  6
CONTINUOUS
 10
368.3928329081
 20
247.2377326923
 11
368.9898904191
 21
243.7613943056
 12
369.2669179728
 22
247.2777364369
 13
369.2669179728
 23
247.2777364369
  0
ENDBLK
  5
331
100
AcDbEntity
  8
0
  6
BYBLOCK
 62
0
100
AcDbBlockEnd
  0
ENDSEC
  0
SECTION
  2
ENTITIES
  0
TEXT
  5
332
100
AcDbEntity
  8
606202915-000-00-ED1_FORMAT
100
AcDbText
 62
90
  6
CONTINUOUS
 10
6.0
 20
383.25
  7
TEXTSTYLE_2
 40
3.5
  1
A
 41
0.8571428571
 72
1
 11
7.5
 21
383.25
100
AcDbText
  0
TEXT
  5
333
100
AcDbEntity
  8
606202915-000-00-ED1_FORMAT
100
AcDbText
 62
90
  6
CONTINUOUS
 10
585.0
 20
383.25
  7
TEXTSTYLE_2
 40
3.5
  1
A
 41
0.8571428571
 72
1
 11
586.5
 21
383.25
100
AcDbText
  0
TEXT
  5
334
100
AcDbEntity
  8
606202915-000-00-ED1_FORMAT
100
AcDbText
 62
90
  6
CONTINUOUS
 10
6.125
 20
333.25
  7
TEXTSTYLE_2
 40
3.5
  1
B
 41
0.7857142857
 72
1
 11
7.5
 21
333.25
100
AcDbText
  0
TEXT
  5
335
100
AcDbEntity
  8
606202915-000-00-ED1_FORMAT
100
AcDbText
 62
90
  6
CONTINUOUS
 10
585.125
 20
333.25
  7
TEXTSTYLE_2
 40
3.5
  1
B
 41
0.7857142857
 72
1
 11
586.5
 21
333.25
100
AcDbText
  0
TEXT
  5
336
100
AcDbEntity
  8
606202915-000-00-ED1_FORMAT
100
AcDbText
 62
90
  6
CONTINUOUS
 10
6.0416666667
 20
283.25
  7
TEXTSTYLE_2
 40
3.5
  1
C
 41
0.8333333333
 72
1
 11
7.5
 21
283.25
100
AcDbText
  0
TEXT
  5
337
100
AcDbEntity
  8
606202915-000-00-ED1_FORMAT
100
AcDbText
 62
90
  6
CONTINUOUS
 10
585.0416666667
 20
283.25
  7
TEXTSTYLE_2
 40
3.5
  1
C
 41
0.8333333333
 72
1
 11
586.5
 21
283.25
100
AcDbText
  0
TEXT
  5
338
100
AcDbEntity
  8
606202915-000-00-ED1_FORMAT
100
AcDbText
 62
90
  6
CONTINUOUS
 10
5.9166666667
 20
233.25
  7
TEXTSTYLE_2
 40
3.5
  1
D
 41
0.9047619048
 72
1
 11
7.5
 21
233.25
100
AcDbText
  0
TEXT
  5
339
100
AcDbEntity
  8
606202915-000-00-ED1_FORMAT
100
AcDbText
 62
90
  6
CONTINUOUS
 10
584.9166666667
 20
233.25
  7
TEXTSTYLE_2
 40
3.5
  1
D
 41
0.9047619048
 72
1
 11
586.5
 21
233.25
100
AcDbText
  0
TEXT
  5
33A
100
AcDbEntity
  8
606202915-000-00-ED1_FORMAT
100
AcDbText
 62
90
  6
CONTINUOUS
 10
6.25
 20
183.25
  7
TEXTSTYLE_2
 40
3.5
  1
E
 41
0.7142857143
 72
1
 11
7.5
 21
183.25
100
AcDbText
  0
TEXT
  5
33B
100
AcDbEntity
  8
606202915-000-00-ED1_FORMAT
100
AcDbText
 62
90
  6
CONTINUOUS
 10
585.25
 20
183.25
  7
TEXTSTYLE_2
 40
3.5
  1
E
 41
0.7142857143
 72
1
 11
586.5
 21
183.25
100
AcDbText
  0
TEXT
  5
33C
100
AcDbEntity
  8
606202915-000-00-ED1_FORMAT
100
AcDbText
 62
90
  6
CONTINUOUS
 10
585.25
 20
133.3098861881
  7
TEXTSTYLE_2
 40
3.5
  1
F
 41
0.7142857143
 72
1
 11
586.5
 21
133.3098861881
100
AcDbText
  0
TEXT
  5
33D
100
AcDbEntity
  8
606202915-000-00-ED1_FORMAT
100
AcDbText
 62
90
  6
CONTINUOUS
 10
6.25
 20
133.25
  7
TEXTSTYLE_2
 40
3.5
  1
F
 41
0.7142857143
 72
1
 11
7.5
 21
133.25
100
AcDbText
  0
TEXT
  5
33E
100
AcDbEntity
  8
606202915-000-00-ED1_FORMAT
100
AcDbText
 62
90
  6
CONTINUOUS
 10
6.125
 20
83.25
  7
TEXTSTYLE_2
 40
3.5
  1
G
 41
0.7857142857
 72
1
 11
7.5
 21
83.25
100
AcDbText
  0
TEXT
  5
33F
100
AcDbEntity
  8
606202915-000-00-ED1_FORMAT
100
AcDbText
 62
90
  6
CONTINUOUS
 10
585.125
 20
83.3098861881
  7
TEXTSTYLE_2
 40
3.5
  1
G
 41
0.7857142857
 72
1
 11
586.5
 21
83.3098861881
100
AcDbText
  0
TEXT
  5
340
100
AcDbEntity
  8
606202915-000-00-ED1_FORMAT
100
AcDbText
 62
90
  6
CONTINUOUS
 10
585.125
 20
33.3098861881
  7
TEXTSTYLE_2
 40
3.5
  1
H
 41
0.7857142857
 72
1
 11
586.5
 21
33.3098861881
100
AcDbText
  0
TEXT
  5
341
100
AcDbEntity
  8
606202915-000-00-ED1_FORMAT
100
AcDbText
 62
90
  6
CONTINUOUS
 10
6.125
 20
33.25
  7
TEXTSTYLE_2
 40
3.5
  1
H
 41
0.7857142857
 72
1
 11
7.5
 21
33.25
100
AcDbText
  0
TEXT
  5
342
100
AcDbEntity
  8
606202915-000-00-ED1_FORMAT
100
AcDbText
 62
90
  6
CONTINUOUS
 10
21.0
 20
410.75
  7
TEXTSTYLE_2
 40
3.5
  1
1
 41
0.5714285714
 72
1
 11
22.0
 21
410.75
100
AcDbText
  0
TEXT
  5
343
100
AcDbEntity
  8
606202915-000-00-ED1_FORMAT
100
AcDbText
 62
90
  6
CONTINUOUS
 10
21.0
 20
5.75
  7
TEXTSTYLE_2
 40
3.5
  1
1
 41
0.5714285714
 72
1
 11
22.0
 21
5.75
100
AcDbText
  0
TEXT
  5
344
100
AcDbEntity
  8
606202915-000-00-ED1_FORMAT
100
AcDbText
 62
90
  6
CONTINUOUS
 10
70.625
 20
5.75
  7
TEXTSTYLE_2
 40
3.5
  1
2
 41
0.7857142857
 72
1
 11
72.0
 21
5.75
100
AcDbText
  0
TEXT
  5
345
100
AcDbEntity
  8
606202915-000-00-ED1_FORMAT
100
AcDbText
 62
90
  6
CONTINUOUS
 10
70.625
 20
410.75
  7
TEXTSTYLE_2
 40
3.5
  1
2
 41
0.7857142857
 72
1
 11
72.0
 21
410.75
100
AcDbText
  0
TEXT
  5
346
100
AcDbEntity
  8
606202915-000-00-ED1_FORMAT
100
AcDbText
 62
90
  6
CONTINUOUS
 10
120.75
 20
410.75
  7
TEXTSTYLE_2
 40
3.5
  1
3
 41
0.7142857143
 72
1
 11
122.0
 21
410.75
100
AcDbText
  0
TEXT
  5
347
100
AcDbEntity
  8
606202915-000-00-ED1_FORMAT
100
AcDbText
 62
90
  6
CONTINUOUS
 10
120.75
 20
5.75
  7
TEXTSTYLE_2
 40
3.5
  1
3
 41
0.7142857143
 72
1
 11
122.0
 21
5.75
100
AcDbText
  0
TEXT
  5
348
100
AcDbEntity
  8
606202915-000-00-ED1_FORMAT
100
AcDbText
 62
90
  6
CONTINUOUS
 10
170.625
 20
5.75
  7
TEXTSTYLE_2
 40
3.5
  1
4
 41
0.7857142857
 72
1
 11
172.0
 21
5.75
100
AcDbText
  0
TEXT
  5
349
100
AcDbEntity
  8
606202915-000-00-ED1_FORMAT
100
AcDbText
 62
90
  6
CONTINUOUS
 10
170.625
 20
410.75
  7
TEXTSTYLE_2
 40
3.5
  1
4
 41
0.7857142857
 72
1
 11
172.0
 21
410.75
100
AcDbText
  0
TEXT
  5
34A
100
AcDbEntity
  8
606202915-000-00-ED1_FORMAT
100
AcDbText
 62
90
  6
CONTINUOUS
 10
220.75
 20
410.75
  7
TEXTSTYLE_2
 40
3.5
  1
5
 41
0.7142857143
 72
1
 11
222.0
 21
410.75
100
AcDbText
  0
TEXT
  5
34B
100
AcDbEntity
  8
606202915-000-00-ED1_FORMAT
100
AcDbText
 62
90
  6
CONTINUOUS
 10
220.75
 20
5.75
  7
TEXTSTYLE_2
 40
3.5
  1
5
 41
0.7142857143
 72
1
 11
222.0
 21
5.75
100
AcDbText
  0
TEXT
  5
34C
100
AcDbEntity
  8
606202915-000-00-ED1_FORMAT
100
AcDbText
 62
90
  6
CONTINUOUS
 10
270.625
 20
5.8098861881
  7
TEXTSTYLE_2
 40
3.5
  1
6
 41
0.7857142857
 72
1
 11
272.0
 21
5.8098861881
100
AcDbText
  0
TEXT
  5
34D
100
AcDbEntity
  8
606202915-000-00-ED1_FORMAT
100
AcDbText
 62
90
  6
CONTINUOUS
 10
270.625
 20
410.75
  7
TEXTSTYLE_2
 40
3.5
  1
6
 41
0.7857142857
 72
1
 11
272.0
 21
410.75
100
AcDbText
  0
TEXT
  5
34E
100
AcDbEntity
  8
606202915-000-00-ED1_FORMAT
100
AcDbText
 62
90
  6
CONTINUOUS
 10
320.625
 20
410.75
  7
TEXTSTYLE_2
 40
3.5
  1
7
 41
0.7857142857
 72
1
 11
322.0
 21
410.75
100
AcDbText
  0
TEXT
  5
34F
100
AcDbEntity
  8
606202915-000-00-ED1_FORMAT
100
AcDbText
 62
90
  6
CONTINUOUS
 10
320.625
 20
5.8098861881
  7
TEXTSTYLE_2
 40
3.5
  1
7
 41
0.7857142857
 72
1
 11
322.0
 21
5.8098861881
100
AcDbText
  0
TEXT
  5
350
100
AcDbEntity
  8
606202915-000-00-ED1_FORMAT
100
AcDbText
 62
90
  6
CONTINUOUS
 10
370.625
 20
5.8098861881
  7
TEXTSTYLE_2
 40
3.5
  1
8
 41
0.7857142857
 72
1
 11
372.0
 21
5.8098861881
100
AcDbText
  0
TEXT
  5
351
100
AcDbEntity
  8
606202915-000-00-ED1_FORMAT
100
AcDbText
 62
90
  6
CONTINUOUS
 10
370.625
 20
410.75
  7
TEXTSTYLE_2
 40
3.5
  1
8
 41
0.7857142857
 72
1
 11
372.0
 21
410.75
100
AcDbText
  0
TEXT
  5
352
100
AcDbEntity
  8
606202915-000-00-ED1_FORMAT
100
AcDbText
 62
90
  6
CONTINUOUS
 10
420.625
 20
410.75
  7
TEXTSTYLE_2
 40
3.5
  1
9
 41
0.7857142857
 72
1
 11
422.0
 21
410.75
100
AcDbText
  0
TEXT
  5
353
100
AcDbEntity
  8
606202915-000-00-ED1_FORMAT
100
AcDbText
 62
90
  6
CONTINUOUS
 10
420.625
 20
5.8098861881
  7
TEXTSTYLE_2
 40
3.5
  1
9
 41
0.7857142857
 72
1
 11
422.0
 21
5.8098861881
100
AcDbText
  0
TEXT
  5
354
100
AcDbEntity
  8
606202915-000-00-ED1_FORMAT
100
AcDbText
 62
90
  6
CONTINUOUS
 10
469.625
 20
5.8098861881
  7
TEXTSTYLE_2
 40
3.5
  1
10
 41
0.6785714286
 72
1
 11
472.0
 21
5.8098861881
100
AcDbText
  0
TEXT
  5
355
100
AcDbEntity
  8
606202915-000-00-ED1_FORMAT
100
AcDbText
 62
90
  6
CONTINUOUS
 10
469.625
 20
410.75
  7
TEXTSTYLE_2
 40
3.5
  1
10
 41
0.6785714286
 72
1
 11
472.0
 21
410.75
100
AcDbText
  0
TEXT
  5
356
100
AcDbEntity
  8
606202915-000-00-ED1_FORMAT
100
AcDbText
 62
90
  6
CONTINUOUS
 10
520.0
 20
410.75
  7
TEXTSTYLE_2
 40
3.5
  1
11
 41
0.5714285714
 72
1
 11
522.0
 21
410.75
100
AcDbText
  0
TEXT
  5
357
100
AcDbEntity
  8
606202915-000-00-ED1_FORMAT
100
AcDbText
 62
90
  6
CONTINUOUS
 10
520.0
 20
5.8098861881
  7
TEXTSTYLE_2
 40
3.5
  1
11
 41
0.5714285714
 72
1
 11
522.0
 21
5.8098861881
100
AcDbText
  0
TEXT
  5
358
100
AcDbEntity
  8
606202915-000-00-ED1_FORMAT
100
AcDbText
 62
90
  6
CONTINUOUS
 10
569.625
 20
5.8098861881
  7
TEXTSTYLE_2
 40
3.5
  1
12
 41
0.6785714286
 72
1
 11
572.0
 21
5.8098861881
100
AcDbText
  0
TEXT
  5
359
100
AcDbEntity
  8
606202915-000-00-ED1_FORMAT
100
AcDbText
 62
90
  6
CONTINUOUS
 10
569.625
 20
410.75
  7
TEXTSTYLE_2
 40
3.5
  1
12
 41
0.6785714286
 72
1
 11
572.0
 21
410.75
100
AcDbText
  0
TEXT
  5
35A
100
AcDbEntity
  8
606202915-000-00-ED1_FORMAT
100
AcDbText
 62
2
  6
CONTINUOUS
 10
399.052859216
 20
61.7772685196
  7
STANDARD
 40
1.4
  1
DIE ZEICHNUNGEN,  MODELLE  ETC. BLEIBEN  UNSER  AUSSCHLIESSLICHES
 41
0.7549450549
 72
0
100
AcDbText
  0
TEXT
  5
35B
100
AcDbEntity
  8
606202915-000-00-ED1_FORMAT
100
AcDbText
 62
2
  6
CONTINUOUS
 10
399.052859216
 20
58.9772685196
  7
STANDARD
 40
1.4
  1
EIGENTUM. SIE WERDEN NUR ZU DEM VEREINBARTEN  ZWECK ANVERTRAUT
 41
0.7976190476
 72
0
100
AcDbText
  0
TEXT
  5
35C
100
AcDbEntity
  8
606202915-000-00-ED1_FORMAT
100
AcDbText
 62
2
  6
CONTINUOUS
 10
399.052859216
 20
56.1772685196
  7
STANDARD
 40
1.4
  1
UND DUERFEN ZU KEINEM ANDEREN  ZWECK VERWENDET WERDEN. KOPIEN
 41
0.8040593286
 72
0
100
AcDbText
  0
TEXT
  5
35D
100
AcDbEntity
  8
606202915-000-00-ED1_FORMAT
100
AcDbText
 62
2
  6
CONTINUOUS
 10
399.052859216
 20
53.3772685196
  7
STANDARD
 40
1.4
  1
ODER  SONSTIGE  VERVIELFAELTIGUNGEN  DUERFEN  NUR ZU DEM VEREIN-
 41
0.7689732143
 72
0
100
AcDbText
  0
TEXT
  5
35E
100
AcDbEntity
  8
606202915-000-00-ED1_FORMAT
100
AcDbText
 62
2
  6
CONTINUOUS
 10
399.052859216
 20
50.5772685196
  7
STANDARD
 40
1.4
  1
BARTEN ZWECK ANGEFERTIGT WERDEN. WEDER ORIGINALE NOCH VERVIEL-
 41
0.7949308756
 72
0
100
AcDbText
  0
TEXT
  5
35F
100
AcDbEntity
  8
606202915-000-00-ED1_FORMAT
100
AcDbText
 62
2
  6
CONTINUOUS
 10
399.052859216
 20
47.7772685196
  7
STANDARD
 40
1.4
  1
FAELTIGUNGEN  DUERFEN  DRITTEN  AUSGEHAENDIGT ODER IN SONSTIGER
 41
0.776266062
 72
0
100
AcDbText
  0
TEXT
  5
360
100
AcDbEntity
  8
606202915-000-00-ED1_FORMAT
100
AcDbText
 62
2
  6
CONTINUOUS
 10
399.052859216
 20
44.9772685196
  7
STANDARD
 40
1.4
  1
WEISE ZUGAENGLICH GEMACHT WERDEN.
 41
0.803030303
 72
0
100
AcDbText
  0
TEXT
  5
361
100
AcDbEntity
  8
606202915-000-00-ED1_FORMAT
100
AcDbText
 62
2
  6
CONTINUOUS
 10
399.1601887232
 20
39.3782684954
  7
STANDARD
 40
1.8
  1
MASSE OHNE TOLERANZANGABE
 41
0.7857142857
 72
1
 11
416.8387601518
 21
39.3782684954
100
AcDbText
  0
TEXT
  5
362
100
AcDbEntity
  8
606202915-000-00-ED1_FORMAT
100
AcDbText
 62
2
  6
CONTINUOUS
 10
410.0244744375
 20
36.6782684954
  7
STANDARD
 40
1.8
  1
ISO 2768-F
 41
0.7571428571
 72
1
 11
416.8387601518
 21
36.6782684954
100
AcDbText
  0
TEXT
  5
363
100
AcDbEntity
  8
606202915-000-00-ED1_FORMAT
100
AcDbText
 62
2
  6
CONTINUOUS
 10
436.1543918493
 20
39.5917689246
  7
STANDARD
 40
1.8
  1
UNBEMASSTE EINZELHEITEN
 41
0.7608695652
 72
1
 11
451.9043918493
 21
39.5917689246
100
AcDbText
  0
TEXT
  5
364
100
AcDbEntity
  8
606202915-000-00-ED1_FORMAT
100
AcDbText
 62
2
  6
CONTINUOUS
 10
441.3829632779
 20
36.8917689246
  7
STANDARD
 40
1.8
  1
NACH WERKSNORM
 41
0.8350340136
 72
1
 11
451.9043918493
 21
36.8917689246
100
AcDbText
  0
TEXT
  5
365
100
AcDbEntity
  8
606202915-000-00-ED1_FORMAT
100
AcDbText
 62
2
  6
CONTINUOUS
 10
324.0633352048
 20
38.7910826699
  7
STANDARD
 40
2.0
  1
ZUSAETZLICH ZU VA-NR. 07.05.01 BESCHRIFTET MIT:
 41
0.7507598784
 72
1
 11
359.3490494905
 21
38.7910826699
100
AcDbText
  0
TEXT
  5
366
100
AcDbEntity
  8
606202915-000-00-ED1_FORMAT
100
AcDbText
 62
2
  6
CONTINUOUS
 10
398.7601485216
 20
20.7999881218
  7
STANDARD
 40
2.5
  1
TECHNISCHE SPEZIFIKATION:
 41
0.7466666667
 72
0
100
AcDbText
  0
TEXT
  5
367
100
AcDbEntity
  8
606202915-000-00-ED1_FORMAT
100
AcDbText
 62
2
  6
CONTINUOUS
 10
398.8199729078
 20
31.7602142735
  7
STANDARD
 40
2.5
  1
BENENNUNG:
 41
0.7285714286
 72
0
100
AcDbText
  0
TEXT
  5
368
100
AcDbEntity
  8
606202915-000-00-ED1_FORMAT
100
AcDbText
 62
2
  6
CONTINUOUS
 10
398.5262320502
 20
11.090392271
  7
STANDARD
 40
1.6
  1
ERSATZ F. ZCHNR.:
 41
0.7380952381
 72
0
100
AcDbText
  0
TEXT
  5
369
100
AcDbEntity
  8
606202915-000-00-ED1_FORMAT
100
AcDbText
 62
2
  6
CONTINUOUS
 10
474.4889728079
 20
10.8414909668
  7
STANDARD
 40
1.6
  1
ERSETZT D. ZCHNR.:
 41
0.7473544974
 72
0
100
AcDbText
  0
TEXT
  5
36A
100
AcDbEntity
  8
606202915-000-00-ED1_FORMAT
100
AcDbText
 62
2
  6
CONTINUOUS
 10
553.4985174426
 20
60.5649091272
  7
STANDARD
 40
2.5
  1
DATUM
 41
0.8523809524
 72
0
100
AcDbText
  0
TEXT
  5
36B
100
AcDbEntity
  8
606202915-000-00-ED1_FORMAT
100
AcDbText
 62
2
  6
CONTINUOUS
 10
572.0389151108
 20
60.5649091272
  7
STANDARD
 40
2.5
  1
NAME
 41
0.8035714286
 72
0
100
AcDbText
  0
TEXT
  5
36C
100
AcDbEntity
  8
606202915-000-00-ED1_FORMAT
100
AcDbText
 62
2
  6
CONTINUOUS
 10
540.6248879544
 20
54.9911733789
  7
STANDARD
 40
2.0
  1
GEZ.
 41
0.7142857143
 72
0
100
AcDbText
  0
TEXT
  5
36D
100
AcDbEntity
  8
606202915-000-00-ED1_FORMAT
100
AcDbText
 62
2
  6
CONTINUOUS
 10
540.6248879544
 20
48.9031498945
  7
STANDARD
 40
2.0
  1
GEPR.
 41
0.7285714286
 72
0
100
AcDbText
  0
TEXT
  5
36E
100
AcDbEntity
  8
606202915-000-00-ED1_FORMAT
100
AcDbText
 62
2
  6
CONTINUOUS
 10
540.6248879544
 20
42.81512641
  7
STANDARD
 40
2.0
  1
FREIG.
 41
0.7023809524
 72
0
100
AcDbText
  0
TEXT
  5
36F
100
AcDbEntity
  8
606202915-000-00-ED1_FORMAT
100
AcDbText
 62
2
  6
CONTINUOUS
 10
474.5448884682
 20
20.8921136985
  7
STANDARD
 40
2.5
  1
MATERIALNUMMER:
 41
0.7571428571
 72
0
100
AcDbText
  0
TEXT
  5
370
100
AcDbEntity
  8
606202915-000-00-ED1_FORMAT
100
AcDbText
 62
2
  6
CONTINUOUS
 10
519.5006365734
 20
20.8921136985
  7
STANDARD
 40
2.5
  1
ZEICHNUNGSNUMMER:
 41
0.7549019608
 72
0
100
AcDbText
  0
TEXT
  5
371
100
AcDbEntity
  8
606202915-000-00-ED1_FORMAT
100
AcDbText
 62
2
  6
CONTINUOUS
 10
574.7988683895
 20
32.099050911
  7
STANDARD
 40
2.0
  1
ORIGIN
 41
0.7380952381
 72
0
100
AcDbText
  0
TEXT
  5
372
100
AcDbEntity
  8
606202915-000-00-ED1_FORMAT
100
AcDbText
 62
2
  6
CONTINUOUS
 10
574.2297444284
 20
20.8982033286
  7
STANDARD
 40
2.5
  1
INDEX
 41
0.780952381
 72
0
100
AcDbText
  0
TEXT
  5
373
100
AcDbEntity
  8
606202915-000-00-ED1_FORMAT
100
AcDbText
 62
2
  6
CONTINUOUS
 10
540.825463913
 20
36.6922403956
  7
STANDARD
 40
2.0
  1
MASSSTAB: 
 41
0.7714285714
 72
0
100
AcDbText
  0
TEXT
  5
374
100
AcDbEntity
  8
606202915-000-00-ED1_FORMAT
100
AcDbText
 62
2
  6
CONTINUOUS
 10
556.2540353416
 20
36.6922403956
  7
STANDARD
 40
2.0
  1
1:1
 41
0.5
 72
0
100
AcDbText
  0
TEXT
  5
375
100
AcDbEntity
  8
606202915-000-00-ED1_FORMAT
100
AcDbText
 62
2
  6
CONTINUOUS
 10
322.8803169507
 20
67.4938842456
  7
STANDARD
 40
2.0
  1
POS
 41
0.7857142857
 72
0
100
AcDbText
  0
TEXT
  5
376
100
AcDbEntity
  8
606202915-000-00-ED1_FORMAT
100
AcDbText
 62
2
  6
CONTINUOUS
 10
330.2800702762
 20
67.4938842456
  7
STANDARD
 40
2.0
  1
TYP
 41
0.8333333333
 72
0
100
AcDbText
  0
TEXT
  5
377
100
AcDbEntity
  8
606202915-000-00-ED1_FORMAT
100
AcDbText
 62
2
  6
CONTINUOUS
 10
337.3397241606
 20
67.542169307
  7
STANDARD
 40
2.0
  1
MENGE
 41
0.7714285714
 72
0
100
AcDbText
  0
TEXT
  5
378
100
AcDbEntity
  8
606202915-000-00-ED1_FORMAT
100
AcDbText
 62
2
  6
CONTINUOUS
 10
346.6578430416
 20
67.5584943666
  7
STANDARD
 40
2.0
  1
ME
 41
0.7857142857
 72
0
100
AcDbText
  0
TEXT
  5
379
100
AcDbEntity
  8
606202915-000-00-ED1_FORMAT
100
AcDbText
 62
2
  6
CONTINUOUS
 10
355.2151619684
 20
67.5584943666
  7
STANDARD
 40
2.0
  1
MATERIALNUMMER
 41
0.7857142857
 72
0
100
AcDbText
  0
TEXT
  5
37A
100
AcDbEntity
  8
606202915-000-00-ED1_FORMAT
100
AcDbText
 62
2
  6
CONTINUOUS
 10
431.4509114
 20
67.6477358999
  7
STANDARD
 40
2.0
  1
BENENNUNG
 41
0.7698412698
 72
0
100
AcDbText
  0
TEXT
  5
37B
100
AcDbEntity
  8
606202915-000-00-ED1_FORMAT
100
AcDbText
 62
2
  6
CONTINUOUS
 10
495.8093221703
 20
67.4559309473
  7
STANDARD
 40
2.0
  1
TECHNISCHE SPEZIFIKATION
 41
0.7628968254
 72
1
 11
514.1188459798
 21
67.4559309473
100
AcDbText
  0
TEXT
  5
37C
100
AcDbEntity
  8
606202915-000-00-ED1_FORMAT
100
AcDbText
 62
2
  6
CONTINUOUS
 10
552.8634464094
 20
67.8395408525
  7
STANDARD
 40
2.0
  1
KUNDENNUMMER
 41
0.7956349206
 72
0
100
AcDbText
  0
TEXT
  5
37D
100
AcDbEntity
  8
606202915-000-00-ED1_FORMAT
100
AcDbText
 62
2
  6
CONTINUOUS
 10
552.4398073431
 20
10.7992833474
  7
STANDARD
 40
1.6
  1
BLATT   V.   BLAETTERN
 41
0.7781385281
 72
0
100
AcDbText
  0
TEXT
  5
37E
100
AcDbEntity
  8
606202915-000-00-ED1_FORMAT
100
AcDbText
 62
2
  6
CONTINUOUS
 10
440.0791789452
 20
406.4479115896
  7
STANDARD
 40
2.0
  1
INDEX
 41
0.780952381
 72
1
 11
443.98394085
 21
406.4479115896
100
AcDbText
  0
TEXT
  5
37F
100
AcDbEntity
  8
606202915-000-00-ED1_FORMAT
100
AcDbText
 62
2
  6
CONTINUOUS
 10
441.8410837071
 20
403.4479115896
  7
STANDARD
 40
2.0
  1
NR.
 41
0.7142857143
 72
1
 11
443.98394085
 21
403.4479115896
100
AcDbText
  0
TEXT
  5
380
100
AcDbEntity
  8
606202915-000-00-ED1_FORMAT
100
AcDbText
 62
2
  6
CONTINUOUS
 10
484.3389608877
 20
404.9588187055
  7
STANDARD
 40
2.0
  1
ART DER AENDERUNG
 41
0.799719888
 72
1
 11
497.9341989829
 21
404.9588187055
100
AcDbText
  0
TEXT
  5
381
100
AcDbEntity
  8
606202915-000-00-ED1_FORMAT
100
AcDbText
 62
2
  6
CONTINUOUS
 10
553.9980886349
 20
405.0962301998
  7
STANDARD
 40
2.0
  1
DATUM
 41
0.8523809524
 72
0
100
AcDbText
  0
TEXT
  5
382
100
AcDbEntity
  8
606202915-000-00-ED1_FORMAT
100
AcDbText
 62
2
  6
CONTINUOUS
 10
571.8615828868
 20
405.0962301998
  7
STANDARD
 40
2.0
  1
NAME
 41
0.8035714286
 72
0
100
AcDbText
  0
TEXT
  5
383
100
AcDbEntity
  8
606202915-000-00-ED1_FORMAT
100
AcDbText
 62
2
  6
CONTINUOUS
 10
14.8036303207
 20
149.3181813679
  7
STANDARD
 40
3.0
  1
VORGANGS-NR.:
 50
90.0
 41
0.7399267399
 72
0
100
AcDbText
  0
TEXT
  5
384
100
AcDbEntity
  8
606202915-000-00-ED1_FORMAT
100
AcDbText
 62
2
  6
CONTINUOUS
 10
14.8036303207
 20
94.5008795839
  7
STANDARD
 40
3.0
  1
PROJEKT-NR.:
 50
90.0
 41
0.7142857143
 72
0
100
AcDbText
  0
TEXT
  5
385
100
AcDbEntity
  8
606202915-000-00-ED1_FORMAT
100
AcDbText
 62
2
  6
CONTINUOUS
 10
14.8036303207
 20
10.7957298757
  7
STANDARD
 40
3.0
  1
KUNDE:
 50
90.0
 41
0.7222222222
 72
0
100
AcDbText
  0
TEXT
  5
386
100
AcDbEntity
  8
606202915-000-00-ED1_FORMAT
100
AcDbText
 62
2
  6
CONTINUOUS
 10
424.2753764397
 20
402.6763744954
  7
STANDARD
 40
2.0
  1
TEILE-
 41
0.7142857143
 72
1
 11
428.5610907254
 21
402.6763744954
100
AcDbText
  0
TEXT
  5
387
100
AcDbEntity
  8
606202915-000-00-ED1_FORMAT
100
AcDbText
 62
2
  6
CONTINUOUS
 10
421.370614535
 20
396.6763744954
  7
STANDARD
 40
2.0
  1
ZUORDNUNG
 41
0.7989417989
 72
1
 11
428.5610907254
 21
396.6763744954
100
AcDbText
  0
TEXT
  5
388
100
AcDbEntity
  8
606202915-000-00-ED1_FORMAT
100
AcDbText
 62
2
  6
CONTINUOUS
 10
417.0441261495
 20
382.8819915703
  7
STANDARD
 40
2.0
  1
DURCHMESSER
 41
0.7943722944
 72
1
 11
425.7822213876
 21
382.8819915703
100
AcDbText
  0
TEXT
  5
389
100
AcDbEntity
  8
606202915-000-00-ED1_FORMAT
100
AcDbText
 62
2
  6
CONTINUOUS
 10
411.6345849887
 20
392.6715109892
  7
STANDARD
 40
2.0
  1
ZUBEHOER
 50
90.0
 41
0.7678571429
 72
1
 11
411.6345849887
 21
398.8143681321
100
AcDbText
  0
TEXT
  5
38A
100
AcDbEntity
  8
606202915-000-00-ED1_FORMAT
100
AcDbText
 62
2
  6
CONTINUOUS
 10
508.8050541544
 20
48.3349997707
  7
TEXTSTYLE_2
 40
1.7999998622
  1
Dr. Kress KG
 41
0.7361111111
 72
0
100
AcDbText
  0
TEXT
  5
38B
100
AcDbEntity
  8
606202915-000-00-ED1_FORMAT
100
AcDbText
 62
7
  6
CONTINUOUS
 10
508.8050541544
 20
57.9849990253
  7
TEXTSTYLE_2
 40
2.4999998086
  1
MAPAL
 41
0.8
 72
0
100
AcDbText
  0
TEXT
  5
38C
100
AcDbEntity
  8
606202915-000-00-ED1_FORMAT
100
AcDbText
 62
2
  6
CONTINUOUS
 10
508.8050541544
 20
53.3349993813
  7
TEXTSTYLE_2
 40
1.7999998622
  1
Präzisionswerkzeuge
 41
0.7034461153
 72
0
100
AcDbText
  0
TEXT
  5
38D
100
AcDbEntity
  8
606202915-000-00-ED1_FORMAT
100
AcDbText
 62
2
  6
CONTINUOUS
 10
572.8843769111
 20
36.6958859551
  7
STANDARD
 40
2.0
  1
A2
 41
0.8214285714
 72
0
100
AcDbText
  0
TEXT
  5
38E
100
AcDbEntity
  8
606202915-000-00-ED1_FORMAT
100
AcDbText
 62
2
  6
CONTINUOUS
 10
559.68656955
 20
10.8834999063
  7
STANDARD
 40
1.6
  1
1
 41
0.5714285714
 72
0
100
AcDbText
  0
TEXT
  5
38F
100
AcDbEntity
  8
606202915-000-00-ED1_FORMAT
100
AcDbText
 62
2
  6
CONTINUOUS
 10
565.5081284587
 20
10.8645026074
  7
STANDARD
 40
1.6
  1
1
 41
0.5714285714
 72
0
100
AcDbText
  0
TEXT
  5
390
100
AcDbEntity
  8
606202915-000-00-ED1_FORMAT
100
AcDbText
 62
2
  6
CONTINUOUS
 10
209.9272470292
 20
33.7195113364
  7
STANDARD
 40
1.9999995576
  1
MASCH.-NR.:
 41
0.7186147186
 72
0
100
AcDbText
  0
TEXT
  5
391
100
AcDbEntity
  8
606202915-000-00-ED1_FORMAT
100
AcDbText
 62
2
  6
CONTINUOUS
 10
247.2212717219
 20
33.7441600748
  7
STANDARD
 40
1.9999995184
  1
STATION:
 41
0.7410714286
 72
0
100
AcDbText
  0
TEXT
  5
392
100
AcDbEntity
  8
606202915-000-00-ED1_FORMAT
100
AcDbText
 62
2
  6
CONTINUOUS
 10
285.2119838415
 20
33.7441600748
  7
STANDARD
 40
1.9999995184
  1
SPINDEL:
 41
0.7023809524
 72
0
100
AcDbText
  0
TEXT
  5
393
100
AcDbEntity
  8
606202915-000-00-ED1_FORMAT
100
AcDbText
 62
2
  6
CONTINUOUS
 10
209.5637934423
 20
28.4328782508
  7
STANDARD
 40
1.9999995576
  1
WERKST.-BEN.:
 41
0.7527472527
 72
0
100
AcDbText
  0
TEXT
  5
394
100
AcDbEntity
  8
606202915-000-00-ED1_FORMAT
100
AcDbText
 62
2
  6
CONTINUOUS
 10
209.7506861989
 20
17.6578228212
  7
STANDARD
 40
1.9999995184
  1
WERKSTOFF:
 41
0.7857142857
 72
0
100
AcDbText
  0
TEXT
  5
395
100
AcDbEntity
  8
606202915-000-00-ED1_FORMAT
100
AcDbText
 62
2
  6
CONTINUOUS
 10
285.2058357142
 20
11.6643349189
  7
STANDARD
 40
1.9999995184
  1
BOHRUNGS-NR.:
 41
0.7307692308
 72
0
100
AcDbText
  0
TEXT
  5
396
100
AcDbEntity
  8
606202915-000-00-ED1_FORMAT
100
AcDbText
 62
2
  6
CONTINUOUS
 10
209.8681736631
 20
23.0622461562
  7
STANDARD
 40
1.9999995576
  1
WERKST.-NR.:
 41
0.755952381
 72
0
100
AcDbText
  0
TEXT
  5
397
100
AcDbEntity
  8
606202915-000-00-ED1_FORMAT
100
AcDbText
 62
2
  6
CONTINUOUS
 10
247.140018325
 20
11.6643346781
  7
STANDARD
 40
2.0
  1
OP-NR.:
 41
0.6836734694
 72
0
100
AcDbText
  0
TEXT
  5
398
100
AcDbEntity
  8
606202915-000-00-ED1_FORMAT
100
AcDbText
 62
2
  6
CONTINUOUS
 10
209.9309878223
 20
11.9091309314
  7
STANDARD
 40
2.0
  1
TOOL-NR.:
 41
0.6984126984
 72
0
100
AcDbText
  0
INSERT
  5
399
100
AcDbEntity
  8
606202915-000-00-ED1_FORMAT
100
AcDbBlockReference
 62
3
  6
CONTINUOUS
  2
BARCODEBOX_BL0
 10
74.5
 20
46.5
  0
DIMENSION
  5
39A
100
AcDbEntity
  8
30381075_DIM
100
AcDbDimension
 62
3
  6
CONTINUOUS
  2
*D0
 10
332.8441805271
 20
178.3627567771
 11
348.2191805271
 21
180.9877567771
 70
160
 71
2
 42
36.0
  3
DIMSTYLE_1
100
AcDbAlignedDimension
 13
368.8441805271
 23
214.2613943056
 14
332.8441805271
 24
226.2613943056
 50
180.0
100
AcDbRotatedDimension
  0
DIMENSION
  5
39B
100
AcDbEntity
  8
30381075_DIM
100
AcDbDimension
 62
3
  6
CONTINUOUS
  2
*D1
 10
342.8441805271
 20
188.3627567771
 11
365.0860576197
 21
190.9877567771
 70
160
 71
1
 42
10.0
  1
<> VERSTELLWEG
  3
DIMSTYLE_2
100
AcDbAlignedDimension
 13
332.8441805271
 23
226.2613943056
 14
342.8441805271
 24
226.2613943056
100
AcDbRotatedDimension
  0
DIMENSION
  5
39C
100
AcDbEntity
  8
10083256#AF0_DIM
100
AcDbDimension
 62
3
  6
CONTINUOUS
  2
*D2
 10
408.8441805271
 20
219.7613943056
 11
407.2740204984
 21
228.1567771601
 70
160
 71
2
 42
21.0
  1
%%c<>
  3
DIMSTYLE_2
100
AcDbAlignedDimension
 13
368.8441805271
 23
240.7613943056
 14
368.8441805271
 24
219.7613943056
 50
270.0
100
AcDbRotatedDimension
  0
DIMENSION
  5
39D
100
AcDbEntity
  8
10083256#AF0_DIM
100
AcDbDimension
 62
3
  6
CONTINUOUS
  2
*D3
 10
322.7941805271
 20
206.7613943056
 11
321.9026508277
 21
210.5107864298
 70
164
 71
2
 42
10.0
  1
<>
  3
DIMSTYLE_3
100
AcDbRadialDimension
 15
317.3129518415
 25
215.1253725514
  0
DIMENSION
  5
39E
100
AcDbEntity
  8
10083256#AF0_DIM
100
AcDbDimension
 62
3
  6
CONTINUOUS
  2
*D4
 10
331.542647754
 20
225.2613943056
 11
330.6539330165
 21
178.8852692886
 70
160
 71
3
 42
10.0
  1
M<>x1
  3
DIMSTYLE_2
100
AcDbAlignedDimension
 13
338.8977703656
 23
235.2613943056
 14
338.8977703656
 24
225.2613943056
 50
270.0
100
AcDbRotatedDimension
  0
DIMENSION
  5
39F
100
AcDbEntity
  8
10083256#AF0_DIM
100
AcDbDimension
 62
3
  6
CONTINUOUS
  2
*D5
 10
324.3441805271
 20
259.2613943056
 11
344.5021114889
 21
261.8863943056
 70
160
 71
1
 42
6.0
  1
M<>(4:FID_15262x)
  3
DIMSTYLE_4
100
AcDbAlignedDimension
 13
330.3441805271
 23
239.7613943056
 14
324.3441805271
 24
239.7613943056
 50
180.0
100
AcDbRotatedDimension
  0
DIMENSION
  5
3A0
100
AcDbEntity
  8
10083256#AF0_DIM
100
AcDbDimension
 62
3
  6
CONTINUOUS
  2
*D6
 10
283.8441805271
 20
168.3627567771
 11
323.7191805271
 21
170.9877567771
 70
160
 71
2
 42
85.0
  3
DIMSTYLE_1
100
AcDbAlignedDimension
 13
368.8441805271
 23
226.2613943056
 14
283.8441805271
 24
226.2613943056
 50
180.0
100
AcDbRotatedDimension
  0
INSERT
  5
3A1
100
AcDbEntity
  8
606202915-000-00-ED1_CL
100
AcDbBlockReference
 62
3
  6
CONTINUOUS
  2
GEOM_TOLERANCE_SYMBOLS_BL1
 10
277.5941805271
 20
181.3416257382
  0
DIMENSION
  5
3A2
100
AcDbEntity
  8
10083256#AF0_DIM
100
AcDbDimension
 62
3
  6
CONTINUOUS
  2
*D7
 10
418.8441805271
 20
216.7613943056
 11
417.3580343015
 21
227.9891527856
 70
160
 71
2
 42
27.0
  1
%%c<>
  3
DIMSTYLE_2
100
AcDbAlignedDimension
 13
323.3441805271
 23
243.7613943056
 14
323.3441805271
 24
216.7613943056
 50
270.0
100
AcDbRotatedDimension
  0
DIMENSION
  5
3A3
100
AcDbEntity
  8
10083256#AF0_DIM
100
AcDbDimension
 62
3
  6
CONTINUOUS
  2
*D8
 10
398.8441805271
 20
226.2613943056
 11
396.2191805271
 21
253.469727639
 70
160
 71
1
 42
8.0
  1
%%c<>
  3
DIMSTYLE_2
100
AcDbAlignedDimension
 13
368.8441805271
 23
234.2613943056
 14
368.8441805271
 24
226.2613943056
 50
270.0
100
AcDbRotatedDimension
  0
LEADER
  5
3A4
100
AcDbEntity
  8
606202915-000-00-ED1_CL
100
AcDbLeader
 62
3
  6
CONTINUOUS
  3
STANDARD
 71
1
 72
0
 73
2
 75
0
 76
3
 10
398.8441805271
 20
226.2613943056
 30
0.0
 10
398.8441805271
 20
201.2613943056
 30
0.0
 10
398.8442399865
 20
201.2613943056
 30
0.0
340
3A5
1001
ACAD
1000
DSTYLE
1002
{
1070
77
1070
0
1002
}
  0
INSERT
  5
3A5
102
{ACAD_REACTORS
330
3A4
102
}
100
AcDbEntity
  8
606202915-000-00-ED1_CL
100
AcDbBlockReference
 62
3
  6
CONTINUOUS
  2
GEOM_TOLERANCE_SYMBOLS_BL2
 10
415.8442404505
 20
201.2613944176
  0
TEXT
  5
3A6
100
AcDbEntity
  8
0
100
AcDbText
 62
2
  6
CONTINUOUS
 10
403.8441805271
 20
263.0113943056
  7
STANDARD
 40
3.5
  1
FUER SCHAEFTE MIT 
 41
0.7764550265
 72
0
100
AcDbText
  0
TEXT
  5
3A7
100
AcDbEntity
  8
0
100
AcDbText
 62
2
  6
CONTINUOUS
 10
403.8441805271
 20
257.7613943056
  7
STANDARD
 40
3.5
  1
TOLERANZFELD h6
 41
0.7650793651
 72
0
100
AcDbText
  0
LEADER
  5
3A8
100
AcDbEntity
  8
0
100
AcDbLeader
 62
3
  6
CONTINUOUS
  3
STANDARD
 71
1
 72
0
 73
3
 75
0
 76
3
 10
398.8441805271
 20
234.2613943056
 30
0.0
 10
398.8441805271
 20
264.7613943056
 30
0.0
 10
403.8441805271
 20
264.7613943056
 30
0.0
1001
ACAD
1000
DSTYLE
1002
{
1070
77
1070
0
1002
}
  0
DIMENSION
  5
3A9
100
AcDbEntity
  8
10083256#AF0_DIM
100
AcDbDimension
 62
3
  6
CONTINUOUS
  2
*D9
 10
370.4898904191
 20
243.7613943056
 11
357.6316245493
 21
279.53692733
 70
162
 71
2
 42
0.0785398163
  3
DIMSTYLE_5
100
AcDb2LineAngularDimension
 13
370.3673102786
 23
240.6415213945
 14
354.8441805271
 24
241.8632182012
 15
354.8441805271
 25
243.7613943056
 16
368.9603900119
 26
242.2591439913
  0
LINE
  5
3AA
100
AcDbEntity
  8
606202915-000-00-ED1_FORMAT
100
AcDbLine
 62
3
  6
CONTINUOUS
 10
438.9013369791
 20
410.0
 11
584.0013369791
 21
410.0
  0
LINE
  5
3AB
100
AcDbEntity
  8
606202915-000-00-ED1_FORMAT
100
AcDbLine
 62
3
  6
CONTINUOUS
 10
438.9013369791
 20
410.0
 11
438.9013369791
 21
348.0
  0
LINE
  5
3AC
100
AcDbEntity
  8
606202915-000-00-ED1_FORMAT
100
AcDbLine
 62
3
  6
CONTINUOUS
 10
438.9013369791
 20
348.0
 11
584.0013369791
 21
348.0
  0
LINE
  5
3AD
100
AcDbEntity
  8
606202915-000-00-ED1_FORMAT
100
AcDbLine
 62
3
  6
CONTINUOUS
 10
584.0013369791
 20
410.0
 11
584.0013369791
 21
348.0
  0
LINE
  5
3AE
100
AcDbEntity
  8
606202915-000-00-ED1_FORMAT
100
AcDbLine
 62
3
  6
CONTINUOUS
 10
10.0
 20
10.0
 11
10.0
 21
210.0
  0
LINE
  5
3AF
100
AcDbEntity
  8
606202915-000-00-ED1_FORMAT
100
AcDbLine
 62
3
  6
CONTINUOUS
 10
10.0
 20
10.0
 11
16.0
 21
10.0
  0
LINE
  5
3B0
100
AcDbEntity
  8
606202915-000-00-ED1_FORMAT
100
AcDbLine
 62
3
  6
CONTINUOUS
 10
16.0
 20
10.0
 11
16.0
 21
210.0
  0
LINE
  5
3B1
100
AcDbEntity
  8
606202915-000-00-ED1_FORMAT
100
AcDbLine
 62
3
  6
CONTINUOUS
 10
10.0
 20
210.0
 11
16.0
 21
210.0
  0
LINE
  5
3B2
100
AcDbEntity
  8
606202915-000-00-ED1_FORMAT
100
AcDbLine
 62
3
  6
CONTINUOUS
 10
321.0000280969
 20
64.9999941242
 11
584.0000380969
 21
64.9999941242
  0
LINE
  5
3B3
100
AcDbEntity
  8
606202915-000-00-ED1_FORMAT
100
AcDbLine
 62
3
  6
CONTINUOUS
 10
321.0000280969
 20
64.9999941242
 11
321.0000280969
 21
90.4999941242
  0
LINE
  5
3B4
100
AcDbEntity
  8
606202915-000-00-ED1_FORMAT
100
AcDbLine
 62
3
  6
CONTINUOUS
 10
321.0000280969
 20
72.4999941242
 11
584.0000380969
 21
72.4999941242
  0
LINE
  5
3B5
100
AcDbEntity
  8
606202915-000-00-ED1_FORMAT
100
AcDbLine
 62
3
  6
CONTINUOUS
 10
321.0000280969
 20
78.4999941242
 11
584.0000380969
 21
78.4999941242
  0
LINE
  5
3B6
100
AcDbEntity
  8
606202915-000-00-ED1_FORMAT
100
AcDbLine
 62
3
  6
CONTINUOUS
 10
321.0000280969
 20
84.4999941242
 11
584.0000380969
 21
84.4999941242
  0
LINE
  5
3B7
100
AcDbEntity
  8
606202915-000-00-ED1_FORMAT
100
AcDbLine
 62
3
  6
CONTINUOUS
 10
321.0000280969
 20
90.4999941242
 11
584.0000380969
 21
90.4999941242
  0
LINE
  5
3B8
100
AcDbEntity
  8
606202915-000-00-ED1_FORMAT
100
AcDbLine
 62
3
  6
CONTINUOUS
 10
328.5000280969
 20
64.9999941242
 11
328.5000280969
 21
90.4999941242
  0
LINE
  5
3B9
100
AcDbEntity
  8
606202915-000-00-ED1_FORMAT
100
AcDbLine
 62
3
  6
CONTINUOUS
 10
336.0000280969
 20
64.9999941242
 11
336.0000280969
 21
90.4999941242
  0
LINE
  5
3BA
100
AcDbEntity
  8
606202915-000-00-ED1_FORMAT
100
AcDbLine
 62
3
  6
CONTINUOUS
 10
345.3988380969
 20
64.9999941242
 11
345.3988380969
 21
90.4999941242
  0
LINE
  5
3BB
100
AcDbEntity
  8
606202915-000-00-ED1_FORMAT
100
AcDbLine
 62
3
  6
CONTINUOUS
 10
350.3988380969
 20
64.9999941242
 11
350.3988380969
 21
90.4999941242
  0
LINE
  5
3BC
100
AcDbEntity
  8
606202915-000-00-ED1_FORMAT
100
AcDbLine
 62
3
  6
CONTINUOUS
 10
382.0000380969
 20
64.9999941242
 11
382.0000380969
 21
90.4999941242
  0
LINE
  5
3BD
100
AcDbEntity
  8
606202915-000-00-ED1_FORMAT
100
AcDbLine
 62
3
  6
CONTINUOUS
 10
488.0000380969
 20
64.9999941242
 11
488.0000380969
 21
90.4999941242
  0
LINE
  5
3BE
100
AcDbEntity
  8
606202915-000-00-ED1_FORMAT
100
AcDbLine
 62
3
  6
CONTINUOUS
 10
540.0000380969
 20
64.9999941242
 11
540.0000380969
 21
90.4999941242
  0
LINE
  5
3BF
100
AcDbEntity
  8
606202915-000-00-ED1_FORMAT
100
AcDbLine
 62
3
  6
CONTINUOUS
 10
584.0000380969
 20
64.9999941242
 11
584.0000380969
 21
90.4999941242
  0
TEXT
  5
3C0
100
AcDbEntity
  8
606202915-000-00-ED1_FORMAT
100
AcDbText
 62
2
  6
CONTINUOUS
 10
322.2250280969
 20
74.2499941242
  7
STANDARD
 40
2.0
  1
1
 41
0.5714285714
 72
0
100
AcDbText
  0
TEXT
  5
3C1
100
AcDbEntity
  8
606202915-000-00-ED1_FORMAT
100
AcDbText
 62
2
  6
CONTINUOUS
 10
337.2250280969
 20
74.2499941242
  7
STANDARD
 40
2.0
  1
1
 41
0.5714285714
 72
0
100
AcDbText
  0
TEXT
  5
3C2
100
AcDbEntity
  8
606202915-000-00-ED1_FORMAT
100
AcDbText
 62
2
  6
CONTINUOUS
 10
351.6238380969
 20
74.2499941242
  7
STANDARD
 40
2.0
  1
10083256
 41
0.7410714286
 72
0
100
AcDbText
  0
TEXT
  5
3C3
100
AcDbEntity
  8
606202915-000-00-ED1_FORMAT
100
AcDbText
 62
2
  6
CONTINUOUS
 10
383.2250380969
 20
74.2499941242
  7
STANDARD
 40
2.0
  1
SCHRUMPFFUTTER, HSK, MMS, GRUNDKOERPER
 41
0.7731829574
 72
0
100
AcDbText
  0
TEXT
  5
3C4
100
AcDbEntity
  8
606202915-000-00-ED1_FORMAT
100
AcDbText
 62
2
  6
CONTINUOUS
 10
489.2250380969
 20
74.2499941242
  7
STANDARD
 40
2.0
  1
MTC-HSK-A100-08-085-G-0-A-A
 41
0.7689594356
 72
0
100
AcDbText
  0
TEXT
  5
3C5
100
AcDbEntity
  8
606202915-000-00-ED1_FORMAT
100
AcDbText
 62
2
  6
CONTINUOUS
 10
580.597180954
 20
76.7199941242
  7
STANDARD
 40
0.03
  1
10083256
 41
0.7410714286
 72
2
 11
580.7750380969
 21
76.7199941242
100
AcDbText
  0
TEXT
  5
3C6
100
AcDbEntity
  8
606202915-000-00-ED1_FORMAT
100
AcDbText
 62
2
  6
CONTINUOUS
 10
581.7493238112
 20
76.7199941242
  7
STANDARD
 40
0.03
  1
A
 41
0.8571428571
 72
2
 11
581.7750380969
 21
76.7199941242
100
AcDbText
  0
TEXT
  5
3C7
100
AcDbEntity
  8
606202915-000-00-ED1_FORMAT
100
AcDbText
 62
2
  6
CONTINUOUS
 10
322.2250280969
 20
80.2499941242
  7
STANDARD
 40
2.0
  1
2
 41
0.7857142857
 72
0
100
AcDbText
  0
TEXT
  5
3C8
100
AcDbEntity
  8
606202915-000-00-ED1_FORMAT
100
AcDbText
 62
2
  6
CONTINUOUS
 10
337.2250280969
 20
80.2499941242
  7
STANDARD
 40
2.0
  1
1
 41
0.5714285714
 72
0
100
AcDbText
  0
TEXT
  5
3C9
100
AcDbEntity
  8
606202915-000-00-ED1_FORMAT
100
AcDbText
 62
2
  6
CONTINUOUS
 10
351.6238380969
 20
80.2499941242
  7
STANDARD
 40
2.0
  1
10083384
 41
0.7410714286
 72
0
100
AcDbText
  0
TEXT
  5
3CA
100
AcDbEntity
  8
606202915-000-00-ED1_FORMAT
100
AcDbText
 62
2
  6
CONTINUOUS
 10
383.2250380969
 20
80.2499941242
  7
STANDARD
 40
2.0
  1
LAENGENEINSTELLSCHRAUBE, MMS
 41
0.7593537415
 72
0
100
AcDbText
  0
TEXT
  5
3CB
100
AcDbEntity
  8
606202915-000-00-ED1_FORMAT
100
AcDbText
 62
2
  6
CONTINUOUS
 10
489.2250380969
 20
80.2499941242
  7
STANDARD
 40
2.0
  1
LS-HSK-A063-100-08-E-A-A
 41
0.7529761905
 72
0
100
AcDbText
  0
TEXT
  5
3CC
100
AcDbEntity
  8
606202915-000-00-ED1_FORMAT
100
AcDbText
 62
2
  6
CONTINUOUS
 10
580.5264666683
 20
82.7199941242
  7
STANDARD
 40
0.03
  1
10083384_HP
 41
0.7532467532
 72
2
 11
580.7750380969
 21
82.7199941242
100
AcDbText
  0
TEXT
  5
3CD
100
AcDbEntity
  8
606202915-000-00-ED1_FORMAT
100
AcDbText
 62
2
  6
CONTINUOUS
 10
581.7257523826
 20
82.7199941242
  7
STANDARD
 40
0.03
  1
KA
 41
0.8214285714
 72
2
 11
581.7750380969
 21
82.7199941242
100
AcDbText
  0
TEXT
  5
3CE
100
AcDbEntity
  8
606202915-000-00-ED1_FORMAT
100
AcDbText
 62
2
  6
CONTINUOUS
 10
322.2250280969
 20
86.2499941242
  7
STANDARD
 40
2.0
  1
3
 41
0.7142857143
 72
0
100
AcDbText
  0
TEXT
  5
3CF
100
AcDbEntity
  8
606202915-000-00-ED1_FORMAT
100
AcDbText
 62
2
  6
CONTINUOUS
 10
337.2250280969
 20
86.2499941242
  7
STANDARD
 40
2.0
  1
1
 41
0.5714285714
 72
0
100
AcDbText
  0
TEXT
  5
3D0
100
AcDbEntity
  8
606202915-000-00-ED1_FORMAT
100
AcDbText
 62
2
  6
CONTINUOUS
 10
351.6238380969
 20
86.2499941242
  7
STANDARD
 40
2.0
  1
10083283
 41
0.7410714286
 72
0
100
AcDbText
  0
TEXT
  5
3D1
100
AcDbEntity
  8
606202915-000-00-ED1_FORMAT
100
AcDbText
 62
2
  6
CONTINUOUS
 10
383.2250380969
 20
86.2499941242
  7
STANDARD
 40
2.0
  1
KUEHLMITTELUEBERGABE-EINHEIT, MMS, AUTOMATISCH
 41
0.765010352
 72
0
100
AcDbText
  0
TEXT
  5
3D2
100
AcDbEntity
  8
606202915-000-00-ED1_FORMAT
100
AcDbText
 62
2
  6
CONTINUOUS
 10
489.2250380969
 20
86.2499941242
  7
STANDARD
 40
2.0
  1
CU-HSK-A100-A-A-Ø7.00-02.0
 41
0.7512820513
 72
0
100
AcDbText
  0
TEXT
  5
3D3
100
AcDbEntity
  8
606202915-000-00-ED1_FORMAT
100
AcDbText
 62
2
  6
CONTINUOUS
 10
580.5264666683
 20
88.7199941242
  7
STANDARD
 40
0.03
  1
10083283_HP
 41
0.7532467532
 72
2
 11
580.7750380969
 21
88.7199941242
100
AcDbText
  0
TEXT
  5
3D4
100
AcDbEntity
  8
606202915-000-00-ED1_FORMAT
100
AcDbText
 62
2
  6
CONTINUOUS
 10
581.7300380969
 20
88.7199941242
  7
STANDARD
 40
0.03
  1
LA
 41
0.75
 72
2
 11
581.7750380969
 21
88.7199941242
100
AcDbText
  0
LINE
  5
3D5
100
AcDbEntity
  8
606202915-000-00-ED1_FORMAT
100
AcDbLine
 62
3
  6
CONTINUOUS
 10
209.0000087989
 20
37.9999902659
 11
321.0000087989
 21
37.9999902659
  0
LINE
  5
3D6
100
AcDbEntity
  8
606202915-000-00-ED1_FORMAT
100
AcDbLine
 62
3
  6
CONTINUOUS
 10
209.0000087989
 20
37.9999902659
 11
209.0000087989
 21
10.0000002659
  0
LINE
  5
3D7
100
AcDbEntity
  8
606202915-000-00-ED1_FORMAT
100
AcDbLine
 62
3
  6
CONTINUOUS
 10
209.0000087989
 20
10.0000002659
 11
321.0000087989
 21
10.0000002659
  0
LINE
  5
3D8
100
AcDbEntity
  8
606202915-000-00-ED1_FORMAT
100
AcDbLine
 62
3
  6
CONTINUOUS
 10
321.0000087989
 20
37.9999902659
 11
321.0000087989
 21
10.0000002659
  0
LINE
  5
3D9
100
AcDbEntity
  8
606202915-000-00-ED1_FORMAT
100
AcDbLine
 62
3
  6
CONTINUOUS
 10
321.0000280969
 20
64.9999941242
 11
583.9999980969
 21
64.9999941242
  0
LINE
  5
3DA
100
AcDbEntity
  8
606202915-000-00-ED1_FORMAT
100
AcDbLine
 62
3
  6
CONTINUOUS
 10
321.0000280969
 20
64.9999941242
 11
321.0000280969
 21
9.9999941242
  0
LINE
  5
3DB
100
AcDbEntity
  8
606202915-000-00-ED1_FORMAT
100
AcDbLine
 62
3
  6
CONTINUOUS
 10
321.0000280969
 20
9.9999941242
 11
583.9999980969
 21
9.9999941242
  0
LINE
  5
3DC
100
AcDbEntity
  8
606202915-000-00-ED1_FORMAT
100
AcDbLine
 62
3
  6
CONTINUOUS
 10
583.9999980969
 20
64.9999941242
 11
583.9999980969
 21
9.9999941242
  0
TEXT
  5
3DD
100
AcDbEntity
  8
606202915-000-00-ED1_FORMAT
100
AcDbText
 62
2
  6
CONTINUOUS
 10
358.5178852398
 20
60.7499941242
  7
STANDARD
 40
2.5
  1
 
 41
0.7857142857
 72
1
 11
359.5000280969
 21
60.7499941242
100
AcDbText
  0
TEXT
  5
3DE
100
AcDbEntity
  8
606202915-000-00-ED1_FORMAT
100
AcDbText
 62
2
  6
CONTINUOUS
 10
328.1309804778
 20
58.2497441242
  7
STANDARD
 40
2.5
  1
AUSWUCHTGUETE DIN ISO 1940-G 
 41
0.7939244663
 72
1
 11
356.9107423826
 21
58.2497441242
100
AcDbText
  0
TEXT
  5
3DF
100
AcDbEntity
  8
606202915-000-00-ED1_FORMAT
100
AcDbText
 62
2
  6
CONTINUOUS
 10
385.6905042874
 20
58.2497441242
  7
STANDARD
 40
2.5
  1
2.5
 41
0.6904761905
 72
1
 11
388.2797900017
 21
58.2497441242
100
AcDbText
  0
TEXT
  5
3E0
100
AcDbEntity
  8
606202915-000-00-ED1_FORMAT
100
AcDbText
 62
2
  6
CONTINUOUS
 10
358.5178852398
 20
56.5796741242
  7
STANDARD
 40
2.5
  1
 
 41
0.7857142857
 72
1
 11
359.5000280969
 21
56.5796741242
100
AcDbText
  0
TEXT
  5
3E1
100
AcDbEntity
  8
606202915-000-00-ED1_FORMAT
100
AcDbText
 62
2
  6
CONTINUOUS
 10
341.732170954
 20
52.8296741242
  7
STANDARD
 40
2.5
  1
(KOMPLETT MONTIERT)
 41
0.7481203008
 72
1
 11
359.5000280969
 21
52.8296741242
100
AcDbText
  0
TEXT
  5
3E2
100
AcDbEntity
  8
606202915-000-00-ED1_FORMAT
100
AcDbText
 62
2
  6
CONTINUOUS
 10
552.1225280969
 20
54.9546741242
  7
STANDARD
 40
2.0
  1
26.11.13
 41
0.6428571429
 72
0
100
AcDbText
  0
TEXT
  5
3E3
100
AcDbEntity
  8
606202915-000-00-ED1_FORMAT
100
AcDbText
 62
2
  6
CONTINUOUS
 10
566.9725726207
 20
54.9546741242
  7
STANDARD
 40
2.0
  1
KRH / BATO
 41
0.7976190476
 72
1
 11
574.9487630969
 21
54.9546741242
100
AcDbText
  0
TEXT
  5
3E4
100
AcDbEntity
  8
606202915-000-00-ED1_FORMAT
100
AcDbText
 62
2
  6
CONTINUOUS
 10
331.8512185731
 20
46.8296741242
  7
STANDARD
 40
2.5
  1
FUER NENNDREHZAHL 
 41
0.7724867725
 72
1
 11
349.232170954
 21
46.8296741242
100
AcDbText
  0
TEXT
  5
3E5
100
AcDbEntity
  8
606202915-000-00-ED1_FORMAT
100
AcDbText
 62
2
  6
CONTINUOUS
 10
366.613123335
 20
46.8296741242
  7
STANDARD
 40
2.5
  1
25000
 41
0.7714285714
 72
1
 11
371.4345519064
 21
46.8296741242
100
AcDbText
  0
TEXT
  5
3E6
100
AcDbEntity
  8
606202915-000-00-ED1_FORMAT
100
AcDbText
 62
2
  6
CONTINUOUS
 10
376.2559804778
 20
46.8296741242
  7
STANDARD
 40
2.5
  1
 MIN
 41
0.7678571429
 72
1
 11
380.0952661921
 21
46.8296741242
100
AcDbText
  0
TEXT
  5
3E7
100
AcDbEntity
  8
606202915-000-00-ED1_FORMAT
100
AcDbText
 62
2
  6
CONTINUOUS
 10
383.9345519064
 20
48.7046741242
  7
STANDARD
 40
2.5
  1
-1
 41
0.6428571429
 72
1
 11
385.5416947636
 21
48.7046741242
100
AcDbText
  0
TEXT
  5
3E8
100
AcDbEntity
  8
606202915-000-00-ED1_FORMAT
100
AcDbText
 62
7
  6
CONTINUOUS
 10
399.2250280969
 20
25.9999941242
  7
STANDARD
 40
3.0
  1
THERMOCHUCK, HSK, MMS
 41
0.7800453515
 72
0
100
AcDbText
  0
TEXT
  5
3E9
100
AcDbEntity
  8
606202915-000-00-ED1_FORMAT
100
AcDbText
 62
2
  6
CONTINUOUS
 10
576.5952361921
 20
25.9999941242
  7
STANDARD
 40
2.0
  1
EHD
 41
0.8015873016
 72
1
 11
578.9999980969
 21
25.9999941242
100
AcDbText
  0
TEXT
  5
3EA
100
AcDbEntity
  8
606202915-000-00-ED1_FORMAT
100
AcDbText
 62
7
  6
CONTINUOUS
 10
399.2250280969
 20
15.2499941242
  7
STANDARD
 40
3.0
  1
MTC-HSK-A100-08-085-A-0-A-AAA
 41
0.7775041051
 72
0
100
AcDbText
  0
TEXT
  5
3EB
100
AcDbEntity
  8
606202915-000-00-ED1_FORMAT
100
AcDbText
 62
7
  6
CONTINUOUS
 10
475.2250280969
 20
15.2499941242
  7
STANDARD
 40
3.0
  1
30381075
 41
0.7321428571
 72
0
100
AcDbText
  0
TEXT
  5
3EC
100
AcDbEntity
  8
606202915-000-00-ED1_FORMAT
100
AcDbText
 62
7
  6
CONTINUOUS
 10
520.2250280969
 20
15.2499941242
  7
STANDARD
 40
3.0
  1
606202915-000-00-ED1
 41
0.7523809524
 72
0
100
AcDbText
  0
LINE
  5
3ED
100
AcDbEntity
  8
606202915-000-00-ED1_FORMAT
100
AcDbLine
 62
3
  6
CONTINUOUS
 10
15.9999998068
 20
9.9999999122
 11
15.9999998068
 21
144.9999999122
  0
LINE
  5
3EE
100
AcDbEntity
  8
606202915-000-00-ED1_FORMAT
100
AcDbLine
 62
3
  6
CONTINUOUS
 10
15.9999998068
 20
9.9999999122
 11
21.9999998068
 21
9.9999999122
  0
LINE
  5
3EF
100
AcDbEntity
  8
606202915-000-00-ED1_FORMAT
100
AcDbLine
 62
3
  6
CONTINUOUS
 10
21.9999998068
 20
9.9999999122
 11
21.9999998068
 21
144.9999999122
  0
LINE
  5
3F0
100
AcDbEntity
  8
606202915-000-00-ED1_FORMAT
100
AcDbLine
 62
3
  6
CONTINUOUS
 10
15.9999998068
 20
79.9999999122
 11
21.9999998068
 21
79.9999999122
  0
LINE
  5
3F1
100
AcDbEntity
  8
606202915-000-00-ED1_FORMAT
100
AcDbLine
 62
3
  6
CONTINUOUS
 10
15.9999998068
 20
144.9999999122
 11
21.9999998068
 21
144.9999999122
  0
TEXT
  5
3F2
100
AcDbEntity
  8
606202915-000-00-ED1_FORMAT
100
AcDbText
 62
2
  6
CONTINUOUS
 10
21.2499998068
 20
11.2249999122
  7
STANDARD
 40
3.5
  1
AEHNLICH:
 50
90.0
 41
0.7116402116
 72
0
100
AcDbText
  0
TEXT
  5
3F3
100
AcDbEntity
  8
606202915-000-00-ED1_FORMAT
100
AcDbText
 62
2
  6
CONTINUOUS
 10
21.2499998068
 20
81.2249999122
  7
STANDARD
 40
3.5
  1
SKIZZE:
 50
90.0
 41
0.693877551
 72
0
100
AcDbText
  0
LINE
  5
3F4
100
AcDbEntity
  8
606202915-000-00-ED1_FORMAT
100
AcDbLine
 62
3
  6
CONTINUOUS
 10
540.0000047006
 20
34.9999973292
 11
469.0000047006
 21
34.9999973292
  0
LINE
  5
3F5
100
AcDbEntity
  8
606202915-000-00-ED1_FORMAT
100
AcDbLine
 62
3
  6
CONTINUOUS
 10
540.0000047006
 20
34.9999973292
 11
540.0000047006
 21
43.4999973292
  0
LINE
  5
3F6
100
AcDbEntity
  8
606202915-000-00-ED1_FORMAT
100
AcDbLine
 62
3
  6
CONTINUOUS
 10
540.0000047006
 20
43.4999973292
 11
469.0000047006
 21
43.4999973292
  0
LINE
  5
3F7
100
AcDbEntity
  8
606202915-000-00-ED1_FORMAT
100
AcDbLine
 62
3
  6
CONTINUOUS
 10
469.0000047006
 20
34.9999973292
 11
469.0000047006
 21
43.4999973292
  0
TEXT
  5
3F8
100
AcDbEntity
  8
606202915-000-00-ED1_TEXT
100
AcDbText
 62
2
  6
CONTINUOUS
 10
275.8441805271
 20
318.5113943056
  7
STANDARD
 40
3.5
  1
FARBMARKIERUNG IN GRUEN
 41
0.781573499
 72
0
100
AcDbText
  0
TEXT
  5
3F9
100
AcDbEntity
  8
606202915-000-00-ED1_TEXT
100
AcDbText
 62
2
  6
CONTINUOUS
 10
275.8441805271
 20
313.2613943056
  7
STANDARD
 40
3.5
  1
NACH MN650BL1
 41
0.7673992674
 72
0
100
AcDbText
  0
TEXT
  5
3FA
100
AcDbEntity
  8
606202915-000-00-ED1_TEXT
100
AcDbText
 62
7
  6
CONTINUOUS
 10
175.8441805271
 20
317.7613943056
  7
STANDARD
 40
5.0
  1
TRENNSTELLE HSK-A100
 41
0.7666666667
 72
0
100
AcDbText
  0
TEXT
  5
3FB
100
AcDbEntity
  8
606202915-000-00-ED1_TEXT
100
AcDbText
 62
7
  6
CONTINUOUS
 10
175.8441805271
 20
310.2613943056
  7
STANDARD
 40
5.0
  1
(AEHNLICH DIN 69893-1)
 41
0.7251082251
 72
0
100
AcDbText
  0
TEXT
  5
3FC
100
AcDbEntity
  8
606202915-000-00-ED1_TEXT
100
AcDbText
 62
7
  6
CONTINUOUS
 10
175.8441805271
 20
302.7613943056
  7
STANDARD
 40
5.0
  1
NACH MN609 BLATT 2-6
 41
0.7952380952
 72
0
100
AcDbText
  0
INSERT
  5
3FD
100
AcDbEntity
  8
606202915-000-00-ED1_CL
100
AcDbBlockReference
 62
3
  6
CONTINUOUS
  2
GEOM_TOLERANCE_SYMBOLS_BL3
 10
253.663728267
 20
273.0467174772
  0
LEADER
  5
3FE
100
AcDbEntity
  8
606202915-000-00-ED1_CL
100
AcDbLeader
 62
3
  6
CONTINUOUS
  3
STANDARD
 71
1
 72
0
 73
2
 75
0
 76
2
 10
365.676911198
 20
234.2613943056
 30
0.0
 10
375.9898924171
 20
253.8421079702
 30
0.0
340
3FF
1001
ACAD
1000
DSTYLE
1002
{
1070
77
1070
0
1070
341
1005
225
1002
}
  0
INSERT
  5
3FF
102
{ACAD_REACTORS
330
3FE
102
}
100
AcDbEntity
  8
606202915-000-00-ED1_CL
100
AcDbBlockReference
 62
3
  6
CONTINUOUS
  2
BOMBALLOON_BL4
 10
378.8441805271
 20
259.2613943056
  0
LEADER
  5
400
100
AcDbEntity
  8
606202915-000-00-ED1_CL
100
AcDbLeader
 62
3
  6
CONTINUOUS
  3
STANDARD
 71
1
 72
0
 73
2
 75
0
 76
2
 10
318.824022844
 20
226.7648561651
 30
0.0
 10
319.3379853612
 20
191.7711523838
 30
0.0
340
401
1001
ACAD
1000
DSTYLE
1002
{
1070
77
1070
0
1070
341
1005
225
1002
}
  0
INSERT
  5
401
102
{ACAD_REACTORS
330
400
102
}
100
AcDbEntity
  8
606202915-000-00-ED1_CL
100
AcDbBlockReference
 62
3
  6
CONTINUOUS
  2
BOMBALLOON_BL5
 10
319.4279352834
 20
185.6468129083
  0
LEADER
  5
402
100
AcDbEntity
  8
606202915-000-00-ED1_CL
100
AcDbLeader
 62
3
  6
CONTINUOUS
  3
STANDARD
 71
1
 72
0
 73
2
 75
0
 76
2
 10
309.07153006
 20
236.9623893756
 30
0.0
 10
276.168068566
 20
290.0551240967
 30
0.0
340
403
1001
ACAD
1000
DSTYLE
1002
{
1070
77
1070
0
1070
341
1005
225
1002
}
  0
INSERT
  5
403
102
{ACAD_REACTORS
330
402
102
}
100
AcDbEntity
  8
606202915-000-00-ED1_CL
100
AcDbBlockReference
 62
3
  6
CONTINUOUS
  2
BOMBALLOON_BL6
 10
272.9415572128
 20
295.2613943056
  0
LINE
  5
404
100
AcDbEntity
  8
606202915-000-00-ED1_FORMAT
100
AcDbLine
 62
6
  6
HIDDEN
 10
-0.0
 20
420.0
 11
-0.0
 21
0.0
  0
LINE
  5
405
100
AcDbEntity
  8
606202915-000-00-ED1_FORMAT
100
AcDbLine
 62
7
  6
CONTINUOUS
 10
5.0
 20
415.0
 11
5.0
 21
5.0
  0
LINE
  5
406
100
AcDbEntity
  8
606202915-000-00-ED1_FORMAT
100
AcDbLine
 62
3
  6
CONTINUOUS
 10
10.0
 20
410.0
 11
10.0
 21
10.0
  0
LINE
  5
407
100
AcDbEntity
  8
606202915-000-00-ED1_FORMAT
100
AcDbLine
 62
3
  6
CONTINUOUS
 10
15.9999998068
 20
9.9999999122
 11
15.9999998068
 21
209.9999964
  0
LINE
  5
408
100
AcDbEntity
  8
606202915-000-00-ED1_FORMAT
100
AcDbLine
 62
3
  6
CONTINUOUS
 10
47.0
 20
10.0
 11
47.0
 21
5.0
  0
LINE
  5
409
100
AcDbEntity
  8
606202915-000-00-ED1_FORMAT
100
AcDbLine
 62
3
  6
CONTINUOUS
 10
47.0
 20
410.0
 11
47.0
 21
415.0
  0
LINE
  5
40A
100
AcDbEntity
  8
606202915-000-00-ED1_FORMAT
100
AcDbLine
 62
6
  6
HIDDEN
 10
-0.0
 20
0.0
 11
594.0
 21
0.0
  0
LINE
  5
40B
100
AcDbEntity
  8
606202915-000-00-ED1_FORMAT
100
AcDbLine
 62
7
  6
CONTINUOUS
 10
5.0
 20
5.0
 11
589.0
 21
5.0
  0
LINE
  5
40C
100
AcDbEntity
  8
606202915-000-00-ED1_FORMAT
100
AcDbLine
 62
3
  6
CONTINUOUS
 10
97.0
 20
10.0
 11
97.0
 21
5.0
  0
LINE
  5
40D
100
AcDbEntity
  8
606202915-000-00-ED1_FORMAT
100
AcDbLine
 62
3
  6
CONTINUOUS
 10
97.0
 20
410.0
 11
97.0
 21
415.0
  0
LINE
  5
40E
100
AcDbEntity
  8
606202915-000-00-ED1_FORMAT
100
AcDbLine
 62
90
  6
CONTINUOUS
 10
486.2079074361
 20
51.4102390916
 11
484.7759922626
 21
51.0971516522
  0
LINE
  5
40F
100
AcDbEntity
  8
606202915-000-00-ED1_FORMAT
100
AcDbLine
 62
90
  6
CONTINUOUS
 10
495.735738738
 20
56.8851989996
 11
497.4244593118
 21
57.2541030852
  0
LINE
  5
410
100
AcDbEntity
  8
606202915-000-00-ED1_FORMAT
100
AcDbLine
 62
90
  6
CONTINUOUS
 10
492.9722196624
 20
53.9466578122
 11
493.1567899608
 21
53.9852167692
  0
LINE
  5
411
100
AcDbEntity
  8
606202915-000-00-ED1_FORMAT
100
AcDbLine
 62
90
  6
CONTINUOUS
 10
493.4917203551
 20
52.9019305668
 11
493.3296720276
 21
52.868304013
  0
LINE
  5
412
100
AcDbEntity
  8
606202915-000-00-ED1_FORMAT
100
AcDbLine
 62
90
  6
CONTINUOUS
 10
486.8827731071
 20
51.5341747816
 11
486.6780001736
 21
51.4975460613
  0
LINE
  5
413
100
AcDbEntity
  8
606202915-000-00-ED1_FORMAT
100
AcDbLine
 62
90
  6
CONTINUOUS
 10
487.0814425255
 20
51.5666340381
 11
486.8827731071
 21
51.5341747816
  0
LINE
  5
414
100
AcDbEntity
  8
606202915-000-00-ED1_FORMAT
100
AcDbLine
 62
90
  6
CONTINUOUS
 10
487.2753512021
 20
51.5952557095
 11
487.0814425255
 21
51.5666340381
  0
LINE
  5
415
100
AcDbEntity
  8
606202915-000-00-ED1_FORMAT
100
AcDbLine
 62
3
  6
CONTINUOUS
 10
10.0
 20
10.0
 11
209.0001087989
 21
10.0
  0
LINE
  5
416
100
AcDbEntity
  8
606202915-000-00-ED1_FORMAT
100
AcDbLine
 62
7
  6
CONTINUOUS
 10
209.0001087989
 20
10.0
 11
584.0
 21
10.0
  0
LINE
  5
417
100
AcDbEntity
  8
606202915-000-00-ED1_FORMAT
100
AcDbLine
 62
7
  6
CONTINUOUS
 10
584.0
 20
13.4999996261
 11
398.0000178708
 21
13.4999996261
  0
LINE
  5
418
100
AcDbEntity
  8
606202915-000-00-ED1_FORMAT
100
AcDbLine
 62
7
  6
CONTINUOUS
 10
321.0000698625
 20
15.9999979141
 11
209.0001087989
 21
15.9999979141
  0
LINE
  5
419
100
AcDbEntity
  8
606202915-000-00-ED1_FORMAT
100
AcDbLine
 62
7
  6
CONTINUOUS
 10
584.0
 20
24.2499984776
 11
398.0000178708
 21
24.2499984776
  0
LINE
  5
41A
100
AcDbEntity
  8
606202915-000-00-ED1_FORMAT
100
AcDbLine
 62
90
  6
CONTINUOUS
 10
493.3296720276
 20
52.868304013
 11
493.1589872263
 21
52.8447558885
  0
LINE
  5
41B
100
AcDbEntity
  8
606202915-000-00-ED1_FORMAT
100
AcDbLine
 62
90
  6
CONTINUOUS
 10
487.4658724277
 20
51.6203487862
 11
487.2753512021
 21
51.5952557095
  0
LINE
  5
41C
100
AcDbEntity
  8
606202915-000-00-ED1_FORMAT
100
AcDbLine
 62
90
  6
CONTINUOUS
 10
487.6543489758
 20
51.6422413322
 11
487.4658724277
 21
51.6203487862
  0
LINE
  5
41D
100
AcDbEntity
  8
606202915-000-00-ED1_FORMAT
100
AcDbLine
 62
90
  6
CONTINUOUS
 10
487.8421846548
 20
51.6612499672
 11
487.6543489758
 21
51.6422413322
  0
LINE
  5
41E
100
AcDbEntity
  8
606202915-000-00-ED1_FORMAT
100
AcDbLine
 62
90
  6
CONTINUOUS
 10
488.0306917204
 20
51.6776989405
 11
487.8421846548
 21
51.6612499672
  0
LINE
  5
41F
100
AcDbEntity
  8
606202915-000-00-ED1_FORMAT
100
AcDbLine
 62
90
  6
CONTINUOUS
 10
489.8962311284
 20
51.8283985445
 11
489.6792511645
 21
51.8104503952
  0
LINE
  5
420
100
AcDbEntity
  8
606202915-000-00-ED1_FORMAT
100
AcDbLine
 62
90
  6
CONTINUOUS
 10
492.7601225107
 20
53.9302469859
 11
492.9722196624
 21
53.9466578122
  0
LINE
  5
421
100
AcDbEntity
  8
606202915-000-00-ED1_FORMAT
100
AcDbLine
 62
90
  6
CONTINUOUS
 10
493.1589872263
 20
52.8447558885
 11
492.9797269861
 21
52.8313205258
  0
LINE
  5
422
100
AcDbEntity
  8
606202915-000-00-ED1_FORMAT
100
AcDbLine
 62
90
  6
CONTINUOUS
 10
488.2212739812
 20
51.6919048721
 11
488.0306917204
 21
51.6776989405
  0
LINE
  5
423
100
AcDbEntity
  8
606202915-000-00-ED1_FORMAT
100
AcDbLine
 62
90
  6
CONTINUOUS
 10
489.4688019619
 20
52.7755076944
 11
488.4483247451
 21
52.7013690587
  0
LINE
  5
424
100
AcDbEntity
  8
606202915-000-00-ED1_FORMAT
100
AcDbLine
 62
90
  6
CONTINUOUS
 10
490.1106476159
 20
51.8401821434
 11
489.8962311284
 21
51.8283985445
  0
LINE
  5
425
100
AcDbEntity
  8
606202915-000-00-ED1_FORMAT
100
AcDbLine
 62
90
  6
CONTINUOUS
 10
488.5569062797
 20
53.7608935137
 11
489.3363251654
 21
53.8016764391
  0
LINE
  5
426
100
AcDbEntity
  8
606202915-000-00-ED1_FORMAT
100
AcDbLine
 62
90
  6
CONTINUOUS
 10
490.3231414961
 20
51.847224074
 11
490.1106476159
 21
51.8401821434
  0
LINE
  5
427
100
AcDbEntity
  8
606202915-000-00-ED1_FORMAT
100
AcDbLine
 62
7
  6
CONTINUOUS
 10
321.0000698625
 20
31.9999913512
 11
209.0001087989
 21
31.9999913512
  0
LINE
  5
428
100
AcDbEntity
  8
606202915-000-00-ED1_FORMAT
100
AcDbLine
 62
7
  6
CONTINUOUS
 10
398.0000178708
 20
34.9999973292
 11
584.0
 21
34.9999973292
  0
LINE
  5
429
100
AcDbEntity
  8
606202915-000-00-ED1_FORMAT
100
AcDbLine
 62
7
  6
CONTINUOUS
 10
209.0001087989
 20
37.9999902659
 11
321.0000698625
 21
37.9999902659
  0
LINE
  5
42A
100
AcDbEntity
  8
606202915-000-00-ED1_FORMAT
100
AcDbLine
 62
7
  6
CONTINUOUS
 10
584.0
 20
40.954677693
 11
540.0000047006
 21
40.954677693
  0
LINE
  5
42B
100
AcDbEntity
  8
606202915-000-00-ED1_FORMAT
100
AcDbLine
 62
7
  6
CONTINUOUS
 10
540.0000047006
 20
43.4999964211
 11
321.0000280969
 21
43.4999964211
  0
LINE
  5
42C
100
AcDbEntity
  8
606202915-000-00-ED1_FORMAT
100
AcDbLine
 62
7
  6
CONTINUOUS
 10
584.0
 20
46.954677052
 11
540.0000047006
 21
46.954677052
  0
LINE
  5
42D
100
AcDbEntity
  8
606202915-000-00-ED1_FORMAT
100
AcDbLine
 62
3
  6
CONTINUOUS
 10
147.0
 20
10.0
 11
147.0
 21
5.0
  0
LINE
  5
42E
100
AcDbEntity
  8
606202915-000-00-ED1_FORMAT
100
AcDbLine
 62
3
  6
CONTINUOUS
 10
147.0
 20
410.0
 11
147.0
 21
415.0
  0
LINE
  5
42F
100
AcDbEntity
  8
606202915-000-00-ED1_FORMAT
100
AcDbLine
 62
90
  6
CONTINUOUS
 10
491.5046599603
 20
56.6184677578
 11
491.7463896781
 21
56.6283897847
  0
LINE
  5
430
100
AcDbEntity
  8
606202915-000-00-ED1_FORMAT
100
AcDbLine
 62
90
  6
CONTINUOUS
 10
491.7463896781
 20
56.6283897847
 11
491.9648650032
 21
56.6358932936
  0
LINE
  5
431
100
AcDbEntity
  8
606202915-000-00-ED1_FORMAT
100
AcDbLine
 62
90
  6
CONTINUOUS
 10
491.9648650032
 20
56.6358932936
 11
492.1660063452
 21
56.6412529429
  0
LINE
  5
432
100
AcDbEntity
  8
606202915-000-00-ED1_FORMAT
100
AcDbLine
 62
90
  6
CONTINUOUS
 10
492.1660063452
 20
56.6412529429
 11
492.3558561842
 21
56.6447319465
  0
LINE
  5
433
100
AcDbEntity
  8
606202915-000-00-ED1_FORMAT
100
AcDbLine
 62
90
  6
CONTINUOUS
 10
490.5344451909
 20
51.850951033
 11
490.3231414961
 21
51.847224074
  0
LINE
  5
434
100
AcDbEntity
  8
606202915-000-00-ED1_FORMAT
100
AcDbLine
 62
90
  6
CONTINUOUS
 10
492.9797269861
 20
52.8313205258
 11
492.7919523422
 21
52.8280437011
  0
LINE
  5
435
100
AcDbEntity
  8
606202915-000-00-ED1_FORMAT
100
AcDbLine
 62
90
  6
CONTINUOUS
 10
490.8694061027
 20
47.6402732547
 11
491.6933501314
 21
47.6402732547
  0
LINE
  5
436
100
AcDbEntity
  8
606202915-000-00-ED1_FORMAT
100
AcDbLine
 62
90
  6
CONTINUOUS
 10
492.3100798205
 20
47.9302741481
 11
490.2669891566
 21
47.9302741481
  0
LINE
  5
437
100
AcDbEntity
  8
606202915-000-00-ED1_FORMAT
100
AcDbLine
 62
90
  6
CONTINUOUS
 10
489.6645722106
 20
48.2202750414
 11
492.9268400272
 21
48.2202750414
  0
LINE
  5
438
100
AcDbEntity
  8
606202915-000-00-ED1_FORMAT
100
AcDbLine
 62
90
  6
CONTINUOUS
 10
493.5435697163
 20
48.51027212
 11
489.0621552645
 21
48.51027212
  0
LINE
  5
439
100
AcDbEntity
  8
606202915-000-00-ED1_FORMAT
100
AcDbLine
 62
90
  6
CONTINUOUS
 10
488.4597383184
 20
48.8002730134
 11
494.1602994055
 21
48.8002730134
  0
LINE
  5
43A
100
AcDbEntity
  8
606202915-000-00-ED1_FORMAT
100
AcDbLine
 62
90
  6
CONTINUOUS
 10
502.4875387582
 20
49.0902739067
 11
502.1043905942
 21
49.0902739067
  0
LINE
  5
43B
100
AcDbEntity
  8
606202915-000-00-ED1_FORMAT
100
AcDbLine
 62
90
  6
CONTINUOUS
 10
494.7770596121
 20
49.0902739067
 11
487.8573213724
 21
49.0902739067
  0
LINE
  5
43C
100
AcDbEntity
  8
606202915-000-00-ED1_FORMAT
100
AcDbLine
 62
90
  6
CONTINUOUS
 10
480.5294105564
 20
49.3802748
 11
481.1345130492
 21
49.3802748
  0
LINE
  5
43D
100
AcDbEntity
  8
606202915-000-00-ED1_FORMAT
100
AcDbLine
 62
90
  6
CONTINUOUS
 10
487.2549044263
 20
49.3802748
 11
495.3937893013
 21
49.3802748
  0
LINE
  5
43E
100
AcDbEntity
  8
606202915-000-00-ED1_FORMAT
100
AcDbLine
 62
90
  6
CONTINUOUS
 10
501.5346579718
 20
49.3802748
 11
502.1115011893
 21
49.3802748
  0
LINE
  5
43F
100
AcDbEntity
  8
606202915-000-00-ED1_FORMAT
100
AcDbLine
 62
90
  6
CONTINUOUS
 10
502.2963156283
 20
49.3802748
 11
502.8705038168
 21
49.3802748
  0
LINE
  5
440
100
AcDbEntity
  8
606202915-000-00-ED1_FORMAT
100
AcDbLine
 62
90
  6
CONTINUOUS
 10
502.8858236398
 20
49.6702718786
 11
502.2963156283
 21
49.6702718786
  0
LINE
  5
441
100
AcDbEntity
  8
606202915-000-00-ED1_FORMAT
100
AcDbLine
 62
90
  6
CONTINUOUS
 10
501.5367026493
 20
49.6702718786
 11
500.9648948318
 21
49.6702718786
  0
LINE
  5
442
100
AcDbEntity
  8
606202915-000-00-ED1_FORMAT
100
AcDbLine
 62
90
  6
CONTINUOUS
 10
496.0105189904
 20
49.6702718786
 11
486.6524874802
 21
49.6702718786
  0
LINE
  5
443
100
AcDbEntity
  8
606202915-000-00-ED1_FORMAT
100
AcDbLine
 62
90
  6
CONTINUOUS
 10
481.651694406
 20
49.6702718786
 11
481.1118995255
 21
49.6702718786
  0
LINE
  5
444
100
AcDbEntity
  8
606202915-000-00-ED1_FORMAT
100
AcDbLine
 62
90
  6
CONTINUOUS
 10
480.8541480804
 20
49.6702718786
 11
480.2529823549
 21
49.6702718786
  0
LINE
  5
445
100
AcDbEntity
  8
606202915-000-00-ED1_FORMAT
100
AcDbLine
 62
90
  6
CONTINUOUS
 10
480.2529823549
 20
49.960272772
 11
480.8542701507
 21
49.960272772
  0
LINE
  5
446
100
AcDbEntity
  8
606202915-000-00-ED1_FORMAT
100
AcDbLine
 62
90
  6
CONTINUOUS
 10
481.6427222388
 20
49.960272772
 11
482.1689062805
 21
49.960272772
  0
LINE
  5
447
100
AcDbEntity
  8
606202915-000-00-ED1_FORMAT
100
AcDbLine
 62
90
  6
CONTINUOUS
 10
486.0500705342
 20
49.960272772
 11
496.6272486795
 21
49.960272772
  0
LINE
  5
448
100
AcDbEntity
  8
606202915-000-00-ED1_FORMAT
100
AcDbLine
 62
90
  6
CONTINUOUS
 10
500.3951316918
 20
49.960272772
 11
500.9619041094
 21
49.960272772
  0
LINE
  5
449
100
AcDbEntity
  8
606202915-000-00-ED1_FORMAT
100
AcDbLine
 62
90
  6
CONTINUOUS
 10
502.2963156283
 20
49.960272772
 11
502.8858236398
 21
49.960272772
  0
LINE
  5
44A
100
AcDbEntity
  8
606202915-000-00-ED1_FORMAT
100
AcDbLine
 62
90
  6
CONTINUOUS
 10
502.8858236398
 20
50.2502736653
 11
502.2963156283
 21
50.2502736653
  0
LINE
  5
44B
100
AcDbEntity
  8
606202915-000-00-ED1_FORMAT
100
AcDbLine
 62
90
  6
CONTINUOUS
 10
500.3871055694
 20
50.2502736653
 11
499.8253990694
 21
50.2502736653
  0
LINE
  5
44C
100
AcDbEntity
  8
606202915-000-00-ED1_FORMAT
100
AcDbLine
 62
90
  6
CONTINUOUS
 10
497.2440088862
 20
50.2502736653
 11
485.4476230705
 21
50.2502736653
  0
LINE
  5
44D
100
AcDbEntity
  8
606202915-000-00-ED1_FORMAT
100
AcDbLine
 62
90
  6
CONTINUOUS
 10
482.6563635186
 20
50.2502736653
 11
482.173544952
 21
50.2502736653
  0
LINE
  5
44E
100
AcDbEntity
  8
606202915-000-00-ED1_FORMAT
100
AcDbLine
 62
90
  6
CONTINUOUS
 10
480.8543617034
 20
50.2502736653
 11
480.2529823549
 21
50.2502736653
  0
LINE
  5
44F
100
AcDbEntity
  8
606202915-000-00-ED1_FORMAT
100
AcDbLine
 62
90
  6
CONTINUOUS
 10
480.2529823549
 20
50.5402745586
 11
480.8544532561
 21
50.5402745586
  0
LINE
  5
450
100
AcDbEntity
  8
606202915-000-00-ED1_FORMAT
100
AcDbLine
 62
90
  6
CONTINUOUS
 10
482.453391122
 20
50.5402745586
 11
482.6559362725
 21
50.5402745586
  0
LINE
  5
451
100
AcDbEntity
  8
606202915-000-00-ED1_FORMAT
100
AcDbLine
 62
90
  6
CONTINUOUS
 10
484.8452061244
 20
50.5402745586
 11
497.8607385753
 21
50.5402745586
  0
LINE
  5
452
100
AcDbEntity
  8
606202915-000-00-ED1_FORMAT
100
AcDbLine
 62
90
  6
CONTINUOUS
 10
499.2556359294
 20
50.5402745586
 11
499.8123070294
 21
50.5402745586
  0
LINE
  5
453
100
AcDbEntity
  8
606202915-000-00-ED1_FORMAT
100
AcDbLine
 62
90
  6
CONTINUOUS
 10
502.2963156283
 20
50.5402745586
 11
502.8858236398
 21
50.5402745586
  0
LINE
  5
454
100
AcDbEntity
  8
606202915-000-00-ED1_FORMAT
100
AcDbLine
 62
90
  6
CONTINUOUS
 10
502.8858236398
 20
50.8302716372
 11
502.2963156283
 21
50.8302716372
  0
LINE
  5
455
100
AcDbEntity
  8
606202915-000-00-ED1_FORMAT
100
AcDbLine
 62
90
  6
CONTINUOUS
 10
499.407247246
 20
50.8302716372
 11
499.1310631851
 21
50.8302716372
  0
LINE
  5
456
100
AcDbEntity
  8
606202915-000-00-ED1_FORMAT
100
AcDbLine
 62
90
  6
CONTINUOUS
 10
498.4774682644
 20
50.8302716372
 11
484.2427891784
 21
50.8302716372
  0
LINE
  5
457
100
AcDbEntity
  8
606202915-000-00-ED1_FORMAT
100
AcDbLine
 62
90
  6
CONTINUOUS
 10
482.655539544
 20
50.8302716372
 11
482.453391122
 21
50.8302716372
  0
LINE
  5
458
100
AcDbEntity
  8
606202915-000-00-ED1_FORMAT
100
AcDbLine
 62
90
  6
CONTINUOUS
 10
480.8545448089
 20
50.8302716372
 11
480.2529823549
 21
50.8302716372
  0
LINE
  5
459
100
AcDbEntity
  8
606202915-000-00-ED1_FORMAT
100
AcDbLine
 62
90
  6
CONTINUOUS
 10
480.2529823549
 20
51.1202725306
 11
480.8546363616
 21
51.1202725306
  0
LINE
  5
45A
100
AcDbEntity
  8
606202915-000-00-ED1_FORMAT
100
AcDbLine
 62
90
  6
CONTINUOUS
 10
482.453391122
 20
51.1202725306
 11
482.655112298
 21
51.1202725306
  0
LINE
  5
45B
100
AcDbEntity
  8
606202915-000-00-ED1_FORMAT
100
AcDbLine
 62
90
  6
CONTINUOUS
 10
483.6403722323
 20
51.1202725306
 11
484.7759922626
 21
51.1202725306
  0
LINE
  5
45C
100
AcDbEntity
  8
606202915-000-00-ED1_FORMAT
100
AcDbLine
 62
90
  6
CONTINUOUS
 10
484.8817356627
 20
51.1202725306
 11
497.7463587012
 21
51.1202725306
  0
LINE
  5
45D
100
AcDbEntity
  8
606202915-000-00-ED1_FORMAT
100
AcDbLine
 62
90
  6
CONTINUOUS
 10
498.5632836875
 20
51.1202725306
 11
499.0942284711
 21
51.1202725306
  0
LINE
  5
45E
100
AcDbEntity
  8
606202915-000-00-ED1_FORMAT
100
AcDbLine
 62
90
  6
CONTINUOUS
 10
499.1310631851
 20
51.1202725306
 11
499.407247246
 21
51.1202725306
  0
LINE
  5
45F
100
AcDbEntity
  8
606202915-000-00-ED1_FORMAT
100
AcDbLine
 62
90
  6
CONTINUOUS
 10
501.970021708
 20
51.1202725306
 11
502.8858236398
 21
51.1202725306
  0
LINE
  5
460
100
AcDbEntity
  8
606202915-000-00-ED1_FORMAT
100
AcDbLine
 62
90
  6
CONTINUOUS
 10
502.2166342379
 20
51.4102734239
 11
501.2521872903
 21
51.4102734239
  0
LINE
  5
461
100
AcDbEntity
  8
606202915-000-00-ED1_FORMAT
100
AcDbLine
 62
90
  6
CONTINUOUS
 10
499.407247246
 20
51.4102734239
 11
498.5094201663
 21
51.4102734239
  0
LINE
  5
462
100
AcDbEntity
  8
606202915-000-00-ED1_FORMAT
100
AcDbLine
 62
90
  6
CONTINUOUS
 10
496.9744776568
 20
51.4102734239
 11
486.2079074361
 21
51.4102734239
  0
LINE
  5
463
100
AcDbEntity
  8
606202915-000-00-ED1_FORMAT
100
AcDbLine
 62
90
  6
CONTINUOUS
 10
484.7759922626
 20
51.4102734239
 11
483.7665624082
 21
51.4102734239
  0
LINE
  5
464
100
AcDbEntity
  8
606202915-000-00-ED1_FORMAT
100
AcDbLine
 62
90
  6
CONTINUOUS
 10
483.5572118383
 20
51.4102734239
 11
483.0379552862
 21
51.4102734239
  0
LINE
  5
465
100
AcDbEntity
  8
606202915-000-00-ED1_FORMAT
100
AcDbLine
 62
90
  6
CONTINUOUS
 10
482.6546850519
 20
51.4102734239
 11
482.453391122
 21
51.4102734239
  0
LINE
  5
466
100
AcDbEntity
  8
606202915-000-00-ED1_FORMAT
100
AcDbLine
 62
90
  6
CONTINUOUS
 10
480.8547279143
 20
51.4102734239
 11
480.2529823549
 21
51.4102734239
  0
LINE
  5
467
100
AcDbEntity
  8
606202915-000-00-ED1_FORMAT
100
AcDbLine
 62
90
  6
CONTINUOUS
 10
480.2529823549
 20
51.7002743172
 11
480.8548499846
 21
51.7002743172
  0
LINE
  5
468
100
AcDbEntity
  8
606202915-000-00-ED1_FORMAT
100
AcDbLine
 62
90
  6
CONTINUOUS
 10
482.453391122
 20
51.7002743172
 11
483.4360570624
 21
51.7002743172
  0
LINE
  5
469
100
AcDbEntity
  8
606202915-000-00-ED1_FORMAT
100
AcDbLine
 62
90
  6
CONTINUOUS
 10
483.8899144495
 20
51.7002743172
 11
484.7759922626
 21
51.7002743172
  0
LINE
  5
46A
100
AcDbEntity
  8
606202915-000-00-ED1_FORMAT
100
AcDbLine
 62
90
  6
CONTINUOUS
 10
486.2079074361
 20
51.7002743172
 11
486.7341219955
 21
51.7002743172
  0
LINE
  5
46B
100
AcDbEntity
  8
606202915-000-00-ED1_FORMAT
100
AcDbLine
 62
90
  6
CONTINUOUS
 10
488.2231355533
 20
51.7002743172
 11
494.5559597756
 21
51.7002743172
  0
LINE
  5
46C
100
AcDbEntity
  8
606202915-000-00-ED1_FORMAT
100
AcDbLine
 62
90
  6
CONTINUOUS
 10
496.0495509698
 20
51.7002743172
 11
496.9518946507
 21
51.7002743172
  0
LINE
  5
46D
100
AcDbEntity
  8
606202915-000-00-ED1_FORMAT
100
AcDbLine
 62
90
  6
CONTINUOUS
 10
498.4555871626
 20
51.7002743172
 11
499.407247246
 21
51.7002743172
  0
LINE
  5
46E
100
AcDbEntity
  8
606202915-000-00-ED1_FORMAT
100
AcDbLine
 62
90
  6
CONTINUOUS
 10
500.9321799905
 20
51.7002743172
 11
501.4721884941
 21
51.7002743172
  0
LINE
  5
46F
100
AcDbEntity
  8
606202915-000-00-ED1_FORMAT
100
AcDbLine
 62
90
  6
CONTINUOUS
 10
490.7452606044
 20
51.8527782728
 11
490.5344451909
 21
51.8527782728
  0
LINE
  5
470
100
AcDbEntity
  8
606202915-000-00-ED1_FORMAT
100
AcDbLine
 62
90
  6
CONTINUOUS
 10
490.9563506761
 20
51.8541324903
 11
490.7452606044
 21
51.8541324903
  0
LINE
  5
471
100
AcDbEntity
  8
606202915-000-00-ED1_FORMAT
100
AcDbLine
 62
90
  6
CONTINUOUS
 10
491.1683562751
 20
51.8564365672
 11
490.9563506761
 21
51.8564365672
  0
LINE
  5
472
100
AcDbEntity
  8
606202915-000-00-ED1_FORMAT
100
AcDbLine
 62
90
  6
CONTINUOUS
 10
501.4483542674
 20
51.9902713958
 11
500.9321799905
 21
51.9902713958
  0
LINE
  5
473
100
AcDbEntity
  8
606202915-000-00-ED1_FORMAT
100
AcDbLine
 62
90
  6
CONTINUOUS
 10
499.407247246
 20
51.9902713958
 11
498.4017541589
 21
51.9902713958
  0
LINE
  5
474
100
AcDbEntity
  8
606202915-000-00-ED1_FORMAT
100
AcDbLine
 62
90
  6
CONTINUOUS
 10
496.3748988453
 20
51.9902713958
 11
496.103994325
 21
51.9902713958
  0
LINE
  5
475
100
AcDbEntity
  8
606202915-000-00-ED1_FORMAT
100
AcDbLine
 62
90
  6
CONTINUOUS
 10
494.621969292
 20
51.9902713958
 11
492.7934477035
 21
51.9902713958
  0
LINE
  5
476
100
AcDbEntity
  8
606202915-000-00-ED1_FORMAT
100
AcDbLine
 62
90
  6
CONTINUOUS
 10
491.5046599603
 20
51.9902713958
 11
491.1345122836
 21
51.9902713958
  0
LINE
  5
477
100
AcDbEntity
  8
606202915-000-00-ED1_FORMAT
100
AcDbLine
 62
90
  6
CONTINUOUS
 10
489.6400360796
 20
51.9902713958
 11
488.2883821304
 21
51.9902713958
  0
LINE
  5
478
100
AcDbEntity
  8
606202915-000-00-ED1_FORMAT
100
AcDbLine
 62
90
  6
CONTINUOUS
 10
486.8143832198
 20
51.9902713958
 11
486.2079074361
 21
51.9902713958
  0
LINE
  5
479
100
AcDbEntity
  8
606202915-000-00-ED1_FORMAT
100
AcDbLine
 62
90
  6
CONTINUOUS
 10
484.7759922626
 20
51.9902713958
 11
484.0132664909
 21
51.9902713958
  0
LINE
  5
47A
100
AcDbEntity
  8
606202915-000-00-ED1_FORMAT
100
AcDbLine
 62
90
  6
CONTINUOUS
 10
483.3149328041
 20
51.9902713958
 11
482.453391122
 21
51.9902713958
  0
LINE
  5
47B
100
AcDbEntity
  8
606202915-000-00-ED1_FORMAT
100
AcDbLine
 62
90
  6
CONTINUOUS
 10
480.8549415374
 20
51.9902713958
 11
480.2529823549
 21
51.9902713958
  0
LINE
  5
47C
100
AcDbEntity
  8
606202915-000-00-ED1_FORMAT
100
AcDbLine
 62
90
  6
CONTINUOUS
 10
480.2529823549
 20
52.2802722892
 11
480.8550330901
 21
52.2802722892
  0
LINE
  5
47D
100
AcDbEntity
  8
606202915-000-00-ED1_FORMAT
100
AcDbLine
 62
90
  6
CONTINUOUS
 10
482.453391122
 20
52.2802722892
 11
483.1937780282
 21
52.2802722892
  0
LINE
  5
47E
100
AcDbEntity
  8
606202915-000-00-ED1_FORMAT
100
AcDbLine
 62
90
  6
CONTINUOUS
 10
484.1365880146
 20
52.2802722892
 11
484.7759922626
 21
52.2802722892
  0
LINE
  5
47F
100
AcDbEntity
  8
606202915-000-00-ED1_FORMAT
100
AcDbLine
 62
90
  6
CONTINUOUS
 10
486.2079074361
 20
52.2802722892
 11
486.8946444441
 21
52.2802722892
  0
LINE
  5
480
100
AcDbEntity
  8
606202915-000-00-ED1_FORMAT
100
AcDbLine
 62
90
  6
CONTINUOUS
 10
488.3535981898
 20
52.2802722892
 11
489.576773145
 21
52.2802722892
  0
LINE
  5
481
100
AcDbEntity
  8
606202915-000-00-ED1_FORMAT
100
AcDbLine
 62
90
  6
CONTINUOUS
 10
491.061178549
 20
52.2802722892
 11
491.5046599603
 21
52.2802722892
  0
LINE
  5
482
100
AcDbEntity
  8
606202915-000-00-ED1_FORMAT
100
AcDbLine
 62
90
  6
CONTINUOUS
 10
492.7929289047
 20
52.2802722892
 11
494.6879482908
 21
52.2802722892
  0
LINE
  5
483
100
AcDbEntity
  8
606202915-000-00-ED1_FORMAT
100
AcDbLine
 62
90
  6
CONTINUOUS
 10
498.3479211552
 20
52.2802722892
 11
499.407247246
 21
52.2802722892
  0
LINE
  5
484
100
AcDbEntity
  8
606202915-000-00-ED1_FORMAT
100
AcDbLine
 62
90
  6
CONTINUOUS
 10
500.9321799905
 20
52.2802722892
 11
501.7005820313
 21
52.2802722892
  0
LINE
  5
485
100
AcDbEntity
  8
606202915-000-00-ED1_FORMAT
100
AcDbLine
 62
90
  6
CONTINUOUS
 10
502.2963766634
 20
52.5702731825
 11
500.9321799905
 21
52.5702731825
  0
LINE
  5
486
100
AcDbEntity
  8
606202915-000-00-ED1_FORMAT
100
AcDbLine
 62
90
  6
CONTINUOUS
 10
499.407247246
 20
52.5702731825
 11
498.2940576339
 21
52.5702731825
  0
LINE
  5
487
100
AcDbEntity
  8
606202915-000-00-ED1_FORMAT
100
AcDbLine
 62
90
  6
CONTINUOUS
 10
494.7539272897
 20
52.5702731825
 11
492.7924101059
 21
52.5702731825
  0
LINE
  5
488
100
AcDbEntity
  8
606202915-000-00-ED1_FORMAT
100
AcDbLine
 62
90
  6
CONTINUOUS
 10
491.5046599603
 20
52.5702731825
 11
490.9878753319
 21
52.5702731825
  0
LINE
  5
489
100
AcDbEntity
  8
606202915-000-00-ED1_FORMAT
100
AcDbLine
 62
90
  6
CONTINUOUS
 10
489.513540728
 20
52.5702731825
 11
488.4188447669
 21
52.5702731825
  0
LINE
  5
48A
100
AcDbEntity
  8
606202915-000-00-ED1_FORMAT
100
AcDbLine
 62
90
  6
CONTINUOUS
 10
486.9749056684
 20
52.5702731825
 11
486.2079074361
 21
52.5702731825
  0
LINE
  5
48B
100
AcDbEntity
  8
606202915-000-00-ED1_FORMAT
100
AcDbLine
 62
90
  6
CONTINUOUS
 10
484.7759922626
 20
52.5702731825
 11
484.259940056
 21
52.5702731825
  0
LINE
  5
48C
100
AcDbEntity
  8
606202915-000-00-ED1_FORMAT
100
AcDbLine
 62
90
  6
CONTINUOUS
 10
483.0726537699
 20
52.5702731825
 11
482.453391122
 21
52.5702731825
  0
LINE
  5
48D
100
AcDbEntity
  8
606202915-000-00-ED1_FORMAT
100
AcDbLine
 62
90
  6
CONTINUOUS
 10
480.8551246428
 20
52.5702731825
 11
480.2529823549
 21
52.5702731825
  0
LINE
  5
48E
100
AcDbEntity
  8
606202915-000-00-ED1_FORMAT
100
AcDbLine
 62
90
  6
CONTINUOUS
 10
480.0443336893
 20
52.8602740758
 11
480.8552161955
 21
52.8602740758
  0
LINE
  5
48F
100
AcDbEntity
  8
606202915-000-00-ED1_FORMAT
100
AcDbLine
 62
90
  6
CONTINUOUS
 10
482.453391122
 20
52.8602740758
 11
482.951498994
 21
52.8602740758
  0
LINE
  5
490
100
AcDbEntity
  8
606202915-000-00-ED1_FORMAT
100
AcDbLine
 62
90
  6
CONTINUOUS
 10
484.3832920973
 20
52.8602740758
 11
484.7759922626
 21
52.8602740758
  0
LINE
  5
491
100
AcDbEntity
  8
606202915-000-00-ED1_FORMAT
100
AcDbLine
 62
90
  6
CONTINUOUS
 10
486.2079074361
 20
52.8602740758
 11
487.0551668928
 21
52.8602740758
  0
LINE
  5
492
100
AcDbEntity
  8
606202915-000-00-ED1_FORMAT
100
AcDbLine
 62
90
  6
CONTINUOUS
 10
490.9145415973
 20
52.8602740758
 11
491.5046599603
 21
52.8602740758
  0
LINE
  5
493
100
AcDbEntity
  8
606202915-000-00-ED1_FORMAT
100
AcDbLine
 62
90
  6
CONTINUOUS
 10
493.3046476155
 20
52.8602740758
 11
494.8199062886
 21
52.8602740758
  0
LINE
  5
494
100
AcDbEntity
  8
606202915-000-00-ED1_FORMAT
100
AcDbLine
 62
90
  6
CONTINUOUS
 10
498.2402246302
 20
52.8602740758
 11
499.407247246
 21
52.8602740758
  0
LINE
  5
495
100
AcDbEntity
  8
606202915-000-00-ED1_FORMAT
100
AcDbLine
 62
90
  6
CONTINUOUS
 10
500.9321799905
 20
52.8602740758
 11
502.8921712956
 21
52.8602740758
  0
LINE
  5
496
100
AcDbEntity
  8
606202915-000-00-ED1_FORMAT
100
AcDbLine
 62
7
  6
CONTINUOUS
 10
584.0
 20
52.9546764111
 11
540.0000047006
 21
52.9546764111
  0
LINE
  5
497
100
AcDbEntity
  8
606202915-000-00-ED1_FORMAT
100
AcDbLine
 62
90
  6
CONTINUOUS
 10
503.4879659277
 20
53.1502749692
 11
500.9321799905
 21
53.1502749692
  0
LINE
  5
498
100
AcDbEntity
  8
606202915-000-00-ED1_FORMAT
100
AcDbLine
 62
90
  6
CONTINUOUS
 10
499.407247246
 20
53.1502749692
 11
498.1863916265
 21
53.1502749692
  0
LINE
  5
499
100
AcDbEntity
  8
606202915-000-00-ED1_FORMAT
100
AcDbLine
 62
90
  6
CONTINUOUS
 10
494.885915805
 20
53.1502749692
 11
494.0720120587
 21
53.1502749692
  0
LINE
  5
49A
100
AcDbEntity
  8
606202915-000-00-ED1_FORMAT
100
AcDbLine
 62
90
  6
CONTINUOUS
 10
491.5046599603
 20
53.1502749692
 11
490.8412078627
 21
53.1502749692
  0
LINE
  5
49B
100
AcDbEntity
  8
606202915-000-00-ED1_FORMAT
100
AcDbLine
 62
90
  6
CONTINUOUS
 10
487.1354281171
 20
53.1502749692
 11
486.2079074361
 21
53.1502749692
  0
LINE
  5
49C
100
AcDbEntity
  8
606202915-000-00-ED1_FORMAT
100
AcDbLine
 62
90
  6
CONTINUOUS
 10
484.7759922626
 20
53.1502749692
 11
484.5066441386
 21
53.1502749692
  0
LINE
  5
49D
100
AcDbEntity
  8
606202915-000-00-ED1_FORMAT
100
AcDbLine
 62
90
  6
CONTINUOUS
 10
482.8303747357
 20
53.1502749692
 11
482.453391122
 21
53.1502749692
  0
LINE
  5
49E
100
AcDbEntity
  8
606202915-000-00-ED1_FORMAT
100
AcDbLine
 62
90
  6
CONTINUOUS
 10
480.8553077483
 20
53.1502749692
 11
479.4760659105
 21
53.1502749692
  0
LINE
  5
49F
100
AcDbEntity
  8
606202915-000-00-ED1_FORMAT
100
AcDbLine
 62
90
  6
CONTINUOUS
 10
478.9078286493
 20
53.4402720478
 11
480.8554298186
 21
53.4402720478
  0
LINE
  5
4A0
100
AcDbEntity
  8
606202915-000-00-ED1_FORMAT
100
AcDbLine
 62
90
  6
CONTINUOUS
 10
482.453391122
 20
53.4402720478
 11
482.7092199598
 21
53.4402720478
  0
LINE
  5
4A1
100
AcDbEntity
  8
606202915-000-00-ED1_FORMAT
100
AcDbLine
 62
90
  6
CONTINUOUS
 10
484.62999618
 20
53.4402720478
 11
484.7759922626
 21
53.4402720478
  0
LINE
  5
4A2
100
AcDbEntity
  8
606202915-000-00-ED1_FORMAT
100
AcDbLine
 62
90
  6
CONTINUOUS
 10
486.2079074361
 20
53.4402720478
 11
487.215719859
 21
53.4402720478
  0
LINE
  5
4A3
100
AcDbEntity
  8
606202915-000-00-ED1_FORMAT
100
AcDbLine
 62
90
  6
CONTINUOUS
 10
490.7678741281
 20
53.4402720478
 11
491.5046599603
 21
53.4402720478
  0
LINE
  5
4A4
100
AcDbEntity
  8
606202915-000-00-ED1_FORMAT
100
AcDbLine
 62
90
  6
CONTINUOUS
 10
494.3908596905
 20
53.4402720478
 11
494.9518948038
 21
53.4402720478
  0
LINE
  5
4A5
100
AcDbEntity
  8
606202915-000-00-ED1_FORMAT
100
AcDbLine
 62
90
  6
CONTINUOUS
 10
496.2457484646
 20
53.4402720478
 11
496.8289393379
 21
53.4402720478
  0
LINE
  5
4A6
100
AcDbEntity
  8
606202915-000-00-ED1_FORMAT
100
AcDbLine
 62
90
  6
CONTINUOUS
 10
498.1325281053
 20
53.4402720478
 11
499.407247246
 21
53.4402720478
  0
LINE
  5
4A7
100
AcDbEntity
  8
606202915-000-00-ED1_FORMAT
100
AcDbLine
 62
90
  6
CONTINUOUS
 10
500.9321799905
 20
53.4402720478
 11
504.0837605598
 21
53.4402720478
  0
LINE
  5
4A8
100
AcDbEntity
  8
606202915-000-00-ED1_FORMAT
100
AcDbLine
 62
90
  6
CONTINUOUS
 10
504.6795551919
 20
53.7302729411
 11
500.9321799905
 21
53.7302729411
  0
LINE
  5
4A9
100
AcDbEntity
  8
606202915-000-00-ED1_FORMAT
100
AcDbLine
 62
90
  6
CONTINUOUS
 10
499.407247246
 20
53.7302729411
 11
498.0786951016
 21
53.7302729411
  0
LINE
  5
4AA
100
AcDbEntity
  8
606202915-000-00-ED1_FORMAT
100
AcDbLine
 62
90
  6
CONTINUOUS
 10
496.7844447124
 20
53.7302729411
 11
496.2876185785
 21
53.7302729411
  0
LINE
  5
4AB
100
AcDbEntity
  8
606202915-000-00-ED1_FORMAT
100
AcDbLine
 62
90
  6
CONTINUOUS
 10
495.0178738027
 20
53.7302729411
 11
494.5930386301
 21
53.7302729411
  0
LINE
  5
4AC
100
AcDbEntity
  8
606202915-000-00-ED1_FORMAT
100
AcDbLine
 62
90
  6
CONTINUOUS
 10
491.5046599603
 20
53.7302729411
 11
490.6945403934
 21
53.7302729411
  0
LINE
  5
4AD
100
AcDbEntity
  8
606202915-000-00-ED1_FORMAT
100
AcDbLine
 62
90
  6
CONTINUOUS
 10
487.2959810833
 20
53.7302729411
 11
486.2079074361
 21
53.7302729411
  0
LINE
  5
4AE
100
AcDbEntity
  8
606202915-000-00-ED1_FORMAT
100
AcDbLine
 62
90
  6
CONTINUOUS
 10
484.7759922626
 20
53.7302729411
 11
484.7533482213
 21
53.7302729411
  0
LINE
  5
4AF
100
AcDbEntity
  8
606202915-000-00-ED1_FORMAT
100
AcDbLine
 62
90
  6
CONTINUOUS
 10
482.5880957015
 20
53.7302729411
 11
482.453391122
 21
53.7302729411
  0
LINE
  5
4B0
100
AcDbEntity
  8
606202915-000-00-ED1_FORMAT
100
AcDbLine
 62
90
  6
CONTINUOUS
 10
480.8555213713
 20
53.7302729411
 11
478.3395608705
 21
53.7302729411
  0
LINE
  5
4B1
100
AcDbEntity
  8
606202915-000-00-ED1_FORMAT
100
AcDbLine
 62
90
  6
CONTINUOUS
 10
477.7713236094
 20
54.0202738344
 11
480.855612924
 21
54.0202738344
  0
LINE
  5
4B2
100
AcDbEntity
  8
606202915-000-00-ED1_FORMAT
100
AcDbLine
 62
90
  6
CONTINUOUS
 10
482.453391122
 20
54.0202738344
 11
482.4669409257
 21
54.0202738344
  0
LINE
  5
4B3
100
AcDbEntity
  8
606202915-000-00-ED1_FORMAT
100
AcDbLine
 62
90
  6
CONTINUOUS
 10
486.2079074361
 20
54.0202738344
 11
487.3762423076
 21
54.0202738344
  0
LINE
  5
4B4
100
AcDbEntity
  8
606202915-000-00-ED1_FORMAT
100
AcDbLine
 62
90
  6
CONTINUOUS
 10
488.6156526131
 20
54.0202738344
 11
489.2890839581
 21
54.0202738344
  0
LINE
  5
4B5
100
AcDbEntity
  8
606202915-000-00-ED1_FORMAT
100
AcDbLine
 62
90
  6
CONTINUOUS
 10
490.6212371764
 20
54.0202738344
 11
491.5046599603
 21
54.0202738344
  0
LINE
  5
4B6
100
AcDbEntity
  8
606202915-000-00-ED1_FORMAT
100
AcDbLine
 62
90
  6
CONTINUOUS
 10
492.7596952646
 20
54.0202738344
 11
493.2434903936
 21
54.0202738344
  0
LINE
  5
4B7
100
AcDbEntity
  8
606202915-000-00-ED1_FORMAT
100
AcDbLine
 62
90
  6
CONTINUOUS
 10
494.7216702121
 20
54.0202738344
 11
495.0838528015
 21
54.0202738344
  0
LINE
  5
4B8
100
AcDbEntity
  8
606202915-000-00-ED1_FORMAT
100
AcDbLine
 62
90
  6
CONTINUOUS
 10
496.3294886925
 20
54.0202738344
 11
496.7399500869
 21
54.0202738344
  0
LINE
  5
4B9
100
AcDbEntity
  8
606202915-000-00-ED1_FORMAT
100
AcDbLine
 62
90
  6
CONTINUOUS
 10
498.0248620979
 20
54.0202738344
 11
499.407247246
 21
54.0202738344
  0
LINE
  5
4BA
100
AcDbEntity
  8
606202915-000-00-ED1_FORMAT
100
AcDbLine
 62
90
  6
CONTINUOUS
 10
500.9321799905
 20
54.0202738344
 11
505.2753193065
 21
54.0202738344
  0
LINE
  5
4BB
100
AcDbEntity
  8
606202915-000-00-ED1_FORMAT
100
AcDbLine
 62
3
  6
CONTINUOUS
 10
476.0615459082
 20
54.2349993124
 11
476.4356913874
 21
54.2349993124
  0
LINE
  5
4BC
100
AcDbEntity
  8
606202915-000-00-ED1_FORMAT
100
AcDbLine
 62
90
  6
CONTINUOUS
 10
505.5333148922
 20
54.3102747278
 11
500.9321799905
 21
54.3102747278
  0
LINE
  5
4BD
100
AcDbEntity
  8
606202915-000-00-ED1_FORMAT
100
AcDbLine
 62
90
  6
CONTINUOUS
 10
499.407247246
 20
54.3102747278
 11
497.9710290942
 21
54.3102747278
  0
LINE
  5
4BE
100
AcDbEntity
  8
606202915-000-00-ED1_FORMAT
100
AcDbLine
 62
90
  6
CONTINUOUS
 10
496.6954554614
 20
54.3102747278
 11
496.3713893241
 21
54.3102747278
  0
LINE
  5
4BF
100
AcDbEntity
  8
606202915-000-00-ED1_FORMAT
100
AcDbLine
 62
90
  6
CONTINUOUS
 10
495.149862318
 20
54.3102747278
 11
494.7964993079
 21
54.3102747278
  0
LINE
  5
4C0
100
AcDbEntity
  8
606202915-000-00-ED1_FORMAT
100
AcDbLine
 62
90
  6
CONTINUOUS
 10
493.5667020388
 20
54.3102747278
 11
492.7583524913
 21
54.3102747278
  0
LINE
  5
4C1
100
AcDbEntity
  8
606202915-000-00-ED1_FORMAT
100
AcDbLine
 62
90
  6
CONTINUOUS
 10
491.5046599603
 20
54.3102747278
 11
490.5479034418
 21
54.3102747278
  0
LINE
  5
4C2
100
AcDbEntity
  8
606202915-000-00-ED1_FORMAT
100
AcDbLine
 62
90
  6
CONTINUOUS
 10
489.2264008574
 20
54.3102747278
 11
488.6813264362
 21
54.3102747278
  0
LINE
  5
4C3
100
AcDbEntity
  8
606202915-000-00-ED1_FORMAT
100
AcDbLine
 62
90
  6
CONTINUOUS
 10
487.456503532
 20
54.3102747278
 11
486.2079074361
 21
54.3102747278
  0
LINE
  5
4C4
100
AcDbEntity
  8
606202915-000-00-ED1_FORMAT
100
AcDbLine
 62
90
  6
CONTINUOUS
 10
480.8557044767
 20
54.3102747278
 11
477.5170206503
 21
54.3102747278
  0
LINE
  5
4C5
100
AcDbEntity
  8
606202915-000-00-ED1_FORMAT
100
AcDbLine
 62
90
  6
CONTINUOUS
 10
478.1583475055
 20
54.6002718064
 11
480.8557960295
 21
54.6002718064
  0
LINE
  5
4C6
100
AcDbEntity
  8
606202915-000-00-ED1_FORMAT
100
AcDbLine
 62
90
  6
CONTINUOUS
 10
486.2079074361
 20
54.6002718064
 11
487.5367647563
 21
54.6002718064
  0
LINE
  5
4C7
100
AcDbEntity
  8
606202915-000-00-ED1_FORMAT
100
AcDbLine
 62
90
  6
CONTINUOUS
 10
488.7470002593
 20
54.6002718064
 11
489.1637177567
 21
54.6002718064
  0
LINE
  5
4C8
100
AcDbEntity
  8
606202915-000-00-ED1_FORMAT
100
AcDbLine
 62
90
  6
CONTINUOUS
 10
490.4745697072
 20
54.6002718064
 11
491.5046599603
 21
54.6002718064
  0
LINE
  5
4C9
100
AcDbEntity
  8
606202915-000-00-ED1_FORMAT
100
AcDbLine
 62
90
  6
CONTINUOUS
 10
492.757009718
 20
54.6002718064
 11
493.6591397759
 21
54.6002718064
  0
LINE
  5
4CA
100
AcDbEntity
  8
606202915-000-00-ED1_FORMAT
100
AcDbLine
 62
90
  6
CONTINUOUS
 10
494.841024451
 20
54.6002718064
 11
495.2158413168
 21
54.6002718064
  0
LINE
  5
4CB
100
AcDbEntity
  8
606202915-000-00-ED1_FORMAT
100
AcDbLine
 62
90
  6
CONTINUOUS
 10
496.4132594381
 20
54.6002718064
 11
496.6509608359
 21
54.6002718064
  0
LINE
  5
4CC
100
AcDbEntity
  8
606202915-000-00-ED1_FORMAT
100
AcDbLine
 62
90
  6
CONTINUOUS
 10
497.9171655729
 20
54.6002718064
 11
499.407247246
 21
54.6002718064
  0
LINE
  5
4CD
100
AcDbEntity
  8
606202915-000-00-ED1_FORMAT
100
AcDbLine
 62
90
  6
CONTINUOUS
 10
500.9321799905
 20
54.6002718064
 11
504.8277180224
 21
54.6002718064
  0
LINE
  5
4CE
100
AcDbEntity
  8
606202915-000-00-ED1_FORMAT
100
AcDbLine
 62
90
  6
CONTINUOUS
 10
504.1221211526
 20
54.8902726997
 11
500.9321799905
 21
54.8902726997
  0
LINE
  5
4CF
100
AcDbEntity
  8
606202915-000-00-ED1_FORMAT
100
AcDbLine
 62
90
  6
CONTINUOUS
 10
499.407247246
 20
54.8902726997
 11
497.8633325692
 21
54.8902726997
  0
LINE
  5
4D0
100
AcDbEntity
  8
606202915-000-00-ED1_FORMAT
100
AcDbLine
 62
90
  6
CONTINUOUS
 10
496.6064662104
 20
54.8902726997
 11
496.455129552
 21
54.8902726997
  0
LINE
  5
4D1
100
AcDbEntity
  8
606202915-000-00-ED1_FORMAT
100
AcDbLine
 62
90
  6
CONTINUOUS
 10
495.2818203157
 20
54.8902726997
 11
494.8535366571
 21
54.8902726997
  0
LINE
  5
4D2
100
AcDbEntity
  8
606202915-000-00-ED1_FORMAT
100
AcDbLine
 62
90
  6
CONTINUOUS
 10
493.6711026656
 20
54.8902726997
 11
492.7556669446
 21
54.8902726997
  0
LINE
  5
4D3
100
AcDbEntity
  8
606202915-000-00-ED1_FORMAT
100
AcDbLine
 62
90
  6
CONTINUOUS
 10
491.5046599603
 20
54.8902726997
 11
490.4012359725
 21
54.8902726997
  0
LINE
  5
4D4
100
AcDbEntity
  8
606202915-000-00-ED1_FORMAT
100
AcDbLine
 62
90
  6
CONTINUOUS
 10
489.1010346561
 20
54.8902726997
 11
488.8126740824
 21
54.8902726997
  0
LINE
  5
4D5
100
AcDbEntity
  8
606202915-000-00-ED1_FORMAT
100
AcDbLine
 62
90
  6
CONTINUOUS
 10
487.6170259806
 20
54.8902726997
 11
486.2079074361
 21
54.8902726997
  0
LINE
  5
4D6
100
AcDbEntity
  8
606202915-000-00-ED1_FORMAT
100
AcDbLine
 62
90
  6
CONTINUOUS
 10
480.8558875822
 20
54.8902726997
 11
478.7997048783
 21
54.8902726997
  0
LINE
  5
4D7
100
AcDbEntity
  8
606202915-000-00-ED1_FORMAT
100
AcDbLine
 62
90
  6
CONTINUOUS
 10
479.4410317335
 20
55.180273593
 11
480.8560096525
 21
55.180273593
  0
LINE
  5
4D8
100
AcDbEntity
  8
606202915-000-00-ED1_FORMAT
100
AcDbLine
 62
90
  6
CONTINUOUS
 10
483.4869298612
 20
55.180273593
 11
483.6559667135
 21
55.180273593
  0
LINE
  5
4D9
100
AcDbEntity
  8
606202915-000-00-ED1_FORMAT
100
AcDbLine
 62
90
  6
CONTINUOUS
 10
486.2079074361
 20
55.180273593
 11
487.6973177225
 21
55.180273593
  0
LINE
  5
4DA
100
AcDbEntity
  8
606202915-000-00-ED1_FORMAT
100
AcDbLine
 62
90
  6
CONTINUOUS
 10
488.8783479055
 20
55.180273593
 11
489.0383515554
 21
55.180273593
  0
LINE
  5
4DB
100
AcDbEntity
  8
606202915-000-00-ED1_FORMAT
100
AcDbLine
 62
90
  6
CONTINUOUS
 10
490.3279022379
 20
55.180273593
 11
491.5046599603
 21
55.180273593
  0
LINE
  5
4DC
100
AcDbEntity
  8
606202915-000-00-ED1_FORMAT
100
AcDbLine
 62
90
  6
CONTINUOUS
 10
492.7542936537
 20
55.180273593
 11
493.6139432461
 21
55.180273593
  0
LINE
  5
4DD
100
AcDbEntity
  8
606202915-000-00-ED1_FORMAT
100
AcDbLine
 62
90
  6
CONTINUOUS
 10
494.8345242074
 20
55.180273593
 11
495.3477993145
 21
55.180273593
  0
LINE
  5
4DE
100
AcDbEntity
  8
606202915-000-00-ED1_FORMAT
100
AcDbLine
 62
90
  6
CONTINUOUS
 10
497.8094995655
 20
55.180273593
 11
499.407247246
 21
55.180273593
  0
LINE
  5
4DF
100
AcDbEntity
  8
606202915-000-00-ED1_FORMAT
100
AcDbLine
 62
90
  6
CONTINUOUS
 10
500.9321799905
 20
55.180273593
 11
503.4165548003
 21
55.180273593
  0
LINE
  5
4E0
100
AcDbEntity
  8
606202915-000-00-ED1_FORMAT
100
AcDbLine
 62
90
  6
CONTINUOUS
 10
502.7109579305
 20
55.4702744864
 11
500.9321799905
 21
55.4702744864
  0
LINE
  5
4E1
100
AcDbEntity
  8
606202915-000-00-ED1_FORMAT
100
AcDbLine
 62
90
  6
CONTINUOUS
 10
499.407247246
 20
55.4702744864
 11
497.7556360443
 21
55.4702744864
  0
LINE
  5
4E2
100
AcDbEntity
  8
606202915-000-00-ED1_FORMAT
100
AcDbLine
 62
90
  6
CONTINUOUS
 10
495.4137783134
 20
55.4702744864
 11
494.7832851976
 21
55.4702744864
  0
LINE
  5
4E3
100
AcDbEntity
  8
606202915-000-00-ED1_FORMAT
100
AcDbLine
 62
90
  6
CONTINUOUS
 10
493.2926542082
 20
55.4702744864
 11
492.7529508804
 21
55.4702744864
  0
LINE
  5
4E4
100
AcDbEntity
  8
606202915-000-00-ED1_FORMAT
100
AcDbLine
 62
90
  6
CONTINUOUS
 10
491.5046599603
 20
55.4702744864
 11
490.2545990209
 21
55.4702744864
  0
LINE
  5
4E5
100
AcDbEntity
  8
606202915-000-00-ED1_FORMAT
100
AcDbLine
 62
90
  6
CONTINUOUS
 10
488.9756684547
 20
55.4702744864
 11
488.9440217286
 21
55.4702744864
  0
LINE
  5
4E6
100
AcDbEntity
  8
606202915-000-00-ED1_FORMAT
100
AcDbLine
 62
90
  6
CONTINUOUS
 10
487.7775789468
 20
55.4702744864
 11
486.2079074361
 21
55.4702744864
  0
LINE
  5
4E7
100
AcDbEntity
  8
606202915-000-00-ED1_FORMAT
100
AcDbLine
 62
90
  6
CONTINUOUS
 10
483.8534459465
 20
55.4702744864
 11
483.3890905133
 21
55.4702744864
  0
LINE
  5
4E8
100
AcDbEntity
  8
606202915-000-00-ED1_FORMAT
100
AcDbLine
 62
90
  6
CONTINUOUS
 10
480.8561012052
 20
55.4702744864
 11
480.0823585887
 21
55.4702744864
  0
LINE
  5
4E9
100
AcDbEntity
  8
606202915-000-00-ED1_FORMAT
100
AcDbLine
 62
90
  6
CONTINUOUS
 10
480.253836847
 20
55.760271565
 11
480.856192758
 21
55.760271565
  0
LINE
  5
4EA
100
AcDbEntity
  8
606202915-000-00-ED1_FORMAT
100
AcDbLine
 62
90
  6
CONTINUOUS
 10
483.2912511653
 20
55.760271565
 11
484.0508946618
 21
55.760271565
  0
LINE
  5
4EB
100
AcDbEntity
  8
606202915-000-00-ED1_FORMAT
100
AcDbLine
 62
90
  6
CONTINUOUS
 10
486.2079074361
 20
55.760271565
 11
487.8578401712
 21
55.760271565
  0
LINE
  5
4EC
100
AcDbEntity
  8
606202915-000-00-ED1_FORMAT
100
AcDbLine
 62
90
  6
CONTINUOUS
 10
490.1812652863
 20
55.760271565
 11
491.5046599603
 21
55.760271565
  0
LINE
  5
4ED
100
AcDbEntity
  8
606202915-000-00-ED1_FORMAT
100
AcDbLine
 62
90
  6
CONTINUOUS
 10
494.6674404799
 20
55.760271565
 11
495.4797878298
 21
55.760271565
  0
LINE
  5
4EE
100
AcDbEntity
  8
606202915-000-00-ED1_FORMAT
100
AcDbLine
 62
90
  6
CONTINUOUS
 10
497.7018030406
 20
55.760271565
 11
499.407247246
 21
55.760271565
  0
LINE
  5
4EF
100
AcDbEntity
  8
606202915-000-00-ED1_FORMAT
100
AcDbLine
 62
90
  6
CONTINUOUS
 10
500.9321799905
 20
55.760271565
 11
502.0053610607
 21
55.760271565
  0
LINE
  5
4F0
100
AcDbEntity
  8
606202915-000-00-ED1_FORMAT
100
AcDbLine
 62
90
  6
CONTINUOUS
 10
501.517446059
 20
56.0502724583
 11
500.9321799905
 21
56.0502724583
  0
LINE
  5
4F1
100
AcDbEntity
  8
606202915-000-00-ED1_FORMAT
100
AcDbLine
 62
90
  6
CONTINUOUS
 10
499.407247246
 20
56.0502724583
 11
497.6479700369
 21
56.0502724583
  0
LINE
  5
4F2
100
AcDbEntity
  8
606202915-000-00-ED1_FORMAT
100
AcDbLine
 62
90
  6
CONTINUOUS
 10
495.5457668287
 20
56.0502724583
 11
494.461324773
 21
56.0502724583
  0
LINE
  5
4F3
100
AcDbEntity
  8
606202915-000-00-ED1_FORMAT
100
AcDbLine
 62
90
  6
CONTINUOUS
 10
491.5046599603
 20
56.0502724583
 11
490.1079315516
 21
56.0502724583
  0
LINE
  5
4F4
100
AcDbEntity
  8
606202915-000-00-ED1_FORMAT
100
AcDbLine
 62
90
  6
CONTINUOUS
 10
487.9381013955
 20
56.0502724583
 11
486.2079074361
 21
56.0502724583
  0
LINE
  5
4F5
100
AcDbEntity
  8
606202915-000-00-ED1_FORMAT
100
AcDbLine
 62
90
  6
CONTINUOUS
 10
484.2483433772
 20
56.0502724583
 11
483.1934118173
 21
56.0502724583
  0
LINE
  5
4F6
100
AcDbEntity
  8
606202915-000-00-ED1_FORMAT
100
AcDbLine
 62
90
  6
CONTINUOUS
 10
480.8562843107
 20
56.0502724583
 11
480.253836847
 21
56.0502724583
  0
LINE
  5
4F7
100
AcDbEntity
  8
606202915-000-00-ED1_FORMAT
100
AcDbLine
 62
90
  6
CONTINUOUS
 10
480.253836847
 20
56.3402733516
 11
480.8563758634
 21
56.3402733516
  0
LINE
  5
4F8
100
AcDbEntity
  8
606202915-000-00-ED1_FORMAT
100
AcDbLine
 62
90
  6
CONTINUOUS
 10
483.0955724693
 20
56.3402733516
 11
484.4458226101
 21
56.3402733516
  0
LINE
  5
4F9
100
AcDbEntity
  8
606202915-000-00-ED1_FORMAT
100
AcDbLine
 62
90
  6
CONTINUOUS
 10
486.2079074361
 20
56.3402733516
 11
488.0183626198
 21
56.3402733516
  0
LINE
  5
4FA
100
AcDbEntity
  8
606202915-000-00-ED1_FORMAT
100
AcDbLine
 62
90
  6
CONTINUOUS
 10
490.034597817
 20
56.3402733516
 11
491.5046599603
 21
56.3402733516
  0
LINE
  5
4FB
100
AcDbEntity
  8
606202915-000-00-ED1_FORMAT
100
AcDbLine
 62
90
  6
CONTINUOUS
 10
494.091055026
 20
56.3402733516
 11
495.6117458275
 21
56.3402733516
  0
LINE
  5
4FC
100
AcDbEntity
  8
606202915-000-00-ED1_FORMAT
100
AcDbLine
 62
90
  6
CONTINUOUS
 10
497.5941370332
 20
56.3402733516
 11
499.407247246
 21
56.3402733516
  0
LINE
  5
4FD
100
AcDbEntity
  8
606202915-000-00-ED1_FORMAT
100
AcDbLine
 62
90
  6
CONTINUOUS
 10
500.9321799905
 20
56.3402733516
 11
501.517446059
 21
56.3402733516
  0
LINE
  5
4FE
100
AcDbEntity
  8
606202915-000-00-ED1_FORMAT
100
AcDbLine
 62
90
  6
CONTINUOUS
 10
501.517446059
 20
56.630274245
 11
500.9321799905
 21
56.630274245
  0
LINE
  5
4FF
100
AcDbEntity
  8
606202915-000-00-ED1_FORMAT
100
AcDbLine
 62
90
  6
CONTINUOUS
 10
499.407247246
 20
56.630274245
 11
497.5402735119
 21
56.630274245
  0
LINE
  5
500
100
AcDbEntity
  8
606202915-000-00-ED1_FORMAT
100
AcDbLine
 62
90
  6
CONTINUOUS
 10
495.6777248264
 20
56.630274245
 11
493.2477628542
 21
56.630274245
  0
LINE
  5
501
100
AcDbEntity
  8
606202915-000-00-ED1_FORMAT
100
AcDbLine
 62
90
  6
CONTINUOUS
 10
491.8003447521
 20
56.630274245
 11
488.7751069466
 21
56.630274245
  0
LINE
  5
502
100
AcDbEntity
  8
606202915-000-00-ED1_FORMAT
100
AcDbLine
 62
90
  6
CONTINUOUS
 10
488.0986238441
 20
56.630274245
 11
486.2079074361
 21
56.630274245
  0
LINE
  5
503
100
AcDbEntity
  8
606202915-000-00-ED1_FORMAT
100
AcDbLine
 62
90
  6
CONTINUOUS
 10
484.6432713255
 20
56.630274245
 11
482.9977331214
 21
56.630274245
  0
LINE
  5
504
100
AcDbEntity
  8
606202915-000-00-ED1_FORMAT
100
AcDbLine
 62
90
  6
CONTINUOUS
 10
480.8564674161
 20
56.630274245
 11
480.253836847
 21
56.630274245
  0
LINE
  5
505
100
AcDbEntity
  8
606202915-000-00-ED1_FORMAT
100
AcDbLine
 62
90
  6
CONTINUOUS
 10
492.3558561842
 20
56.6447319465
 11
492.5403044123
 21
56.6447319465
  0
LINE
  5
506
100
AcDbEntity
  8
606202915-000-00-ED1_FORMAT
100
AcDbLine
 62
90
  6
CONTINUOUS
 10
492.9169828502
 20
56.6465973333
 11
493.1211759499
 21
56.6465973333
  0
LINE
  5
507
100
AcDbEntity
  8
606202915-000-00-ED1_FORMAT
100
AcDbLine
 62
90
  6
CONTINUOUS
 10
492.5403044123
 20
56.6466049627
 11
492.7253629919
 21
56.6466049627
  0
LINE
  5
508
100
AcDbEntity
  8
606202915-000-00-ED1_FORMAT
100
AcDbLine
 62
90
  6
CONTINUOUS
 10
492.7253629919
 20
56.6471352056
 11
492.9169828502
 21
56.6471352056
  0
LINE
  5
509
100
AcDbEntity
  8
606202915-000-00-ED1_FORMAT
100
AcDbLine
 62
90
  6
CONTINUOUS
 10
480.253836847
 20
56.9202713236
 11
480.8565894864
 21
56.9202713236
  0
LINE
  5
50A
100
AcDbEntity
  8
606202915-000-00-ED1_FORMAT
100
AcDbLine
 62
90
  6
CONTINUOUS
 10
482.8998937734
 20
56.9202713236
 11
483.1678075712
 21
56.9202713236
  0
LINE
  5
50B
100
AcDbEntity
  8
606202915-000-00-ED1_FORMAT
100
AcDbLine
 62
90
  6
CONTINUOUS
 10
483.3290624417
 20
56.9202713236
 11
484.8407505584
 21
56.9202713236
  0
LINE
  5
50C
100
AcDbEntity
  8
606202915-000-00-ED1_FORMAT
100
AcDbLine
 62
90
  6
CONTINUOUS
 10
486.1970736967
 20
56.9202713236
 11
495.8962917042
 21
56.9202713236
  0
LINE
  5
50D
100
AcDbEntity
  8
606202915-000-00-ED1_FORMAT
100
AcDbLine
 62
90
  6
CONTINUOUS
 10
497.4864405082
 20
56.9202713236
 11
499.407247246
 21
56.9202713236
  0
LINE
  5
50E
100
AcDbEntity
  8
606202915-000-00-ED1_FORMAT
100
AcDbLine
 62
90
  6
CONTINUOUS
 10
500.9321799905
 20
56.9202713236
 11
501.517446059
 21
56.9202713236
  0
LINE
  5
50F
100
AcDbEntity
  8
606202915-000-00-ED1_FORMAT
100
AcDbLine
 62
90
  6
CONTINUOUS
 10
501.517446059
 20
57.2102722169
 11
500.9321799905
 21
57.2102722169
  0
LINE
  5
510
100
AcDbEntity
  8
606202915-000-00-ED1_FORMAT
100
AcDbLine
 62
90
  6
CONTINUOUS
 10
499.407247246
 20
57.2102722169
 11
499.1310631851
 21
57.2102722169
  0
LINE
  5
511
100
AcDbEntity
  8
606202915-000-00-ED1_FORMAT
100
AcDbLine
 62
90
  6
CONTINUOUS
 10
498.6435143943
 20
57.2102722169
 11
497.4326075045
 21
57.2102722169
  0
LINE
  5
512
100
AcDbEntity
  8
606202915-000-00-ED1_FORMAT
100
AcDbLine
 62
90
  6
CONTINUOUS
 10
497.223806251
 20
57.2102722169
 11
483.9671544339
 21
57.2102722169
  0
LINE
  5
513
100
AcDbEntity
  8
606202915-000-00-ED1_FORMAT
100
AcDbLine
 62
90
  6
CONTINUOUS
 10
483.0664281845
 20
57.2102722169
 11
482.8020239078
 21
57.2102722169
  0
LINE
  5
514
100
AcDbEntity
  8
606202915-000-00-ED1_FORMAT
100
AcDbLine
 62
90
  6
CONTINUOUS
 10
480.8566810392
 20
57.2102722169
 11
480.253836847
 21
57.2102722169
  0
LINE
  5
515
100
AcDbEntity
  8
606202915-000-00-ED1_FORMAT
100
AcDbLine
 62
90
  6
CONTINUOUS
 10
480.253836847
 20
57.5002731103
 11
480.8567725919
 21
57.5002731103
  0
LINE
  5
516
100
AcDbEntity
  8
606202915-000-00-ED1_FORMAT
100
AcDbLine
 62
90
  6
CONTINUOUS
 10
482.7041845598
 20
57.5002731103
 11
482.9650487977
 21
57.5002731103
  0
LINE
  5
517
100
AcDbEntity
  8
606202915-000-00-ED1_FORMAT
100
AcDbLine
 62
90
  6
CONTINUOUS
 10
484.6052159084
 20
57.5002731103
 11
498.0003870021
 21
57.5002731103
  0
LINE
  5
518
100
AcDbEntity
  8
606202915-000-00-ED1_FORMAT
100
AcDbLine
 62
90
  6
CONTINUOUS
 10
499.1310631851
 20
57.5002731103
 11
499.407247246
 21
57.5002731103
  0
LINE
  5
519
100
AcDbEntity
  8
606202915-000-00-ED1_FORMAT
100
AcDbLine
 62
90
  6
CONTINUOUS
 10
500.9321799905
 20
57.5002731103
 11
501.517446059
 21
57.5002731103
  0
LINE
  5
51A
100
AcDbEntity
  8
606202915-000-00-ED1_FORMAT
100
AcDbLine
 62
90
  6
CONTINUOUS
 10
501.517446059
 20
57.7902740036
 11
500.9321799905
 21
57.7902740036
  0
LINE
  5
51B
100
AcDbEntity
  8
606202915-000-00-ED1_FORMAT
100
AcDbLine
 62
90
  6
CONTINUOUS
 10
499.407247246
 20
57.7902740036
 11
499.1310631851
 21
57.7902740036
  0
LINE
  5
51C
100
AcDbEntity
  8
606202915-000-00-ED1_FORMAT
100
AcDbLine
 62
90
  6
CONTINUOUS
 10
497.3572901275
 20
57.7902740036
 11
485.2433079006
 21
57.7902740036
  0
LINE
  5
51D
100
AcDbEntity
  8
606202915-000-00-ED1_FORMAT
100
AcDbLine
 62
90
  6
CONTINUOUS
 10
482.8636694109
 20
57.7902740036
 11
482.6063452119
 21
57.7902740036
  0
LINE
  5
51E
100
AcDbEntity
  8
606202915-000-00-ED1_FORMAT
100
AcDbLine
 62
90
  6
CONTINUOUS
 10
480.8568641446
 20
57.7902740036
 11
480.253836847
 21
57.7902740036
  0
LINE
  5
51F
100
AcDbEntity
  8
606202915-000-00-ED1_FORMAT
100
AcDbLine
 62
90
  6
CONTINUOUS
 10
480.253836847
 20
58.0802710822
 11
480.8569556974
 21
58.0802710822
  0
LINE
  5
520
100
AcDbEntity
  8
606202915-000-00-ED1_FORMAT
100
AcDbLine
 62
90
  6
CONTINUOUS
 10
482.5085058639
 20
58.0802710822
 11
482.7622900241
 21
58.0802710822
  0
LINE
  5
521
100
AcDbEntity
  8
606202915-000-00-ED1_FORMAT
100
AcDbLine
 62
90
  6
CONTINUOUS
 10
485.8813998928
 20
58.0802710822
 11
496.7141932529
 21
58.0802710822
  0
LINE
  5
522
100
AcDbEntity
  8
606202915-000-00-ED1_FORMAT
100
AcDbLine
 62
90
  6
CONTINUOUS
 10
499.1310631851
 20
58.0802710822
 11
499.407247246
 21
58.0802710822
  0
LINE
  5
523
100
AcDbEntity
  8
606202915-000-00-ED1_FORMAT
100
AcDbLine
 62
90
  6
CONTINUOUS
 10
500.9321799905
 20
58.0802710822
 11
501.517446059
 21
58.0802710822
  0
LINE
  5
524
100
AcDbEntity
  8
606202915-000-00-ED1_FORMAT
100
AcDbLine
 62
90
  6
CONTINUOUS
 10
501.4869284832
 20
58.3702719755
 11
500.9321799905
 21
58.3702719755
  0
LINE
  5
525
100
AcDbEntity
  8
606202915-000-00-ED1_FORMAT
100
AcDbLine
 62
90
  6
CONTINUOUS
 10
499.9910484708
 20
58.3702719755
 11
499.3282372422
 21
58.3702719755
  0
LINE
  5
526
100
AcDbEntity
  8
606202915-000-00-ED1_FORMAT
100
AcDbLine
 62
90
  6
CONTINUOUS
 10
496.0710658607
 20
58.3702719755
 11
486.5194613674
 21
58.3702719755
  0
LINE
  5
527
100
AcDbEntity
  8
606202915-000-00-ED1_FORMAT
100
AcDbLine
 62
90
  6
CONTINUOUS
 10
482.6609106374
 20
58.3702719755
 11
482.2872229218
 21
58.3702719755
  0
LINE
  5
528
100
AcDbEntity
  8
606202915-000-00-ED1_FORMAT
100
AcDbLine
 62
90
  6
CONTINUOUS
 10
480.8570472501
 20
58.3702719755
 11
480.253836847
 21
58.3702719755
  0
LINE
  5
529
100
AcDbEntity
  8
606202915-000-00-ED1_FORMAT
100
AcDbLine
 62
90
  6
CONTINUOUS
 10
480.253836847
 20
58.6602728689
 11
480.8571693204
 21
58.6602728689
  0
LINE
  5
52A
100
AcDbEntity
  8
606202915-000-00-ED1_FORMAT
100
AcDbLine
 62
90
  6
CONTINUOUS
 10
481.674643623
 20
58.6602728689
 11
482.2281408951
 21
58.6602728689
  0
LINE
  5
52B
100
AcDbEntity
  8
606202915-000-00-ED1_FORMAT
100
AcDbLine
 62
90
  6
CONTINUOUS
 10
487.1575533595
 20
58.6602728689
 11
495.4279689861
 21
58.6602728689
  0
LINE
  5
52C
100
AcDbEntity
  8
606202915-000-00-ED1_FORMAT
100
AcDbLine
 62
90
  6
CONTINUOUS
 10
500.0322471981
 20
58.6602728689
 11
500.7106223903
 21
58.6602728689
  0
LINE
  5
52D
100
AcDbEntity
  8
606202915-000-00-ED1_FORMAT
100
AcDbLine
 62
90
  6
CONTINUOUS
 10
500.9321799905
 20
58.6602728689
 11
501.2830405594
 21
58.6602728689
  0
LINE
  5
52E
100
AcDbEntity
  8
606202915-000-00-ED1_FORMAT
100
AcDbLine
 62
90
  6
CONTINUOUS
 10
501.0791831531
 20
58.9502737622
 11
500.7362876715
 21
58.9502737622
  0
LINE
  5
52F
100
AcDbEntity
  8
606202915-000-00-ED1_FORMAT
100
AcDbLine
 62
90
  6
CONTINUOUS
 10
494.7848721115
 20
58.9502737622
 11
487.7956453517
 21
58.9502737622
  0
LINE
  5
530
100
AcDbEntity
  8
606202915-000-00-ED1_FORMAT
100
AcDbLine
 62
90
  6
CONTINUOUS
 10
481.6149207272
 20
58.9502737622
 11
481.0620338067
 21
58.9502737622
  0
LINE
  5
531
100
AcDbEntity
  8
606202915-000-00-ED1_FORMAT
100
AcDbLine
 62
90
  6
CONTINUOUS
 10
480.8572608731
 20
58.9502737622
 11
480.253836847
 21
58.9502737622
  0
LINE
  5
532
100
AcDbEntity
  8
606202915-000-00-ED1_FORMAT
100
AcDbLine
 62
7
  6
CONTINUOUS
 10
584.0
 20
58.9546757701
 11
540.0000047006
 21
58.9546757701
  0
LINE
  5
533
100
AcDbEntity
  8
606202915-000-00-ED1_FORMAT
100
AcDbLine
 62
90
  6
CONTINUOUS
 10
480.6714698717
 20
59.2402708408
 11
481.0017005593
 21
59.2402708408
  0
LINE
  5
534
100
AcDbEntity
  8
606202915-000-00-ED1_FORMAT
100
AcDbLine
 62
90
  6
CONTINUOUS
 10
488.4337068263
 20
59.2402708408
 11
494.1417447194
 21
59.2402708408
  0
LINE
  5
535
100
AcDbEntity
  8
606202915-000-00-ED1_FORMAT
100
AcDbLine
 62
90
  6
CONTINUOUS
 10
493.4986478448
 20
59.5302717341
 11
489.0717988185
 21
59.5302717341
  0
LINE
  5
536
100
AcDbEntity
  8
606202915-000-00-ED1_FORMAT
100
AcDbLine
 62
90
  6
CONTINUOUS
 10
489.7098908106
 20
59.8202726275
 11
492.8555509702
 21
59.8202726275
  0
LINE
  5
537
100
AcDbEntity
  8
606202915-000-00-ED1_FORMAT
100
AcDbLine
 62
3
  6
CONTINUOUS
 10
10.0
 20
60.0
 11
5.0
 21
60.0
  0
LINE
  5
538
100
AcDbEntity
  8
606202915-000-00-ED1_FORMAT
100
AcDbLine
 62
3
  6
CONTINUOUS
 10
584.0
 20
60.0598861881
 11
589.0
 21
60.0598861881
  0
LINE
  5
539
100
AcDbEntity
  8
606202915-000-00-ED1_FORMAT
100
AcDbLine
 62
90
  6
CONTINUOUS
 10
492.212423578
 20
60.1102735208
 11
490.3479522852
 21
60.1102735208
  0
LINE
  5
53A
100
AcDbEntity
  8
606202915-000-00-ED1_FORMAT
100
AcDbLine
 62
90
  6
CONTINUOUS
 10
491.5471510297
 20
60.4102734978
 11
491.0080467178
 21
60.4102734978
  0
LINE
  5
53B
100
AcDbEntity
  8
606202915-000-00-ED1_FORMAT
100
AcDbLine
 62
7
  6
CONTINUOUS
 10
321.0000280969
 20
64.9999941242
 11
584.0
 21
64.9999941242
  0
LINE
  5
53C
100
AcDbEntity
  8
606202915-000-00-ED1_FORMAT
100
AcDbLine
 62
90
  6
CONTINUOUS
 10
489.5730805184
 20
56.5955147261
 11
489.7739166846
 21
56.5907387255
  0
LINE
  5
53D
100
AcDbEntity
  8
606202915-000-00-ED1_FORMAT
100
AcDbLine
 62
90
  6
CONTINUOUS
 10
489.7739166846
 20
56.5907387255
 11
489.9725250679
 21
56.5857567313
  0
LINE
  5
53E
100
AcDbEntity
  8
606202915-000-00-ED1_FORMAT
100
AcDbLine
 62
90
  6
CONTINUOUS
 10
489.3701996745
 20
56.6009582987
 11
489.5730805184
 21
56.5955147261
  0
LINE
  5
53F
100
AcDbEntity
  8
606202915-000-00-ED1_FORMAT
100
AcDbLine
 62
90
  6
CONTINUOUS
 10
489.1653962234
 20
56.6079697118
 11
489.3701996745
 21
56.6009582987
  0
LINE
  5
540
100
AcDbEntity
  8
606202915-000-00-ED1_FORMAT
100
AcDbLine
 62
90
  6
CONTINUOUS
 10
491.7706511509
 20
51.8433864889
 11
491.5046599603
 21
51.852625685
  0
LINE
  5
541
100
AcDbEntity
  8
606202915-000-00-ED1_FORMAT
100
AcDbLine
 62
90
  6
CONTINUOUS
 10
488.9588227529
 20
56.617433975
 11
489.1653962234
 21
56.6079697118
  0
LINE
  5
542
100
AcDbEntity
  8
606202915-000-00-ED1_FORMAT
100
AcDbLine
 62
90
  6
CONTINUOUS
 10
492.9437772818
 20
55.5377717346
 11
492.7525846695
 21
55.5470757805
  0
LINE
  5
543
100
AcDbEntity
  8
606202915-000-00-ED1_FORMAT
100
AcDbLine
 62
90
  6
CONTINUOUS
 10
492.0062773536
 20
51.830859024
 11
491.7706511509
 21
51.8433864889
  0
LINE
  5
544
100
AcDbEntity
  8
606202915-000-00-ED1_FORMAT
100
AcDbLine
 62
90
  6
CONTINUOUS
 10
492.2189238217
 20
51.8161266643
 11
492.0062773536
 21
51.830859024
  0
LINE
  5
545
100
AcDbEntity
  8
606202915-000-00-ED1_FORMAT
100
AcDbLine
 62
7
  6
CONTINUOUS
 10
321.0000300969
 20
72.499993323
 11
584.0
 21
72.499993323
  0
LINE
  5
546
100
AcDbEntity
  8
606202915-000-00-ED1_FORMAT
100
AcDbLine
 62
90
  6
CONTINUOUS
 10
488.7505708157
 20
56.6302399127
 11
488.9588227529
 21
56.617433975
  0
LINE
  5
547
100
AcDbEntity
  8
606202915-000-00-ED1_FORMAT
100
AcDbLine
 62
90
  6
CONTINUOUS
 10
492.7938444319
 20
51.769312703
 11
492.6052458136
 21
51.7842853887
  0
LINE
  5
548
100
AcDbEntity
  8
606202915-000-00-ED1_FORMAT
100
AcDbLine
 62
90
  6
CONTINUOUS
 10
492.4160978788
 20
51.8002422661
 11
492.2189238217
 21
51.8161266643
  0
LINE
  5
549
100
AcDbEntity
  8
606202915-000-00-ED1_FORMAT
100
AcDbLine
 62
90
  6
CONTINUOUS
 10
488.5408235173
 20
56.6472801641
 11
488.7505708157
 21
56.6302399127
  0
LINE
  5
54A
100
AcDbEntity
  8
606202915-000-00-ED1_FORMAT
100
AcDbLine
 62
90
  6
CONTINUOUS
 10
492.6052458136
 20
51.7842853887
 11
492.4160978788
 21
51.8002422661
  0
LINE
  5
54B
100
AcDbEntity
  8
606202915-000-00-ED1_FORMAT
100
AcDbLine
 62
90
  6
CONTINUOUS
 10
496.2427882597
 20
53.4197680515
 11
496.8411768858
 21
53.3604647724
  0
LINE
  5
54C
100
AcDbEntity
  8
606202915-000-00-ED1_FORMAT
100
AcDbLine
 62
90
  6
CONTINUOUS
 10
488.3296724104
 20
56.6694397388
 11
488.5408235173
 21
56.6472801641
  0
LINE
  5
54D
100
AcDbEntity
  8
606202915-000-00-ED1_FORMAT
100
AcDbLine
 62
90
  6
CONTINUOUS
 10
496.0031947722
 20
51.4534748671
 11
494.5375576774
 21
51.6192921152
  0
LINE
  5
54E
100
AcDbEntity
  8
606202915-000-00-ED1_FORMAT
100
AcDbLine
 62
90
  6
CONTINUOUS
 10
493.1197416238
 20
55.5162835466
 11
492.9437772818
 21
55.5377717346
  0
LINE
  5
54F
100
AcDbEntity
  8
606202915-000-00-ED1_FORMAT
100
AcDbLine
 62
90
  6
CONTINUOUS
 10
488.1172700829
 20
56.6976112759
 11
488.3296724104
 21
56.6694397388
  0
LINE
  5
550
100
AcDbEntity
  8
606202915-000-00-ED1_FORMAT
100
AcDbLine
 62
90
  6
CONTINUOUS
 10
493.1211759499
 20
56.6452507453
 11
493.3581754434
 21
56.6093048557
  0
LINE
  5
551
100
AcDbEntity
  8
606202915-000-00-ED1_FORMAT
100
AcDbLine
 62
90
  6
CONTINUOUS
 10
496.9365137925
 20
51.897692515
 11
496.1121425177
 21
52.0335910947
  0
LINE
  5
552
100
AcDbEntity
  8
606202915-000-00-ED1_FORMAT
100
AcDbLine
 62
3
  6
CONTINUOUS
 10
9.9999999122
 20
93.4999984459
 11
15.9999998068
 21
93.4999984459
  0
LINE
  5
553
100
AcDbEntity
  8
606202915-000-00-ED1_FORMAT
100
AcDbLine
 62
90
  6
CONTINUOUS
 10
498.593679193
 20
50.9565495512
 11
496.985616572
 21
51.2672718784
  0
LINE
  5
554
100
AcDbEntity
  8
606202915-000-00-ED1_FORMAT
100
AcDbLine
 62
90
  6
CONTINUOUS
 10
485.0026157804
 20
57.1580375713
 11
486.2079074361
 21
56.9181160198
  0
LINE
  5
555
100
AcDbEntity
  8
606202915-000-00-ED1_FORMAT
100
AcDbLine
 62
90
  6
CONTINUOUS
 10
493.3581754434
 20
56.6093048557
 11
493.5746671261
 21
56.5594276928
  0
LINE
  5
556
100
AcDbEntity
  8
606202915-000-00-ED1_FORMAT
100
AcDbLine
 62
90
  6
CONTINUOUS
 10
493.2772428324
 20
55.4772897141
 11
493.1197416238
 21
55.5162835466
  0
LINE
  5
557
100
AcDbEntity
  8
606202915-000-00-ED1_FORMAT
100
AcDbLine
 62
3
  6
CONTINUOUS
 10
197.0
 20
10.0
 11
197.0
 21
5.0
  0
LINE
  5
558
100
AcDbEntity
  8
606202915-000-00-ED1_FORMAT
100
AcDbLine
 62
3
  6
CONTINUOUS
 10
197.0
 20
410.0
 11
197.0
 21
415.0
  0
LINE
  5
559
100
AcDbEntity
  8
606202915-000-00-ED1_FORMAT
100
AcDbLine
 62
7
  6
CONTINUOUS
 10
209.0000087989
 20
10.0
 11
209.0000087989
 21
37.9999902659
  0
LINE
  5
55A
100
AcDbEntity
  8
606202915-000-00-ED1_FORMAT
100
AcDbLine
 62
3
  6
CONTINUOUS
 10
210.0
 20
5.0
 11
210.0
 21
0.0
  0
LINE
  5
55B
100
AcDbEntity
  8
606202915-000-00-ED1_FORMAT
100
AcDbLine
 62
3
  6
CONTINUOUS
 10
210.0
 20
415.0
 11
210.0
 21
420.0
  0
LINE
  5
55C
100
AcDbEntity
  8
606202915-000-00-ED1_FORMAT
100
AcDbLine
 62
3
  6
CONTINUOUS
 10
10.0
 20
110.0
 11
5.0
 21
110.0
  0
LINE
  5
55D
100
AcDbEntity
  8
606202915-000-00-ED1_FORMAT
100
AcDbLine
 62
3
  6
CONTINUOUS
 10
584.0
 20
110.0598861881
 11
589.0
 21
110.0598861881
  0
LINE
  5
55E
100
AcDbEntity
  8
606202915-000-00-ED1_FORMAT
100
AcDbLine
 62
90
  6
CONTINUOUS
 10
493.5746671261
 20
56.5594276928
 11
493.7713834196
 21
56.49664541
  0
LINE
  5
55F
100
AcDbEntity
  8
606202915-000-00-ED1_FORMAT
100
AcDbLine
 62
3
  6
CONTINUOUS
 10
9.9999999122
 20
148.49999748
 11
15.9999998068
 21
148.49999748
  0
LINE
  5
560
100
AcDbEntity
  8
606202915-000-00-ED1_FORMAT
100
AcDbLine
 62
90
  6
CONTINUOUS
 10
501.4483542674
 20
51.709555475
 11
502.8858236398
 21
51.1495808474
  0
LINE
  5
561
100
AcDbEntity
  8
606202915-000-00-ED1_FORMAT
100
AcDbLine
 62
90
  6
CONTINUOUS
 10
500.9321799905
 20
51.5395611337
 11
502.2963156283
 21
50.9884480473
  0
LINE
  5
562
100
AcDbEntity
  8
606202915-000-00-ED1_FORMAT
100
AcDbLine
 62
90
  6
CONTINUOUS
 10
501.517446059
 20
55.9608063702
 11
505.7164813821
 21
54.2349993124
  0
LINE
  5
563
100
AcDbEntity
  8
606202915-000-00-ED1_FORMAT
100
AcDbLine
 62
90
  6
CONTINUOUS
 10
493.7713834196
 20
56.49664541
 11
493.9490262283
 21
56.4219994196
  0
LINE
  5
564
100
AcDbEntity
  8
606202915-000-00-ED1_FORMAT
100
AcDbLine
 62
90
  6
CONTINUOUS
 10
491.2765410813
 20
47.4442817536
 11
482.6544409113
 21
51.5949009427
  0
LINE
  5
565
100
AcDbEntity
  8
606202915-000-00-ED1_FORMAT
100
AcDbLine
 62
3
  6
CONTINUOUS
 10
480.2529823549
 20
52.1786106148
 11
476.0615586419
 21
54.234993065
  0
LINE
  5
566
100
AcDbEntity
  8
606202915-000-00-ED1_FORMAT
100
AcDbLine
 62
3
  6
CONTINUOUS
 10
491.2765410813
 20
46.7702743895
 11
482.6552954034
 21
51.0000027644
  0
LINE
  5
567
100
AcDbEntity
  8
606202915-000-00-ED1_FORMAT
100
AcDbLine
 62
90
  6
CONTINUOUS
 10
480.8481056004
 20
49.2196875015
 11
480.2529823549
 21
49.5195532012
  0
LINE
  5
568
100
AcDbEntity
  8
606202915-000-00-ED1_FORMAT
100
AcDbLine
 62
7
  6
CONTINUOUS
 10
246.5000066183
 20
10.0
 11
246.5000066183
 21
15.9999979141
  0
LINE
  5
569
100
AcDbEntity
  8
606202915-000-00-ED1_FORMAT
100
AcDbLine
 62
7
  6
CONTINUOUS
 10
246.5000359829
 20
32.0047613501
 11
246.5000359829
 21
37.9999902659
  0
LINE
  5
56A
100
AcDbEntity
  8
606202915-000-00-ED1_FORMAT
100
AcDbLine
 62
3
  6
CONTINUOUS
 10
247.0
 20
10.0
 11
247.0
 21
5.0
  0
LINE
  5
56B
100
AcDbEntity
  8
606202915-000-00-ED1_FORMAT
100
AcDbLine
 62
3
  6
CONTINUOUS
 10
247.0
 20
410.0
 11
247.0
 21
415.0
  0
LINE
  5
56C
100
AcDbEntity
  8
606202915-000-00-ED1_FORMAT
100
AcDbLine
 62
7
  6
CONTINUOUS
 10
405.3013293533
 20
377.9989914516
 11
417.3013299339
 21
389.9989920322
  0
LINE
  5
56D
100
AcDbEntity
  8
606202915-000-00-ED1_FORMAT
100
AcDbLine
 62
3
  6
CONTINUOUS
 10
10.0
 20
160.0
 11
5.0
 21
160.0
  0
LINE
  5
56E
100
AcDbEntity
  8
606202915-000-00-ED1_FORMAT
100
AcDbLine
 62
3
  6
CONTINUOUS
 10
584.0
 20
160.0598861881
 11
589.0
 21
160.0598861881
  0
LINE
  5
56F
100
AcDbEntity
  8
606202915-000-00-ED1_FORMAT
100
AcDbLine
 62
3
  6
CONTINUOUS
 10
491.2765410813
 20
61.1759434526
 11
499.1310631851
 21
57.6838554021
  0
LINE
  5
570
100
AcDbEntity
  8
606202915-000-00-ED1_FORMAT
100
AcDbLine
 62
3
  6
CONTINUOUS
 10
501.517446059
 20
56.6228737328
 11
506.8883257748
 21
54.2349993124
  0
LINE
  5
571
100
AcDbEntity
  8
606202915-000-00-ED1_FORMAT
100
AcDbLine
 62
90
  6
CONTINUOUS
 10
491.2765410813
 20
60.5323010764
 11
499.1310631851
 21
56.9904197862
  0
LINE
  5
572
100
AcDbEntity
  8
606202915-000-00-ED1_FORMAT
100
AcDbLine
 62
90
  6
CONTINUOUS
 10
493.4131070798
 20
55.4154649202
 11
493.2772428324
 21
55.4772897141
  0
LINE
  5
573
100
AcDbEntity
  8
606202915-000-00-ED1_FORMAT
100
AcDbLine
 62
90
  6
CONTINUOUS
 10
480.8380042828
 20
59.3176824865
 11
482.6251745561
 21
58.4725134838
  0
LINE
  5
574
100
AcDbEntity
  8
606202915-000-00-ED1_FORMAT
100
AcDbLine
 62
90
  6
CONTINUOUS
 10
480.8572913907
 20
59.0472052123
 11
482.4341345317
 21
58.300726235
  0
LINE
  5
575
100
AcDbEntity
  8
606202915-000-00-ED1_FORMAT
100
AcDbLine
 62
90
  6
CONTINUOUS
 10
502.2963156283
 20
49.2870397913
 11
499.407247246
 21
50.7446316902
  0
LINE
  5
576
100
AcDbEntity
  8
606202915-000-00-ED1_FORMAT
100
AcDbLine
 62
90
  6
CONTINUOUS
 10
502.3335165532
 20
48.9736548055
 11
499.1310631851
 21
50.6036862664
  0
LINE
  5
577
100
AcDbEntity
  8
606202915-000-00-ED1_FORMAT
100
AcDbLine
 62
90
  6
CONTINUOUS
 10
480.2529823549
 20
52.7537829951
 11
477.3505472744
 21
54.2349993124
  0
LINE
  5
578
100
AcDbEntity
  8
606202915-000-00-ED1_FORMAT
100
AcDbLine
 62
90
  6
CONTINUOUS
 10
493.9490262283
 20
56.4219994196
 11
494.1083279739
 21
56.3365196898
  0
LINE
  5
579
100
AcDbEntity
  8
606202915-000-00-ED1_FORMAT
100
AcDbLine
 62
7
  6
CONTINUOUS
 10
284.4999982122
 20
10.0
 11
284.4999982122
 21
15.9999979141
  0
LINE
  5
57A
100
AcDbEntity
  8
606202915-000-00-ED1_FORMAT
100
AcDbLine
 62
7
  6
CONTINUOUS
 10
284.5000222034
 20
32.0047613501
 11
284.5000222034
 21
37.9999902659
  0
LINE
  5
57B
100
AcDbEntity
  8
606202915-000-00-ED1_FORMAT
100
AcDbLine
 62
7
  6
CONTINUOUS
 10
297.0
 20
415.0
 11
297.0
 21
400.0
  0
LINE
  5
57C
100
AcDbEntity
  8
606202915-000-00-ED1_FORMAT
100
AcDbLine
 62
3
  6
CONTINUOUS
 10
297.0
 20
5.0598861881
 11
297.0
 21
10.0598861881
  0
LINE
  5
57D
100
AcDbEntity
  8
606202915-000-00-ED1_FORMAT
100
AcDbLine
 62
7
  6
CONTINUOUS
 10
589.0
 20
210.0
 11
574.0
 21
210.0
  0
LINE
  5
57E
100
AcDbEntity
  8
606202915-000-00-ED1_FORMAT
100
AcDbLine
 62
7
  6
CONTINUOUS
 10
5.0
 20
210.0
 11
20.0
 21
210.0
  0
LINE
  5
57F
100
AcDbEntity
  8
606202915-000-00-ED1_FORMAT
100
AcDbLine
 62
90
  6
CONTINUOUS
 10
494.1083279739
 20
56.3365196898
 11
494.2500515958
 21
56.2412400035
  0
LINE
  5
580
100
AcDbEntity
  8
606202915-000-00-ED1_FORMAT
100
AcDbLine
 62
90
  6
CONTINUOUS
 10
493.524099503
 20
55.3254914774
 11
493.4131070798
 21
55.4154649202
  0
LINE
  5
581
100
AcDbEntity
  8
606202915-000-00-ED1_FORMAT
100
AcDbLine
 62
90
  6
CONTINUOUS
 10
494.2500515958
 20
56.2412400035
 11
494.3748379632
 21
56.1371941436
  0
LINE
  5
582
100
AcDbEntity
  8
606202915-000-00-ED1_FORMAT
100
AcDbLine
 62
7
  6
CONTINUOUS
 10
321.0000280969
 20
10.0
 11
321.0000300969
 21
72.499993323
  0
LINE
  5
583
100
AcDbEntity
  8
606202915-000-00-ED1_FORMAT
100
AcDbLine
 62
7
  6
CONTINUOUS
 10
328.5000292957
 20
64.9999941242
 11
328.5000292957
 21
72.499993323
  0
LINE
  5
584
100
AcDbEntity
  8
606202915-000-00-ED1_FORMAT
100
AcDbLine
 62
7
  6
CONTINUOUS
 10
336.0000284944
 20
64.9999941242
 11
336.0000284944
 21
72.499993323
  0
LINE
  5
585
100
AcDbEntity
  8
606202915-000-00-ED1_FORMAT
100
AcDbLine
 62
90
  6
CONTINUOUS
 10
494.3748379632
 20
56.1371941436
 11
494.4834805331
 21
56.0254120781
  0
LINE
  5
586
100
AcDbEntity
  8
606202915-000-00-ED1_FORMAT
100
AcDbLine
 62
7
  6
CONTINUOUS
 10
345.3988364903
 20
64.9999941242
 11
345.3988364903
 21
72.499993323
  0
LINE
  5
587
100
AcDbEntity
  8
606202915-000-00-ED1_FORMAT
100
AcDbLine
 62
3
  6
CONTINUOUS
 10
347.0
 20
10.0598861881
 11
347.0
 21
5.0598861881
  0
LINE
  5
588
100
AcDbEntity
  8
606202915-000-00-ED1_FORMAT
100
AcDbLine
 62
3
  6
CONTINUOUS
 10
347.0
 20
409.9998474121
 11
347.0
 21
415.0
  0
LINE
  5
589
100
AcDbEntity
  8
606202915-000-00-ED1_FORMAT
100
AcDbLine
 62
7
  6
CONTINUOUS
 10
350.3988359562
 20
64.9999941242
 11
350.3988359562
 21
72.499993323
  0
LINE
  5
58A
100
AcDbEntity
  8
606202915-000-00-ED1_FORMAT
100
AcDbLine
 62
3
  6
CONTINUOUS
 10
10.0
 20
260.0
 11
5.0
 21
260.0
  0
LINE
  5
58B
100
AcDbEntity
  8
606202915-000-00-ED1_FORMAT
100
AcDbLine
 62
3
  6
CONTINUOUS
 10
584.0
 20
260.0
 11
589.0
 21
260.0
  0
LINE
  5
58C
100
AcDbEntity
  8
606202915-000-00-ED1_FORMAT
100
AcDbLine
 62
90
  6
CONTINUOUS
 10
494.4834805331
 20
56.0254120781
 11
494.5766506919
 21
55.9069390342
  0
LINE
  5
58D
100
AcDbEntity
  8
606202915-000-00-ED1_FORMAT
100
AcDbLine
 62
7
  6
CONTINUOUS
 10
382.0000215801
 20
64.9999941242
 11
382.0000215801
 21
72.499993323
  0
LINE
  5
58E
100
AcDbEntity
  8
606202915-000-00-ED1_FORMAT
100
AcDbLine
 62
90
  6
CONTINUOUS
 10
501.0021873094
 20
59.059797527
 11
501.517446059
 21
58.3268645387
  0
LINE
  5
58F
100
AcDbEntity
  8
606202915-000-00-ED1_FORMAT
100
AcDbLine
 62
90
  6
CONTINUOUS
 10
493.6070157564
 20
55.202040254
 11
493.524099503
 21
55.3254914774
  0
LINE
  5
590
100
AcDbEntity
  8
606202915-000-00-ED1_FORMAT
100
AcDbLine
 62
90
  6
CONTINUOUS
 10
494.5766506919
 20
55.9069390342
 11
494.6551113793
 21
55.7827973506
  0
LINE
  5
591
100
AcDbEntity
  8
606202915-000-00-ED1_FORMAT
100
AcDbLine
 62
3
  6
CONTINUOUS
 10
397.0
 20
415.0
 11
397.0
 21
409.9999084473
  0
LINE
  5
592
100
AcDbEntity
  8
606202915-000-00-ED1_FORMAT
100
AcDbLine
 62
3
  6
CONTINUOUS
 10
397.0
 20
10.0598861881
 11
397.0
 21
5.0598861881
  0
LINE
  5
593
100
AcDbEntity
  8
606202915-000-00-ED1_FORMAT
100
AcDbLine
 62
7
  6
CONTINUOUS
 10
398.0000178708
 20
10.0
 11
398.0000178708
 21
64.9999941242
  0
LINE
  5
594
100
AcDbEntity
  8
606202915-000-00-ED1_FORMAT
100
AcDbLine
 62
3
  6
CONTINUOUS
 10
402.0
 20
5.0598861881
 11
402.0
 21
0.0598861881
  0
LINE
  5
595
100
AcDbEntity
  8
606202915-000-00-ED1_FORMAT
100
AcDbLine
 62
3
  6
CONTINUOUS
 10
402.0
 20
415.0
 11
402.0
 21
420.0
  0
LINE
  5
596
100
AcDbEntity
  8
606202915-000-00-ED1_FORMAT
100
AcDbLine
 62
3
  6
CONTINUOUS
 10
-0.0
 20
297.0
 11
5.0
 21
297.0
  0
LINE
  5
597
100
AcDbEntity
  8
606202915-000-00-ED1_FORMAT
100
AcDbLine
 62
3
  6
CONTINUOUS
 10
589.0
 20
297.0
 11
594.0
 21
297.0
  0
LINE
  5
598
100
AcDbEntity
  8
606202915-000-00-ED1_FORMAT
100
AcDbLine
 62
3
  6
CONTINUOUS
 10
10.0
 20
310.0
 11
5.0
 21
310.0
  0
LINE
  5
599
100
AcDbEntity
  8
606202915-000-00-ED1_FORMAT
100
AcDbLine
 62
3
  6
CONTINUOUS
 10
584.0
 20
310.0
 11
589.0
 21
310.0
  0
LINE
  5
59A
100
AcDbEntity
  8
606202915-000-00-ED1_FORMAT
100
AcDbLine
 62
7
  6
CONTINUOUS
 10
405.3013293533
 20
377.9989914516
 11
405.3013293533
 21
410.0
  0
LINE
  5
59B
100
AcDbEntity
  8
606202915-000-00-ED1_FORMAT
100
AcDbLine
 62
7
  6
CONTINUOUS
 10
417.3013299339
 20
389.9989920322
 11
417.3013299339
 21
410.0
  0
LINE
  5
59C
100
AcDbEntity
  8
606202915-000-00-ED1_FORMAT
100
AcDbLine
 62
90
  6
CONTINUOUS
 10
494.6551113793
 20
55.7827973506
 11
494.7195339818
 21
55.6540284396
  0
LINE
  5
59D
100
AcDbEntity
  8
606202915-000-00-ED1_FORMAT
100
AcDbLine
 62
90
  6
CONTINUOUS
 10
483.6609410784
 20
51.161948095
 11
482.453391122
 21
54.0527102028
  0
LINE
  5
59E
100
AcDbEntity
  8
606202915-000-00-ED1_FORMAT
100
AcDbLine
 62
90
  6
CONTINUOUS
 10
482.6251745561
 20
58.4725134838
 11
483.1899328137
 21
56.8570312772
  0
LINE
  5
59F
100
AcDbEntity
  8
606202915-000-00-ED1_FORMAT
100
AcDbLine
 62
7
  6
CONTINUOUS
 10
435.000013918
 20
43.4999964211
 11
435.000013918
 21
34.9999973292
  0
LINE
  5
5A0
100
AcDbEntity
  8
606202915-000-00-ED1_FORMAT
100
AcDbLine
 62
7
  6
CONTINUOUS
 10
438.9013369791
 20
410.0
 11
438.9013369791
 21
347.999997
  0
LINE
  5
5A1
100
AcDbEntity
  8
606202915-000-00-ED1_FORMAT
100
AcDbLine
 62
7
  6
CONTINUOUS
 10
438.9013369791
 20
347.999997
 11
584.0
 21
347.999997
  0
LINE
  5
5A2
100
AcDbEntity
  8
606202915-000-00-ED1_FORMAT
100
AcDbLine
 62
7
  6
CONTINUOUS
 10
448.901398463
 20
352.5499922202
 11
550.8999983984
 21
352.5499922202
  0
LINE
  5
5A3
100
AcDbEntity
  8
606202915-000-00-ED1_FORMAT
100
AcDbLine
 62
7
  6
CONTINUOUS
 10
438.9013369791
 20
357.0999874403
 11
584.0
 21
357.0999874403
  0
LINE
  5
5A4
100
AcDbEntity
  8
606202915-000-00-ED1_FORMAT
100
AcDbLine
 62
90
  6
CONTINUOUS
 10
494.7195339818
 20
55.6540284396
 11
494.7707119564
 21
55.521666084
  0
LINE
  5
5A5
100
AcDbEntity
  8
606202915-000-00-ED1_FORMAT
100
AcDbLine
 62
90
  6
CONTINUOUS
 10
482.4341345317
 20
58.300726235
 11
483.5429601304
 21
55.0142656101
  0
LINE
  5
5A6
100
AcDbEntity
  8
606202915-000-00-ED1_FORMAT
100
AcDbLine
 62
90
  6
CONTINUOUS
 10
493.6586514946
 20
55.039797377
 11
493.6070157564
 21
55.202040254
  0
LINE
  5
5A7
100
AcDbEntity
  8
606202915-000-00-ED1_FORMAT
100
AcDbLine
 62
90
  6
CONTINUOUS
 10
494.7707119564
 20
55.521666084
 11
494.8093166898
 21
55.3867364373
  0
LINE
  5
5A8
100
AcDbEntity
  8
606202915-000-00-ED1_FORMAT
100
AcDbLine
 62
3
  6
CONTINUOUS
 10
447.0
 20
10.0598861881
 11
447.0
 21
5.0598861881
  0
LINE
  5
5A9
100
AcDbEntity
  8
606202915-000-00-ED1_FORMAT
100
AcDbLine
 62
3
  6
CONTINUOUS
 10
447.0
 20
410.0
 11
447.0
 21
415.0
  0
LINE
  5
5AA
100
AcDbEntity
  8
606202915-000-00-ED1_FORMAT
100
AcDbLine
 62
7
  6
CONTINUOUS
 10
448.901398463
 20
347.999997
 11
448.901398463
 21
410.0
  0
LINE
  5
5AB
100
AcDbEntity
  8
606202915-000-00-ED1_FORMAT
100
AcDbLine
 62
3
  6
CONTINUOUS
 10
10.0
 20
360.0
 11
5.0
 21
360.0
  0
LINE
  5
5AC
100
AcDbEntity
  8
606202915-000-00-ED1_FORMAT
100
AcDbLine
 62
3
  6
CONTINUOUS
 10
584.0
 20
360.0
 11
589.0
 21
360.0
  0
LINE
  5
5AD
100
AcDbEntity
  8
606202915-000-00-ED1_FORMAT
100
AcDbLine
 62
7
  6
CONTINUOUS
 10
448.901398463
 20
361.6499826605
 11
550.8999983984
 21
361.6499826605
  0
LINE
  5
5AE
100
AcDbEntity
  8
606202915-000-00-ED1_FORMAT
100
AcDbLine
 62
7
  6
CONTINUOUS
 10
438.9013369791
 20
366.1999778806
 11
584.0
 21
366.1999778806
  0
LINE
  5
5AF
100
AcDbEntity
  8
606202915-000-00-ED1_FORMAT
100
AcDbLine
 62
7
  6
CONTINUOUS
 10
448.901398463
 20
370.7499731008
 11
550.8999983984
 21
370.7499731008
  0
LINE
  5
5B0
100
AcDbEntity
  8
606202915-000-00-ED1_FORMAT
100
AcDbLine
 62
7
  6
CONTINUOUS
 10
438.9013369791
 20
375.299967321
 11
584.0
 21
375.299967321
  0
LINE
  5
5B1
100
AcDbEntity
  8
606202915-000-00-ED1_FORMAT
100
AcDbLine
 62
7
  6
CONTINUOUS
 10
405.3013293533
 20
377.9989914516
 11
438.9013369791
 21
377.9989914516
  0
LINE
  5
5B2
100
AcDbEntity
  8
606202915-000-00-ED1_FORMAT
100
AcDbLine
 62
90
  6
CONTINUOUS
 10
489.9725250679
 20
56.5857567313
 11
491.1683562751
 21
51.8564365672
  0
LINE
  5
5B3
100
AcDbEntity
  8
606202915-000-00-ED1_FORMAT
100
AcDbLine
 62
90
  6
CONTINUOUS
 10
489.6792511645
 20
51.8104503952
 11
489.4688019619
 21
52.7755076944
  0
LINE
  5
5B4
100
AcDbEntity
  8
606202915-000-00-ED1_FORMAT
100
AcDbLine
 62
90
  6
CONTINUOUS
 10
489.3363251654
 20
53.8016764391
 11
488.9602265614
 21
55.5417657223
  0
LINE
  5
5B5
100
AcDbEntity
  8
606202915-000-00-ED1_FORMAT
100
AcDbLine
 62
90
  6
CONTINUOUS
 10
494.8093166898
 20
55.3867364373
 11
494.8360500861
 21
55.2502809119
  0
LINE
  5
5B6
100
AcDbEntity
  8
606202915-000-00-ED1_FORMAT
100
AcDbLine
 62
90
  6
CONTINUOUS
 10
493.6758328898
 20
54.8334375295
 11
493.6586514946
 21
55.039797377
  0
LINE
  5
5B7
100
AcDbEntity
  8
606202915-000-00-ED1_FORMAT
100
AcDbLine
 62
90
  6
CONTINUOUS
 10
496.985616572
 20
51.2672718784
 11
496.9365137925
 21
51.897692515
  0
LINE
  5
5B8
100
AcDbEntity
  8
606202915-000-00-ED1_FORMAT
100
AcDbLine
 62
7
  6
CONTINUOUS
 10
469.0000102857
 20
64.9999941242
 11
469.0000102857
 21
34.9999973292
  0
LINE
  5
5B9
100
AcDbEntity
  8
606202915-000-00-ED1_FORMAT
100
AcDbLine
 62
7
  6
CONTINUOUS
 10
474.000005659
 20
10.0
 11
474.0000059056
 21
24.2499984776
  0
LINE
  5
5BA
100
AcDbEntity
  8
606202915-000-00-ED1_FORMAT
100
AcDbLine
 62
90
  6
CONTINUOUS
 10
480.2529823549
 20
49.5195532012
 11
480.2529823549
 21
52.7537829951
  0
LINE
  5
5BB
100
AcDbEntity
  8
606202915-000-00-ED1_FORMAT
100
AcDbLine
 62
90
  6
CONTINUOUS
 10
480.253836847
 20
55.5478196464
 11
480.253836847
 21
59.0461332824
  0
LINE
  5
5BC
100
AcDbEntity
  8
606202915-000-00-ED1_FORMAT
100
AcDbLine
 62
90
  6
CONTINUOUS
 10
482.453391122
 20
54.0527102028
 11
482.453391122
 21
50.4031743494
  0
LINE
  5
5BD
100
AcDbEntity
  8
606202915-000-00-ED1_FORMAT
100
AcDbLine
 62
90
  6
CONTINUOUS
 10
482.6544409113
 20
51.5949009427
 11
482.6544409113
 21
50.2336148836
  0
LINE
  5
5BE
100
AcDbEntity
  8
606202915-000-00-ED1_FORMAT
100
AcDbLine
 62
90
  6
CONTINUOUS
 10
484.7759922626
 20
51.0971516522
 11
484.7759922626
 21
53.7835337403
  0
LINE
  5
5BF
100
AcDbEntity
  8
606202915-000-00-ED1_FORMAT
100
AcDbLine
 62
90
  6
CONTINUOUS
 10
486.2079074361
 20
56.9181160198
 11
486.2079074361
 21
51.4102390916
  0
LINE
  5
5C0
100
AcDbEntity
  8
606202915-000-00-ED1_FORMAT
100
AcDbLine
 62
90
  6
CONTINUOUS
 10
480.8541175628
 20
49.5294294517
 11
480.8572913907
 21
59.0472052123
  0
LINE
  5
5C1
100
AcDbEntity
  8
606202915-000-00-ED1_FORMAT
100
AcDbLine
 62
7
  6
CONTINUOUS
 10
448.901398463
 20
379.8499625411
 11
550.8999983984
 21
379.8499625411
  0
LINE
  5
5C2
100
AcDbEntity
  8
606202915-000-00-ED1_FORMAT
100
AcDbLine
 62
7
  6
CONTINUOUS
 10
438.9013369791
 20
384.3999577613
 11
584.0
 21
384.3999577613
  0
LINE
  5
5C3
100
AcDbEntity
  8
606202915-000-00-ED1_FORMAT
100
AcDbLine
 62
7
  6
CONTINUOUS
 10
448.901398463
 20
388.9499529814
 11
550.8999983984
 21
388.9499529814
  0
LINE
  5
5C4
100
AcDbEntity
  8
606202915-000-00-ED1_FORMAT
100
AcDbLine
 62
7
  6
CONTINUOUS
 10
417.3013299339
 20
389.9989920322
 11
438.9013369791
 21
389.9989920322
  0
LINE
  5
5C5
100
AcDbEntity
  8
606202915-000-00-ED1_FORMAT
100
AcDbLine
 62
7
  6
CONTINUOUS
 10
438.9013369791
 20
393.4999482016
 11
584.0
 21
393.4999482016
  0
LINE
  5
5C6
100
AcDbEntity
  8
606202915-000-00-ED1_FORMAT
100
AcDbLine
 62
7
  6
CONTINUOUS
 10
448.901398463
 20
398.0499434218
 11
550.8999983984
 21
398.0499434218
  0
LINE
  5
5C7
100
AcDbEntity
  8
606202915-000-00-ED1_FORMAT
100
AcDbLine
 62
90
  6
CONTINUOUS
 10
497.4244593118
 20
57.2541030852
 11
498.593679193
 21
50.9565495512
  0
LINE
  5
5C8
100
AcDbEntity
  8
606202915-000-00-ED1_FORMAT
100
AcDbLine
 62
90
  6
CONTINUOUS
 10
496.8411768858
 20
53.3604647724
 11
496.5284938042
 21
55.3982873398
  0
LINE
  5
5C9
100
AcDbEntity
  8
606202915-000-00-ED1_FORMAT
100
AcDbLine
 62
90
  6
CONTINUOUS
 10
494.8360500861
 20
55.2502809119
 11
494.8517056025
 21
55.1133294758
  0
LINE
  5
5CA
100
AcDbEntity
  8
606202915-000-00-ED1_FORMAT
100
AcDbLine
 62
90
  6
CONTINUOUS
 10
494.8517056025
 20
55.1133294758
 11
494.8569546256
 21
54.9769197268
  0
LINE
  5
5CB
100
AcDbEntity
  8
606202915-000-00-ED1_FORMAT
100
AcDbLine
 62
90
  6
CONTINUOUS
 10
492.7525846695
 20
55.5470757805
 11
492.7601225107
 21
53.9302469859
  0
LINE
  5
5CC
100
AcDbEntity
  8
606202915-000-00-ED1_FORMAT
100
AcDbLine
 62
7
  6
CONTINUOUS
 10
488.0000142087
 20
64.9999941242
 11
488.0000142087
 21
72.499993323
  0
LINE
  5
5CD
100
AcDbEntity
  8
606202915-000-00-ED1_FORMAT
100
AcDbLine
 62
90
  6
CONTINUOUS
 10
491.5046599603
 20
51.852625685
 11
491.5046599603
 21
56.6184677578
  0
LINE
  5
5CE
100
AcDbEntity
  8
606202915-000-00-ED1_FORMAT
100
AcDbLine
 62
90
  6
CONTINUOUS
 10
492.7919523422
 20
52.8280437011
 11
492.7919523422
 21
51.769312703
  0
LINE
  5
5CF
100
AcDbEntity
  8
606202915-000-00-ED1_FORMAT
100
AcDbLine
 62
3
  6
CONTINUOUS
 10
497.0
 20
10.0598861881
 11
497.0
 21
5.0598861881
  0
LINE
  5
5D0
100
AcDbEntity
  8
606202915-000-00-ED1_FORMAT
100
AcDbLine
 62
3
  6
CONTINUOUS
 10
497.0
 20
410.0
 11
497.0
 21
415.0
  0
LINE
  5
5D1
100
AcDbEntity
  8
606202915-000-00-ED1_FORMAT
100
AcDbLine
 62
90
  6
CONTINUOUS
 10
499.1310631851
 20
50.6036862664
 11
499.1310631851
 21
51.1375912548
  0
LINE
  5
5D2
100
AcDbEntity
  8
606202915-000-00-ED1_FORMAT
100
AcDbLine
 62
90
  6
CONTINUOUS
 10
499.1310631851
 20
56.9904197862
 11
499.1310631851
 21
58.2890494476
  0
LINE
  5
5D3
100
AcDbEntity
  8
606202915-000-00-ED1_FORMAT
100
AcDbLine
 62
90
  6
CONTINUOUS
 10
499.407247246
 20
50.7446316902
 11
499.407247246
 21
58.1349852809
  0
LINE
  5
5D4
100
AcDbEntity
  8
606202915-000-00-ED1_FORMAT
100
AcDbLine
 62
90
  6
CONTINUOUS
 10
500.9321799905
 20
58.7495672956
 11
500.9321799905
 21
51.5395611337
  0
LINE
  5
5D5
100
AcDbEntity
  8
606202915-000-00-ED1_FORMAT
100
AcDbLine
 62
90
  6
CONTINUOUS
 10
501.4483542674
 20
52.1575038965
 11
501.4483542674
 21
51.709555475
  0
LINE
  5
5D6
100
AcDbEntity
  8
606202915-000-00-ED1_FORMAT
100
AcDbLine
 62
90
  6
CONTINUOUS
 10
501.517446059
 20
58.3268645387
 11
501.517446059
 21
55.9608063702
  0
LINE
  5
5D7
100
AcDbEntity
  8
606202915-000-00-ED1_FORMAT
100
AcDbLine
 62
90
  6
CONTINUOUS
 10
502.2963156283
 20
50.9884480473
 11
502.2963156283
 21
49.2870397913
  0
LINE
  5
5D8
100
AcDbEntity
  8
606202915-000-00-ED1_FORMAT
100
AcDbLine
 62
90
  6
CONTINUOUS
 10
502.8858236398
 20
51.1495808474
 11
502.8858236398
 21
49.3918638494
  0
LINE
  5
5D9
100
AcDbEntity
  8
606202915-000-00-ED1_FORMAT
100
AcDbLine
 62
90
  6
CONTINUOUS
 10
494.8569546256
 20
54.9769197268
 11
494.8524380243
 21
54.7780481294
  0
LINE
  5
5DA
100
AcDbEntity
  8
606202915-000-00-ED1_FORMAT
100
AcDbLine
 62
90
  6
CONTINUOUS
 10
493.6602689262
 20
54.605085954
 11
493.6758328898
 21
54.8334375295
  0
LINE
  5
5DB
100
AcDbEntity
  8
606202915-000-00-ED1_FORMAT
100
AcDbLine
 62
90
  6
CONTINUOUS
 10
494.8524380243
 20
54.7780481294
 11
494.8380947637
 21
54.5885759455
  0
LINE
  5
5DC
100
AcDbEntity
  8
606202915-000-00-ED1_FORMAT
100
AcDbLine
 62
90
  6
CONTINUOUS
 10
493.6450711734
 20
52.9455897736
 11
493.4917203551
 21
52.9019305668
  0
LINE
  5
5DD
100
AcDbEntity
  8
606202915-000-00-ED1_FORMAT
100
AcDbLine
 62
7
  6
CONTINUOUS
 10
438.9013369791
 20
402.5999386419
 11
584.0
 21
402.5999386419
  0
LINE
  5
5DE
100
AcDbEntity
  8
606202915-000-00-ED1_FORMAT
100
AcDbLine
 62
3
  6
CONTINUOUS
 10
405.3013293533
 20
410.0
 11
10.0
 21
410.0
  0
LINE
  5
5DF
100
AcDbEntity
  8
606202915-000-00-ED1_FORMAT
100
AcDbLine
 62
7
  6
CONTINUOUS
 10
405.3013293533
 20
410.0
 11
584.0
 21
410.0
  0
LINE
  5
5E0
100
AcDbEntity
  8
606202915-000-00-ED1_FORMAT
100
AcDbLine
 62
7
  6
CONTINUOUS
 10
589.0
 20
415.0
 11
5.0
 21
415.0
  0
LINE
  5
5E1
100
AcDbEntity
  8
606202915-000-00-ED1_FORMAT
100
AcDbLine
 62
6
  6
HIDDEN
 10
594.0
 20
420.0
 11
-0.0
 21
420.0
  0
LINE
  5
5E2
100
AcDbEntity
  8
606202915-000-00-ED1_FORMAT
100
AcDbLine
 62
7
  6
CONTINUOUS
 10
519.0000059056
 20
13.4999996261
 11
519.0000059056
 21
24.2499984776
  0
LINE
  5
5E3
100
AcDbEntity
  8
606202915-000-00-ED1_FORMAT
100
AcDbLine
 62
90
  6
CONTINUOUS
 10
494.8380947637
 20
54.5885759455
 11
494.8140163964
 21
54.4085565806
  0
LINE
  5
5E4
100
AcDbEntity
  8
606202915-000-00-ED1_FORMAT
100
AcDbLine
 62
90
  6
CONTINUOUS
 10
496.5284938042
 20
55.3982873398
 11
496.2427882597
 21
53.4197680515
  0
LINE
  5
5E5
100
AcDbEntity
  8
606202915-000-00-ED1_FORMAT
100
AcDbLine
 62
90
  6
CONTINUOUS
 10
496.1121425177
 20
52.0335910947
 11
496.0031947722
 21
51.4534748671
  0
LINE
  5
5E6
100
AcDbEntity
  8
606202915-000-00-ED1_FORMAT
100
AcDbLine
 62
90
  6
CONTINUOUS
 10
494.8140163964
 20
54.4085565806
 11
494.7802639576
 21
54.238012923
  0
LINE
  5
5E7
100
AcDbEntity
  8
606202915-000-00-ED1_FORMAT
100
AcDbLine
 62
90
  6
CONTINUOUS
 10
488.4483247451
 20
52.7013690587
 11
488.2212739812
 21
51.6919048721
  0
LINE
  5
5E8
100
AcDbEntity
  8
606202915-000-00-ED1_FORMAT
100
AcDbLine
 62
90
  6
CONTINUOUS
 10
488.9602265614
 20
55.5417657223
 11
488.5569062797
 21
53.7608935137
  0
LINE
  5
5E9
100
AcDbEntity
  8
606202915-000-00-ED1_FORMAT
100
AcDbLine
 62
90
  6
CONTINUOUS
 10
494.5375576774
 20
51.6192921152
 11
495.735738738
 21
56.8851989996
  0
LINE
  5
5EA
100
AcDbEntity
  8
606202915-000-00-ED1_FORMAT
100
AcDbLine
 62
90
  6
CONTINUOUS
 10
493.6160794764
 20
54.4151407476
 11
493.6602689262
 21
54.605085954
  0
LINE
  5
5EB
100
AcDbEntity
  8
606202915-000-00-ED1_FORMAT
100
AcDbLine
 62
90
  6
CONTINUOUS
 10
486.6780001736
 20
51.4975460613
 11
488.1172700829
 21
56.6976112759
  0
LINE
  5
5EC
100
AcDbEntity
  8
606202915-000-00-ED1_FORMAT
100
AcDbLine
 62
90
  6
CONTINUOUS
 10
482.6563940362
 20
50.2336148836
 11
480.8481056004
 21
49.2196875015
  0
LINE
  5
5ED
100
AcDbEntity
  8
606202915-000-00-ED1_FORMAT
100
AcDbLine
 62
90
  6
CONTINUOUS
 10
482.453391122
 20
50.4031743494
 11
480.8541175628
 21
49.5294294517
  0
LINE
  5
5EE
100
AcDbEntity
  8
606202915-000-00-ED1_FORMAT
100
AcDbLine
 62
90
  6
CONTINUOUS
 10
499.1310631851
 20
51.1375912548
 11
491.2765410813
 21
47.4442817536
  0
LINE
  5
5EF
100
AcDbEntity
  8
606202915-000-00-ED1_FORMAT
100
AcDbLine
 62
90
  6
CONTINUOUS
 10
493.9253140719
 20
53.0628688174
 11
493.7896024124
 21
52.999251116
  0
LINE
  5
5F0
100
AcDbEntity
  8
606202915-000-00-ED1_FORMAT
100
AcDbLine
 62
90
  6
CONTINUOUS
 10
480.253836847
 20
59.0461332824
 11
480.8380042828
 21
59.3176824865
  0
LINE
  5
5F1
100
AcDbEntity
  8
606202915-000-00-ED1_FORMAT
100
AcDbLine
 62
3
  6
CONTINUOUS
 10
476.0615586419
 20
54.234993065
 11
480.253836847
 21
56.14747605
  0
LINE
  5
5F2
100
AcDbEntity
  8
606202915-000-00-ED1_FORMAT
100
AcDbLine
 62
3
  6
CONTINUOUS
 10
483.0000235006
 20
57.4002639118
 11
491.2765410813
 21
61.1759434526
  0
LINE
  5
5F3
100
AcDbEntity
  8
606202915-000-00-ED1_FORMAT
100
AcDbLine
 62
90
  6
CONTINUOUS
 10
483.1899328137
 20
56.8570312772
 11
491.2765410813
 21
60.5323010764
  0
LINE
  5
5F4
100
AcDbEntity
  8
606202915-000-00-ED1_FORMAT
100
AcDbLine
 62
90
  6
CONTINUOUS
 10
477.3505472744
 20
54.2349993124
 11
480.253836847
 21
55.5478196464
  0
LINE
  5
5F5
100
AcDbEntity
  8
606202915-000-00-ED1_FORMAT
100
AcDbLine
 62
90
  6
CONTINUOUS
 10
499.1310631851
 20
58.2890494476
 11
501.0021873094
 21
59.059797527
  0
LINE
  5
5F6
100
AcDbEntity
  8
606202915-000-00-ED1_FORMAT
100
AcDbLine
 62
90
  6
CONTINUOUS
 10
493.1567899608
 20
53.9852167692
 11
493.3136503004
 21
54.0486399211
  0
LINE
  5
5F7
100
AcDbEntity
  8
606202915-000-00-ED1_FORMAT
100
AcDbLine
 62
90
  6
CONTINUOUS
 10
499.407247246
 20
58.1349852809
 11
500.9321799905
 21
58.7495672956
  0
LINE
  5
5F8
100
AcDbEntity
  8
606202915-000-00-ED1_FORMAT
100
AcDbLine
 62
90
  6
CONTINUOUS
 10
493.7896024124
 20
52.999251116
 11
493.6450711734
 21
52.9455897736
  0
LINE
  5
5F9
100
AcDbEntity
  8
606202915-000-00-ED1_FORMAT
100
AcDbLine
 62
7
  6
CONTINUOUS
 10
540.0000047006
 20
34.9999973292
 11
540.0000086534
 21
72.499993323
  0
LINE
  5
5FA
100
AcDbEntity
  8
606202915-000-00-ED1_FORMAT
100
AcDbLine
 62
3
  6
CONTINUOUS
 10
547.0
 20
415.0
 11
547.0
 21
410.0
  0
LINE
  5
5FB
100
AcDbEntity
  8
606202915-000-00-ED1_FORMAT
100
AcDbLine
 62
3
  6
CONTINUOUS
 10
547.0
 20
10.0598861881
 11
547.0
 21
5.0598861881
  0
LINE
  5
5FC
100
AcDbEntity
  8
606202915-000-00-ED1_FORMAT
100
AcDbLine
 62
90
  6
CONTINUOUS
 10
494.7802639576
 20
54.238012923
 11
494.7368984824
 21
54.0769945637
  0
LINE
  5
5FD
100
AcDbEntity
  8
606202915-000-00-ED1_FORMAT
100
AcDbLine
 62
90
  6
CONTINUOUS
 10
494.7368984824
 20
54.0769945637
 11
494.683981006
 21
53.9255358351
  0
LINE
  5
5FE
100
AcDbEntity
  8
606202915-000-00-ED1_FORMAT
100
AcDbLine
 62
90
  6
CONTINUOUS
 10
484.7759922626
 20
53.7835337403
 11
483.6609410784
 21
51.161948095
  0
LINE
  5
5FF
100
AcDbEntity
  8
606202915-000-00-ED1_FORMAT
100
AcDbLine
 62
90
  6
CONTINUOUS
 10
494.683981006
 20
53.9255358351
 11
494.6215725635
 21
53.7836825134
  0
LINE
  5
600
100
AcDbEntity
  8
606202915-000-00-ED1_FORMAT
100
AcDbLine
 62
90
  6
CONTINUOUS
 10
493.543447646
 20
54.2608896607
 11
493.6160794764
 21
54.4151407476
  0
LINE
  5
601
100
AcDbEntity
  8
606202915-000-00-ED1_FORMAT
100
AcDbLine
 62
90
  6
CONTINUOUS
 10
494.6215725635
 20
53.7836825134
 11
494.5497647077
 21
53.651468931
  0
LINE
  5
602
100
AcDbEntity
  8
606202915-000-00-ED1_FORMAT
100
AcDbLine
 62
90
  6
CONTINUOUS
 10
494.5497647077
 20
53.651468931
 11
494.4686184736
 21
53.5289370495
  0
LINE
  5
603
100
AcDbEntity
  8
606202915-000-00-ED1_FORMAT
100
AcDbLine
 62
90
  6
CONTINUOUS
 10
483.5429601304
 20
55.0142656101
 11
485.0026157804
 21
57.1580375713
  0
LINE
  5
604
100
AcDbEntity
  8
606202915-000-00-ED1_FORMAT
100
AcDbLine
 62
90
  6
CONTINUOUS
 10
493.4425870581
 20
54.1396242586
 11
493.543447646
 21
54.2608896607
  0
LINE
  5
605
100
AcDbEntity
  8
606202915-000-00-ED1_FORMAT
100
AcDbLine
 62
90
  6
CONTINUOUS
 10
494.3782254142
 20
53.4161250159
 11
494.2786160468
 21
53.3130709772
  0
LINE
  5
606
100
AcDbEntity
  8
606202915-000-00-ED1_FORMAT
100
AcDbLine
 62
90
  6
CONTINUOUS
 10
494.2786160468
 20
53.3130709772
 11
494.1698819243
 21
53.219816895
  0
LINE
  5
607
100
AcDbEntity
  8
606202915-000-00-ED1_FORMAT
100
AcDbLine
 62
90
  6
CONTINUOUS
 10
494.1698819243
 20
53.219816895
 11
494.0520840817
 21
53.136404731
  0
LINE
  5
608
100
AcDbEntity
  8
606202915-000-00-ED1_FORMAT
100
AcDbLine
 62
90
  6
CONTINUOUS
 10
493.3136503004
 20
54.0486399211
 11
493.4425870581
 21
54.1396242586
  0
LINE
  5
609
100
AcDbEntity
  8
606202915-000-00-ED1_FORMAT
100
AcDbLine
 62
90
  6
CONTINUOUS
 10
494.0520840817
 20
53.136404731
 11
493.9253140719
 21
53.0628688174
  0
LINE
  5
60A
100
AcDbEntity
  8
606202915-000-00-ED1_FORMAT
100
AcDbLine
 62
90
  6
CONTINUOUS
 10
505.7164813821
 20
54.2349993124
 11
501.4483542674
 21
52.1575038965
  0
LINE
  5
60B
100
AcDbEntity
  8
606202915-000-00-ED1_FORMAT
100
AcDbLine
 62
3
  6
CONTINUOUS
 10
499.2098595658
 20
50.563570913
 11
491.2765410813
 21
46.7702743895
  0
LINE
  5
60C
100
AcDbEntity
  8
606202915-000-00-ED1_FORMAT
100
AcDbLine
 62
3
  6
CONTINUOUS
 10
506.8883257748
 20
54.2349993124
 11
501.535573499
 21
51.6755932278
  0
LINE
  5
60D
100
AcDbEntity
  8
606202915-000-00-ED1_FORMAT
100
AcDbLine
 62
7
  6
CONTINUOUS
 10
550.8994475362
 20
40.954677693
 11
550.8994475362
 21
64.9999941242
  0
LINE
  5
60E
100
AcDbEntity
  8
606202915-000-00-ED1_FORMAT
100
AcDbLine
 62
7
  6
CONTINUOUS
 10
550.8999983984
 20
347.999997
 11
550.8999983984
 21
410.0
  0
LINE
  5
60F
100
AcDbEntity
  8
606202915-000-00-ED1_FORMAT
100
AcDbLine
 62
7
  6
CONTINUOUS
 10
551.7325424472
 20
13.4999996261
 11
551.7325424472
 21
10.0
  0
LINE
  5
610
100
AcDbEntity
  8
606202915-000-00-ED1_FORMAT
100
AcDbLine
 62
7
  6
CONTINUOUS
 10
565.8994459337
 20
64.9999941242
 11
565.8994459337
 21
34.9999973292
  0
LINE
  5
611
100
AcDbEntity
  8
606202915-000-00-ED1_FORMAT
100
AcDbLine
 62
7
  6
CONTINUOUS
 10
565.8999991242
 20
347.999997
 11
565.8999991242
 21
410.0
  0
LINE
  5
612
100
AcDbEntity
  8
606202915-000-00-ED1_FORMAT
100
AcDbLine
 62
90
  6
CONTINUOUS
 10
494.4686184736
 20
53.5289370495
 11
494.3782254142
 21
53.4161250159
  0
LINE
  5
613
100
AcDbEntity
  8
606202915-000-00-ED1_FORMAT
100
AcDbLine
 62
90
  6
CONTINUOUS
 10
502.8858236398
 20
49.3918638494
 11
502.3335165532
 21
48.9736548055
  0
LINE
  5
614
100
AcDbEntity
  8
606202915-000-00-ED1_FORMAT
100
AcDbLine
 62
7
  6
CONTINUOUS
 10
573.999961602
 20
13.4999996261
 11
573.999961602
 21
34.9999973292
  0
LINE
  5
615
100
AcDbEntity
  8
606202915-000-00-ED1_FORMAT
100
AcDbLine
 62
7
  6
CONTINUOUS
 10
584.0
 20
10.0
 11
584.0
 21
72.499993323
  0
LINE
  5
616
100
AcDbEntity
  8
606202915-000-00-ED1_FORMAT
100
AcDbLine
 62
3
  6
CONTINUOUS
 10
584.0
 20
72.499993323
 11
584.0
 21
347.999997
  0
LINE
  5
617
100
AcDbEntity
  8
606202915-000-00-ED1_FORMAT
100
AcDbLine
 62
7
  6
CONTINUOUS
 10
584.0
 20
347.999997
 11
584.0
 21
410.0
  0
LINE
  5
618
100
AcDbEntity
  8
606202915-000-00-ED1_FORMAT
100
AcDbLine
 62
7
  6
CONTINUOUS
 10
589.0
 20
5.0
 11
589.0
 21
415.0
  0
LINE
  5
619
100
AcDbEntity
  8
606202915-000-00-ED1_FORMAT
100
AcDbLine
 62
6
  6
HIDDEN
 10
594.0
 20
0.0
 11
594.0
 21
420.0
  0
LINE
  5
61A
100
AcDbEntity
  8
10083256_CL
100
AcDbLine
 62
7
  6
CONTINUOUS
 10
233.9441805271
 20
218.7513943056
 11
233.9441805271
 21
196.6562076094
  0
LINE
  5
61B
100
AcDbEntity
  8
10083256_CL
100
AcDbLine
 62
7
  6
CONTINUOUS
 10
233.9441805271
 20
241.7713943056
 11
233.9441805271
 21
263.8665882532
  0
LINE
  5
61C
100
AcDbEntity
  8
10083256_CL
100
AcDbLine
 62
7
  6
CONTINUOUS
 10
235.4441805271
 20
220.2513943056
 11
235.4441805271
 21
215.3227000193
  0
LINE
  5
61D
100
AcDbEntity
  8
10083256_HL
100
AcDbLine
 62
6
  6
HIDDEN
 10
235.4441805271
 20
203.7613943056
 11
235.4441805271
 21
215.3227000193
  0
LINE
  5
61E
100
AcDbEntity
  8
10083256_CL
100
AcDbLine
 62
7
  6
CONTINUOUS
 10
235.4441805271
 20
240.2713943056
 11
235.4441805271
 21
245.200088592
  0
LINE
  5
61F
100
AcDbEntity
  8
10083256_HL
100
AcDbLine
 62
6
  6
HIDDEN
 10
235.4441805271
 20
245.200088592
 11
235.4441805271
 21
256.7613943056
  0
LINE
  5
620
100
AcDbEntity
  8
10083256_CL
100
AcDbLine
 62
9
  6
CONTINUOUS
 10
235.8441056431
 20
265.8640829385
 11
235.8441056431
 21
245.3530392008
  0
LINE
  5
621
100
AcDbEntity
  8
10083256_CL
100
AcDbLine
 62
9
  6
CONTINUOUS
 10
235.8441056431
 20
215.1697494104
 11
235.8441056431
 21
194.6587056728
  0
LINE
  5
622
100
AcDbEntity
  8
10083256_CL
100
AcDbLine
 62
9
  6
CONTINUOUS
 10
241.9441805271
 20
220.2513943056
 11
241.9441805271
 21
214.1652139702
  0
LINE
  5
623
100
AcDbEntity
  8
10083256_CL
100
AcDbLine
 62
9
  6
CONTINUOUS
 10
241.9441805271
 20
240.2713943056
 11
241.9441805271
 21
246.3575746411
  0
LINE
  5
624
100
AcDbEntity
  8
10083256_CL
100
AcDbLine
 62
7
  6
CONTINUOUS
 10
243.9441805271
 20
242.6912759678
 11
243.9441805271
 21
217.8315126435
  0
LINE
  5
625
100
AcDbEntity
  8
10083256_CL
100
AcDbLine
 62
9
  6
CONTINUOUS
 10
246.9441805271
 20
220.2513943056
 11
246.9441805271
 21
211.1548114333
  0
LINE
  5
626
100
AcDbEntity
  8
10083256_CL
100
AcDbLine
 62
9
  6
CONTINUOUS
 10
246.9441805271
 20
240.2713943056
 11
246.9441805271
 21
249.367977178
  0
LINE
  5
627
100
AcDbEntity
  8
10083256_HL
100
AcDbLine
 62
6
  6
HIDDEN
 10
248.9441805271
 20
217.46184424
 11
248.9441805271
 21
243.0609443713
  0
LINE
  5
628
100
AcDbEntity
  8
10083256_HL
100
AcDbLine
 62
6
  6
HIDDEN
 10
253.8408048542
 20
256.7613943056
 11
256.4388810655
 21
261.2613943056
  0
LINE
  5
629
100
AcDbEntity
  8
10083256_CL
100
AcDbLine
 62
7
  6
CONTINUOUS
 10
284.0441805271
 20
180.2613943056
 11
288.7341790571
 21
180.2613943056
  0
LINE
  5
62A
100
AcDbEntity
  8
10083256_HL
100
AcDbLine
 62
6
  6
HIDDEN
 10
288.7341790571
 20
180.2613943056
 11
288.7361069655
 21
180.2613943056
  0
LINE
  5
62B
100
AcDbEntity
  8
10083256_HL
100
AcDbLine
 62
6
  6
HIDDEN
 10
295.9522540759
 20
180.2613943056
 11
295.9541819971
 21
180.2613943056
  0
LINE
  5
62C
100
AcDbEntity
  8
10083256_CL
100
AcDbLine
 62
7
  6
CONTINUOUS
 10
295.9541819971
 20
180.2613943056
 11
300.5965852629
 21
180.2613943056
  0
LINE
  5
62D
100
AcDbEntity
  8
10083256_CL
100
AcDbLine
 62
7
  6
CONTINUOUS
 10
307.0917757913
 20
180.2613943056
 11
312.7941805271
 21
180.2613943056
  0
LINE
  5
62E
100
AcDbEntity
  8
10083256_HL
100
AcDbLine
 62
6
  6
HIDDEN
 10
253.8408048542
 20
203.7613943056
 11
256.4388810655
 21
199.2613943056
  0
LINE
  5
62F
100
AcDbEntity
  8
10083256_HL
100
AcDbLine
 62
6
  6
HIDDEN
 10
253.8408048542
 20
256.7613943056
 11
253.8408048542
 21
203.7613943056
  0
LINE
  5
630
100
AcDbEntity
  8
10083256_CL
100
AcDbLine
 62
9
  6
CONTINUOUS
 10
256.4388810655
 20
199.2613943056
 11
256.4388810655
 21
261.2613943056
  0
LINE
  5
631
100
AcDbEntity
  8
10083256_CL
100
AcDbLine
 62
9
  6
CONTINUOUS
 10
257.3049064693
 20
198.7613943056
 11
257.3049064693
 21
261.7613943056
  0
LINE
  5
632
100
AcDbEntity
  8
10083256_CL
100
AcDbLine
 62
7
  6
CONTINUOUS
 10
283.8441805271
 20
280.0613943056
 11
284.0441805271
 21
280.2613943056
  0
LINE
  5
633
100
AcDbEntity
  8
10083256_HL
100
AcDbLine
 62
6
  6
HIDDEN
 10
292.3341805271
 20
183.8613943056
 11
292.3541805271
 21
183.8613943056
  0
LINE
  5
634
100
AcDbEntity
  8
10083256_CL
100
AcDbLine
 62
7
  6
CONTINUOUS
 10
304.9691805271
 20
184.2613943056
 11
302.7191805271
 21
184.2613943056
  0
LINE
  5
635
100
AcDbEntity
  8
10083256_CL
100
AcDbLine
 62
7
  6
CONTINUOUS
 10
283.8441805271
 20
180.4613943056
 11
284.0441805271
 21
180.2613943056
  0
LINE
  5
636
100
AcDbEntity
  8
10083256_CL
100
AcDbLine
 62
7
  6
CONTINUOUS
 10
233.9441805271
 20
218.7513943056
 11
235.4441805271
 21
220.2513943056
  0
LINE
  5
637
100
AcDbEntity
  8
10083256_HL
100
AcDbLine
 62
6
  6
HIDDEN
 10
296.3441805271
 20
280.2613943056
 11
295.8441805271
 21
279.7613943056
  0
LINE
  5
638
100
AcDbEntity
  8
10083256_HL
100
AcDbLine
 62
6
  6
HIDDEN
 10
291.4441805271
 20
275.3613943056
 11
290.8441805271
 21
274.7613943056
  0
LINE
  5
639
100
AcDbEntity
  8
10083256_CL
100
AcDbLine
 62
7
  6
CONTINUOUS
 10
289.1572826679
 20
191.4316376749
 11
300.5965852629
 21
191.4316376749
  0
LINE
  5
63A
100
AcDbEntity
  8
10083256_CL
100
AcDbLine
 62
7
  6
CONTINUOUS
 10
307.0917757913
 20
191.4316376749
 11
312.7941805271
 21
191.4316376749
  0
LINE
  5
63B
100
AcDbEntity
  8
10083256_CL
100
AcDbLine
 62
7
  6
CONTINUOUS
 10
235.8441056431
 20
194.6587056728
 11
281.3441805271
 21
192.3791428026
  0
LINE
  5
63C
100
AcDbEntity
  8
10083256_CL
100
AcDbLine
 62
7
  6
CONTINUOUS
 10
235.4441805271
 20
240.2713943056
 11
233.9441805271
 21
241.7713943056
  0
LINE
  5
63D
100
AcDbEntity
  8
10083256_HL
100
AcDbLine
 62
6
  6
HIDDEN
 10
295.9540508377
 20
180.2615239951
 11
292.3541805271
 21
183.8613943056
  0
LINE
  5
63E
100
AcDbEntity
  8
10083314_CL
100
AcDbLine
 62
7
  6
CONTINUOUS
 10
268.0601799691
 20
236.2096777816
 11
268.0601799691
 21
224.3131108296
  0
LINE
  5
63F
100
AcDbEntity
  8
10083314_HL
100
AcDbLine
 62
6
  6
HIDDEN
 10
268.0601799691
 20
224.3131108296
 11
268.0601799691
 21
223.9977321507
  0
LINE
  5
640
100
AcDbEntity
  8
10083314_HL
100
AcDbLine
 62
6
  6
HIDDEN
 10
268.0601799691
 20
236.2096777816
 11
268.0601799691
 21
236.5250564605
  0
LINE
  5
641
100
AcDbEntity
  8
10083256_HL
100
AcDbLine
 62
6
  6
HIDDEN
 10
295.8441805271
 20
275.6613943056
 11
295.5441805271
 21
275.3613943056
  0
LINE
  5
642
100
AcDbEntity
  8
10083256_CL
100
AcDbLine
 62
7
  6
CONTINUOUS
 10
282.2222431862
 20
192.5791428026
 11
282.9441805271
 21
192.5791428026
  0
LINE
  5
643
100
AcDbEntity
  8
10083256_CL
100
AcDbLine
 62
7
  6
CONTINUOUS
 10
304.9691805271
 20
196.7390137219
 11
302.7191805271
 21
196.7390137219
  0
LINE
  5
644
100
AcDbEntity
  8
10083314_HL
100
AcDbLine
 62
6
  6
HIDDEN
 10
269.0441805271
 20
236.2613943056
 11
269.0441805271
 21
224.2613943056
  0
LINE
  5
645
100
AcDbEntity
  8
10083314_CL
100
AcDbLine
 62
9
  6
CONTINUOUS
 10
269.1559519595
 20
222.7673436255
 11
269.1559519595
 21
237.7554449858
  0
LINE
  5
646
100
AcDbEntity
  8
10083314_CL
100
AcDbLine
 62
9
  6
CONTINUOUS
 10
270.6626808846
 20
222.3636168268
 11
270.6626808846
 21
238.1591717845
  0
LINE
  5
647
100
AcDbEntity
  8
10083314_CL
100
AcDbLine
 62
9
  6
CONTINUOUS
 10
271.4391380199
 20
222.2613943056
 11
271.4391380199
 21
238.2613943056
  0
LINE
  5
648
100
AcDbEntity
  8
10083256_CL
100
AcDbLine
 62
9
  6
CONTINUOUS
 10
274.0973861823
 20
227.3624582345
 11
274.0973861823
 21
198.7613943056
  0
LINE
  5
649
100
AcDbEntity
  8
10083256_CL
100
AcDbLine
 62
9
  6
CONTINUOUS
 10
274.0973861823
 20
233.1603303767
 11
274.0973861823
 21
261.7613943056
  0
LINE
  5
64A
100
AcDbEntity
  8
10083256_CL
100
AcDbLine
 62
7
  6
CONTINUOUS
 10
281.3441805271
 20
192.3791428026
 11
281.9634241411
 21
192.5450686289
  0
LINE
  5
64B
100
AcDbEntity
  8
10083256_HL
100
AcDbLine
 62
6
  6
HIDDEN
 10
257.3049064693
 20
198.7613943056
 11
274.0973861823
 21
198.7613943056
  0
LINE
  5
64C
100
AcDbEntity
  8
10083256_CL
100
AcDbLine
 62
7
  6
CONTINUOUS
 10
298.7941805271
 20
198.7613943056
 11
312.7941805271
 21
198.7613943056
  0
LINE
  5
64D
100
AcDbEntity
  8
10083256_HL
100
AcDbLine
 62
6
  6
HIDDEN
 10
235.4441805271
 20
203.7613943056
 11
253.8408048542
 21
203.7613943056
  0
LINE
  5
64E
100
AcDbEntity
  8
10083256_HL
100
AcDbLine
 62
6
  6
HIDDEN
 10
283.8441805271
 20
203.7613943056
 11
293.1441805271
 21
203.7613943056
  0
LINE
  5
64F
100
AcDbEntity
  8
10083256_CL
100
AcDbLine
 62
7
  6
CONTINUOUS
 10
281.3441805271
 20
192.3791428026
 11
281.3441805271
 21
268.1436458087
  0
LINE
  5
650
100
AcDbEntity
  8
10083256_CL
100
AcDbLine
 62
9
  6
CONTINUOUS
 10
281.9634241411
 20
267.9777199824
 11
281.9634241411
 21
192.5450686289
  0
LINE
  5
651
100
AcDbEntity
  8
10083256_CL
100
AcDbLine
 62
9
  6
CONTINUOUS
 10
282.2222431862
 20
267.9436458087
 11
282.2222431862
 21
192.5791428026
  0
LINE
  5
652
100
AcDbEntity
  8
10083256_CL
100
AcDbLine
 62
9
  6
CONTINUOUS
 10
282.9441805271
 20
267.9436458087
 11
282.9441805271
 21
192.5791428026
  0
LINE
  5
653
100
AcDbEntity
  8
10083314_HL
100
AcDbLine
 62
6
  6
HIDDEN
 10
283.0441805271
 20
236.2613943056
 11
283.0441805271
 21
224.2613943056
  0
LINE
  5
654
100
AcDbEntity
  8
10083256_CL
100
AcDbLine
 62
7
  6
CONTINUOUS
 10
283.8441805271
 20
180.4613961175
 11
283.8441805271
 21
280.0613924937
  0
LINE
  5
655
100
AcDbEntity
  8
10083256_CL
100
AcDbLine
 62
9
  6
CONTINUOUS
 10
283.9344485959
 20
191.4399697016
 11
283.9344485959
 21
269.0828189096
  0
LINE
  5
656
100
AcDbEntity
  8
10083256_HL
100
AcDbLine
 62
6
  6
HIDDEN
 10
283.9441805271
 20
268.937621181
 11
283.9441805271
 21
191.5851674303
  0
LINE
  5
657
100
AcDbEntity
  8
10083256_CL
100
AcDbLine
 62
7
  6
CONTINUOUS
 10
284.0441805271
 20
180.2613943056
 11
284.0441805271
 21
280.2613943056
  0
LINE
  5
658
100
AcDbEntity
  8
10083256_CL
100
AcDbLine
 62
7
  6
CONTINUOUS
 10
307.0917757913
 20
280.2613943056
 11
305.7191805271
 21
277.8839895698
  0
LINE
  5
659
100
AcDbEntity
  8
10083256_CL
100
AcDbLine
 62
9
  6
CONTINUOUS
 10
246.9441805271
 20
213.1559206669
 11
244.5047847255
 21
213.1559206669
  0
LINE
  5
65A
100
AcDbEntity
  8
10083256_CL
100
AcDbLine
 62
7
  6
CONTINUOUS
 10
307.0917757913
 20
180.2613943056
 11
305.7191805271
 21
182.6387990414
  0
LINE
  5
65B
100
AcDbEntity
  8
10083256_HL
100
AcDbLine
 62
6
  6
HIDDEN
 10
285.8441805271
 20
279.7613943056
 11
285.8441805271
 21
275.6613943056
  0
LINE
  5
65C
100
AcDbEntity
  8
10083314_HL
100
AcDbLine
 62
6
  6
HIDDEN
 10
287.3743075461
 20
233.7613943056
 11
287.3743075461
 21
226.7613943056
  0
LINE
  5
65D
100
AcDbEntity
  8
10083256_HL
100
AcDbLine
 62
6
  6
HIDDEN
 10
288.7941805271
 20
231.2613943056
 11
288.7941805271
 21
229.2613943056
  0
LINE
  5
65E
100
AcDbEntity
  8
10083256_HL
100
AcDbLine
 62
6
  6
HIDDEN
 10
283.8441805271
 20
190.7976790184
 11
283.9344485959
 21
191.4399697016
  0
LINE
  5
65F
100
AcDbEntity
  8
10083256_CL
100
AcDbLine
 62
7
  6
CONTINUOUS
 10
331.3441805271
 20
216.8100802997
 11
367.9226396229
 21
219.6888674636
  0
LINE
  5
660
100
AcDbEntity
  8
10083256_CL
100
AcDbLine
 62
7
  6
CONTINUOUS
 10
322.7941805271
 20
216.7613943056
 11
323.3441805271
 21
216.7613943056
  0
LINE
  5
661
100
AcDbEntity
  8
10083256_CL
100
AcDbLine
 62
7
  6
CONTINUOUS
 10
323.3441805271
 20
216.8613943056
 11
324.0040389008
 21
216.8613943056
  0
LINE
  5
662
100
AcDbEntity
  8
10083256_HL
100
AcDbLine
 62
6
  6
HIDDEN
 10
324.0040389008
 20
216.8613943056
 11
324.0056447155
 21
216.8613943056
  0
LINE
  5
663
100
AcDbEntity
  8
10083256_HL
100
AcDbLine
 62
6
  6
HIDDEN
 10
330.6827163388
 20
216.8613943056
 11
330.6843221535
 21
216.8613943056
  0
LINE
  5
664
100
AcDbEntity
  8
10083256_CL
100
AcDbLine
 62
7
  6
CONTINUOUS
 10
330.6843221535
 20
216.8613943056
 11
331.3441805271
 21
216.8613943056
  0
LINE
  5
665
100
AcDbEntity
  8
10083256_HL
100
AcDbLine
 62
6
  6
HIDDEN
 10
330.3441805271
 20
217.2015321318
 11
324.3441805271
 21
217.2015321318
  0
LINE
  5
666
100
AcDbEntity
  8
10083256_HL
100
AcDbLine
 62
6
  6
HIDDEN
 10
312.3441805271
 20
217.2613943056
 11
306.7441805271
 21
217.2613943056
  0
LINE
  5
667
100
AcDbEntity
  8
10083256_HL
100
AcDbLine
 62
6
  6
HIDDEN
 10
329.8441805271
 20
217.7015321318
 11
324.8441805271
 21
217.7015321318
  0
LINE
  5
668
100
AcDbEntity
  8
10083256_HL
100
AcDbLine
 62
6
  6
HIDDEN
 10
306.7441805271
 20
218.2613943056
 11
296.3441805271
 21
218.2613943056
  0
LINE
  5
669
100
AcDbEntity
  8
MN5218-50_HL
100
AcDbLine
 62
6
  6
HIDDEN
 10
300.0441805271
 20
218.2613943056
 11
311.3441805271
 21
218.2613943056
  0
LINE
  5
66A
100
AcDbEntity
  8
MN5218-50_HL
100
AcDbLine
 62
6
  6
HIDDEN
 10
297.9441805271
 20
218.3619195273
 11
300.0441805271
 21
218.3619195273
  0
LINE
  5
66B
100
AcDbEntity
  8
10083256_HL
100
AcDbLine
 62
6
  6
HIDDEN
 10
306.7441805271
 20
219.0113943056
 11
296.3441805271
 21
219.0113943056
  0
LINE
  5
66C
100
AcDbEntity
  8
MN5218-50_HL
100
AcDbLine
 62
6
  6
HIDDEN
 10
312.2643555271
 20
219.1815693056
 11
300.0441805271
 21
219.1815693056
  0
LINE
  5
66D
100
AcDbEntity
  8
10083256_HL
100
AcDbLine
 62
6
  6
HIDDEN
 10
298.7941805271
 20
219.2613943056
 11
312.7941805271
 21
219.2613943056
  0
LINE
  5
66E
100
AcDbEntity
  8
MN5218-50_HL
100
AcDbLine
 62
6
  6
HIDDEN
 10
300.0441805271
 20
219.2905227801
 11
297.0240055271
 21
219.2905227801
  0
LINE
  5
66F
100
AcDbEntity
  8
10083314_HL
100
AcDbLine
 62
6
  6
HIDDEN
 10
270.6626808846
 20
222.3636168268
 11
269.1559519595
 21
222.7673436255
  0
LINE
  5
670
100
AcDbEntity
  8
10083256_HL
100
AcDbLine
 62
6
  6
HIDDEN
 10
283.8441805271
 20
269.7251095929
 11
283.9344485959
 21
269.0828189096
  0
LINE
  5
671
100
AcDbEntity
  8
10083256_HL
100
AcDbLine
 62
6
  6
HIDDEN
 10
293.1441805271
 20
256.7613943056
 11
293.1441805271
 21
203.7613943056
  0
LINE
  5
672
100
AcDbEntity
  8
10083314_HL
100
AcDbLine
 62
6
  6
HIDDEN
 10
294.7312640147
 20
238.2613943056
 11
294.7312640147
 21
222.2613943056
  0
LINE
  5
673
100
AcDbEntity
  8
10083196_HL
100
AcDbLine
 62
6
  6
HIDDEN
 10
294.8441805271
 20
234.3613943056
 11
294.8441805271
 21
226.1613943056
  0
LINE
  5
674
100
AcDbEntity
  8
10083314_HL
100
AcDbLine
 62
6
  6
HIDDEN
 10
294.8441805271
 20
225.6113999667
 11
294.8441805271
 21
234.9113886446
  0
LINE
  5
675
100
AcDbEntity
  8
10083196_CL
100
AcDbLine
 62
9
  6
CONTINUOUS
 10
295.2441805271
 20
234.7613943056
 11
295.2441805271
 21
225.7613943056
  0
LINE
  5
676
100
AcDbEntity
  8
10083256_HL
100
AcDbLine
 62
6
  6
HIDDEN
 10
295.8441805271
 20
279.7613943056
 11
295.8441805271
 21
275.6613943056
  0
LINE
  5
677
100
AcDbEntity
  8
10083314_HL
100
AcDbLine
 62
6
  6
HIDDEN
 10
295.9441805271
 20
237.9363943056
 11
295.9441805271
 21
222.5863943056
  0
LINE
  5
678
100
AcDbEntity
  8
10083256_HL
100
AcDbLine
 62
6
  6
HIDDEN
 10
296.3441805271
 20
255.1613943056
 11
296.3441805271
 21
205.3613943056
  0
LINE
  5
679
100
AcDbEntity
  8
10083256_HL
100
AcDbLine
 62
6
  6
HIDDEN
 10
235.4441805271
 20
203.7613943056
 11
233.9441805271
 21
202.8953689018
  0
LINE
  5
67A
100
AcDbEntity
  8
10083314_HL
100
AcDbLine
 62
6
  6
HIDDEN
 10
295.9441805271
 20
222.5863943056
 11
294.7312640147
 21
222.2613943056
  0
LINE
  5
67B
100
AcDbEntity
  8
MN5218-50_HL
100
AcDbLine
 62
6
  6
HIDDEN
 10
304.2941805271
 20
219.9363943056
 11
312.3441805271
 21
219.9363943056
  0
LINE
  5
67C
100
AcDbEntity
  8
10083196_HL
100
AcDbLine
 62
6
  6
HIDDEN
 10
309.8441805271
 20
219.9613943056
 11
311.9441805271
 21
219.9613943056
  0
LINE
  5
67D
100
AcDbEntity
  8
10083256_HL
100
AcDbLine
 62
6
  6
HIDDEN
 10
246.9441805271
 20
220.2513943056
 11
241.9441805271
 21
220.2513943056
  0
LINE
  5
67E
100
AcDbEntity
  8
10083256_CL
100
AcDbLine
 62
7
  6
CONTINUOUS
 10
235.4441805271
 20
220.2513943056
 11
241.9441805271
 21
220.2513943056
  0
LINE
  5
67F
100
AcDbEntity
  8
10083256_CL
100
AcDbLine
 62
7
  6
CONTINUOUS
 10
298.7941805271
 20
220.2613943056
 11
312.7941805271
 21
220.2613943056
  0
LINE
  5
680
100
AcDbEntity
  8
10083256_HL
100
AcDbLine
 62
6
  6
HIDDEN
 10
330.3441805271
 20
221.2015321318
 11
324.3441805271
 21
221.2015321318
  0
LINE
  5
681
100
AcDbEntity
  8
MN5218-50_HL
100
AcDbLine
 62
6
  6
HIDDEN
 10
300.0441805271
 20
222.0613943056
 11
304.2941805271
 21
222.0613943056
  0
LINE
  5
682
100
AcDbEntity
  8
MN5218-50_HL
100
AcDbLine
 62
6
  6
HIDDEN
 10
296.9441805271
 20
222.209220686
 11
300.0441805271
 21
222.209220686
  0
LINE
  5
683
100
AcDbEntity
  8
10083314_HL
100
AcDbLine
 62
6
  6
HIDDEN
 10
294.7312640147
 20
222.2613943056
 11
271.4391380199
 21
222.2613943056
  0
LINE
  5
684
100
AcDbEntity
  8
10083314_HL
100
AcDbLine
 62
6
  6
HIDDEN
 10
306.6441805271
 20
222.5863943056
 11
295.9441805271
 21
222.5863943056
  0
LINE
  5
685
100
AcDbEntity
  8
10083256_HL
100
AcDbLine
 62
6
  6
HIDDEN
 10
329.8441805271
 20
222.7015321318
 11
324.8441805271
 21
222.7015321318
  0
LINE
  5
686
100
AcDbEntity
  8
10083314_HL
100
AcDbLine
 62
6
  6
HIDDEN
 10
269.0441805271
 20
224.2613943056
 11
283.0441805271
 21
224.2613943056
  0
LINE
  5
687
100
AcDbEntity
  8
10083196_HL
100
AcDbLine
 62
6
  6
HIDDEN
 10
312.3441805271
 20
224.2613943056
 11
313.9441805271
 21
224.2613943056
  0
LINE
  5
688
100
AcDbEntity
  8
10083256_HL
100
AcDbLine
 62
6
  6
HIDDEN
 10
312.8441805271
 20
224.2613943056
 11
318.3433199081
 21
224.2613943056
  0
LINE
  5
689
100
AcDbEntity
  8
10083256_HL
100
AcDbLine
 62
6
  6
HIDDEN
 10
339.2441805271
 20
225.0613943056
 11
342.4441805271
 21
225.0613943056
  0
LINE
  5
68A
100
AcDbEntity
  8
10083384_HP_HL
100
AcDbLine
 62
6
  6
HIDDEN
 10
322.3441805271
 20
225.2613943056
 11
316.9441805271
 21
225.2613943056
  0
LINE
  5
68B
100
AcDbEntity
  8
10083256_HL
100
AcDbLine
 62
6
  6
HIDDEN
 10
318.9441805271
 20
225.2613943056
 11
338.8977703656
 21
225.2613943056
  0
LINE
  5
68C
100
AcDbEntity
  8
10083256_HL
100
AcDbLine
 62
6
  6
HIDDEN
 10
235.4441805271
 20
256.7613943056
 11
233.9441805271
 21
257.6274197094
  0
LINE
  5
68D
100
AcDbEntity
  8
MN5218-50_HL
100
AcDbLine
 62
6
  6
HIDDEN
 10
296.9441805271
 20
219.3711463746
 11
296.9441805271
 21
241.1516422367
  0
LINE
  5
68E
100
AcDbEntity
  8
MN5218-50_HL
100
AcDbLine
 62
6
  6
HIDDEN
 10
297.0240055271
 20
241.2322658312
 11
297.0240055271
 21
219.290522673
  0
LINE
  5
68F
100
AcDbEntity
  8
MN5218-50_HL
100
AcDbLine
 62
6
  6
HIDDEN
 10
297.9441805271
 20
242.160869084
 11
297.9441805271
 21
218.3619195273
  0
LINE
  5
690
100
AcDbEntity
  8
MN5218-50_HL
100
AcDbLine
 62
6
  6
HIDDEN
 10
300.0441805271
 20
242.2613943056
 11
300.0441805271
 21
238.3135679252
  0
LINE
  5
691
100
AcDbEntity
  8
MN5218-50_HL
100
AcDbLine
 62
6
  6
HIDDEN
 10
300.0441805271
 20
222.209220686
 11
300.0441805271
 21
218.2613943056
  0
LINE
  5
692
100
AcDbEntity
  8
10083256_CL
100
AcDbLine
 62
7
  6
CONTINUOUS
 10
300.5965852629
 20
280.2613943056
 11
300.5965852629
 21
240.2613943056
  0
LINE
  5
693
100
AcDbEntity
  8
10083256_CL
100
AcDbLine
 62
7
  6
CONTINUOUS
 10
300.5965852629
 20
220.2613943056
 11
300.5965852629
 21
198.7613943056
  0
LINE
  5
694
100
AcDbEntity
  8
10083256_CL
100
AcDbLine
 62
7
  6
CONTINUOUS
 10
300.5965852629
 20
191.4316376749
 11
300.5965852629
 21
180.2613943056
  0
LINE
  5
695
100
AcDbEntity
  8
10083256_HL
100
AcDbLine
 62
6
  6
HIDDEN
 10
300.5965852629
 20
191.4316376749
 11
300.5965852629
 21
198.7613943056
  0
LINE
  5
696
100
AcDbEntity
  8
10083384_HP_HL
100
AcDbLine
 62
6
  6
HIDDEN
 10
301.1441805271
 20
233.5613943056
 11
301.1441805271
 21
226.9613943056
  0
LINE
  5
697
100
AcDbEntity
  8
10083384_HP_CL
100
AcDbLine
 62
9
  6
CONTINUOUS
 10
301.3441805271
 20
226.7613943056
 11
301.3441805271
 21
233.7613943056
  0
LINE
  5
698
100
AcDbEntity
  8
10083256_CL
100
AcDbLine
 62
7
  6
CONTINUOUS
 10
301.9691805271
 20
277.8839889197
 11
301.9691805271
 21
240.2613943056
  0
LINE
  5
699
100
AcDbEntity
  8
10083256_CL
100
AcDbLine
 62
7
  6
CONTINUOUS
 10
301.9691805271
 20
220.2613943056
 11
301.9691805271
 21
198.7613943056
  0
LINE
  5
69A
100
AcDbEntity
  8
10083256_HL
100
AcDbLine
 62
6
  6
HIDDEN
 10
301.9691805271
 20
195.7170387609
 11
301.9691805271
 21
198.7613943056
  0
LINE
  5
69B
100
AcDbEntity
  8
10083256_CL
100
AcDbLine
 62
7
  6
CONTINUOUS
 10
301.9691805271
 20
182.6388002329
 11
301.9691805271
 21
195.7170387609
  0
LINE
  5
69C
100
AcDbEntity
  8
10083196_HL
100
AcDbLine
 62
6
  6
HIDDEN
 10
309.3441805271
 20
240.272719171
 11
309.8441805271
 21
240.5613943056
  0
LINE
  5
69D
100
AcDbEntity
  8
10083314_HL
100
AcDbLine
 62
6
  6
HIDDEN
 10
283.0441805271
 20
224.2613943056
 11
287.3743075461
 21
226.7613943056
  0
LINE
  5
69E
100
AcDbEntity
  8
10083256_HL
100
AcDbLine
 62
6
  6
HIDDEN
 10
366.8441805271
 20
234.2613943056
 11
367.9313362699
 21
234.3565081086
  0
LINE
  5
69F
100
AcDbEntity
  8
10083314_HL
100
AcDbLine
 62
6
  6
HIDDEN
 10
294.8441805271
 20
225.6113943056
 11
306.8441805271
 21
225.6113943056
  0
LINE
  5
6A0
100
AcDbEntity
  8
10083384_HP_HL
100
AcDbLine
 62
6
  6
HIDDEN
 10
322.6328556617
 20
225.7613943056
 11
316.6555053925
 21
225.7613943056
  0
LINE
  5
6A1
100
AcDbEntity
  8
10083196_HL
100
AcDbLine
 62
6
  6
HIDDEN
 10
295.2441805271
 20
225.7613943056
 11
309.3441805271
 21
225.7613943056
  0
LINE
  5
6A2
100
AcDbEntity
  8
10083314_HL
100
AcDbLine
 62
6
  6
HIDDEN
 10
306.8441805271
 20
225.7613943056
 11
308.9441805271
 21
225.7613943056
  0
LINE
  5
6A3
100
AcDbEntity
  8
10083256_HL
100
AcDbLine
 62
6
  6
HIDDEN
 10
319.2446108367
 20
225.7613943056
 11
338.8441805271
 21
225.7613943056
  0
LINE
  5
6A4
100
AcDbEntity
  8
10083256_HL
100
AcDbLine
 62
6
  6
HIDDEN
 10
342.8441805271
 20
226.2613943056
 11
366.8441805271
 21
226.2613943056
  0
LINE
  5
6A5
100
AcDbEntity
  8
10083384_HP_HL
100
AcDbLine
 62
6
  6
HIDDEN
 10
332.6441805271
 20
226.3863943056
 11
322.6441805271
 21
226.3863943056
  0
LINE
  5
6A6
100
AcDbEntity
  8
10083314_HL
100
AcDbLine
 62
6
  6
HIDDEN
 10
287.3743075461
 20
226.7613943056
 11
294.8441805271
 21
226.7613943056
  0
LINE
  5
6A7
100
AcDbEntity
  8
10083196_HL
100
AcDbLine
 62
6
  6
HIDDEN
 10
295.2441805271
 20
226.7613943056
 11
313.9441805271
 21
226.7613943056
  0
LINE
  5
6A8
100
AcDbEntity
  8
10083384_HP_HL
100
AcDbLine
 62
6
  6
HIDDEN
 10
301.3441805271
 20
226.7613943056
 11
316.6441805271
 21
226.7613943056
  0
LINE
  5
6A9
100
AcDbEntity
  8
10083384_HP_HL
100
AcDbLine
 62
6
  6
HIDDEN
 10
302.5298211732
 20
227.7613943056
 11
326.1941805271
 21
227.7613943056
  0
LINE
  5
6AA
100
AcDbEntity
  8
10083384_HP_HL
100
AcDbLine
 62
6
  6
HIDDEN
 10
330.6941805271
 20
227.9113943056
 11
331.1941805271
 21
227.9113943056
  0
LINE
  5
6AB
100
AcDbEntity
  8
10083384_HP_HL
100
AcDbLine
 62
6
  6
HIDDEN
 10
330.6707407279
 20
227.9519932289
 11
326.3042228668
 21
227.9519932289
  0
LINE
  5
6AC
100
AcDbEntity
  8
10083384_HP_HL
100
AcDbLine
 62
6
  6
HIDDEN
 10
330.6707407279
 20
229.1066937673
 11
326.3042228668
 21
229.1066937673
  0
LINE
  5
6AD
100
AcDbEntity
  8
10083256#AF0_AXIS
100
AcDbLine
 62
3
  6
CENTER
 10
327.3441805271
 20
230.2613943056
 11
321.3441805271
 21
230.2613943056
  0
LINE
  5
6AE
100
AcDbEntity
  8
10083256#AF0_AXIS
100
AcDbLine
 62
3
  6
CENTER
 10
327.3441805271
 20
230.2613943056
 11
321.3441805271
 21
230.2613943056
  0
LINE
  5
6AF
100
AcDbEntity
  8
10083256#AF0_AXIS
100
AcDbLine
 62
3
  6
CENTER
 10
327.3441805271
 20
230.2613943056
 11
320.3441805271
 21
230.2613943056
  0
LINE
  5
6B0
100
AcDbEntity
  8
30381075_AXIS
100
AcDbLine
 62
3
  6
CENTER
 10
371.8441805271
 20
230.2613943056
 11
230.9441805271
 21
230.2613943056
  0
LINE
  5
6B1
100
AcDbEntity
  8
10083256#AF0_AXIS
100
AcDbLine
 62
3
  6
CENTER
 10
327.3441805271
 20
230.2613943056
 11
334.3441805271
 21
230.2613943056
  0
LINE
  5
6B2
100
AcDbEntity
  8
10083256#AF0_AXIS
100
AcDbLine
 62
3
  6
CENTER
 10
327.3441805271
 20
230.2613943056
 11
333.3441805271
 21
230.2613943056
  0
LINE
  5
6B3
100
AcDbEntity
  8
10083256#AF0_AXIS
100
AcDbLine
 62
3
  6
CENTER
 10
327.3441805271
 20
230.2613943056
 11
333.3441805271
 21
230.2613943056
  0
LINE
  5
6B4
100
AcDbEntity
  8
10083256#AF0_AXIS
100
AcDbLine
 62
3
  6
CENTER
 10
334.3441805271
 20
230.2613943056
 11
344.5840300587
 21
230.2613943056
  0
LINE
  5
6B5
100
AcDbEntity
  8
10083314_HL
100
AcDbLine
 62
6
  6
HIDDEN
 10
268.0601799691
 20
236.5250564605
 11
269.0441805271
 21
236.2613943056
  0
LINE
  5
6B6
100
AcDbEntity
  8
10083196_HL
100
AcDbLine
 62
6
  6
HIDDEN
 10
309.3441805271
 20
220.2500694402
 11
309.8441805271
 21
219.9613943056
  0
LINE
  5
6B7
100
AcDbEntity
  8
10083314_HL
100
AcDbLine
 62
6
  6
HIDDEN
 10
283.0441805271
 20
236.2613943056
 11
287.3743075461
 21
233.7613943056
  0
LINE
  5
6B8
100
AcDbEntity
  8
10083384_HP_HL
100
AcDbLine
 62
6
  6
HIDDEN
 10
302.5298211732
 20
232.7613943056
 11
302.5298211732
 21
227.7613943056
  0
LINE
  5
6B9
100
AcDbEntity
  8
10083256_CL
100
AcDbLine
 62
9
  6
CONTINUOUS
 10
302.7191805271
 20
184.2613943056
 11
302.7191805271
 21
220.2613943056
  0
LINE
  5
6BA
100
AcDbEntity
  8
10083256_CL
100
AcDbLine
 62
9
  6
CONTINUOUS
 10
302.7191805271
 20
240.2613943056
 11
302.7191805271
 21
276.2613943056
  0
LINE
  5
6BB
100
AcDbEntity
  8
10002541_HP_HL
100
AcDbLine
 62
6
  6
HIDDEN
 10
304.2141805271
 20
238.7613943056
 11
304.2141805271
 21
221.7613943056
  0
LINE
  5
6BC
100
AcDbEntity
  8
MN5218-50_HL
100
AcDbLine
 62
6
  6
HIDDEN
 10
304.2941805271
 20
219.9363943056
 11
304.2941805271
 21
240.5863943056
  0
LINE
  5
6BD
100
AcDbEntity
  8
10083256_CL
100
AcDbLine
 62
9
  6
CONTINUOUS
 10
304.9691805271
 20
184.2613943056
 11
304.9691805271
 21
220.2613943056
  0
LINE
  5
6BE
100
AcDbEntity
  8
10083256_CL
100
AcDbLine
 62
9
  6
CONTINUOUS
 10
304.9691805271
 20
240.2613943056
 11
304.9691805271
 21
276.2613943056
  0
LINE
  5
6BF
100
AcDbEntity
  8
10083256_HL
100
AcDbLine
 62
6
  6
HIDDEN
 10
305.7191805271
 20
195.7170387609
 11
305.7191805271
 21
198.7613943056
  0
LINE
  5
6C0
100
AcDbEntity
  8
10083256_CL
100
AcDbLine
 62
7
  6
CONTINUOUS
 10
305.7191805271
 20
182.6388002329
 11
305.7191805271
 21
195.7170387609
  0
LINE
  5
6C1
100
AcDbEntity
  8
10083256_CL
100
AcDbLine
 62
7
  6
CONTINUOUS
 10
305.7191805271
 20
198.7613943056
 11
305.7191805271
 21
220.2613943056
  0
LINE
  5
6C2
100
AcDbEntity
  8
10083256_CL
100
AcDbLine
 62
7
  6
CONTINUOUS
 10
305.7191805271
 20
240.2613943056
 11
305.7191805271
 21
277.8839889197
  0
LINE
  5
6C3
100
AcDbEntity
  8
10083314_CL
100
AcDbLine
 62
9
  6
CONTINUOUS
 10
306.6441805271
 20
237.9363943056
 11
306.6441805271
 21
222.5863943056
  0
LINE
  5
6C4
100
AcDbEntity
  8
10083256_HL
100
AcDbLine
 62
6
  6
HIDDEN
 10
306.7441805271
 20
217.2613943056
 11
306.7441805271
 21
243.2613943056
  0
LINE
  5
6C5
100
AcDbEntity
  8
10083314_HL
100
AcDbLine
 62
6
  6
HIDDEN
 10
306.8441805271
 20
225.6113999667
 11
306.8441805271
 21
234.9113886446
  0
LINE
  5
6C6
100
AcDbEntity
  8
10083256_CL
100
AcDbLine
 62
7
  6
CONTINUOUS
 10
307.0917757913
 20
280.2613943056
 11
307.0917757913
 21
240.2613943056
  0
LINE
  5
6C7
100
AcDbEntity
  8
10083256_CL
100
AcDbLine
 62
7
  6
CONTINUOUS
 10
307.0917757913
 20
220.2613943056
 11
307.0917757913
 21
198.7613943056
  0
LINE
  5
6C8
100
AcDbEntity
  8
10083256_CL
100
AcDbLine
 62
7
  6
CONTINUOUS
 10
307.0917757913
 20
191.4316376749
 11
307.0917757913
 21
180.2613943056
  0
LINE
  5
6C9
100
AcDbEntity
  8
10083256_HL
100
AcDbLine
 62
6
  6
HIDDEN
 10
307.0917757913
 20
191.4316376749
 11
307.0917757913
 21
198.7613943056
  0
LINE
  5
6CA
100
AcDbEntity
  8
10083314_HL
100
AcDbLine
 62
6
  6
HIDDEN
 10
307.1441805271
 20
240.1917152776
 11
307.1441805271
 21
240.1861764509
  0
LINE
  5
6CB
100
AcDbEntity
  8
10083314_HL
100
AcDbLine
 62
6
  6
HIDDEN
 10
307.1441805271
 20
240.1861764509
 11
307.1441805271
 21
220.3366121604
  0
LINE
  5
6CC
100
AcDbEntity
  8
10083314_HL
100
AcDbLine
 62
6
  6
HIDDEN
 10
307.1441805271
 20
220.3310733337
 11
307.1441805271
 21
220.3366121604
  0
LINE
  5
6CD
100
AcDbEntity
  8
10002541_HP_HL
100
AcDbLine
 62
6
  6
HIDDEN
 10
307.2141805271
 20
238.7613943056
 11
307.2141805271
 21
221.7613943056
  0
LINE
  5
6CE
100
AcDbEntity
  8
10083314_CL
100
AcDbLine
 62
9
  6
CONTINUOUS
 10
307.4200901884
 20
220.0320355103
 11
307.4200901884
 21
240.490753101
  0
LINE
  5
6CF
100
AcDbEntity
  8
10083384_HP_HL
100
AcDbLine
 62
6
  6
HIDDEN
 10
301.1441805271
 20
226.9613943056
 11
302.5298211732
 21
227.7613943056
  0
LINE
  5
6D0
100
AcDbEntity
  8
10083314_HL
100
AcDbLine
 62
6
  6
HIDDEN
 10
268.0601799691
 20
223.9977321507
 11
269.0441805271
 21
224.2613943056
  0
LINE
  5
6D1
100
AcDbEntity
  8
10083384_HP_HL
100
AcDbLine
 62
6
  6
HIDDEN
 10
330.6707407279
 20
231.416094844
 11
326.3042228668
 21
231.416094844
  0
LINE
  5
6D2
100
AcDbEntity
  8
10083384_HP_HL
100
AcDbLine
 62
6
  6
HIDDEN
 10
330.6707407279
 20
232.5707953824
 11
326.3042228668
 21
232.5707953824
  0
LINE
  5
6D3
100
AcDbEntity
  8
10083384_HP_HL
100
AcDbLine
 62
6
  6
HIDDEN
 10
330.6941805271
 20
232.6113943056
 11
331.1941805271
 21
232.6113943056
  0
LINE
  5
6D4
100
AcDbEntity
  8
10083384_HP_HL
100
AcDbLine
 62
6
  6
HIDDEN
 10
302.5298211732
 20
232.7613943056
 11
326.1941805271
 21
232.7613943056
  0
LINE
  5
6D5
100
AcDbEntity
  8
10083314_HL
100
AcDbLine
 62
6
  6
HIDDEN
 10
287.3743075461
 20
233.7613943056
 11
294.8441805271
 21
233.7613943056
  0
LINE
  5
6D6
100
AcDbEntity
  8
10083196_HL
100
AcDbLine
 62
6
  6
HIDDEN
 10
295.2441805271
 20
233.7613943056
 11
313.9441805271
 21
233.7613943056
  0
LINE
  5
6D7
100
AcDbEntity
  8
10083384_HP_HL
100
AcDbLine
 62
6
  6
HIDDEN
 10
301.3441805271
 20
233.7613943056
 11
316.6441805271
 21
233.7613943056
  0
LINE
  5
6D8
100
AcDbEntity
  8
10083384_HP_HL
100
AcDbLine
 62
6
  6
HIDDEN
 10
332.6441805271
 20
234.1363943056
 11
322.6441805271
 21
234.1363943056
  0
LINE
  5
6D9
100
AcDbEntity
  8
10083256_HL
100
AcDbLine
 62
6
  6
HIDDEN
 10
342.8441805271
 20
234.2613943056
 11
366.8441805271
 21
234.2613943056
  0
LINE
  5
6DA
100
AcDbEntity
  8
10083384_HP_HL
100
AcDbLine
 62
6
  6
HIDDEN
 10
322.6328556617
 20
234.7613943056
 11
316.6555053925
 21
234.7613943056
  0
LINE
  5
6DB
100
AcDbEntity
  8
10083196_HL
100
AcDbLine
 62
6
  6
HIDDEN
 10
295.2441805271
 20
234.7613943056
 11
309.3441805271
 21
234.7613943056
  0
LINE
  5
6DC
100
AcDbEntity
  8
10083314_HL
100
AcDbLine
 62
6
  6
HIDDEN
 10
306.8441805271
 20
234.7613943056
 11
308.9441805271
 21
234.7613943056
  0
LINE
  5
6DD
100
AcDbEntity
  8
10083256_HL
100
AcDbLine
 62
6
  6
HIDDEN
 10
319.2446108367
 20
234.7613943056
 11
338.8441805271
 21
234.7613943056
  0
LINE
  5
6DE
100
AcDbEntity
  8
10083314_HL
100
AcDbLine
 62
6
  6
HIDDEN
 10
294.8441805271
 20
234.9113943056
 11
306.8441805271
 21
234.9113943056
  0
LINE
  5
6DF
100
AcDbEntity
  8
10083384_HP_HL
100
AcDbLine
 62
6
  6
HIDDEN
 10
322.3441805271
 20
235.2613943056
 11
316.9441805271
 21
235.2613943056
  0
LINE
  5
6E0
100
AcDbEntity
  8
10083256_HL
100
AcDbLine
 62
6
  6
HIDDEN
 10
318.9441805271
 20
235.2613943056
 11
338.8977703656
 21
235.2613943056
  0
LINE
  5
6E1
100
AcDbEntity
  8
10083256_HL
100
AcDbLine
 62
6
  6
HIDDEN
 10
339.2441805271
 20
235.4613943056
 11
342.4441805271
 21
235.4613943056
  0
LINE
  5
6E2
100
AcDbEntity
  8
10083314_HL
100
AcDbLine
 62
6
  6
HIDDEN
 10
269.0441805271
 20
236.2613943056
 11
283.0441805271
 21
236.2613943056
  0
LINE
  5
6E3
100
AcDbEntity
  8
10083196_HL
100
AcDbLine
 62
6
  6
HIDDEN
 10
312.3441805271
 20
236.2613943056
 11
313.9441805271
 21
236.2613943056
  0
LINE
  5
6E4
100
AcDbEntity
  8
10083256_HL
100
AcDbLine
 62
6
  6
HIDDEN
 10
312.8441805271
 20
236.2613943056
 11
318.3433199081
 21
236.2613943056
  0
LINE
  5
6E5
100
AcDbEntity
  8
10083256_HL
100
AcDbLine
 62
6
  6
HIDDEN
 10
366.8441805271
 20
226.2613943056
 11
367.9313362699
 21
226.1662805027
  0
LINE
  5
6E6
100
AcDbEntity
  8
10083314_HL
100
AcDbLine
 62
6
  6
HIDDEN
 10
295.9441805271
 20
237.9363943056
 11
294.7312640147
 21
238.2613943056
  0
LINE
  5
6E7
100
AcDbEntity
  8
10083384_HP_HL
100
AcDbLine
 62
6
  6
HIDDEN
 10
301.1441805271
 20
233.5613943056
 11
302.5298211732
 21
232.7613943056
  0
LINE
  5
6E8
100
AcDbEntity
  8
10083314_CL
100
AcDbLine
 62
9
  6
CONTINUOUS
 10
308.9441805271
 20
225.7613943056
 11
308.9441805271
 21
234.7613943056
  0
LINE
  5
6E9
100
AcDbEntity
  8
10083314_CL
100
AcDbLine
 62
9
  6
CONTINUOUS
 10
309.0682708659
 20
220.0320355103
 11
309.0682708659
 21
240.490753101
  0
LINE
  5
6EA
100
AcDbEntity
  8
10083314_HL
100
AcDbLine
 62
6
  6
HIDDEN
 10
309.3441805271
 20
240.1917152776
 11
309.3441805271
 21
240.1861764509
  0
LINE
  5
6EB
100
AcDbEntity
  8
10083314_HL
100
AcDbLine
 62
6
  6
HIDDEN
 10
309.3441805271
 20
240.1861764509
 11
309.3441805271
 21
220.3366121604
  0
LINE
  5
6EC
100
AcDbEntity
  8
10083314_HL
100
AcDbLine
 62
6
  6
HIDDEN
 10
309.3441805271
 20
220.3310733337
 11
309.3441805271
 21
220.3366121604
  0
LINE
  5
6ED
100
AcDbEntity
  8
10083196_HL
100
AcDbLine
 62
6
  6
HIDDEN
 10
309.3441805271
 20
220.2500694402
 11
309.3441805271
 21
240.272719171
  0
LINE
  5
6EE
100
AcDbEntity
  8
10083196_HL
100
AcDbLine
 62
6
  6
HIDDEN
 10
309.8441805271
 20
240.5613943056
 11
309.8441805271
 21
219.9613943056
  0
LINE
  5
6EF
100
AcDbEntity
  8
MN5218-50_HL
100
AcDbLine
 62
6
  6
HIDDEN
 10
311.3441805271
 20
242.2613943056
 11
311.3441805271
 21
218.2613943056
  0
LINE
  5
6F0
100
AcDbEntity
  8
10083196_CL
100
AcDbLine
 62
9
  6
CONTINUOUS
 10
311.9441805271
 20
240.5613943056
 11
311.9441805271
 21
219.9613943056
  0
LINE
  5
6F1
100
AcDbEntity
  8
MN5218-50_HL
100
AcDbLine
 62
6
  6
HIDDEN
 10
312.2643555271
 20
241.3412193056
 11
312.2643555271
 21
219.1815693056
  0
LINE
  5
6F2
100
AcDbEntity
  8
10083196_HL
100
AcDbLine
 62
6
  6
HIDDEN
 10
312.3441805271
 20
240.1613943056
 11
312.3441805271
 21
220.3613943056
  0
LINE
  5
6F3
100
AcDbEntity
  8
10083256_HL
100
AcDbLine
 62
6
  6
HIDDEN
 10
312.3441805271
 20
217.2613943056
 11
312.3441805271
 21
243.2613943056
  0
LINE
  5
6F4
100
AcDbEntity
  8
MN5218-50_HL
100
AcDbLine
 62
6
  6
HIDDEN
 10
312.3441805271
 20
219.2614031885
 11
312.3441805271
 21
241.2613854227
  0
LINE
  5
6F5
100
AcDbEntity
  8
10083256_CL
100
AcDbLine
 62
7
  6
CONTINUOUS
 10
312.7941805271
 20
180.2613949618
 11
312.7941805271
 21
280.261393619
  0
LINE
  5
6F6
100
AcDbEntity
  8
10083256_HL
100
AcDbLine
 62
6
  6
HIDDEN
 10
312.8441805271
 20
236.2613943056
 11
312.8441805271
 21
224.2613943056
  0
LINE
  5
6F7
100
AcDbEntity
  8
10083384_HP_HL
100
AcDbLine
 62
6
  6
HIDDEN
 10
316.9441805271
 20
235.2613943056
 11
316.6441805271
 21
234.7417790634
  0
LINE
  5
6F8
100
AcDbEntity
  8
10083256_HL
100
AcDbLine
 62
6
  6
HIDDEN
 10
330.683998776
 20
243.6610747283
 11
329.8441805271
 21
242.8212564795
  0
LINE
  5
6F9
100
AcDbEntity
  8
10083256_HL
100
AcDbLine
 62
6
  6
HIDDEN
 10
329.8441805271
 20
237.8212564795
 11
327.3441805271
 21
236.3191049319
  0
LINE
  5
6FA
100
AcDbEntity
  8
10083196_HL
100
AcDbLine
 62
6
  6
HIDDEN
 10
313.9441805271
 20
224.2613943056
 11
314.3441805271
 21
224.4923344133
  0
LINE
  5
6FB
100
AcDbEntity
  8
10083256_HL
100
AcDbLine
 62
6
  6
HIDDEN
 10
329.8441805271
 20
237.8212564795
 11
324.8441805271
 21
237.8212564795
  0
LINE
  5
6FC
100
AcDbEntity
  8
10083314_HL
100
AcDbLine
 62
6
  6
HIDDEN
 10
306.6441805271
 20
237.9363943056
 11
295.9441805271
 21
237.9363943056
  0
LINE
  5
6FD
100
AcDbEntity
  8
10083314_HL
100
AcDbLine
 62
6
  6
HIDDEN
 10
294.7312640147
 20
238.2613943056
 11
271.4391380199
 21
238.2613943056
  0
LINE
  5
6FE
100
AcDbEntity
  8
MN5218-50_HL
100
AcDbLine
 62
6
  6
HIDDEN
 10
296.9441805271
 20
238.3135679252
 11
300.0441805271
 21
238.3135679252
  0
LINE
  5
6FF
100
AcDbEntity
  8
MN5218-50_HL
100
AcDbLine
 62
6
  6
HIDDEN
 10
300.0441805271
 20
238.4613943056
 11
304.2941805271
 21
238.4613943056
  0
LINE
  5
700
100
AcDbEntity
  8
10083256_HL
100
AcDbLine
 62
6
  6
HIDDEN
 10
330.3441805271
 20
239.3212564795
 11
324.3441805271
 21
239.3212564795
  0
LINE
  5
701
100
AcDbEntity
  8
10083256_CL
100
AcDbLine
 62
7
  6
CONTINUOUS
 10
298.7941805271
 20
240.2613943056
 11
312.7941805271
 21
240.2613943056
  0
LINE
  5
702
100
AcDbEntity
  8
10083256_CL
100
AcDbLine
 62
7
  6
CONTINUOUS
 10
241.9441805271
 20
240.2713943056
 11
235.4441805271
 21
240.2713943056
  0
LINE
  5
703
100
AcDbEntity
  8
10083256_HL
100
AcDbLine
 62
6
  6
HIDDEN
 10
241.9441805271
 20
240.2713943056
 11
246.9441805271
 21
240.2713943056
  0
LINE
  5
704
100
AcDbEntity
  8
10083196_HL
100
AcDbLine
 62
6
  6
HIDDEN
 10
309.8441805271
 20
240.5613943056
 11
311.9441805271
 21
240.5613943056
  0
LINE
  5
705
100
AcDbEntity
  8
MN5218-50_HL
100
AcDbLine
 62
6
  6
HIDDEN
 10
304.2941805271
 20
240.5863943056
 11
312.3441805271
 21
240.5863943056
  0
LINE
  5
706
100
AcDbEntity
  8
MN5218-50_HL
100
AcDbLine
 62
6
  6
HIDDEN
 10
300.0441805271
 20
241.2322658312
 11
297.0240055271
 21
241.2322658312
  0
LINE
  5
707
100
AcDbEntity
  8
10083256_HL
100
AcDbLine
 62
6
  6
HIDDEN
 10
312.7941805271
 20
241.2613943056
 11
298.7941805271
 21
241.2613943056
  0
LINE
  5
708
100
AcDbEntity
  8
MN5218-50_HL
100
AcDbLine
 62
6
  6
HIDDEN
 10
312.2643555271
 20
241.3412193056
 11
300.0441805271
 21
241.3412193056
  0
LINE
  5
709
100
AcDbEntity
  8
10083256_HL
100
AcDbLine
 62
6
  6
HIDDEN
 10
306.7441805271
 20
241.5113943056
 11
296.3441805271
 21
241.5113943056
  0
LINE
  5
70A
100
AcDbEntity
  8
MN5218-50_HL
100
AcDbLine
 62
6
  6
HIDDEN
 10
297.9441805271
 20
242.160869084
 11
300.0441805271
 21
242.160869084
  0
LINE
  5
70B
100
AcDbEntity
  8
10083196_HL
100
AcDbLine
 62
6
  6
HIDDEN
 10
313.9441805271
 20
236.2613943056
 11
314.3441805271
 21
236.030454198
  0
LINE
  5
70C
100
AcDbEntity
  8
10083256_HL
100
AcDbLine
 62
6
  6
HIDDEN
 10
329.8441805271
 20
222.7015321318
 11
327.3441805271
 21
224.2036836793
  0
LINE
  5
70D
100
AcDbEntity
  8
10083256_HL
100
AcDbLine
 62
6
  6
HIDDEN
 10
330.683998776
 20
216.8617138829
 11
329.8441805271
 21
217.7015321318
  0
LINE
  5
70E
100
AcDbEntity
  8
10083384_HP_HL
100
AcDbLine
 62
6
  6
HIDDEN
 10
316.9441805271
 20
225.2613943056
 11
316.6441805271
 21
225.7810095479
  0
LINE
  5
70F
100
AcDbEntity
  8
10083196_HL
100
AcDbLine
 62
6
  6
HIDDEN
 10
313.9441805271
 20
226.7613943056
 11
313.9441805271
 21
224.2613943056
  0
LINE
  5
710
100
AcDbEntity
  8
10083196_CL
100
AcDbLine
 62
9
  6
CONTINUOUS
 10
313.9441805271
 20
226.7613943056
 11
313.9441805271
 21
233.7613943056
  0
LINE
  5
711
100
AcDbEntity
  8
10083196_HL
100
AcDbLine
 62
6
  6
HIDDEN
 10
313.9441805271
 20
233.7613943056
 11
313.9441805271
 21
236.2613943056
  0
LINE
  5
712
100
AcDbEntity
  8
10083196_HL
100
AcDbLine
 62
6
  6
HIDDEN
 10
314.3441805271
 20
224.4923344133
 11
314.3441805271
 21
236.030454198
  0
LINE
  5
713
100
AcDbEntity
  8
10083384_HP_HL
100
AcDbLine
 62
6
  6
HIDDEN
 10
316.6441805271
 20
225.7810095479
 11
316.6441805271
 21
234.7417790634
  0
LINE
  5
714
100
AcDbEntity
  8
10083384_HP_HL
100
AcDbLine
 62
6
  6
HIDDEN
 10
316.6555053925
 20
234.7613943056
 11
316.6555053925
 21
225.7613943056
  0
LINE
  5
715
100
AcDbEntity
  8
10083384_HP_HL
100
AcDbLine
 62
6
  6
HIDDEN
 10
316.9441805271
 20
235.2613943056
 11
316.9441805271
 21
225.2613943056
  0
LINE
  5
716
100
AcDbEntity
  8
10083256_HL
100
AcDbLine
 62
6
  6
HIDDEN
 10
318.3433199081
 20
236.2613943056
 11
318.3433199081
 21
224.2613943056
  0
LINE
  5
717
100
AcDbEntity
  8
10083256_HL
100
AcDbLine
 62
6
  6
HIDDEN
 10
312.3441805271
 20
223.7613943056
 11
312.8441805271
 21
224.2613943056
  0
LINE
  5
718
100
AcDbEntity
  8
MN5218-50_HL
100
AcDbLine
 62
6
  6
HIDDEN
 10
311.3441805271
 20
218.2613943056
 11
312.3441805271
 21
219.2613943056
  0
LINE
  5
719
100
AcDbEntity
  8
10083314_HL
100
AcDbLine
 62
6
  6
HIDDEN
 10
270.6626808846
 20
238.1591717845
 11
269.1559519595
 21
237.7554449858
  0
LINE
  5
71A
100
AcDbEntity
  8
10083256_HL
100
AcDbLine
 62
6
  6
HIDDEN
 10
306.7441805271
 20
242.2613943056
 11
296.3441805271
 21
242.2613943056
  0
LINE
  5
71B
100
AcDbEntity
  8
MN5218-50_HL
100
AcDbLine
 62
6
  6
HIDDEN
 10
300.0441805271
 20
242.2613943056
 11
311.3441805271
 21
242.2613943056
  0
LINE
  5
71C
100
AcDbEntity
  8
10083256_HL
100
AcDbLine
 62
6
  6
HIDDEN
 10
329.8441805271
 20
242.8212564795
 11
324.8441805271
 21
242.8212564795
  0
LINE
  5
71D
100
AcDbEntity
  8
10083256_HL
100
AcDbLine
 62
6
  6
HIDDEN
 10
312.3441805271
 20
243.2613943056
 11
306.7441805271
 21
243.2613943056
  0
LINE
  5
71E
100
AcDbEntity
  8
10083256_HL
100
AcDbLine
 62
6
  6
HIDDEN
 10
330.3441805271
 20
243.3212564795
 11
324.3441805271
 21
243.3212564795
  0
LINE
  5
71F
100
AcDbEntity
  8
10083256_CL
100
AcDbLine
 62
7
  6
CONTINUOUS
 10
323.3441805271
 20
243.6613943056
 11
324.0040389008
 21
243.6613943056
  0
LINE
  5
720
100
AcDbEntity
  8
10083256_HL
100
AcDbLine
 62
6
  6
HIDDEN
 10
324.0040389008
 20
243.6613943056
 11
324.0056447155
 21
243.6613943056
  0
LINE
  5
721
100
AcDbEntity
  8
10083256_HL
100
AcDbLine
 62
6
  6
HIDDEN
 10
330.6827163388
 20
243.6613943056
 11
330.6843221535
 21
243.6613943056
  0
LINE
  5
722
100
AcDbEntity
  8
10083256_CL
100
AcDbLine
 62
7
  6
CONTINUOUS
 10
330.6843221535
 20
243.6613943056
 11
331.3441805271
 21
243.6613943056
  0
LINE
  5
723
100
AcDbEntity
  8
10083256_CL
100
AcDbLine
 62
7
  6
CONTINUOUS
 10
322.7941805271
 20
243.7613943056
 11
323.3441805271
 21
243.7613943056
  0
LINE
  5
724
100
AcDbEntity
  8
10083256_CL
100
AcDbLine
 62
9
  6
CONTINUOUS
 10
244.5047847255
 20
247.3668679444
 11
246.9441805271
 21
247.3668679444
  0
LINE
  5
725
100
AcDbEntity
  8
10083256_CL
100
AcDbLine
 62
7
  6
CONTINUOUS
 10
331.3441805271
 20
243.7127083116
 11
367.9226396229
 21
240.8339211477
  0
LINE
  5
726
100
AcDbEntity
  8
10083256_HL
100
AcDbLine
 62
6
  6
HIDDEN
 10
312.3441805271
 20
236.7613943056
 11
312.8441805271
 21
236.2613943056
  0
LINE
  5
727
100
AcDbEntity
  8
MN5218-50_HL
100
AcDbLine
 62
6
  6
HIDDEN
 10
311.3441805271
 20
242.2613943056
 11
312.3441805271
 21
241.2613943056
  0
LINE
  5
728
100
AcDbEntity
  8
10083256_HL
100
AcDbLine
 62
6
  6
HIDDEN
 10
318.9441805271
 20
235.2613943056
 11
318.9441805271
 21
225.2613943056
  0
LINE
  5
729
100
AcDbEntity
  8
10083256_HL
100
AcDbLine
 62
6
  6
HIDDEN
 10
319.2446108367
 20
234.7613943056
 11
319.2446108367
 21
225.7613943056
  0
LINE
  5
72A
100
AcDbEntity
  8
10083384_HP_HL
100
AcDbLine
 62
6
  6
HIDDEN
 10
322.3441805271
 20
235.2613943056
 11
322.3441805271
 21
225.2613943056
  0
LINE
  5
72B
100
AcDbEntity
  8
10083384_HP_HL
100
AcDbLine
 62
6
  6
HIDDEN
 10
322.6328556617
 20
234.7613943056
 11
322.6328556617
 21
225.7613943056
  0
LINE
  5
72C
100
AcDbEntity
  8
10083384_HP_HL
100
AcDbLine
 62
6
  6
HIDDEN
 10
322.6441805271
 20
225.7810095479
 11
322.6441805271
 21
234.7417790634
  0
LINE
  5
72D
100
AcDbEntity
  8
10083256_CL
100
AcDbLine
 62
9
  6
CONTINUOUS
 10
322.7941805271
 20
243.7613943056
 11
322.7941805271
 21
216.7613943056
  0
LINE
  5
72E
100
AcDbEntity
  8
10083256_CL
100
AcDbLine
 62
7
  6
CONTINUOUS
 10
323.3441805271
 20
243.7613927764
 11
323.3441805271
 21
216.7613958348
  0
LINE
  5
72F
100
AcDbEntity
  8
10083256_HL
100
AcDbLine
 62
6
  6
HIDDEN
 10
324.3441805271
 20
221.2015321318
 11
324.3441805271
 21
217.2015321318
  0
LINE
  5
730
100
AcDbEntity
  8
10083256_HL
100
AcDbLine
 62
6
  6
HIDDEN
 10
324.3441805271
 20
239.3212564795
 11
324.3441805271
 21
243.3212564795
  0
LINE
  5
731
100
AcDbEntity
  8
10083384_HP_HL
100
AcDbLine
 62
6
  6
HIDDEN
 10
322.6441805271
 20
225.7810095479
 11
322.3441805271
 21
225.2613943056
  0
LINE
  5
732
100
AcDbEntity
  8
10083384_HP_HL
100
AcDbLine
 62
6
  6
HIDDEN
 10
326.1941805271
 20
227.7613943056
 11
326.3042228668
 21
227.9519932289
  0
LINE
  5
733
100
AcDbEntity
  8
10083256_HL
100
AcDbLine
 62
6
  6
HIDDEN
 10
318.3433199081
 20
224.2613943056
 11
319.2446108367
 21
225.7613943056
  0
LINE
  5
734
100
AcDbEntity
  8
10083384_HP_HL
100
AcDbLine
 62
6
  6
HIDDEN
 10
331.1941805271
 20
232.6113943056
 11
332.6441805271
 21
234.0613943056
  0
LINE
  5
735
100
AcDbEntity
  8
10083256_HL
100
AcDbLine
 62
6
  6
HIDDEN
 10
324.8441805271
 20
222.7015321318
 11
327.3441805271
 21
224.2036836793
  0
LINE
  5
736
100
AcDbEntity
  8
10083256_HL
100
AcDbLine
 62
6
  6
HIDDEN
 10
324.8441805271
 20
237.8212564795
 11
327.3441805271
 21
236.3191049319
  0
LINE
  5
737
100
AcDbEntity
  8
10083384_HP_HL
100
AcDbLine
 62
6
  6
HIDDEN
 10
331.1941805271
 20
227.9113943056
 11
332.6441805271
 21
226.4613943056
  0
LINE
  5
738
100
AcDbEntity
  8
10083256_HL
100
AcDbLine
 62
6
  6
HIDDEN
 10
285.8441805271
 20
275.6613943056
 11
286.1441805271
 21
275.3613943056
  0
LINE
  5
739
100
AcDbEntity
  8
10083256_HL
100
AcDbLine
 62
6
  6
HIDDEN
 10
318.3433199081
 20
236.2613943056
 11
319.2446108367
 21
234.7613943056
  0
LINE
  5
73A
100
AcDbEntity
  8
10083384_HP_HL
100
AcDbLine
 62
6
  6
HIDDEN
 10
322.6441805271
 20
234.7417790634
 11
322.3441805271
 21
235.2613943056
  0
LINE
  5
73B
100
AcDbEntity
  8
10083384_HP_HL
100
AcDbLine
 62
6
  6
HIDDEN
 10
326.1941805271
 20
232.7613943056
 11
326.3042228668
 21
232.5707953824
  0
LINE
  5
73C
100
AcDbEntity
  8
10083256_HL
100
AcDbLine
 62
6
  6
HIDDEN
 10
324.8441805271
 20
242.8212564795
 11
324.8441805271
 21
237.8212564795
  0
LINE
  5
73D
100
AcDbEntity
  8
10083256_HL
100
AcDbLine
 62
6
  6
HIDDEN
 10
324.8441805271
 20
217.7015321318
 11
324.8441805271
 21
222.7015321318
  0
LINE
  5
73E
100
AcDbEntity
  8
10083384_HP_HL
100
AcDbLine
 62
6
  6
HIDDEN
 10
326.1941805271
 20
232.7613943056
 11
326.1941805271
 21
227.7613943056
  0
LINE
  5
73F
100
AcDbEntity
  8
10083256#AF0_AXIS
100
AcDbLine
 62
3
  6
CENTER
 10
327.3441805271
 20
246.3212564795
 11
327.3441805271
 21
236.3212564795
  0
LINE
  5
740
100
AcDbEntity
  8
10083256#AF0_AXIS
100
AcDbLine
 62
3
  6
CENTER
 10
327.3441805271
 20
230.2613943056
 11
327.3441805271
 21
223.2613943056
  0
LINE
  5
741
100
AcDbEntity
  8
10083256#AF0_AXIS
100
AcDbLine
 62
3
  6
CENTER
 10
327.3441805271
 20
230.2613943056
 11
327.3441805271
 21
224.2613943056
  0
LINE
  5
742
100
AcDbEntity
  8
10083256#AF0_AXIS
100
AcDbLine
 62
3
  6
CENTER
 10
327.3441805271
 20
230.2613943056
 11
327.3441805271
 21
224.2613943056
  0
LINE
  5
743
100
AcDbEntity
  8
10083256#AF0_AXIS
100
AcDbLine
 62
3
  6
CENTER
 10
327.3441805271
 20
223.2613943056
 11
327.3441805271
 21
213.7002007382
  0
LINE
  5
744
100
AcDbEntity
  8
10083256#AF0_AXIS
100
AcDbLine
 62
3
  6
CENTER
 10
327.3441805271
 20
224.2613943056
 11
327.3441805271
 21
214.2015321318
  0
LINE
  5
745
100
AcDbEntity
  8
10083256#AF0_AXIS
100
AcDbLine
 62
3
  6
CENTER
 10
327.3441805271
 20
214.2015321318
 11
327.3441805271
 21
224.2015321318
  0
LINE
  5
746
100
AcDbEntity
  8
10083256#AF0_AXIS
100
AcDbLine
 62
3
  6
CENTER
 10
327.3441805271
 20
230.2613943056
 11
327.3441805271
 21
236.2613943056
  0
LINE
  5
747
100
AcDbEntity
  8
10083256#AF0_AXIS
100
AcDbLine
 62
3
  6
CENTER
 10
327.3441805271
 20
230.2613943056
 11
327.3441805271
 21
236.2613943056
  0
LINE
  5
748
100
AcDbEntity
  8
10083256#AF0_AXIS
100
AcDbLine
 62
3
  6
CENTER
 10
327.3441805271
 20
230.2613943056
 11
327.3441805271
 21
237.2613943056
  0
LINE
  5
749
100
AcDbEntity
  8
10083256#AF0_AXIS
100
AcDbLine
 62
3
  6
CENTER
 10
327.3441805271
 20
236.2613943056
 11
327.3441805271
 21
246.3212564795
  0
LINE
  5
74A
100
AcDbEntity
  8
10083256#AF0_AXIS
100
AcDbLine
 62
3
  6
CENTER
 10
327.3441805271
 20
237.2613943056
 11
327.3441805271
 21
248.2398379532
  0
LINE
  5
74B
100
AcDbEntity
  8
10083256_HL
100
AcDbLine
 62
6
  6
HIDDEN
 10
329.8441805271
 20
242.8212564795
 11
329.8441805271
 21
237.8212564795
  0
LINE
  5
74C
100
AcDbEntity
  8
10083256_HL
100
AcDbLine
 62
6
  6
HIDDEN
 10
329.8441805271
 20
217.7015321318
 11
329.8441805271
 21
222.7015321318
  0
LINE
  5
74D
100
AcDbEntity
  8
10083384_HP_HL
100
AcDbLine
 62
6
  6
HIDDEN
 10
330.6707407279
 20
232.5707953824
 11
330.6941805271
 21
232.6113943056
  0
LINE
  5
74E
100
AcDbEntity
  8
10083256_CL
100
AcDbLine
 62
7
  6
CONTINUOUS
 10
301.9691805271
 20
182.6387990414
 11
300.5965852629
 21
180.2613943056
  0
LINE
  5
74F
100
AcDbEntity
  8
10083256_HL
100
AcDbLine
 62
6
  6
HIDDEN
 10
324.0043622783
 20
216.8617138829
 11
324.8441805271
 21
217.7015321318
  0
LINE
  5
750
100
AcDbEntity
  8
10083256_HL
100
AcDbLine
 62
6
  6
HIDDEN
 10
288.7343102157
 20
180.2615239942
 11
292.3341805271
 21
183.8613943056
  0
LINE
  5
751
100
AcDbEntity
  8
10083256_HL
100
AcDbLine
 62
6
  6
HIDDEN
 10
235.4441805271
 20
256.7613943056
 11
253.8408048542
 21
256.7613943056
  0
LINE
  5
752
100
AcDbEntity
  8
10083256_HL
100
AcDbLine
 62
6
  6
HIDDEN
 10
283.8441805271
 20
256.7613943056
 11
293.1441805271
 21
256.7613943056
  0
LINE
  5
753
100
AcDbEntity
  8
10083256_HL
100
AcDbLine
 62
6
  6
HIDDEN
 10
285.3441805271
 20
280.2613943056
 11
285.8441805271
 21
279.7613943056
  0
LINE
  5
754
100
AcDbEntity
  8
10083256_HL
100
AcDbLine
 62
6
  6
HIDDEN
 10
290.2441805271
 20
275.3613943056
 11
290.8441805271
 21
274.7613943056
  0
LINE
  5
755
100
AcDbEntity
  8
10083256_HL
100
AcDbLine
 62
6
  6
HIDDEN
 10
324.0043622783
 20
243.6610747283
 11
324.8441805271
 21
242.8212564795
  0
LINE
  5
756
100
AcDbEntity
  8
10083384_HP_HL
100
AcDbLine
 62
6
  6
HIDDEN
 10
330.6707407279
 20
227.9519932289
 11
330.6941805271
 21
227.9113943056
  0
LINE
  5
757
100
AcDbEntity
  8
10083256_CL
100
AcDbLine
 62
7
  6
CONTINUOUS
 10
301.9691805271
 20
277.8839895698
 11
300.5965852629
 21
280.2613943056
  0
LINE
  5
758
100
AcDbEntity
  8
10083256_HL
100
AcDbLine
 62
6
  6
HIDDEN
 10
330.3441805271
 20
221.2015321318
 11
330.3441805271
 21
217.2015321318
  0
LINE
  5
759
100
AcDbEntity
  8
10083256_HL
100
AcDbLine
 62
6
  6
HIDDEN
 10
330.3441805271
 20
239.3212564795
 11
330.3441805271
 21
243.3212564795
  0
LINE
  5
75A
100
AcDbEntity
  8
10083384_HP_HL
100
AcDbLine
 62
6
  6
HIDDEN
 10
330.6941805271
 20
232.6113943056
 11
330.6941805271
 21
227.9113943056
  0
LINE
  5
75B
100
AcDbEntity
  8
10083384_HP_HL
100
AcDbLine
 62
6
  6
HIDDEN
 10
331.1941805271
 20
232.6113943056
 11
331.1941805271
 21
227.9113943056
  0
LINE
  5
75C
100
AcDbEntity
  8
10083256_CL
100
AcDbLine
 62
7
  6
CONTINUOUS
 10
331.3441805271
 20
243.7127067879
 11
331.3441805271
 21
216.8100818234
  0
LINE
  5
75D
100
AcDbEntity
  8
10083384_HP_HL
100
AcDbLine
 62
6
  6
HIDDEN
 10
332.6441805271
 20
226.3863943056
 11
332.6441805271
 21
234.1363943056
  0
LINE
  5
75E
100
AcDbEntity
  8
10083256_HL
100
AcDbLine
 62
6
  6
HIDDEN
 10
257.3049064693
 20
261.7613943056
 11
274.0973861823
 21
261.7613943056
  0
LINE
  5
75F
100
AcDbEntity
  8
10083256_CL
100
AcDbLine
 62
7
  6
CONTINUOUS
 10
281.3441805271
 20
268.1436458087
 11
281.9634241411
 21
267.9777199824
  0
LINE
  5
760
100
AcDbEntity
  8
10083256_HL
100
AcDbLine
 62
6
  6
HIDDEN
 10
338.8441805271
 20
235.0592863209
 11
338.8441805271
 21
225.4635022904
  0
LINE
  5
761
100
AcDbEntity
  8
10083256_HL
100
AcDbLine
 62
6
  6
HIDDEN
 10
338.8441805271
 20
225.4635022904
 11
338.8441805271
 21
225.461395925
  0
LINE
  5
762
100
AcDbEntity
  8
10083256_HL
100
AcDbLine
 62
6
  6
HIDDEN
 10
338.8441805271
 20
235.0592863209
 11
338.8441805271
 21
235.0613926863
  0
LINE
  5
763
100
AcDbEntity
  8
10083256_HL
100
AcDbLine
 62
6
  6
HIDDEN
 10
338.8977703656
 20
235.2613943056
 11
338.8977703656
 21
225.2613943056
  0
LINE
  5
764
100
AcDbEntity
  8
10083256_CL
100
AcDbLine
 62
9
  6
CONTINUOUS
 10
339.2441805271
 20
225.0613943056
 11
339.2441805271
 21
235.4613943056
  0
LINE
  5
765
100
AcDbEntity
  8
10083256_CL
100
AcDbLine
 62
7
  6
CONTINUOUS
 10
235.8441056431
 20
265.8640829385
 11
281.3441805271
 21
268.1436458087
  0
LINE
  5
766
100
AcDbEntity
  8
10083256_CL
100
AcDbLine
 62
7
  6
CONTINUOUS
 10
282.2222431862
 20
267.9436458087
 11
282.9441805271
 21
267.9436458087
  0
LINE
  5
767
100
AcDbEntity
  8
10083256_CL
100
AcDbLine
 62
9
  6
CONTINUOUS
 10
342.4441805271
 20
225.0613943056
 11
342.4441805271
 21
235.4613943056
  0
LINE
  5
768
100
AcDbEntity
  8
10083256_HL
100
AcDbLine
 62
6
  6
HIDDEN
 10
342.8441805271
 20
235.0592863209
 11
342.8441805271
 21
225.4635022904
  0
LINE
  5
769
100
AcDbEntity
  8
10083256_HL
100
AcDbLine
 62
6
  6
HIDDEN
 10
342.8441805271
 20
225.4635022904
 11
342.8441805271
 21
225.461395925
  0
LINE
  5
76A
100
AcDbEntity
  8
10083256_HL
100
AcDbLine
 62
6
  6
HIDDEN
 10
342.8441805271
 20
235.0592863209
 11
342.8441805271
 21
235.0613926863
  0
LINE
  5
76B
100
AcDbEntity
  8
10083256_HL
100
AcDbLine
 62
6
  6
HIDDEN
 10
286.1441805271
 20
275.3613943056
 11
295.5441805271
 21
275.3613943056
  0
LINE
  5
76C
100
AcDbEntity
  8
10083256_HL
100
AcDbLine
 62
6
  6
HIDDEN
 10
285.8441805271
 20
275.6613943056
 11
295.8441805271
 21
275.6613943056
  0
LINE
  5
76D
100
AcDbEntity
  8
10083256_CL
100
AcDbLine
 62
7
  6
CONTINUOUS
 10
304.9691805271
 20
276.2613943056
 11
302.7191805271
 21
276.2613943056
  0
LINE
  5
76E
100
AcDbEntity
  8
10083256_HL
100
AcDbLine
 62
6
  6
HIDDEN
 10
285.8441805271
 20
279.7613943056
 11
295.8441805271
 21
279.7613943056
  0
LINE
  5
76F
100
AcDbEntity
  8
10083256_CL
100
AcDbLine
 62
7
  6
CONTINUOUS
 10
284.0441805271
 20
280.2613943056
 11
285.3441805271
 21
280.2613943056
  0
LINE
  5
770
100
AcDbEntity
  8
10083256_CL
100
AcDbLine
 62
7
  6
CONTINUOUS
 10
296.3441805271
 20
280.2613943056
 11
300.5965852629
 21
280.2613943056
  0
LINE
  5
771
100
AcDbEntity
  8
10083256_CL
100
AcDbLine
 62
7
  6
CONTINUOUS
 10
307.0917757913
 20
280.2613943056
 11
312.7941805271
 21
280.2613943056
  0
LINE
  5
772
100
AcDbEntity
  8
10083256_HL
100
AcDbLine
 62
6
  6
HIDDEN
 10
366.8441805271
 20
234.2613943056
 11
366.8441805271
 21
226.2613943056
  0
LINE
  5
773
100
AcDbEntity
  8
10083256_CL
100
AcDbLine
 62
9
  6
CONTINUOUS
 10
367.9226396229
 20
240.8339211477
 11
367.9226396229
 21
219.6888674636
  0
LINE
  5
774
100
AcDbEntity
  8
10083256_CL
100
AcDbLine
 62
9
  6
CONTINUOUS
 10
367.9313362699
 20
226.1662805027
 11
367.9313362699
 21
234.3565081086
  0
LINE
  5
775
100
AcDbEntity
  8
10083256_HL
100
AcDbLine
 62
6
  6
HIDDEN
 10
368.8441805271
 20
235.3527028067
 11
368.8441805271
 21
225.1700858046
  0
LINE
  5
776
100
AcDbEntity
  8
10083256_CL
100
AcDbLine
 62
7
  6
CONTINUOUS
 10
368.8441805271
 20
239.8370038139
 11
368.8441805271
 21
220.6857847973
  0
CIRCLE
  5
777
100
AcDbEntity
  8
10083256_CL
100
AcDbCircle
 62
7
  6
CONTINUOUS
 10
268.8441805271
 20
230.2613943056
 40
6.0
  0
ARC
  5
778
100
AcDbEntity
  8
10083256_HL
100
AcDbCircle
 62
6
  6
HIDDEN
 10
246.9441805271
 20
222.2513943056
 40
2.0
100
AcDbArc
 50
270.0
 51
360.0
  0
ARC
  5
779
100
AcDbEntity
  8
10083256_HL
100
AcDbCircle
 62
6
  6
HIDDEN
 10
241.9441805271
 20
222.2513943056
 40
2.0
100
AcDbArc
 50
358.5347950774
 51
360.0
  0
ARC
  5
77A
100
AcDbEntity
  8
10083256_CL
100
AcDbCircle
 62
7
  6
CONTINUOUS
 10
241.9441805271
 20
222.2513943056
 40
2.0
100
AcDbArc
 50
270.0
 51
358.5347950774
  0
ARC
  5
77B
100
AcDbEntity
  8
10083256_CL
100
AcDbCircle
 62
7
  6
CONTINUOUS
 10
235.9441805271
 20
196.656200358
 40
2.0
100
AcDbArc
 50
180.0
 51
267.131868059
  0
ARC
  5
77C
100
AcDbEntity
  8
10083256_HL
100
AcDbCircle
 62
6
  6
HIDDEN
 10
257.3049064693
 20
199.7613943056
 40
1.0
100
AcDbArc
 50
210.0
 51
270.0
  0
ARC
  5
77D
100
AcDbEntity
  8
10083256_HL
100
AcDbCircle
 62
6
  6
HIDDEN
 10
292.3348848444
 20
126.5816181536
 40
53.8016370883
100
AcDbArc
 50
86.3901582281
 51
89.7284294536
  0
ARC
  5
77E
100
AcDbEntity
  8
10083256_HL
100
AcDbCircle
 62
6
  6
HIDDEN
 10
292.3481585022
 20
126.721332888
 40
53.6618945234
100
AcDbArc
 50
90.1792904742
 51
93.8559114983
  0
ARC
  5
77F
100
AcDbEntity
  8
10083256_HL
100
AcDbCircle
 62
6
  6
HIDDEN
 10
292.3442153953
 20
127.0057986454
 40
53.3774179072
100
AcDbArc
 50
90.0000374278
 51
90.1760134262
  0
ARC
  5
780
100
AcDbEntity
  8
10083256_HL
100
AcDbCircle
 62
6
  6
HIDDEN
 10
292.344172266
 20
127.0124238787
 40
53.3707926739
100
AcDbArc
 50
89.736207685
 51
89.9999911313
  0
ARC
  5
781
100
AcDbEntity
  8
10083256_HL
100
AcDbCircle
 62
6
  6
HIDDEN
 10
274.0973861823
 20
210.7613943056
 40
12.0
100
AcDbArc
 50
270.0
 51
324.3146652873
  0
ARC
  5
782
100
AcDbEntity
  8
10083256_HL
100
AcDbCircle
 62
6
  6
HIDDEN
 10
298.7941805271
 20
231.2613943056
 40
10.0
100
AcDbArc
 50
90.0
 51
180.0
  0
ARC
  5
783
100
AcDbEntity
  8
10083256_HL
100
AcDbCircle
 62
6
  6
HIDDEN
 10
298.7941805271
 20
229.2613943056
 40
10.0
100
AcDbArc
 50
180.0
 51
270.0
  0
ARC
  5
784
100
AcDbEntity
  8
10083256_CL
100
AcDbCircle
 62
7
  6
CONTINUOUS
 10
298.7941805271
 20
230.2613943056
 40
10.0
100
AcDbArc
 50
90.0
 51
270.0
  0
ARC
  5
785
100
AcDbEntity
  8
10083256_CL
100
AcDbCircle
 62
7
  6
CONTINUOUS
 10
298.7941805271
 20
188.7613943056
 40
10.0
100
AcDbArc
 50
90.0
 51
164.5127260012
  0
CIRCLE
  5
786
100
AcDbEntity
  8
10083256_CL
100
AcDbCircle
 62
7
  6
CONTINUOUS
 10
298.8441805271
 20
230.2613943056
 40
6.2
  0
CIRCLE
  5
787
100
AcDbEntity
  8
10083256_CL
100
AcDbCircle
 62
7
  6
CONTINUOUS
 10
298.8441805271
 20
230.2613943056
 40
6.0
  0
ARC
  5
788
100
AcDbEntity
  8
10083314_HL
100
AcDbCircle
 62
6
  6
HIDDEN
 10
271.4391380199
 20
225.2613943056
 40
3.0
100
AcDbArc
 50
255.0
 51
270.0
  0
ARC
  5
789
100
AcDbEntity
  8
10083256_HL
100
AcDbCircle
 62
6
  6
HIDDEN
 10
294.3441805271
 20
205.3613943056
 40
2.0
100
AcDbArc
 50
233.1301023542
 51
360.0
  0
ARC
  5
78A
100
AcDbEntity
  8
10083314_HL
100
AcDbCircle
 62
6
  6
HIDDEN
 10
269.5441805271
 20
224.2162323649
 40
1.5
100
AcDbArc
 50
188.3758945455
 51
254.9999999998
  0
ARC
  5
78B
100
AcDbEntity
  8
10083256_HL
100
AcDbCircle
 62
6
  6
HIDDEN
 10
282.9441805271
 20
191.5791428026
 40
1.0
100
AcDbArc
 50
352.0
 51
25.8320854947
  0
ARC
  5
78C
100
AcDbEntity
  8
10083256_CL
100
AcDbCircle
 62
7
  6
CONTINUOUS
 10
282.2222431862
 20
191.5791428026
 40
1.0
100
AcDbArc
 50
90.0
 51
105.0
  0
ARC
  5
78D
100
AcDbEntity
  8
10083256_CL
100
AcDbCircle
 62
7
  6
CONTINUOUS
 10
282.9441805271
 20
191.5791428026
 40
1.0
100
AcDbArc
 50
25.8320854947
 51
90.0
  0
ARC
  5
78E
100
AcDbEntity
  8
10083256_CL
100
AcDbCircle
 62
7
  6
CONTINUOUS
 10
302.7191805271
 20
183.5113943056
 40
0.75
100
AcDbArc
 50
90.0
 51
180.0
  0
ARC
  5
78F
100
AcDbEntity
  8
10083196_HL
100
AcDbCircle
 62
6
  6
HIDDEN
 10
295.2441805271
 20
226.3613943056
 40
0.4
100
AcDbArc
 50
90.0
 51
180.0
  0
ARC
  5
790
100
AcDbEntity
  8
10083196_HL
100
AcDbCircle
 62
6
  6
HIDDEN
 10
295.2441805271
 20
226.1613943056
 40
0.4
100
AcDbArc
 50
179.9999998841
 51
270.0
  0
ARC
  5
791
100
AcDbEntity
  8
10083384_HP_HL
100
AcDbCircle
 62
6
  6
HIDDEN
 10
301.3441805271
 20
226.9613943056
 40
0.2
100
AcDbArc
 50
180.0
 51
270.0
  0
CIRCLE
  5
792
100
AcDbEntity
  8
10083256_CL
100
AcDbCircle
 62
7
  6
CONTINUOUS
 10
298.8441805271
 20
230.2613943056
 40
0.1
  0
ARC
  5
793
100
AcDbEntity
  8
10083256_CL
100
AcDbCircle
 62
7
  6
CONTINUOUS
 10
59.2464006437
 20
299.6958618964
 40
264.5204223912
100
AcDbArc
 50
335.8400764706
 51
336.5770705491
  0
ARC
  5
794
100
AcDbEntity
  8
10083256_HL
100
AcDbCircle
 62
6
  6
HIDDEN
 10
290.9571050347
 20
336.8953549424
 40
56.9114260842
100
AcDbArc
 50
264.3399671144
 51
266.1486921145
  0
ARC
  5
795
100
AcDbEntity
  8
10083256_HL
100
AcDbCircle
 62
6
  6
HIDDEN
 10
290.7615086844
 20
336.5534109065
 40
56.5681655872
100
AcDbArc
 50
273.0297691664
 51
275.6636987091
  0
ARC
  5
796
100
AcDbEntity
  8
10083256_HL
100
AcDbCircle
 62
6
  6
HIDDEN
 10
290.8431756492
 20
335.1042251368
 40
55.1166892093
100
AcDbArc
 50
266.1417964311
 51
273.0246168343
  0
ARC
  5
797
100
AcDbEntity
  8
10083256_HL
100
AcDbCircle
 62
6
  6
HIDDEN
 10
274.0973861823
 20
249.7613943056
 40
12.0
100
AcDbArc
 50
35.6853347127
 51
90.0
  0
ARC
  5
798
100
AcDbEntity
  8
10083314_HL
100
AcDbCircle
 62
6
  6
HIDDEN
 10
271.4391380199
 20
235.2613943056
 40
3.0
100
AcDbArc
 50
90.0
 51
105.0
  0
ARC
  5
799
100
AcDbEntity
  8
10083256_HL
100
AcDbCircle
 62
6
  6
HIDDEN
 10
294.3441805271
 20
255.1613943056
 40
2.0
100
AcDbArc
 50
0.0
 51
126.8698976458
  0
ARC
  5
79A
100
AcDbEntity
  8
10083256_HL
100
AcDbCircle
 62
6
  6
HIDDEN
 10
246.9441805271
 20
238.2713943056
 40
2.0
100
AcDbArc
 50
0.0
 51
90.0
  0
ARC
  5
79B
100
AcDbEntity
  8
10083256_HL
100
AcDbCircle
 62
6
  6
HIDDEN
 10
241.9441805271
 20
238.2713943056
 40
2.0
100
AcDbArc
 50
0.0
 51
1.465205071
  0
ARC
  5
79C
100
AcDbEntity
  8
10083256_CL
100
AcDbCircle
 62
7
  6
CONTINUOUS
 10
241.9441805271
 20
238.2713943056
 40
2.0
100
AcDbArc
 50
1.465205071
 51
90.0
  0
ARC
  5
79D
100
AcDbEntity
  8
10083256_CL
100
AcDbCircle
 62
7
  6
CONTINUOUS
 10
235.9441805271
 20
263.8665882532
 40
2.0
100
AcDbArc
 50
92.868131941
 51
180.0
  0
ARC
  5
79E
100
AcDbEntity
  8
10083314_HL
100
AcDbCircle
 62
6
  6
HIDDEN
 10
269.5441805271
 20
236.3065562464
 40
1.5
100
AcDbArc
 50
105.0000000002
 51
171.6241054545
  0
ARC
  5
79F
100
AcDbEntity
  8
10083256_HL
100
AcDbCircle
 62
6
  6
HIDDEN
 10
257.3049064693
 20
260.7613943056
 40
1.0
100
AcDbArc
 50
90.0
 51
150.0
  0
ARC
  5
7A0
100
AcDbEntity
  8
10083256_HL
100
AcDbCircle
 62
6
  6
HIDDEN
 10
282.9441805271
 20
268.9436458087
 40
1.0
100
AcDbArc
 50
334.1679145053
 51
8.0
  0
ARC
  5
7A1
100
AcDbEntity
  8
10083256_CL
100
AcDbCircle
 62
7
  6
CONTINUOUS
 10
282.2222431862
 20
268.9436458087
 40
1.0
100
AcDbArc
 50
255.0
 51
270.0
  0
ARC
  5
7A2
100
AcDbEntity
  8
10083256_CL
100
AcDbCircle
 62
7
  6
CONTINUOUS
 10
282.9441805271
 20
268.9436458087
 40
1.0
100
AcDbArc
 50
270.0
 51
334.1679145053
  0
ARC
  5
7A3
100
AcDbEntity
  8
10083256_CL
100
AcDbCircle
 62
7
  6
CONTINUOUS
 10
302.7191805271
 20
277.0113943056
 40
0.75
100
AcDbArc
 50
180.0
 51
270.0
  0
ARC
  5
7A4
100
AcDbEntity
  8
10083196_HL
100
AcDbCircle
 62
6
  6
HIDDEN
 10
295.2441805271
 20
234.1613943056
 40
0.4
100
AcDbArc
 50
180.0
 51
270.0
  0
ARC
  5
7A5
100
AcDbEntity
  8
10083196_HL
100
AcDbCircle
 62
6
  6
HIDDEN
 10
295.2441805271
 20
234.3613943056
 40
0.4
100
AcDbArc
 50
90.0
 51
180.0000001159
  0
ARC
  5
7A6
100
AcDbEntity
  8
10083384_HP_HL
100
AcDbCircle
 62
6
  6
HIDDEN
 10
301.3441805271
 20
233.5613943056
 40
0.2
100
AcDbArc
 50
90.0
 51
180.0
  0
ARC
  5
7A7
100
AcDbEntity
  8
10083256_HL
100
AcDbCircle
 62
6
  6
HIDDEN
 10
327.3442661878
 20
201.1256146307
 40
16.0759175129
100
AcDbArc
 50
90.0003053081
 51
91.6659179927
  0
ARC
  5
7A8
100
AcDbEntity
  8
10083256_HL
100
AcDbCircle
 62
6
  6
HIDDEN
 10
327.3441410054
 20
201.1362366875
 40
16.065295456
100
AcDbArc
 50
89.443249223
 51
89.9998590556
  0
ARC
  5
7A9
100
AcDbEntity
  8
10083314_HL
100
AcDbCircle
 62
6
  6
HIDDEN
 10
308.2441805271
 20
230.2613943056
 40
10.2625
100
AcDbArc
 50
85.3941251425
 51
94.6058748575
  0
ARC
  5
7AA
100
AcDbEntity
  8
10083314_HL
100
AcDbCircle
 62
6
  6
HIDDEN
 10
308.2441805271
 20
230.2613943056
 40
10.2625
100
AcDbArc
 50
265.3941251425
 51
274.6058748575
  0
ARC
  5
7AB
100
AcDbEntity
  8
10083256_CL
100
AcDbCircle
 62
7
  6
CONTINUOUS
 10
322.7941805271
 20
206.7613943056
 40
10.0
100
AcDbArc
 50
90.0
 51
180.0
  0
ARC
  5
7AC
100
AcDbEntity
  8
10083256_CL
100
AcDbCircle
 62
7
  6
CONTINUOUS
 10
327.3439192285
 20
230.9401249885
 40
3.678730742
100
AcDbArc
 50
257.7538251286
 51
270.004069695
  0
ARC
  5
7AD
100
AcDbEntity
  8
10083256_CL
100
AcDbCircle
 62
3
  6
CONTINUOUS
 10
327.3441805271
 20
230.2613943056
 40
3.0
100
AcDbArc
 50
255.0
 51
195.0
  0
CIRCLE
  5
7AE
100
AcDbEntity
  8
10083256_CL
100
AcDbCircle
 62
7
  6
CONTINUOUS
 10
327.3441805271
 20
230.2613943056
 40
2.5
  0
CIRCLE
  5
7AF
100
AcDbEntity
  8
10002541_HP_HL
100
AcDbCircle
 62
6
  6
HIDDEN
 10
305.7141805271
 20
221.7613943056
 40
1.5
  0
ARC
  5
7B0
100
AcDbEntity
  8
10083256_HL
100
AcDbCircle
 62
6
  6
HIDDEN
 10
367.8441805271
 20
225.1700858046
 40
1.0
100
AcDbArc
 50
0.0
 51
85.0
  0
ARC
  5
7B1
100
AcDbEntity
  8
10083256_CL
100
AcDbCircle
 62
7
  6
CONTINUOUS
 10
367.8441805271
 20
220.6857847973
 40
1.0
100
AcDbArc
 50
274.5000000004
 51
360.0
  0
ARC
  5
7B2
100
AcDbEntity
  8
10083256_CL
100
AcDbCircle
 62
7
  6
CONTINUOUS
 10
304.9691805271
 20
183.5113943056
 40
0.75
100
AcDbArc
 50
0.0
 51
90.0
  0
ARC
  5
7B3
100
AcDbEntity
  8
10083314_HL
100
AcDbCircle
 62
6
  6
HIDDEN
 10
306.6441805271
 20
222.0863943056
 40
0.5
100
AcDbArc
 50
0.0000000355
 51
90.0
  0
ARC
  5
7B4
100
AcDbEntity
  8
10083256_HL
100
AcDbCircle
 62
6
  6
HIDDEN
 10
342.4441805271
 20
225.4613943056
 40
0.4
100
AcDbArc
 50
270.0
 51
360.0
  0
ARC
  5
7B5
100
AcDbEntity
  8
10083256_HL
100
AcDbCircle
 62
6
  6
HIDDEN
 10
339.2441805271
 20
225.4613943056
 40
0.4
100
AcDbArc
 50
180.0
 51
270.0
  0
ARC
  5
7B6
100
AcDbEntity
  8
10083314_HL
100
AcDbCircle
 62
6
  6
HIDDEN
 10
308.9441805271
 20
225.3613943056
 40
0.4
100
AcDbArc
 50
0.0
 51
90.0
  0
ARC
  5
7B7
100
AcDbEntity
  8
10083196_HL
100
AcDbCircle
 62
6
  6
HIDDEN
 10
313.9441805271
 20
226.3613943056
 40
0.4
100
AcDbArc
 50
0.0
 51
90.0
  0
ARC
  5
7B8
100
AcDbEntity
  8
10083196_HL
100
AcDbCircle
 62
6
  6
HIDDEN
 10
311.9441805271
 20
220.3613943056
 40
0.4
100
AcDbArc
 50
270.0
 51
360.0
  0
ARC
  5
7B9
100
AcDbEntity
  8
10083314_HL
100
AcDbCircle
 62
6
  6
HIDDEN
 10
307.4441805271
 20
220.3310667053
 40
0.3
100
AcDbArc
 50
180.0
 51
265.3941251425
  0
ARC
  5
7BA
100
AcDbEntity
  8
10083314_HL
100
AcDbCircle
 62
6
  6
HIDDEN
 10
309.0441805271
 20
220.3310667053
 40
0.3
100
AcDbArc
 50
274.6058748576
 51
360.0
  0
ARC
  5
7BB
100
AcDbEntity
  8
10083256_CL
100
AcDbCircle
 62
7
  6
CONTINUOUS
 10
548.4419604106
 20
299.6958618964
 40
264.5204223912
100
AcDbArc
 50
203.4229294509
 51
204.1599235294
  0
ARC
  5
7BC
100
AcDbEntity
  8
10083256_HL
100
AcDbCircle
 62
6
  6
HIDDEN
 10
327.344094866
 20
259.3971740235
 40
16.0759175559
100
AcDbArc
 50
270.0003053037
 51
271.6659179725
  0
ARC
  5
7BD
100
AcDbEntity
  8
10083256_HL
100
AcDbCircle
 62
6
  6
HIDDEN
 10
327.3442200474
 20
259.3865517247
 40
16.0652952569
100
AcDbArc
 50
269.4432491652
 51
269.9998590549
  0
ARC
  5
7BE
100
AcDbEntity
  8
10083256_CL
100
AcDbCircle
 62
7
  6
CONTINUOUS
 10
322.7941805271
 20
253.7613943056
 40
10.0
100
AcDbArc
 50
180.0
 51
270.0
  0
CIRCLE
  5
7BF
100
AcDbEntity
  8
10002541_HP_HL
100
AcDbCircle
 62
6
  6
HIDDEN
 10
305.7141805271
 20
238.7613943056
 40
1.5
  0
ARC
  5
7C0
100
AcDbEntity
  8
10083256_HL
100
AcDbCircle
 62
6
  6
HIDDEN
 10
367.8441805271
 20
235.3527028067
 40
1.0
100
AcDbArc
 50
275.0
 51
360.0
  0
ARC
  5
7C1
100
AcDbEntity
  8
10083256_CL
100
AcDbCircle
 62
7
  6
CONTINUOUS
 10
367.8441805271
 20
239.837003814
 40
1.0
100
AcDbArc
 50
0.0
 51
85.4999999996
  0
ARC
  5
7C2
100
AcDbEntity
  8
10083256_CL
100
AcDbCircle
 62
7
  6
CONTINUOUS
 10
304.9691805271
 20
277.0113943056
 40
0.75
100
AcDbArc
 50
270.0
 51
360.0
  0
ARC
  5
7C3
100
AcDbEntity
  8
10083314_HL
100
AcDbCircle
 62
6
  6
HIDDEN
 10
306.6441805271
 20
238.4363943056
 40
0.5
100
AcDbArc
 50
270.0
 51
359.9999999645
  0
ARC
  5
7C4
100
AcDbEntity
  8
10083256_HL
100
AcDbCircle
 62
6
  6
HIDDEN
 10
342.4441805271
 20
235.0613943056
 40
0.4
100
AcDbArc
 50
0.0
 51
90.0
  0
ARC
  5
7C5
100
AcDbEntity
  8
10083256_HL
100
AcDbCircle
 62
6
  6
HIDDEN
 10
339.2441805271
 20
235.0613943056
 40
0.4
100
AcDbArc
 50
90.0
 51
180.0
  0
ARC
  5
7C6
100
AcDbEntity
  8
10083314_HL
100
AcDbCircle
 62
6
  6
HIDDEN
 10
308.9441805271
 20
235.1613943056
 40
0.4
100
AcDbArc
 50
270.0
 51
360.0
  0
ARC
  5
7C7
100
AcDbEntity
  8
10083196_HL
100
AcDbCircle
 62
6
  6
HIDDEN
 10
313.9441805271
 20
234.1613943056
 40
0.4
100
AcDbArc
 50
270.0
 51
360.0
  0
ARC
  5
7C8
100
AcDbEntity
  8
10083196_HL
100
AcDbCircle
 62
6
  6
HIDDEN
 10
311.9441805271
 20
240.1613943056
 40
0.4
100
AcDbArc
 50
0.0
 51
90.0
  0
ARC
  5
7C9
100
AcDbEntity
  8
10083314_HL
100
AcDbCircle
 62
6
  6
HIDDEN
 10
309.0441805271
 20
240.191721906
 40
0.3
100
AcDbArc
 50
0.0
 51
85.3941251424
  0
ARC
  5
7CA
100
AcDbEntity
  8
10083314_HL
100
AcDbCircle
 62
6
  6
HIDDEN
 10
307.4441805271
 20
240.191721906
 40
0.3
100
AcDbArc
 50
94.6058748575
 51
180.0
  0
SPLINE
  5
7CB
100
AcDbEntity
  8
10083256_HL
100
AcDbSpline
 62
6
  6
HIDDEN
 70
0
 71
3
 72
25
 73
21
 74
0
 42
0.0000001
 43
0.0000001
 44
0.0000000001
 40
0.0
 40
0.0
 40
0.0
 40
0.0
 40
0.1255358748
 40
0.2510650922
 40
0.3765813056
 40
0.4393316622
 40
0.5020736058
 40
0.5648035559
 40
0.6275160523
 40
0.6902019372
 40
0.7528447885
 40
0.8154121931
 40
0.8466496669
 40
0.8778335889
 40
0.9089296354
 40
0.939863689
 40
0.9552253149
 40
0.9704544005
 40
0.9854508123
 40
1.0
 40
1.0
 40
1.0
 40
1.0
 10
235.8441056431
 20
245.3530392008
 30
0.0
 10
236.2166939931
 20
245.4013443579
 30
0.0
 10
236.9614835891
 20
245.5008249712
 30
0.0
 10
238.0771792778
 20
245.6604640749
 30
0.0
 10
239.0052697683
 20
245.8042773819
 30
0.0
 10
239.746283685
 20
245.9277581583
 30
0.0
 10
240.3010995486
 20
246.0252978927
 30
0.0
 10
240.854745829
 20
246.1286766268
 30
0.0
 10
241.4068577425
 20
246.2391354744
 30
0.0
 10
241.9568761556
 20
246.3584339162
 30
0.0
 10
242.5038408518
 20
246.489226636
 30
0.0
 10
242.9559824923
 20
246.6113391736
 30
0.0
 10
243.3136653072
 20
246.7209639443
 30
0.0
 10
243.5787782539
 20
246.8108727437
 30
0.0
 10
243.8391685038
 20
246.9111964907
 30
0.0
 10
244.0501904327
 20
247.0074115432
 30
0.0
 10
244.2113136703
 20
247.0967387361
 30
0.0
 10
244.3254770881
 20
247.1718855773
 30
0.0
 10
244.4284153583
 20
247.2580470622
 30
0.0
 10
244.4846041947
 20
247.3282836051
 30
0.0
 10
244.5047847255
 20
247.3668679444
 30
0.0
  0
SPLINE
  5
7CC
100
AcDbEntity
  8
10083256_HL
100
AcDbSpline
 62
6
  6
HIDDEN
 70
0
 71
3
 72
24
 73
20
 74
0
 42
0.0000001
 43
0.0000001
 44
0.0000000001
 40
0.0
 40
0.0
 40
0.0
 40
0.0
 40
0.1243035477
 40
0.2479968987
 40
0.3711191108
 40
0.432493575
 40
0.4937624739
 40
0.5549525706
 40
0.6161068296
 40
0.6772983403
 40
0.7386629733
 40
0.8004841047
 40
0.8317842026
 40
0.8635551183
 40
0.8961200609
 40
0.9299291551
 40
0.9474253886
 40
0.9651096241
 40
1.0
 40
1.0
 40
1.0
 40
1.0
 10
247.7320694296
 20
247.440292509
 30
0.0
 10
247.7254829029
 20
247.5345490439
 30
0.0
 10
247.7095989327
 20
247.722423679
 30
0.0
 10
247.6765318073
 20
248.002629943
 30
0.0
 10
247.6399899573
 20
248.2341119826
 30
0.0
 10
247.6040646426
 20
248.4174580586
 30
0.0
 10
247.573297739
 20
248.5537881848
 30
0.0
 10
247.5380221399
 20
248.6888585335
 30
0.0
 10
247.4973001267
 20
248.8223404086
 30
0.0
 10
247.4497363576
 20
248.9537249662
 30
0.0
 10
247.3931158533
 20
249.0820551344
 30
0.0
 10
247.3353503939
 20
249.1847044104
 30
0.0
 10
247.2792357025
 20
249.2614369017
 30
0.0
 10
247.2299690332
 20
249.3151770827
 30
0.0
 10
247.1711900636
 20
249.3617875844
 30
0.0
 10
247.1120230802
 20
249.3884131648
 30
0.0
 10
247.0598595735
 20
249.3963826048
 30
0.0
 10
247.0063409966
 20
249.393874631
 30
0.0
 10
246.967683199
 20
249.3802650817
 30
0.0
 10
246.9441805271
 20
249.367977178
 30
0.0
  0
SPLINE
  5
7CD
100
AcDbEntity
  8
10083256_HL
100
AcDbSpline
 62
6
  6
HIDDEN
 70
0
 71
3
 72
18
 73
14
 74
0
 42
0.0000001
 43
0.0000001
 44
0.0000000001
 40
0.0
 40
0.0
 40
0.0
 40
0.0
 40
0.1278098226
 40
0.2547334417
 40
0.3809400085
 40
0.5065233354
 40
0.6314807188
 40
0.6936874859
 40
0.7556655129
 40
0.8173563898
 40
0.878680326
 40
0.9395585915
 40
1.0
 40
1.0
 40
1.0
 40
1.0
 10
248.9441805271
 20
243.0609443713
 30
0.0
 10
248.9441805271
 20
243.2557877565
 30
0.0
 10
248.9191828536
 20
243.6444292121
 30
0.0
 10
248.8188612497
 20
244.2173243866
 30
0.0
 10
248.6681634523
 20
244.7753225385
 30
0.0
 10
248.4790518867
 20
245.3180123035
 30
0.0
 10
248.2997077183
 20
245.7598785032
 30
0.0
 10
248.1514802783
 20
246.1095647633
 30
0.0
 10
248.0411670698
 20
246.3705775169
 30
0.0
 10
247.9356156782
 20
246.6321247423
 30
0.0
 10
247.840921995
 20
246.8961355464
 30
0.0
 10
247.7662864519
 20
247.1647600133
 30
0.0
 10
247.7384925082
 20
247.3483749984
 30
0.0
 10
247.7320694296
 20
247.440292509
 30
0.0
  0
SPLINE
  5
7CE
100
AcDbEntity
  8
10083256_HL
100
AcDbSpline
 62
6
  6
HIDDEN
 70
0
 71
3
 72
18
 73
14
 74
0
 42
0.0000001
 43
0.0000001
 44
0.0000000001
 40
0.0
 40
0.0
 40
0.0
 40
0.0
 40
0.0604414229
 40
0.1213196893
 40
0.1826436261
 40
0.2443345051
 40
0.3063125355
 40
0.3685193053
 40
0.4934766899
 40
0.6190600135
 40
0.7452665702
 40
0.872190176
 40
1.0
 40
1.0
 40
1.0
 40
1.0
 10
247.7320694296
 20
213.0824961023
 30
0.0
 10
247.7384925098
 20
213.1744136346
 30
0.0
 10
247.7662864556
 20
213.3580286437
 30
0.0
 10
247.8409220273
 20
213.626653128
 30
0.0
 10
247.9356157108
 20
213.8906639374
 30
0.0
 10
248.0411671017
 20
214.152211173
 30
0.0
 10
248.1514802791
 20
214.4132239531
 30
0.0
 10
248.2997078476
 20
214.7629101712
 30
0.0
 10
248.4790518803
 20
215.2047764274
 30
0.0
 10
248.6681634843
 20
215.7474661566
 30
0.0
 10
248.8188612584
 20
216.3054642743
 30
0.0
 10
248.9191828545
 20
216.8783594152
 30
0.0
 10
248.9441805271
 20
217.2670008527
 30
0.0
 10
248.9441805271
 20
217.46184424
 30
0.0
  0
SPLINE
  5
7CF
100
AcDbEntity
  8
10083256_HL
100
AcDbSpline
 62
6
  6
HIDDEN
 70
0
 71
3
 72
24
 73
20
 74
0
 42
0.0000001
 43
0.0000001
 44
0.0000000001
 40
0.0
 40
0.0
 40
0.0
 40
0.0
 40
0.0348896645
 40
0.0525736932
 40
0.0700697937
 40
0.1038784904
 40
0.136441971
 40
0.168212141
 40
0.199512284
 40
0.261333299
 40
0.3226980541
 40
0.383889832
 40
0.4450443229
 40
0.5062347496
 40
0.5675039689
 40
0.6288787555
 40
0.7520016378
 40
0.8756957178
 40
1.0
 40
1.0
 40
1.0
 40
1.0
 10
246.9441805271
 20
211.1548114333
 30
0.0
 10
246.9676827188
 20
211.1425237806
 30
0.0
 10
247.006339718
 20
211.1289142345
 30
0.0
 10
247.0598574737
 20
211.1264059299
 30
0.0
 10
247.1120204884
 20
211.1343746792
 30
0.0
 10
247.1711864813
 20
211.1609989629
 30
0.0
 10
247.2299637221
 20
211.2076082634
 30
0.0
 10
247.2792312705
 20
211.2613454037
 30
0.0
 10
247.3353450828
 20
211.3380778338
 30
0.0
 10
247.3931131201
 20
211.4407255558
 30
0.0
 10
247.4497338183
 20
211.5690560179
 30
0.0
 10
247.497297107
 20
211.7004411855
 30
0.0
 10
247.5380208726
 20
211.8339231858
 30
0.0
 10
247.5732959794
 20
211.9689943671
 30
0.0
 10
247.6040633177
 20
212.1053251356
 30
0.0
 10
247.6399890076
 20
212.2886721518
 30
0.0
 10
247.6765314645
 20
212.5201554114
 30
0.0
 10
247.7095987239
 20
212.8003632859
 30
0.0
 10
247.7254828642
 20
212.9882390142
 30
0.0
 10
247.7320694296
 20
213.0824961023
 30
0.0
  0
SPLINE
  5
7D0
100
AcDbEntity
  8
10083256_HL
100
AcDbSpline
 62
6
  6
HIDDEN
 70
0
 71
3
 72
25
 73
21
 74
0
 42
0.0000001
 43
0.0000001
 44
0.0000000001
 40
0.0
 40
0.0
 40
0.0
 40
0.0
 40
0.1255358748
 40
0.2510650922
 40
0.3765813056
 40
0.4393316622
 40
0.5020736058
 40
0.5648035559
 40
0.6275160523
 40
0.6902019372
 40
0.7528447885
 40
0.8154121931
 40
0.8466496669
 40
0.8778335889
 40
0.9089296354
 40
0.939863689
 40
0.9552253149
 40
0.9704544005
 40
0.9854508123
 40
1.0
 40
1.0
 40
1.0
 40
1.0
 10
235.8441056431
 20
215.1697494104
 30
0.0
 10
236.2166939931
 20
215.1214442534
 30
0.0
 10
236.9614835891
 20
215.0219636401
 30
0.0
 10
238.0771792778
 20
214.8623245364
 30
0.0
 10
239.0052697683
 20
214.7185112293
 30
0.0
 10
239.746283685
 20
214.595030453
 30
0.0
 10
240.3010995486
 20
214.4974907185
 30
0.0
 10
240.854745829
 20
214.3941119845
 30
0.0
 10
241.4068577425
 20
214.2836531369
 30
0.0
 10
241.9568761556
 20
214.1643546951
 30
0.0
 10
242.5038408518
 20
214.0335619752
 30
0.0
 10
242.9559824923
 20
213.9114494376
 30
0.0
 10
243.3136653072
 20
213.801824667
 30
0.0
 10
243.5787782539
 20
213.7119158675
 30
0.0
 10
243.8391685038
 20
213.6115921205
 30
0.0
 10
244.0501904327
 20
213.5153770681
 30
0.0
 10
244.2113136703
 20
213.4260498752
 30
0.0
 10
244.3254770881
 20
213.3509030339
 30
0.0
 10
244.4284153583
 20
213.2647415491
 30
0.0
 10
244.4846041947
 20
213.1945050061
 30
0.0
 10
244.5047847255
 20
213.1559206669
 30
0.0
  0
SPLINE
  5
7D1
100
AcDbEntity
  8
10083256_CL
100
AcDbSpline
 62
9
  6
CONTINUOUS
 70
0
 71
3
 72
9
 73
5
 74
0
 42
0.0000001
 43
0.0000001
 44
0.0000000001
 40
0.0
 40
0.0
 40
0.0
 40
0.0
 40
0.491813159
 40
1.0
 40
1.0
 40
1.0
 40
1.0
 10
247.7320694296
 20
213.0824961023
 30
0.0
 10
247.6045887904
 20
213.107301548
 30
0.0
 10
247.3425800921
 20
213.1439385298
 30
0.0
 10
247.0783758397
 20
213.1559206669
 30
0.0
 10
246.9441805271
 20
213.1559206669
 30
0.0
  0
SPLINE
  5
7D2
100
AcDbEntity
  8
10083256_HL
100
AcDbSpline
 62
6
  6
HIDDEN
 70
0
 71
3
 72
14
 73
10
 74
0
 42
0.0000001
 43
0.0000001
 44
0.0000000001
 40
0.0
 40
0.0
 40
0.0
 40
0.0
 40
0.2549667737
 40
0.3816932077
 40
0.5077244227
 40
0.6328650936
 40
0.7568522559
 40
0.8793499039
 40
1.0
 40
1.0
 40
1.0
 40
1.0
 10
246.9441805271
 20
211.1548114333
 30
0.0
 10
246.7033520593
 20
211.2807237997
 30
0.0
 10
246.3477665169
 20
211.479226104
 30
0.0
 10
245.8915737189
 20
211.7706059352
 30
0.0
 10
245.5629008948
 20
212.0037839632
 30
0.0
 10
245.2511812675
 20
212.2547067786
 30
0.0
 10
244.962503026
 20
212.5267173211
 30
0.0
 10
244.7060771779
 20
212.8233390162
 30
0.0
 10
244.5643837106
 20
213.041969876
 30
0.0
 10
244.5047847255
 20
213.1559206669
 30
0.0
  0
SPLINE
  5
7D3
100
AcDbEntity
  8
10083256_HL
100
AcDbSpline
 62
6
  6
HIDDEN
 70
0
 71
3
 72
14
 73
10
 74
0
 42
0.0000001
 43
0.0000001
 44
0.0000000001
 40
0.0
 40
0.0
 40
0.0
 40
0.0
 40
0.1206500399
 40
0.2431476383
 40
0.367134782
 40
0.4922754415
 40
0.6183066817
 40
0.745033143
 40
1.0
 40
1.0
 40
1.0
 40
1.0
 10
244.5047847255
 20
247.3668679444
 30
0.0
 10
244.5643836829
 20
247.4808186823
 30
0.0
 10
244.7060770852
 20
247.6994494462
 30
0.0
 10
244.9625027938
 20
247.9960710909
 30
0.0
 10
245.2511810153
 20
248.2680815299
 30
0.0
 10
245.5629005379
 20
248.519004466
 30
0.0
 10
245.8915734116
 20
248.7521825054
 30
0.0
 10
246.3477663065
 20
249.0435624543
 30
0.0
 10
246.7033519802
 20
249.2420647702
 30
0.0
 10
246.9441805271
 20
249.367977178
 30
0.0
  0
SPLINE
  5
7D4
100
AcDbEntity
  8
10083256_CL
100
AcDbSpline
 62
9
  6
CONTINUOUS
 70
0
 71
3
 72
9
 73
5
 74
0
 42
0.0000001
 43
0.0000001
 44
0.0000000001
 40
0.0
 40
0.0
 40
0.0
 40
0.0
 40
0.508186841
 40
1.0
 40
1.0
 40
1.0
 40
1.0
 10
246.9441805271
 20
247.3668679444
 30
0.0
 10
247.0783758397
 20
247.3668679444
 30
0.0
 10
247.3425800921
 20
247.3788500814
 30
0.0
 10
247.6045887904
 20
247.4154870632
 30
0.0
 10
247.7320694296
 20
247.440292509
 30
0.0
  0
SPLINE
  5
7D5
100
AcDbEntity
  8
10083256_HL
100
AcDbSpline
 62
6
  6
HIDDEN
 70
0
 71
3
 72
9
 73
5
 74
0
 42
0.0000001
 43
0.0000001
 44
0.0000000001
 40
0.0
 40
0.0
 40
0.0
 40
0.0
 40
0.2065026658
 40
1.0
 40
1.0
 40
1.0
 40
1.0
 10
326.5636139287
 20
227.3450991851
 30
0.0
 10
326.6164734768
 20
227.3336034944
 30
0.0
 10
326.8737408005
 20
227.2836342169
 30
0.0
 10
327.136359876
 20
227.2613942558
 30
0.0
 10
327.3441805292
 20
227.2613942558
 30
0.0
  0
SPLINE
  5
7D6
100
AcDbEntity
  8
10083384_HP_HL
100
AcDbSpline
 62
6
  6
HIDDEN
 70
0
 71
3
 72
15
 73
11
 74
0
 42
0.0000001
 43
0.0000001
 44
0.0000000001
 40
0.0
 40
0.0
 40
0.0
 40
0.0
 40
0.1308224305
 40
0.2572496197
 40
0.379798848
 40
0.5
 40
0.620201152
 40
0.7427503803
 40
0.8691775695
 40
1.0
 40
1.0
 40
1.0
 40
1.0
 10
330.6707407279
 20
229.1066937673
 30
0.0
 10
330.6440943374
 20
229.0605408651
 30
0.0
 10
330.595159587
 20
228.9676886861
 30
0.0
 10
330.5375212544
 20
228.8237286812
 30
0.0
 10
330.5006431405
 20
228.6773569048
 30
0.0
 10
330.4878839406
 20
228.5293434981
 30
0.0
 10
330.5006431405
 20
228.3813300913
 30
0.0
 10
330.5375212544
 20
228.2349583149
 30
0.0
 10
330.595159587
 20
228.09099831
 30
0.0
 10
330.6440943374
 20
227.9981461311
 30
0.0
 10
330.6707407279
 20
227.9519932289
 30
0.0
  0
SPLINE
  5
7D7
100
AcDbEntity
  8
10083384_HP_HL
100
AcDbSpline
 62
6
  6
HIDDEN
 70
0
 71
3
 72
10
 73
6
 74
0
 42
0.0000001
 43
0.0000001
 44
0.0000000001
 40
0.0
 40
0.0
 40
0.0
 40
0.0
 40
0.4999044167
 40
0.7499549413
 40
1.0
 40
1.0
 40
1.0
 40
1.0
 10
326.3042228668
 20
229.1066937673
 30
0.0
 10
326.3583824704
 20
229.2943081376
 30
0.0
 10
326.4260910098
 20
229.5803305396
 30
0.0
 10
326.4745198266
 20
229.968267062
 30
0.0
 10
326.4828556617
 20
230.163720422
 30
0.0
 10
326.4828556617
 20
230.2613943056
 30
0.0
  0
SPLINE
  5
7D8
100
AcDbEntity
  8
10083384_HP_HL
100
AcDbSpline
 62
6
  6
HIDDEN
 70
0
 71
3
 72
10
 73
6
 74
0
 42
0.0000001
 43
0.0000001
 44
0.0000000001
 40
0.0
 40
0.0
 40
0.0
 40
0.0
 40
0.2500450725
 40
0.5000956019
 40
1.0
 40
1.0
 40
1.0
 40
1.0
 10
326.4828556617
 20
230.2613943056
 30
0.0
 10
326.4828556617
 20
230.3590681947
 30
0.0
 10
326.4745198245
 20
230.5545215619
 30
0.0
 10
326.426091008
 20
230.9424580843
 30
0.0
 10
326.3583824684
 20
231.2284804806
 30
0.0
 10
326.3042228668
 20
231.416094844
 30
0.0
  0
SPLINE
  5
7D9
100
AcDbEntity
  8
10083384_HP_HL
100
AcDbSpline
 62
6
  6
HIDDEN
 70
0
 71
3
 72
10
 73
6
 74
0
 42
0.0000001
 43
0.0000001
 44
0.0000000001
 40
0.0
 40
0.0
 40
0.0
 40
0.0
 40
0.2500450554
 40
0.5000955802
 40
1.0
 40
1.0
 40
1.0
 40
1.0
 10
330.4921079329
 20
230.2613943056
 30
0.0
 10
330.4921079329
 20
230.359068188
 30
0.0
 10
330.5004437679
 20
230.5545215468
 30
0.0
 10
330.5488725844
 20
230.9424580693
 30
0.0
 10
330.6165811239
 20
231.2284804725
 30
0.0
 10
330.6707407279
 20
231.416094844
 30
0.0
  0
SPLINE
  5
7DA
100
AcDbEntity
  8
10083384_HP_HL
100
AcDbSpline
 62
6
  6
HIDDEN
 70
0
 71
3
 72
10
 73
6
 74
0
 42
0.0000001
 43
0.0000001
 44
0.0000000001
 40
0.0
 40
0.0
 40
0.0
 40
0.0
 40
0.4999044364
 40
0.749954957
 40
1.0
 40
1.0
 40
1.0
 40
1.0
 10
330.6707407279
 20
229.1066937673
 30
0.0
 10
330.6165811221
 20
229.294308145
 30
0.0
 10
330.5488725828
 20
229.5803305533
 30
0.0
 10
330.500443766
 20
229.9682670758
 30
0.0
 10
330.4921079329
 20
230.1637204281
 30
0.0
 10
330.4921079329
 20
230.2613943056
 30
0.0
  0
SPLINE
  5
7DB
100
AcDbEntity
  8
10083384_HP_HL
100
AcDbSpline
 62
6
  6
HIDDEN
 70
0
 71
3
 72
15
 73
11
 74
0
 42
0.0000001
 43
0.0000001
 44
0.0000000001
 40
0.0
 40
0.0
 40
0.0
 40
0.0
 40
0.1308224305
 40
0.2572496197
 40
0.379798848
 40
0.5
 40
0.620201152
 40
0.7427503803
 40
0.8691775695
 40
1.0
 40
1.0
 40
1.0
 40
1.0
 10
326.3042228668
 20
231.416094844
 30
0.0
 10
326.3308692573
 20
231.4622477462
 30
0.0
 10
326.3798040077
 20
231.5550999251
 30
0.0
 10
326.4374423402
 20
231.6990599301
 30
0.0
 10
326.4743204541
 20
231.8454317064
 30
0.0
 10
326.4870796541
 20
231.9934451132
 30
0.0
 10
326.4743204541
 20
232.14145852
 30
0.0
 10
326.4374423402
 20
232.2878302963
 30
0.0
 10
326.3798040077
 20
232.4317903013
 30
0.0
 10
326.3308692573
 20
232.5246424802
 30
0.0
 10
326.3042228668
 20
232.5707953824
 30
0.0
  0
SPLINE
  5
7DC
100
AcDbEntity
  8
10083384_HP_HL
100
AcDbSpline
 62
6
  6
HIDDEN
 70
0
 71
3
 72
15
 73
11
 74
0
 42
0.0000001
 43
0.0000001
 44
0.0000000001
 40
0.0
 40
0.0
 40
0.0
 40
0.0
 40
0.1308224305
 40
0.2572496197
 40
0.379798848
 40
0.5
 40
0.620201152
 40
0.7427503803
 40
0.8691775695
 40
1.0
 40
1.0
 40
1.0
 40
1.0
 10
330.6707407279
 20
232.5707953824
 30
0.0
 10
330.6440943374
 20
232.5246424802
 30
0.0
 10
330.595159587
 20
232.4317903013
 30
0.0
 10
330.5375212544
 20
232.2878302963
 30
0.0
 10
330.5006431405
 20
232.14145852
 30
0.0
 10
330.4878839406
 20
231.9934451132
 30
0.0
 10
330.5006431405
 20
231.8454317064
 30
0.0
 10
330.5375212544
 20
231.6990599301
 30
0.0
 10
330.595159587
 20
231.5550999251
 30
0.0
 10
330.6440943374
 20
231.4622477462
 30
0.0
 10
330.6707407279
 20
231.416094844
 30
0.0
  0
SPLINE
  5
7DD
100
AcDbEntity
  8
10083384_HP_HL
100
AcDbSpline
 62
6
  6
HIDDEN
 70
0
 71
3
 72
15
 73
11
 74
0
 42
0.0000001
 43
0.0000001
 44
0.0000000001
 40
0.0
 40
0.0
 40
0.0
 40
0.0
 40
0.1308224305
 40
0.2572496197
 40
0.379798848
 40
0.5
 40
0.620201152
 40
0.7427503803
 40
0.8691775695
 40
1.0
 40
1.0
 40
1.0
 40
1.0
 10
326.3042228668
 20
227.9519932289
 30
0.0
 10
326.3308692573
 20
227.9981461311
 30
0.0
 10
326.3798040077
 20
228.09099831
 30
0.0
 10
326.4374423402
 20
228.2349583149
 30
0.0
 10
326.4743204541
 20
228.3813300913
 30
0.0
 10
326.4870796541
 20
228.5293434981
 30
0.0
 10
326.4743204541
 20
228.6773569048
 30
0.0
 10
326.4374423402
 20
228.8237286812
 30
0.0
 10
326.3798040077
 20
228.9676886861
 30
0.0
 10
326.3308692573
 20
229.0605408651
 30
0.0
 10
326.3042228668
 20
229.1066937673
 30
0.0
  0
SPLINE
  5
7DE
100
AcDbEntity
  8
MN5218-50_HL
100
AcDbSpline
 62
6
  6
HIDDEN
 70
0
 71
3
 72
8
 73
4
 74
0
 42
0.0000001
 43
0.0000001
 44
0.0000000001
 40
0.0
 40
0.0
 40
0.0
 40
0.0
 40
1.0
 40
1.0
 40
1.0
 40
1.0
 10
297.9441805271
 20
218.3619195273
 30
0.0
 10
297.6107173441
 20
218.6981997641
 30
0.0
 10
297.2773720361
 20
219.034596957
 30
0.0
 10
296.9441805271
 20
219.3711463746
 30
0.0
  0
SPLINE
  5
7DF
100
AcDbEntity
  8
MN5218-50_HL
100
AcDbSpline
 62
6
  6
HIDDEN
 70
0
 71
3
 72
8
 73
4
 74
0
 42
0.0000001
 43
0.0000001
 44
0.0000000001
 40
0.0
 40
0.0
 40
0.0
 40
0.0
 40
1.0
 40
1.0
 40
1.0
 40
1.0
 10
296.9441805271
 20
241.1516422367
 30
0.0
 10
297.2773720361
 20
241.4881916543
 30
0.0
 10
297.6107173441
 20
241.8245888471
 30
0.0
 10
297.9441805271
 20
242.160869084
 30
0.0
  0
LINE
  5
7E0
100
AcDbEntity
  8
10083256_HL
100
AcDbLine
 62
6
  6
HIDDEN
 10
288.739526869
 20
180.2617540814
 11
288.7343933991
 21
180.2614086668
  0
LINE
  5
7E1
100
AcDbEntity
  8
10083256_HL
100
AcDbLine
 62
6
  6
HIDDEN
 10
324.0040429946
 20
243.6613941762
 11
324.0128130968
 21
243.659646419
  0
SPLINE
  5
7E2
100
AcDbEntity
  8
10083256_HL
100
AcDbSpline
 62
6
  6
HIDDEN
 70
0
 71
3
 72
10
 73
6
 74
0
 42
0.0000001
 43
0.0000001
 44
0.0000000001
 40
0.0
 40
0.0
 40
0.0
 40
0.0
 40
0.3356814455
 40
0.6473247583
 40
1.0
 40
1.0
 40
1.0
 40
1.0
 10
324.0128130968
 20
243.659646419
 30
0.0
 10
324.3636961416
 20
243.5898083367
 30
0.0
 10
325.0443037605
 20
243.4739680141
 30
0.0
 10
326.10424207
 20
243.3575143075
 30
0.0
 10
326.8122541285
 20
243.3256664178
 30
0.0
 10
327.1881138583
 20
243.3220149262
 30
0.0
  0
LINE
  5
7E3
100
AcDbEntity
  8
10083256_HL
100
AcDbLine
 62
6
  6
HIDDEN
 10
330.6843180597
 20
216.8613944351
 11
330.6755479566
 21
216.8631421924
  0
SPLINE
  5
7E4
100
AcDbEntity
  8
10083256_HL
100
AcDbSpline
 62
6
  6
HIDDEN
 70
0
 71
3
 72
10
 73
6
 74
0
 42
0.0000001
 43
0.0000001
 44
0.0000000001
 40
0.0
 40
0.0
 40
0.0
 40
0.0
 40
0.335681447
 40
0.6473247593
 40
1.0
 40
1.0
 40
1.0
 40
1.0
 10
330.6755479566
 20
216.8631421924
 30
0.0
 10
330.3246649086
 20
216.9329802751
 30
0.0
 10
329.6440572854
 20
217.0488205986
 30
0.0
 10
328.5841189708
 20
217.1652743048
 30
0.0
 10
327.8761069106
 20
217.197122194
 30
0.0
 10
327.5002471802
 20
217.2007736852
 30
0.0
  0
LINE
  5
7E5
100
AcDbEntity
  8
10083256_HL
100
AcDbLine
 62
6
  6
HIDDEN
 10
295.9541803018
 20
180.2613943552
 11
295.9436904122
 21
180.2620997012
  0
LINE
  5
7E6
100
AcDbEntity
  8
10083256_HL
100
AcDbLine
 62
6
  6
HIDDEN
 10
295.9436904122
 20
180.2620997012
 11
295.7223408812
 21
180.2765089253
  0
SPLINE
  5
7E7
100
AcDbEntity
  8
10083256_HL
100
AcDbSpline
 62
6
  6
HIDDEN
 70
0
 71
3
 72
10
 73
6
 74
0
 42
0.0000001
 43
0.0000001
 44
0.0000000001
 40
0.0
 40
0.0
 40
0.0
 40
0.0
 40
0.3667617815
 40
0.6829829363
 40
1.0
 40
1.0
 40
1.0
 40
1.0
 10
326.8769126208
 20
217.1947373363
 30
0.0
 10
326.5233144955
 20
217.1844578531
 30
0.0
 10
325.8652654606
 20
217.1435465522
 30
0.0
 10
324.9074539367
 20
217.0267337165
 30
0.0
 10
324.3055072501
 20
216.9215185834
 30
0.0
 10
324.0056448818
 20
216.8617139161
 30
0.0
  0
LINE
  5
7E8
100
AcDbEntity
  8
10083256_HL
100
AcDbLine
 62
6
  6
HIDDEN
 10
324.0056448818
 20
216.8617139161
 11
324.0042209317
 21
216.8614299229
  0
SPLINE
  5
7E9
100
AcDbEntity
  8
10083256_HL
100
AcDbSpline
 62
6
  6
HIDDEN
 70
0
 71
3
 72
10
 73
6
 74
0
 42
0.0000001
 43
0.0000001
 44
0.0000000001
 40
0.0
 40
0.0
 40
0.0
 40
0.0
 40
0.3667615777
 40
0.6829826137
 40
1.0
 40
1.0
 40
1.0
 40
1.0
 10
327.8114484286
 20
243.3280512748
 30
0.0
 10
328.1650463462
 20
243.3383307519
 30
0.0
 10
328.8230950493
 20
243.379242019
 30
0.0
 10
329.780906548
 20
243.496054805
 30
0.0
 10
330.3828534128
 20
243.6012699514
 30
0.0
 10
330.6827160771
 20
243.6610746761
 30
0.0
  0
LINE
  5
7EA
100
AcDbEntity
  8
10083256_HL
100
AcDbLine
 62
6
  6
HIDDEN
 10
330.6827160771
 20
243.6610746761
 11
330.6841400907
 21
243.661358682
  0
SPLINE
  5
7EB
100
AcDbEntity
  8
10083256_CL
100
AcDbSpline
 62
7
  6
CONTINUOUS
 70
0
 71
3
 72
23
 73
19
 74
0
 42
0.0000001
 43
0.0000001
 44
0.0000000001
 40
0.0
 40
0.0
 40
0.0
 40
0.0
 40
0.1918259333
 40
0.3769388958
 40
0.5487018071
 40
0.7006564658
 40
0.7672756162
 40
0.8266908614
 40
0.87823778
 40
0.921315301
 40
0.955401605
 40
0.9689353282
 40
0.9800692727
 40
0.9887672954
 40
0.9950008131
 40
0.9971865665
 40
0.9987491719
 40
1.0
 40
1.0
 40
1.0
 40
1.0
 10
292.3441805271
 20
180.3832165526
 30
0.0
 10
292.5751850199
 20
180.3832165526
 30
0.0
 10
293.0291155437
 20
180.3802687467
 30
0.0
 10
293.689778461
 20
180.3675529569
 30
0.0
 10
294.3022461479
 20
180.348382409
 30
0.0
 10
294.7718965997
 20
180.3285603463
 30
0.0
 10
295.1062517557
 20
180.311994358
 30
0.0
 10
295.3197973007
 20
180.3005116588
 30
0.0
 10
295.5049838948
 20
180.2898655031
 30
0.0
 10
295.6597234602
 20
180.2804812763
 30
0.0
 10
295.7686690369
 20
180.2735908007
 30
0.0
 10
295.8393652529
 20
180.2690118875
 30
0.0
 10
295.8792674868
 20
180.2663856041
 30
0.0
 10
295.9110859229
 20
180.2642949775
 30
0.0
 10
295.9306163217
 20
180.2629504115
 30
0.0
 10
295.9440071317
 20
180.2621064211
 30
0.0
 10
295.9475599458
 20
180.2617722139
 30
0.0
 10
295.9556865145
 20
180.2614103412
 30
0.0
 10
295.9541803018
 20
180.2613943552
 30
0.0
  0
SPLINE
  5
7EC
100
AcDbEntity
  8
10083256_CL
100
AcDbSpline
 62
7
  6
CONTINUOUS
 70
0
 71
3
 72
14
 73
10
 74
0
 42
0.0000001
 43
0.0000001
 44
0.0000000001
 40
0.0
 40
0.0
 40
0.0
 40
0.0
 40
0.0219200859
 40
0.0855657124
 40
0.1855252001
 40
0.3149852662
 40
0.4671635776
 40
0.6358355298
 40
1.0
 40
1.0
 40
1.0
 40
1.0
 10
330.6843180597
 20
243.6613941762
 30
0.0
 10
330.6602077874
 20
243.6566680484
 30
0.0
 10
330.5661579468
 20
243.6378874172
 30
0.0
 10
330.3618173657
 20
243.5993018603
 30
0.0
 10
330.0382306125
 20
243.542709254
 30
0.0
 10
329.6153771974
 20
243.4781342727
 30
0.0
 10
329.1144819532
 20
243.4153609047
 30
0.0
 10
328.3499025217
 20
243.3441667639
 30
0.0
 10
327.7523540856
 20
243.3212564678
 30
0.0
 10
327.344180527
 20
243.3212564678
 30
0.0
  0
SPLINE
  5
7ED
100
AcDbEntity
  8
10083256_CL
100
AcDbSpline
 62
7
  6
CONTINUOUS
 70
0
 71
3
 72
13
 73
9
 74
0
 42
0.0000001
 43
0.0000001
 44
0.0000000001
 40
0.0
 40
0.0
 40
0.0
 40
0.0
 40
0.0219209735
 40
0.0855691768
 40
0.1855327113
 40
0.3149980187
 40
0.635820786
 40
1.0
 40
1.0
 40
1.0
 40
1.0
 10
324.0040429946
 20
216.8613944351
 30
0.0
 10
324.0281469818
 20
216.8661525143
 30
0.0
 10
324.1222118499
 20
216.8848568133
 30
0.0
 10
324.3265382911
 20
216.9235133498
 30
0.0
 10
324.6501338382
 20
216.9800676893
 30
0.0
 10
325.2598346989
 20
217.0732058231
 30
0.0
 10
326.167935777
 20
217.1721067187
 30
0.0
 10
326.9360069684
 20
217.2015321435
 30
0.0
 10
327.344180527
 20
217.2015321435
 30
0.0
  0
SPLINE
  5
7EE
100
AcDbEntity
  8
10083256_CL
100
AcDbSpline
 62
7
  6
CONTINUOUS
 70
0
 71
3
 72
13
 73
9
 74
0
 42
0.0000001
 43
0.0000001
 44
0.0000000001
 40
0.0
 40
0.0
 40
0.0
 40
0.0
 40
0.1513672505
 40
0.3129717935
 40
0.5000000002
 40
0.6870282068
 40
0.8486327496
 40
1.0
 40
1.0
 40
1.0
 40
1.0
 10
296.3441805271
 20
280.2613943056
 30
0.0
 10
295.7909752109
 20
280.2065463428
 30
0.0
 10
294.6454788742
 20
280.109844601
 30
0.0
 10
292.8115373032
 20
280.0115546482
 30
0.0
 10
290.8441805253
 20
279.9746267961
 30
0.0
 10
288.876823748
 20
280.0115546483
 30
0.0
 10
287.0428821783
 20
280.1098446012
 30
0.0
 10
285.8973858428
 20
280.2065463428
 30
0.0
 10
285.3441805271
 20
280.2613943056
 30
0.0
  0
SPLINE
  5
7EF
100
AcDbEntity
  8
10083256_CL
100
AcDbSpline
 62
7
  6
CONTINUOUS
 70
0
 71
3
 72
22
 73
18
 74
0
 42
0.0000001
 43
0.0000001
 44
0.0000000001
 40
0.0
 40
0.0
 40
0.0
 40
0.0
 40
0.0012508303
 40
0.0049991912
 40
0.0112327109
 40
0.0199307353
 40
0.0310646815
 40
0.0445984062
 40
0.0786847126
 40
0.1217622353
 40
0.1733091551
 40
0.2327244006
 40
0.2993435509
 40
0.4512982079
 40
0.6230611158
 40
0.8081740735
 40
1.0
 40
1.0
 40
1.0
 40
1.0
 10
288.7341807525
 20
180.2613943552
 30
0.0
 10
288.7356792694
 20
180.2615472835
 30
0.0
 10
288.7416965701
 20
180.2618256034
 30
0.0
 10
288.7551827939
 20
180.2628530526
 30
0.0
 10
288.7776337134
 20
180.2642832967
 30
0.0
 10
288.8089514897
 20
180.266390236
 30
0.0
 10
288.8490465171
 20
180.2690102385
 30
0.0
 10
288.9196518019
 20
180.273592115
 30
0.0
 10
289.0286561689
 20
180.2804806757
 30
0.0
 10
289.1833706081
 20
180.2898657216
 30
0.0
 10
289.368566026
 20
180.30051159
 30
0.0
 10
289.5821086631
 20
180.3119943837
 30
0.0
 10
289.9164649963
 20
180.3285603332
 30
0.0
 10
290.3861147652
 20
180.3483824172
 30
0.0
 10
290.9985826929
 20
180.367552956
 30
0.0
 10
291.6592455145
 20
180.3802687475
 30
0.0
 10
292.1131760426
 20
180.3832165526
 30
0.0
 10
292.3441805271
 20
180.3832165526
 30
0.0
  0
SPLINE
  5
7F0
100
AcDbEntity
  8
10083256_CL
100
AcDbSpline
 62
7
  6
CONTINUOUS
 70
0
 71
3
 72
10
 73
6
 74
0
 42
0.0000001
 43
0.0000001
 44
0.0000000001
 40
0.0
 40
0.0
 40
0.0
 40
0.0
 40
0.3620513494
 40
0.6815535189
 40
1.0
 40
1.0
 40
1.0
 40
1.0
 10
327.344180527
 20
217.2015321435
 30
0.0
 10
327.7499317759
 20
217.2015321435
 30
0.0
 10
328.514081814
 20
217.1724183604
 30
0.0
 10
329.6289261548
 20
217.0516967979
 30
0.0
 10
330.3341496724
 20
216.9312321618
 30
0.0
 10
330.6841400908
 20
216.8614299293
 30
0.0
  0
SPLINE
  5
7F1
100
AcDbEntity
  8
10083256_CL
100
AcDbSpline
 62
7
  6
CONTINUOUS
 70
0
 71
3
 72
10
 73
6
 74
0
 42
0.0000001
 43
0.0000001
 44
0.0000000001
 40
0.0
 40
0.0
 40
0.0
 40
0.0
 40
0.3620515389
 40
0.6815538264
 40
1.0
 40
1.0
 40
1.0
 40
1.0
 10
327.344180527
 20
243.3212564678
 30
0.0
 10
326.9384290618
 20
243.3212564678
 30
0.0
 10
326.1742786714
 20
243.3503702804
 30
0.0
 10
325.0594343254
 20
243.4710918995
 30
0.0
 10
324.3542110158
 20
243.5915565243
 30
0.0
 10
324.0042209317
 20
243.6613586883
 30
0.0
  0
SPLINE
  5
7F2
100
AcDbEntity
  8
10083256_CL
100
AcDbSpline
 62
7
  6
CONTINUOUS
 70
0
 71
3
 72
12
 73
8
 74
0
 42
0.0000001
 43
0.0000001
 44
0.0000000001
 40
0.0
 40
0.0
 40
0.0
 40
0.0
 40
0.2500871799
 40
0.5001498335
 40
0.7501511695
 40
0.8751068828
 40
1.0
 40
1.0
 40
1.0
 40
1.0
 10
235.8441056431
 20
215.1697494104
 30
0.0
 10
236.3553565921
 20
215.1034669907
 30
0.0
 10
237.3771275935
 20
214.9655292964
 30
0.0
 10
238.9066378577
 20
214.7375218315
 30
0.0
 10
240.1772750518
 20
214.5233354568
 30
0.0
 10
241.1892914054
 20
214.3293979513
 30
0.0
 10
241.6931393544
 20
214.2223212329
 30
0.0
 10
241.9441805271
 20
214.1652139702
 30
0.0
  0
SPLINE
  5
7F3
100
AcDbEntity
  8
10083256_CL
100
AcDbSpline
 62
7
  6
CONTINUOUS
 70
0
 71
3
 72
25
 73
21
 74
0
 42
0.0000001
 43
0.0000001
 44
0.0000000001
 40
0.0
 40
0.0
 40
0.0
 40
0.0
 40
0.1253370423
 40
0.249874352
 40
0.3738389065
 40
0.4356894627
 40
0.497472508
 40
0.559215155
 40
0.6209497413
 40
0.6827206155
 40
0.7445984999
 40
0.8067169341
 40
0.837961277
 40
0.8694130176
 40
0.9011936222
 40
0.9334860548
 40
0.949915192
 40
0.9665201518
 40
0.9832459974
 40
1.0
 40
1.0
 40
1.0
 40
1.0
 10
243.9441805271
 20
217.8315126435
 30
0.0
 10
243.9441805271
 20
217.6448970011
 30
0.0
 10
243.9185545183
 20
217.2724755628
 30
0.0
 10
243.8128559855
 20
216.7248575391
 30
0.0
 10
243.6763874838
 20
216.2824424903
 30
0.0
 10
243.5420068133
 20
215.9390408908
 30
0.0
 10
243.4293068157
 20
215.6869715444
 30
0.0
 10
243.3051049505
 20
215.4405712824
 30
0.0
 10
243.1695313081
 20
215.200255649
 30
0.0
 10
243.0222021621
 20
214.9666928571
 30
0.0
 10
242.8617818825
 20
214.7411998953
 30
0.0
 10
242.7148165265
 20
214.5623767
 30
0.0
 10
242.5858358404
 20
214.4284443118
 30
0.0
 10
242.4811865979
 20
214.3341888373
 30
0.0
 10
242.3662954701
 20
214.2498630186
 30
0.0
 10
242.2592800124
 20
214.1940191316
 30
0.0
 10
242.1662610981
 20
214.1647046366
 30
0.0
 10
242.0928806396
 20
214.1525715323
 30
0.0
 10
242.0180004447
 20
214.1521003252
 30
0.0
 10
241.9685043232
 20
214.1596807527
 30
0.0
 10
241.9441805271
 20
214.1652139702
 30
0.0
  0
SPLINE
  5
7F4
100
AcDbEntity
  8
10083256_CL
100
AcDbSpline
 62
7
  6
CONTINUOUS
 70
0
 71
3
 72
21
 73
17
 74
0
 42
0.0000001
 43
0.0000001
 44
0.0000000001
 40
0.0
 40
0.0
 40
0.0
 40
0.0
 40
0.1249451374
 40
0.24993452
 40
0.312475815
 40
0.3749996787
 40
0.4375040047
 40
0.4999908515
 40
0.5624657378
 40
0.6249364063
 40
0.6874113226
 40
0.749897891
 40
0.8124008844
 40
0.8749213982
 40
0.9374564911
 40
1.0
 40
1.0
 40
1.0
 40
1.0
 10
268.8441805271
 20
223.7613943056
 30
0.0
 10
268.4145358764
 20
223.7799644911
 30
0.0
 10
267.5565572586
 20
223.8896572861
 30
0.0
 10
266.5230787017
 20
224.2070085549
 30
0.0
 10
265.7395453782
 20
224.5654256773
 30
0.0
 10
265.1778475946
 20
224.8854936964
 30
0.0
 10
264.6475887984
 20
225.2549888199
 30
0.0
 10
264.1538307654
 20
225.6718224152
 30
0.0
 10
263.7017186196
 20
226.1333910671
 30
0.0
 10
263.2963546078
 20
226.6365214493
 30
0.0
 10
262.9427364759
 20
227.1773812893
 30
0.0
 10
262.6456235007
 20
227.7514088075
 30
0.0
 10
262.4093632775
 20
228.3532556014
 30
0.0
 10
262.2376807937
 20
228.9768379284
 30
0.0
 10
262.1334522324
 20
229.6152609417
 30
0.0
 10
262.1101520385
 20
230.0461272454
 30
0.0
 10
262.1101520385
 20
230.2613943056
 30
0.0
  0
SPLINE
  5
7F5
100
AcDbEntity
  8
10083256_CL
100
AcDbSpline
 62
7
  6
CONTINUOUS
 70
0
 71
3
 72
21
 73
17
 74
0
 42
0.0000001
 43
0.0000001
 44
0.0000000001
 40
0.0
 40
0.0
 40
0.0
 40
0.0
 40
0.062764332
 40
0.125493976
 40
0.1881605081
 40
0.250746527
 40
0.3132476194
 40
0.3756717735
 40
0.4380368624
 40
0.5003671069
 40
0.6248858695
 40
0.7495717416
 40
0.8120779037
 40
0.8746548671
 40
0.9372987043
 40
1.0
 40
1.0
 40
1.0
 40
1.0
 10
276.2885495738
 20
230.2613943056
 30
0.0
 10
276.2885495738
 20
230.0308360994
 30
0.0
 10
276.2614636732
 20
229.5693923425
 30
0.0
 10
276.1405351574
 20
228.8873600479
 30
0.0
 10
275.9420983684
 20
228.2243597273
 30
0.0
 10
275.6704418102
 20
227.5888613892
 30
0.0
 10
275.3309175454
 20
226.9879821365
 30
0.0
 10
274.9295322023
 20
226.4276494382
 30
0.0
 10
274.4724823378
 20
225.9125823351
 30
0.0
 10
273.7979220803
 20
225.2917589555
 30
0.0
 10
272.8449064928
 20
224.6446074204
 30
0.0
 10
271.7877446042
 20
224.1870942049
 30
0.0
 10
270.9029740448
 20
223.9403451536
 30
0.0
 10
270.2237516371
 20
223.8155884061
 30
0.0
 10
269.5354714815
 20
223.7522934921
 30
0.0
 10
269.0742923337
 20
223.7514483679
 30
0.0
 10
268.8441805271
 20
223.7613943056
 30
0.0
  0
SPLINE
  5
7F6
100
AcDbEntity
  8
10083256_CL
100
AcDbSpline
 62
7
  6
CONTINUOUS
 70
0
 71
3
 72
33
 73
29
 74
0
 42
0.0000001
 43
0.0000001
 44
0.0000000001
 40
0.0
 40
0.0
 40
0.0
 40
0.0
 40
0.0614471697
 40
0.121588138
 40
0.1802195486
 40
0.2088792617
 40
0.2370302009
 40
0.2645960861
 40
0.2914722062
 40
0.3175190631
 40
0.3425922197
 40
0.3547996537
 40
0.3668975584
 40
0.3791447255
 40
0.3919576452
 40
0.4057173954
 40
0.4205077962
 40
0.4361371
 40
0.4523479178
 40
0.4857576233
 40
0.5198444147
 40
0.5887364332
 40
0.6578853314
 40
0.7269481781
 40
0.7957658896
 40
0.8642438545
 40
0.9323272191
 40
1.0
 40
1.0
 40
1.0
 40
1.0
 10
235.4441805271
 20
215.3227000193
 30
0.0
 10
235.4056956965
 20
215.2619469882
 30
0.0
 10
235.3286903139
 20
215.1422681609
 30
0.0
 10
235.2112441089
 20
214.9670497449
 30
0.0
 10
235.1114394015
 20
214.8262449111
 30
0.0
 10
235.0299144638
 20
214.7184863223
 30
0.0
 10
234.9681923714
 20
214.6413766154
 30
0.0
 10
234.9050124495
 20
214.5681812881
 30
0.0
 10
234.8397121257
 20
214.5001776836
 30
0.0
 10
234.7713199598
 20
214.4395690214
 30
0.0
 10
234.7094637216
 20
214.397853923
 30
0.0
 10
234.6563049381
 20
214.3746989719
 30
0.0
 10
234.614528358
 20
214.364327709
 30
0.0
 10
234.5706204407
 20
214.3632987753
 30
0.0
 10
234.5259327246
 20
214.3740065301
 30
0.0
 10
234.4827134146
 20
214.3967272609
 30
0.0
 10
234.4423890407
 20
214.4294819802
 30
0.0
 10
234.4053018414
 20
214.4696993903
 30
0.0
 10
234.3595347852
 20
214.5309489465
 30
0.0
 10
234.3098480641
 20
214.6156769568
 30
0.0
 10
234.2411502622
 20
214.7598638457
 30
0.0
 10
234.1703378759
 20
214.9488123432
 30
0.0
 10
234.1010393316
 20
215.1811987596
 30
0.0
 10
234.0447755678
 20
215.4170023895
 30
0.0
 10
234.0006108371
 20
215.6545460071
 30
0.0
 10
233.9684858791
 20
215.8928666308
 30
0.0
 10
233.948737687
 20
216.1311851887
 30
0.0
 10
233.9441805271
 20
216.2901040932
 30
0.0
 10
233.9441805271
 20
216.3693071499
 30
0.0
  0
SPLINE
  5
7F7
100
AcDbEntity
  8
10083256_CL
100
AcDbSpline
 62
7
  6
CONTINUOUS
 70
0
 71
3
 72
9
 73
5
 74
0
 42
0.0000001
 43
0.0000001
 44
0.0000000001
 40
0.0
 40
0.0
 40
0.0
 40
0.0
 40
0.4997304339
 40
1.0
 40
1.0
 40
1.0
 40
1.0
 10
235.8441056431
 20
215.1697494104
 30
0.0
 10
235.7729578457
 20
215.1789735462
 30
0.0
 10
235.6327704137
 20
215.2172573045
 30
0.0
 10
235.5050069957
 20
215.2845117186
 30
0.0
 10
235.4441805271
 20
215.3227000193
 30
0.0
  0
SPLINE
  5
7F8
100
AcDbEntity
  8
10083256_CL
100
AcDbSpline
 62
7
  6
CONTINUOUS
 70
0
 71
3
 72
14
 73
10
 74
0
 42
0.0000001
 43
0.0000001
 44
0.0000000001
 40
0.0
 40
0.0
 40
0.0
 40
0.0
 40
0.0626067376
 40
0.1252159479
 40
0.2501566492
 40
0.3752179959
 40
0.5003612496
 40
0.7500558092
 40
1.0
 40
1.0
 40
1.0
 40
1.0
 10
302.7191805271
 20
196.7390137219
 30
0.0
 10
302.6900571197
 20
196.7390137219
 30
0.0
 10
302.6316981802
 20
196.7343157469
 30
0.0
 10
302.5182158742
 20
196.7068334014
 30
0.0
 10
302.3861917364
 20
196.6410440959
 30
0.0
 10
302.2533596387
 20
196.5256272824
 30
0.0
 10
302.1119168075
 20
196.3394327107
 30
0.0
 10
301.9984954373
 20
196.0666637389
 30
0.0
 10
301.9691805271
 20
195.8333078206
 30
0.0
 10
301.9691805271
 20
195.7170387609
 30
0.0
  0
SPLINE
  5
7F9
100
AcDbEntity
  8
10083256_CL
100
AcDbSpline
 62
7
  6
CONTINUOUS
 70
0
 71
3
 72
33
 73
29
 74
0
 42
0.0000001
 43
0.0000001
 44
0.0000000001
 40
0.0
 40
0.0
 40
0.0
 40
0.0
 40
0.067672819
 40
0.1357561948
 40
0.2042341537
 40
0.273051856
 40
0.3421146939
 40
0.4112635812
 40
0.480155594
 40
0.5142422943
 40
0.5476517677
 40
0.5638625168
 40
0.5794918228
 40
0.5942823081
 40
0.608041873
 40
0.6208543317
 40
0.633101258
 40
0.6451994507
 40
0.6574070958
 40
0.6824803777
 40
0.7085274164
 40
0.7354035548
 40
0.7629695147
 40
0.7911205009
 40
0.8197802476
 40
0.87841172
 40
0.9385527598
 40
1.0
 40
1.0
 40
1.0
 40
1.0
 10
233.9441805271
 20
244.1534814613
 30
0.0
 10
233.9441805271
 20
244.2326845643
 30
0.0
 10
233.948737693
 20
244.3916035298
 30
0.0
 10
233.9684858932
 20
244.6299221434
 30
0.0
 10
234.000610885
 20
244.8682427629
 30
0.0
 10
234.0447755818
 20
245.1057863622
 30
0.0
 10
234.1010393814
 20
245.3415899607
 30
0.0
 10
234.1703380904
 20
245.5739762895
 30
0.0
 10
234.2411500412
 20
245.762924825
 30
0.0
 10
234.3098479944
 20
245.9071112452
 30
0.0
 10
234.3595346213
 20
245.9918387322
 30
0.0
 10
234.405301146
 20
246.0530882765
 30
0.0
 10
234.4423882695
 20
246.0933057103
 30
0.0
 10
234.4827121043
 20
246.1260610876
 30
0.0
 10
234.5259311033
 20
246.1487806752
 30
0.0
 10
234.5706172433
 20
246.1594904756
 30
0.0
 10
234.6145247548
 20
246.158461067
 30
0.0
 10
234.6563018228
 20
246.1480907546
 30
0.0
 10
234.709461346
 20
246.124935565
 30
0.0
 10
234.7713189285
 20
246.0832214069
 30
0.0
 10
234.8397107261
 20
246.0226116526
 30
0.0
 10
234.9050119552
 20
245.9546085283
 30
0.0
 10
234.9681916478
 20
245.8814127474
 30
0.0
 10
235.0299139216
 20
245.804302966
 30
0.0
 10
235.1114389856
 20
245.6965442545
 30
0.0
 10
235.2112438977
 20
245.5557393239
 30
0.0
 10
235.3286901513
 20
245.3805206459
 30
0.0
 10
235.4056956515
 20
245.2608416941
 30
0.0
 10
235.4441805271
 20
245.200088592
 30
0.0
  0
SPLINE
  5
7FA
100
AcDbEntity
  8
10083256_CL
100
AcDbSpline
 62
7
  6
CONTINUOUS
 70
0
 71
3
 72
21
 73
17
 74
0
 42
0.0000001
 43
0.0000001
 44
0.0000000001
 40
0.0
 40
0.0
 40
0.0
 40
0.0
 40
0.0627012962
 40
0.1253451328
 40
0.1879220963
 40
0.2504282583
 40
0.3751141303
 40
0.4996328927
 40
0.5619631373
 40
0.6243282261
 40
0.6867523801
 40
0.7492534724
 40
0.8118394914
 40
0.8745060235
 40
0.9372356674
 40
1.0
 40
1.0
 40
1.0
 40
1.0
 10
268.8441805271
 20
236.7613943056
 30
0.0
 10
269.0742923353
 20
236.7713402434
 30
0.0
 10
269.535471483
 20
236.7704951191
 30
0.0
 10
270.2237516384
 20
236.7072002049
 30
0.0
 10
270.902974044
 20
236.5824434579
 30
0.0
 10
271.7877446027
 20
236.3356944069
 30
0.0
 10
272.8449064903
 20
235.8781811921
 30
0.0
 10
273.7979220775
 20
235.231029658
 30
0.0
 10
274.4724823349
 20
234.610206279
 30
0.0
 10
274.9295321994
 20
234.0951391766
 30
0.0
 10
275.3309175424
 20
233.5348064793
 30
0.0
 10
275.6704418076
 20
232.9339272273
 30
0.0
 10
275.9420983664
 20
232.2984288895
 30
0.0
 10
276.140535156
 20
231.6354285692
 30
0.0
 10
276.2614636729
 20
230.9533962728
 30
0.0
 10
276.2885495738
 20
230.4919525139
 30
0.0
 10
276.2885495738
 20
230.2613943056
 30
0.0
  0
SPLINE
  5
7FB
100
AcDbEntity
  8
10083256_CL
100
AcDbSpline
 62
7
  6
CONTINUOUS
 70
0
 71
3
 72
15
 73
11
 74
0
 42
0.0000001
 43
0.0000001
 44
0.0000000001
 40
0.0
 40
0.0
 40
0.0
 40
0.0
 40
0.1252172494
 40
0.2502138776
 40
0.3750214203
 40
0.4997431502
 40
0.6245207366
 40
0.7494783087
 40
0.8746611313
 40
1.0
 40
1.0
 40
1.0
 40
1.0
 10
326.563614709
 20
227.3451027732
 30
0.0
 10
326.3927605627
 20
227.3822569653
 30
0.0
 10
326.0561782669
 20
227.4812648052
 30
0.0
 10
325.579249064
 20
227.7019843569
 30
0.0
 10
325.1416528437
 20
227.99222382
 30
0.0
 10
324.7556859338
 20
228.3480890401
 30
0.0
 10
324.4343081989
 20
228.7638234153
 30
0.0
 10
324.1910609551
 20
229.2307358906
 30
0.0
 10
324.0386902657
 20
229.7356018589
 30
0.0
 10
324.004042701
 20
230.0863771966
 30
0.0
 10
324.004042701
 20
230.2613943056
 30
0.0
  0
SPLINE
  5
7FC
100
AcDbEntity
  8
10083256_CL
100
AcDbSpline
 62
7
  6
CONTINUOUS
 70
0
 71
3
 72
18
 73
14
 74
0
 42
0.0000001
 43
0.0000001
 44
0.0000000001
 40
0.0
 40
0.0
 40
0.0
 40
0.0
 40
0.0627114781
 40
0.1253909296
 40
0.2503700129
 40
0.3751002223
 40
0.437484204
 40
0.4998551457
 40
0.6245247496
 40
0.7494147165
 40
0.8120183919
 40
0.874680022
 40
1.0
 40
1.0
 40
1.0
 40
1.0
 10
330.6843183533
 20
230.2613943056
 30
0.0
 10
330.6843183533
 20
230.1573985935
 30
0.0
 10
330.6721360518
 20
229.9492365732
 30
0.0
 10
330.5998873557
 20
229.5396186092
 30
0.0
 10
330.4223464377
 20
229.0479135947
 30
0.0
 10
330.1429003754
 20
228.6074931043
 30
0.0
 10
329.8701695366
 20
228.2956139541
 30
0.0
 10
329.5681122859
 20
228.012172828
 30
0.0
 10
329.1415281139
 20
227.7139445664
 30
0.0
 10
328.6681325025
 20
227.4975446415
 30
0.0
 10
328.2711624924
 20
227.3755198405
 30
0.0
 10
327.8645852139
 20
227.287865512
 30
0.0
 10
327.5520011805
 20
227.2613942558
 30
0.0
 10
327.3441805272
 20
227.2613942558
 30
0.0
  0
SPLINE
  5
7FD
100
AcDbEntity
  8
10083256_CL
100
AcDbSpline
 62
7
  6
CONTINUOUS
 70
0
 71
3
 72
14
 73
10
 74
0
 42
0.0000001
 43
0.0000001
 44
0.0000000001
 40
0.0
 40
0.0
 40
0.0
 40
0.0
 40
0.2499441952
 40
0.4996387505
 40
0.6247820073
 40
0.7498433527
 40
0.8747840533
 40
0.9373932634
 40
1.0
 40
1.0
 40
1.0
 40
1.0
 10
305.7191805271
 20
195.7170387609
 30
0.0
 10
305.7191805271
 20
195.8333078226
 30
0.0
 10
305.6898656162
 20
196.0666637411
 30
0.0
 10
305.576444245
 20
196.3394327138
 30
0.0
 10
305.435001414
 20
196.5256272843
 30
0.0
 10
305.3021693154
 20
196.6410440975
 30
0.0
 10
305.1701451782
 20
196.7068334022
 30
0.0
 10
305.056662873
 20
196.7343157468
 30
0.0
 10
304.9983039341
 20
196.7390137219
 30
0.0
 10
304.9691805271
 20
196.7390137219
 30
0.0
  0
SPLINE
  5
7FE
100
AcDbEntity
  8
10083256_CL
100
AcDbSpline
 62
7
  6
CONTINUOUS
 70
0
 71
3
 72
18
 73
14
 74
0
 42
0.0000001
 43
0.0000001
 44
0.0000000001
 40
0.0
 40
0.0
 40
0.0
 40
0.0
 40
0.1253199772
 40
0.1879816089
 40
0.2505852842
 40
0.3754752516
 40
0.5001448561
 40
0.562515798
 40
0.6248997803
 40
0.7496299897
 40
0.8746090741
 40
0.9372885247
 40
1.0
 40
1.0
 40
1.0
 40
1.0
 10
327.3441805269
 20
233.2613943553
 30
0.0
 10
327.552001179
 20
233.2613943553
 30
0.0
 10
327.8645852138
 20
233.2349230993
 30
0.0
 10
328.2711624935
 20
233.1472687706
 30
0.0
 10
328.6681325065
 20
233.0252439683
 30
0.0
 10
329.1415281192
 20
232.808844042
 30
0.0
 10
329.5681122923
 20
232.5106157783
 30
0.0
 10
329.870169544
 20
232.2271746496
 30
0.0
 10
330.1429003826
 20
231.9152954974
 30
0.0
 10
330.4223464448
 20
231.4748750034
 30
0.0
 10
330.5998873592
 20
230.9831699871
 30
0.0
 10
330.672136053
 20
230.5735520272
 30
0.0
 10
330.6843183533
 20
230.365390013
 30
0.0
 10
330.6843183533
 20
230.2613943056
 30
0.0
  0
SPLINE
  5
7FF
100
AcDbEntity
  8
10083256_CL
100
AcDbSpline
 62
7
  6
CONTINUOUS
 70
0
 71
3
 72
18
 73
14
 74
0
 42
0.0000001
 43
0.0000001
 44
0.0000000001
 40
0.0
 40
0.0
 40
0.0
 40
0.0
 40
0.0627114776
 40
0.125390929
 40
0.2503700125
 40
0.3751002219
 40
0.4374842037
 40
0.4998551455
 40
0.6245247495
 40
0.7494147164
 40
0.8120183917
 40
0.8746800221
 40
1.0
 40
1.0
 40
1.0
 40
1.0
 10
324.004042701
 20
230.2613943056
 30
0.0
 10
324.004042701
 20
230.3653900169
 30
0.0
 10
324.0162250023
 20
230.5735520361
 30
0.0
 10
324.0884736979
 20
230.9831699994
 30
0.0
 10
324.2660146154
 20
231.4748750144
 30
0.0
 10
324.5454606777
 20
231.9152955054
 30
0.0
 10
324.8181915165
 20
232.2271746559
 30
0.0
 10
325.1202487674
 20
232.5106157825
 30
0.0
 10
325.5468329396
 20
232.8088440444
 30
0.0
 10
326.020228551
 20
233.0252439695
 30
0.0
 10
326.4171985613
 20
233.1472687706
 30
0.0
 10
326.82377584
 20
233.2349230992
 30
0.0
 10
327.1363598738
 20
233.2613943553
 30
0.0
 10
327.3441805269
 20
233.2613943553
 30
0.0
  0
SPLINE
  5
800
100
AcDbEntity
  8
10083256_CL
100
AcDbSpline
 62
7
  6
CONTINUOUS
 70
0
 71
3
 72
21
 73
17
 74
0
 42
0.0000001
 43
0.0000001
 44
0.0000000001
 40
0.0
 40
0.0
 40
0.0
 40
0.0
 40
0.0625435103
 40
0.125078605
 40
0.1875991205
 40
0.250102116
 40
0.3125886874
 40
0.3750636069
 40
0.4375342774
 40
0.5000091643
 40
0.5624960101
 40
0.6250003343
 40
0.6875241945
 40
0.7500654856
 40
0.8750548612
 40
1.0
 40
1.0
 40
1.0
 40
1.0
 10
262.1101520385
 20
230.2613943056
 30
0.0
 10
262.1101520385
 20
230.4766613705
 30
0.0
 10
262.1334522334
 20
230.9075276853
 30
0.0
 10
262.2376808005
 20
231.545950715
 30
0.0
 10
262.4093632935
 20
232.1695330594
 30
0.0
 10
262.6456235308
 20
232.771379873
 30
0.0
 10
262.9427365268
 20
233.3454074129
 30
0.0
 10
263.2963546864
 20
233.8862672692
 30
0.0
 10
263.7017187211
 20
234.3893976585
 30
0.0
 10
264.1538308806
 20
234.8509663048
 30
0.0
 10
264.6475889188
 20
235.2677998818
 30
0.0
 10
265.1778477038
 20
235.637294983
 30
0.0
 10
265.7395454646
 20
235.9573629776
 30
0.0
 10
266.5230787472
 20
236.31578007
 30
0.0
 10
267.5565572727
 20
236.6331313268
 30
0.0
 10
268.4145358715
 20
236.74282412
 30
0.0
 10
268.8441805271
 20
236.7613943056
 30
0.0
  0
SPLINE
  5
801
100
AcDbEntity
  8
10083256_CL
100
AcDbSpline
 62
7
  6
CONTINUOUS
 70
0
 71
3
 72
25
 73
21
 74
0
 42
0.0000001
 43
0.0000001
 44
0.0000000001
 40
0.0
 40
0.0
 40
0.0
 40
0.0
 40
0.0167536773
 40
0.0334790481
 40
0.0500837726
 40
0.0665131492
 40
0.0988059936
 40
0.1305868476
 40
0.1620387075
 40
0.1932831344
 40
0.2554016846
 40
0.3172796598
 40
0.3790506115
 40
0.4407852713
 40
0.5025279933
 40
0.5643111076
 40
0.6261617006
 40
0.7501262256
 40
0.8746633014
 40
1.0
 40
1.0
 40
1.0
 40
1.0
 10
241.9441805271
 20
246.3575746411
 30
0.0
 10
241.9685038509
 20
246.3631077512
 30
0.0
 10
242.0179987503
 20
246.3706882531
 30
0.0
 10
242.0928773902
 20
246.3702171619
 30
0.0
 10
242.1662572402
 20
246.358084837
 30
0.0
 10
242.2592770224
 20
246.3287709735
 30
0.0
 10
242.3662939531
 20
246.2729268716
 30
0.0
 10
242.4811859328
 20
246.1886002383
 30
0.0
 10
242.5858357747
 20
246.0943444304
 30
0.0
 10
242.7148168247
 20
245.9604117249
 30
0.0
 10
242.8617824759
 20
245.7815882076
 30
0.0
 10
243.0222028502
 20
245.556094789
 30
0.0
 10
243.1695320655
 20
245.3225316148
 30
0.0
 10
243.3051057427
 20
245.082215615
 30
0.0
 10
243.4293077536
 20
244.8358150627
 30
0.0
 10
243.542007719
 20
244.5837454037
 30
0.0
 10
243.6763882516
 20
244.2403436283
 30
0.0
 10
243.8128564875
 20
243.7979288505
 30
0.0
 10
243.9185546522
 20
243.250311677
 30
0.0
 10
243.9441805271
 20
242.8778910992
 30
0.0
 10
243.9441805271
 20
242.6912759678
 30
0.0
  0
SPLINE
  5
802
100
AcDbEntity
  8
10083256_CL
100
AcDbSpline
 62
7
  6
CONTINUOUS
 70
0
 71
3
 72
9
 73
5
 74
0
 42
0.0000001
 43
0.0000001
 44
0.0000000001
 40
0.0
 40
0.0
 40
0.0
 40
0.0
 40
0.5002735092
 40
1.0
 40
1.0
 40
1.0
 40
1.0
 10
235.4441805271
 20
245.200088592
 30
0.0
 10
235.5050074844
 20
245.2382771995
 30
0.0
 10
235.6327707537
 20
245.305532077
 30
0.0
 10
235.7729583962
 20
245.3438151365
 30
0.0
 10
235.8441056431
 20
245.3530392008
 30
0.0
  0
SPLINE
  5
803
100
AcDbEntity
  8
10083256_CL
100
AcDbSpline
 62
7
  6
CONTINUOUS
 70
0
 71
3
 72
12
 73
8
 74
0
 42
0.0000001
 43
0.0000001
 44
0.0000000001
 40
0.0
 40
0.0
 40
0.0
 40
0.0
 40
0.2500871799
 40
0.5001498335
 40
0.7501511695
 40
0.8751068828
 40
1.0
 40
1.0
 40
1.0
 40
1.0
 10
235.8441056431
 20
245.3530392008
 30
0.0
 10
236.3553565921
 20
245.4193216205
 30
0.0
 10
237.3771275935
 20
245.5572593149
 30
0.0
 10
238.9066378577
 20
245.7852667797
 30
0.0
 10
240.1772750518
 20
245.9994531545
 30
0.0
 10
241.1892914054
 20
246.1933906599
 30
0.0
 10
241.6931393544
 20
246.3004673784
 30
0.0
 10
241.9441805271
 20
246.3575746411
 30
0.0
  0
ENDSEC
  0
SECTION
  2
OBJECTS
  0
DICTIONARY
  5
C
100
AcDbDictionary
280
0
281
1
  3
ACAD_GROUP
350
D
  3
ACAD_MLINESTYLE
350
17
  3
ACAD_LAYOUT
350
1A
  3
ACAD_PLOTSETTINGS
350
19
  3
ACAD_PLOTSTYLENAME
350
E
  0
DICTIONARY
  5
D
102
{ACAD_REACTORS
330
C
102
}
100
AcDbDictionary
280
0
281
1
  0
ACDBDICTIONARYWDFLT
  5
E
102
{ACAD_REACTORS
330
C
102
}
100
AcDbDictionary
281
1
  3
Normal
350
F
100
AcDbDictionaryWithDefault
340
F
  0
DICTIONARY
  5
17
102
{ACAD_REACTORS
330
C
102
}
100
AcDbDictionary
280
0
281
1
  3
Standard
350
18
  0
DICTIONARY
  5
19
102
{ACAD_REACTORS
330
C
102
}
100
AcDbDictionary
281
1
  0
DICTIONARY
  5
1A
102
{ACAD_REACTORS
330
C
102
}
100
AcDbDictionary
281
1
  3
Model
350
804
  3
Layout1
350
805
  0
ACDBPLACEHOLDER
  5
F
102
{ACAD_REACTORS
330
E
102
}
  0
MLINESTYLE
  5
18
102
{ACAD_REACTORS
330
17
102
}
100
AcDbMlineStyle
  2
STANDARD
 70
0
  3

 62
256
 51
90.0
 52
90.0
 71
2
 49
0.5
 62
256
  6
BYLAYER
 49
-0.5
 62
256
  6
BYLAYER
  0
LAYOUT
  5
804
102
{ACAD_REACTORS
330
1A
102
}
100
AcDbPlotSettings
  1

  2
none_device
  4
ISO_A2_(594.00_x_420.00_MM)
  6

 40
0.0
 41
0.0
 42
0.0
 43
0.0
 44
594.0
 45
420.0
 46
0.0
 47
0.0
 48
0.0
 49
0.0
140
0.0
141
0.0
142
1.0
143
1.0
 70
1024
 72
1
 73
0
 74
0
  7

 75
0
147
1.0
148
0.0
149
0.0
100
AcDbLayout
  1
Model
 70
0
 71
0
 10
0.0
 20
0.0
 11
594.0
 21
420.0
 12
0.0
 22
0.0
 32
0.0
 14
0.0
 24
0.0
 34
0.0
 15
0.0
 25
0.0
 35
0.0
146
0.0
 13
0.0
 23
0.0
 33
0.0
 16
1.0
 26
0.0
 36
0.0
 17
0.0
 27
1.0
 37
0.0
 76
0
330
222
345
0
346
0
  0
LAYOUT
  5
805
102
{ACAD_REACTORS
330
1A
102
}
100
AcDbPlotSettings
  1

  2
none_device
  4
ISO_A2_(594.00_x_420.00_MM)
  6

 40
0.0
 41
0.0
 42
0.0
 43
0.0
 44
594.0
 45
420.0
 46
0.0
 47
0.0
 48
0.0
 49
0.0
140
0.0
141
0.0
142
1.0
143
1.0
 70
0
 72
1
 73
0
 74
0
  7

 75
0
147
1.0
148
0.0
149
0.0
100
AcDbLayout
  1
Layout1
 70
0
 71
1
 10
0.0
 20
0.0
 11
594.0
 21
420.0
 12
0.0
 22
0.0
 32
0.0
 14
0.0
 24
0.0
 34
0.0
 15
0.0
 25
0.0
 35
0.0
146
0.0
 13
0.0
 23
0.0
 33
0.0
 16
1.0
 26
0.0
 36
0.0
 17
0.0
 27
1.0
 37
0.0
 76
0
330
223
345
0
346
0
  0
ENDSEC
  0
EOF
