999
DXF file: 375171-000-00-ed1.dxf
999
Pro/ENGINEER 2011220 by Parametric Technology Corporation
  0
SECTION
  2
HEADER
  9
$ACADVER
  1
AC1015
  9
$DWGCODEPAGE
  3
ANSI_1252
  9
$EXTMAX
 10
420.0
 20
297.0
 30
0.0
  9
$EXTMIN
 10
0.0
 20
0.0
 30
0.0
  9
$LIMMIN
 10
0.0
 20
0.0
  9
$LIMMAX
 10
420.0
 20
297.0
  9
$VIEWCTR
 10
210.0
 20
148.5
  9
$VIEWSIZE
 40
297.0
  9
$CLAYER
  8
0
  9
$LTSCALE
 40
23.1
  9
$CELTYPE
  6
BYLAYER
  9
$DIMSCALE
 40
1.0
  9
$DIMASZ
 40
3.5
  9
$DIMEXO
 40
2.625
  9
$DIMDLI
 40
15.96
  9
$DIMEXE
 40
7.56
  9
$DIMCEN
 40
3.78
  9
$DIMLFAC
 40
1.0
  9
$DIMBLK
  1
_FILLED
  9
$DIMTXT
 40
3.5
  9
$DIMTOL
 70
1
  9
$DIMLIM
 70
0
  9
$DIMTFAC
 40
1.0
  9
$DIMTP
 40
0.005
  9
$DIMTM
 40
0.005
  9
$PDMODE
 70
3
  9
$PDSIZE
 40
0.3125
  9
$HANDSEED
  5
73F
  9
$TILEMODE
 70
1
  9
$MEASUREMENT
 70
1
  9
$INSUNITS
 70
4
  0
ENDSEC
  0
SECTION
  2
CLASSES
  0
CLASS
  1
ACDBDICTIONARYWDFLT
  2
AcDbDictionaryWithDefault
  3
AutoCAD 2000
 90
0
280
0
281
0
  0
CLASS
  1
ACDBPLACEHOLDER
  2
AcDbPlaceHolder
  3
AutoCAD 2000
 90
0
280
0
281
0
  0
CLASS
  1
LAYOUT
  2
AcDbLayout
  3
AutoCAD 2000
 90
0
280
0
281
0
  0
ENDSEC
  0
SECTION
  2
TABLES
  0
TABLE
  2
VPORT
  5
8
100
AcDbSymbolTable
 70
2
  0
VPORT
  5
1F4
100
AcDbSymbolTableRecord
100
AcDbViewportTableRecord
  2
*ACTIVE
 70
0
 10
0.0
 20
0.0
 11
1.0
 21
1.0
 12
210.0
 22
148.5
 13
0.0
 23
0.0
 14
1.0
 24
1.0
 15
0.0
 25
0.0
 16
0.0
 26
0.0
 36
1.0
 17
0.0
 27
0.0
 37
0.0
 40
297.0
 41
1.4141414141
 42
50.0
 43
0.0
 44
0.0
 50
0.0
 51
0.0
 71
0
 72
100
 73
1
 74
1
 75
0
 76
0
 77
0
 78
0
  0
ENDTAB
  0
TABLE
  2
LTYPE
  5
5
100
AcDbSymbolTable
 70
6
  0
LTYPE
  5
14
100
AcDbSymbolTableRecord
100
AcDbLinetypeTableRecord
  2
BYBLOCK
 70
0
  3

 72
65
 73
0
 40
0.0
  0
LTYPE
  5
15
100
AcDbSymbolTableRecord
100
AcDbLinetypeTableRecord
  2
BYLAYER
 70
0
  3

 72
65
 73
0
 40
0.0
  0
LTYPE
  5
16
100
AcDbSymbolTableRecord
100
AcDbLinetypeTableRecord
  2
CONTINUOUS
 70
64
  3
Solid line
 72
65
 73
0
 40
0.0
  0
LTYPE
  5
1F5
100
AcDbSymbolTableRecord
100
AcDbLinetypeTableRecord
  2
CENTER
 70
64
  3
____ _ ____ _ ____ _ ____ _ ____ _ ____ _ ____
 72
65
 73
4
 40
0.6
 49
0.375
 74
0
 49
-0.075
 74
0
 49
0.075
 74
0
 49
-0.075
 74
0
  0
LTYPE
  5
1F6
100
AcDbSymbolTableRecord
100
AcDbLinetypeTableRecord
  2
HIDDEN
 70
64
  3
- - - - - - - - - - - - - - - - - - - -
 72
65
 73
2
 40
0.2
 49
0.1
 74
0
 49
-0.1
 74
0
  0
LTYPE
  5
1F7
100
AcDbSymbolTableRecord
100
AcDbLinetypeTableRecord
  2
PHANTOM
 70
64
  3
_____ _ _ _____ _ _ _____ _ _ _____
 72
65
 73
6
 40
0.8
 49
0.45
 74
0
 49
-0.05
 74
0
 49
0.1
 74
0
 49
-0.05
 74
0
 49
0.1
 74
0
 49
-0.05
 74
0
  0
LTYPE
  5
1F8
100
AcDbSymbolTableRecord
100
AcDbLinetypeTableRecord
  2
DOT
 70
64
  3
. . . . . . . . . . . . . . . . . . . .
 72
65
 73
2
 40
0.2
 49
0.1
 74
0
 49
-0.1
 74
0
  0
LTYPE
  5
1F9
100
AcDbSymbolTableRecord
100
AcDbLinetypeTableRecord
  2
DASHED
 70
64
  3
- - - - - - - - - - - - - - - - - - - -
 72
65
 73
2
 40
0.2
 49
0.1
 74
0
 49
-0.1
 74
0
  0
ENDTAB
  0
TABLE
  2
LAYER
  5
2
100
AcDbSymbolTable
 70
36
  0
LAYER
  5
10
100
AcDbSymbolTableRecord
100
AcDbLayerTableRecord
  2
0
 70
0
 62
7
  6
CONTINUOUS
370
-3
390
F
  0
LAYER
  5
1FA
100
AcDbSymbolTableRecord
100
AcDbLayerTableRecord
  2
DEFAULT_1
 70
0
 62
7
  6
CENTER
370
-3
390
F
  0
LAYER
  5
1FB
100
AcDbSymbolTableRecord
100
AcDbLayerTableRecord
  2
DEFAULT_2
 70
0
 62
6
  6
HIDDEN
370
-3
390
F
  0
LAYER
  5
1FC
100
AcDbSymbolTableRecord
100
AcDbLayerTableRecord
  2
DEFAULT_3
 70
0
 62
7
  6
PHANTOM
370
-3
390
F
  0
LAYER
  5
1FD
100
AcDbSymbolTableRecord
100
AcDbLayerTableRecord
  2
COLLECTION01
 70
0
 62
7
  6
CONTINUOUS
370
-3
390
F
  0
LAYER
  5
1FE
100
AcDbSymbolTableRecord
100
AcDbLayerTableRecord
  2
COLLECTION02
 70
0
 62
7
  6
CONTINUOUS
370
-3
390
F
  0
LAYER
  5
1FF
100
AcDbSymbolTableRecord
100
AcDbLayerTableRecord
  2
COLLECTION03
 70
0
 62
7
  6
CONTINUOUS
370
-3
390
F
  0
LAYER
  5
200
100
AcDbSymbolTableRecord
100
AcDbLayerTableRecord
  2
COLLECTION12
 70
0
 62
7
  6
CONTINUOUS
370
-3
390
F
  0
LAYER
  5
201
100
AcDbSymbolTableRecord
100
AcDbLayerTableRecord
  2
COLLECTION04
 70
0
 62
7
  6
CONTINUOUS
370
-3
390
F
  0
LAYER
  5
202
100
AcDbSymbolTableRecord
100
AcDbLayerTableRecord
  2
COLLECTION06
 70
0
 62
7
  6
CONTINUOUS
370
-3
390
F
  0
LAYER
  5
203
100
AcDbSymbolTableRecord
100
AcDbLayerTableRecord
  2
COLLECTION07
 70
0
 62
7
  6
CONTINUOUS
370
-3
390
F
  0
LAYER
  5
204
100
AcDbSymbolTableRecord
100
AcDbLayerTableRecord
  2
COLLECTION09
 70
0
 62
7
  6
CONTINUOUS
370
-3
390
F
  0
LAYER
  5
205
100
AcDbSymbolTableRecord
100
AcDbLayerTableRecord
  2
COLLECTION10
 70
0
 62
7
  6
CONTINUOUS
370
-3
390
F
  0
LAYER
  5
206
100
AcDbSymbolTableRecord
100
AcDbLayerTableRecord
  2
COLLECTION13
 70
0
 62
7
  6
CONTINUOUS
370
-3
390
F
  0
LAYER
  5
207
100
AcDbSymbolTableRecord
100
AcDbLayerTableRecord
  2
COLLECTION15
 70
0
 62
7
  6
CONTINUOUS
370
-3
390
F
  0
LAYER
  5
208
100
AcDbSymbolTableRecord
100
AcDbLayerTableRecord
  2
COLLECTION16
 70
0
 62
7
  6
CONTINUOUS
370
-3
390
F
  0
LAYER
  5
209
100
AcDbSymbolTableRecord
100
AcDbLayerTableRecord
  2
375171-000-00-ED1_FORMAT
 70
0
 62
7
  6
CONTINUOUS
370
-3
390
F
  0
LAYER
  5
20A
100
AcDbSymbolTableRecord
100
AcDbLayerTableRecord
  2
375171-000-00-ED1_DIM
 70
0
 62
7
  6
CONTINUOUS
370
-3
390
F
  0
LAYER
  5
20B
100
AcDbSymbolTableRecord
100
AcDbLayerTableRecord
  2
375171-000-00-ED1_CL
 70
0
 62
7
  6
CONTINUOUS
370
-3
390
F
  0
LAYER
  5
20C
100
AcDbSymbolTableRecord
100
AcDbLayerTableRecord
  2
30488595_DIM
 70
0
 62
7
  6
CONTINUOUS
370
-3
390
F
  0
LAYER
  5
20D
100
AcDbSymbolTableRecord
100
AcDbLayerTableRecord
  2
30350709_DIM
 70
0
 62
7
  6
CONTINUOUS
370
-3
390
F
  0
LAYER
  5
20E
100
AcDbSymbolTableRecord
100
AcDbLayerTableRecord
  2
375171-000-00-ED1_TEXT
 70
0
 62
7
  6
CONTINUOUS
370
-3
390
F
  0
LAYER
  5
20F
100
AcDbSymbolTableRecord
100
AcDbLayerTableRecord
  2
30350709_CL
 70
0
 62
7
  6
CONTINUOUS
370
-3
390
F
  0
LAYER
  5
210
100
AcDbSymbolTableRecord
100
AcDbLayerTableRecord
  2
30350709_HL
 70
0
 62
7
  6
CONTINUOUS
370
-3
390
F
  0
LAYER
  5
211
100
AcDbSymbolTableRecord
100
AcDbLayerTableRecord
  2
30350709_AXIS
 70
0
 62
7
  6
CONTINUOUS
370
-3
390
F
  0
LAYER
  5
212
100
AcDbSymbolTableRecord
100
AcDbLayerTableRecord
  2
30252540_HL
 70
0
 62
7
  6
CONTINUOUS
370
-3
390
F
  0
LAYER
  5
213
100
AcDbSymbolTableRecord
100
AcDbLayerTableRecord
  2
30252540_CL
 70
0
 62
7
  6
CONTINUOUS
370
-3
390
F
  0
ENDTAB
  0
TABLE
  2
STYLE
  5
3
100
AcDbSymbolTable
 70
1
  0
STYLE
  5
11
100
AcDbSymbolTableRecord
100
AcDbTextStyleTableRecord
  2
STANDARD
 70
0
 40
0.0
 41
0.7
 50
0.0
 71
0
 42
0.2
  3
TXT.SHX
  4

  0
STYLE
  5
214
100
AcDbSymbolTableRecord
100
AcDbTextStyleTableRecord
  2
TEXTSTYLE_1
 70
0
 40
0.0
 41
0.8
 50
0.0
 71
0
 42
0.2
  3
gdt
  4

  0
STYLE
  5
215
100
AcDbSymbolTableRecord
100
AcDbTextStyleTableRecord
  2
TEXTSTYLE_2
 70
0
 40
0.0
 41
0.675
 50
0.0
 71
0
 42
0.2
  3
TXT.SHX
  4

  0
STYLE
  5
216
100
AcDbSymbolTableRecord
100
AcDbTextStyleTableRecord
  2
TEXTSTYLE_3
 70
0
 40
0.0
 41
0.7
 50
0.0
 71
0
 42
0.2
  3
gdt
  4

  0
ENDTAB
  0
TABLE
  2
VIEW
  5
6
100
AcDbSymbolTable
 70
0
  0
ENDTAB
  0
TABLE
  2
UCS
  5
7
100
AcDbSymbolTable
 70
0
  0
ENDTAB
  0
TABLE
  2
APPID
  5
9
100
AcDbSymbolTable
 70
1
  0
APPID
  5
217
100
AcDbSymbolTableRecord
100
AcDbRegAppTableRecord
  2
ACAD
 70
0
  0
ENDTAB
  0
TABLE
  2
BLOCK_RECORD
  5
1
100
AcDbSymbolTable
 70
0
  0
BLOCK_RECORD
  5
218
100
AcDbSymbolTableRecord
100
AcDbBlockTableRecord
  2
*Model_Space
  0
BLOCK_RECORD
  5
219
100
AcDbSymbolTableRecord
100
AcDbBlockTableRecord
  2
*Paper_Space
  0
BLOCK_RECORD
  5
21A
100
AcDbSymbolTableRecord
100
AcDbBlockTableRecord
  2
_FILLED
  0
BLOCK_RECORD
  5
21B
100
AcDbSymbolTableRecord
100
AcDbBlockTableRecord
  2
_DOT
  0
BLOCK_RECORD
  5
21C
100
AcDbSymbolTableRecord
100
AcDbBlockTableRecord
  2
*D0
  0
BLOCK_RECORD
  5
21D
100
AcDbSymbolTableRecord
100
AcDbBlockTableRecord
  2
*D1
  0
BLOCK_RECORD
  5
21E
100
AcDbSymbolTableRecord
100
AcDbBlockTableRecord
  2
*D2
  0
BLOCK_RECORD
  5
21F
100
AcDbSymbolTableRecord
100
AcDbBlockTableRecord
  2
*D3
  0
BLOCK_RECORD
  5
220
100
AcDbSymbolTableRecord
100
AcDbBlockTableRecord
  2
*D4
  0
BLOCK_RECORD
  5
221
100
AcDbSymbolTableRecord
100
AcDbBlockTableRecord
  2
*D5
  0
BLOCK_RECORD
  5
222
100
AcDbSymbolTableRecord
100
AcDbBlockTableRecord
  2
*D6
  0
BLOCK_RECORD
  5
223
100
AcDbSymbolTableRecord
100
AcDbBlockTableRecord
  2
*D7
  0
BLOCK_RECORD
  5
224
100
AcDbSymbolTableRecord
100
AcDbBlockTableRecord
  2
*D8
  0
BLOCK_RECORD
  5
225
100
AcDbSymbolTableRecord
100
AcDbBlockTableRecord
  2
*D9
  0
BLOCK_RECORD
  5
226
100
AcDbSymbolTableRecord
100
AcDbBlockTableRecord
  2
*D10
  0
BLOCK_RECORD
  5
227
100
AcDbSymbolTableRecord
100
AcDbBlockTableRecord
  2
BOMBALLOON_BL5
  0
BLOCK_RECORD
  5
228
100
AcDbSymbolTableRecord
100
AcDbBlockTableRecord
  2
GEOM_TOLERANCE_SYMBOLS_BL4
  0
BLOCK_RECORD
  5
229
100
AcDbSymbolTableRecord
100
AcDbBlockTableRecord
  2
GEOM_TOLERANCE_SYMBOLS_BL3
  0
BLOCK_RECORD
  5
22A
100
AcDbSymbolTableRecord
100
AcDbBlockTableRecord
  2
NOTE_HSK_BL2
  0
BLOCK_RECORD
  5
22B
100
AcDbSymbolTableRecord
100
AcDbBlockTableRecord
  2
GEOM_TOLERANCE_SYMBOLS_BL1
  0
BLOCK_RECORD
  5
22C
100
AcDbSymbolTableRecord
100
AcDbBlockTableRecord
  2
BARCODEBOX_BL0
  0
ENDTAB
  0
TABLE
  2
DIMSTYLE
  5
A
100
AcDbSymbolTable
 70
1
100
AcDbDimStyleTable
 71
0
  0
DIMSTYLE
105
22D
100
AcDbSymbolTableRecord
100
AcDbDimStyleTableRecord
  2
STANDARD
 70
0
  3

  4

 40
1.0
 41
3.5
 42
0.0625
 43
0.38
 44
0.18
 45
0.0
 46
0.0
 47
0.005
 48
0.005
140
3.5
141
0.09
142
0.0
143
25.4
144
1.0
145
0.0
146
1.0
147
0.09
 71
1.0
 72
0.0
 73
0
 74
0
 75
0
 76
0
 77
1
 78
8
170
0
171
2
172
0
173
0
174
0
175
0
176
0
177
0
178
2
270
2
271
3
272
3
273
2
274
2
275
0
280
0
281
0
282
0
283
1
284
8
285
0
286
0
287
3
288
0
340
11
341
21A
342
21A
343
21A
344
21A
  0
DIMSTYLE
105
22E
100
AcDbSymbolTableRecord
100
AcDbDimStyleTableRecord
  2
DIMSTYLE_1
 70
0
  3

  4

 40
1.0
 41
3.5
 42
0.0625
 43
0.38
 44
0.18
 45
0.0
 46
0.0
 47
0.25
 48
0.25
140
3.5
141
0.09
142
0.0
143
25.4
144
1.0
145
0.0
146
1.0
147
0.09
 71
1.0
 72
0.0
 73
0
 74
0
 75
0
 76
0
 77
1
 78
8
170
0
171
2
172
0
173
0
174
0
175
0
176
0
177
0
178
2
270
2
271
2
272
2
273
2
274
2
275
0
280
0
281
0
282
0
283
1
284
8
285
0
286
0
287
3
288
0
340
11
341
21A
342
21A
343
21A
344
21A
  0
DIMSTYLE
105
22F
100
AcDbSymbolTableRecord
100
AcDbDimStyleTableRecord
  2
DIMSTYLE_2
 70
0
  3

  4

 40
1.0
 41
3.5
 42
0.0625
 43
0.38
 44
0.18
 45
0.0
 46
0.0
 47
0.1
 48
0.1
140
3.5
141
0.09
142
0.0
143
25.4
144
1.0
145
0.0
146
1.0
147
0.09
 71
0.0
 72
0.0
 73
0
 74
0
 75
0
 76
0
 77
1
 78
8
170
0
171
2
172
0
173
0
174
0
175
0
176
0
177
0
178
2
270
2
271
3
272
3
273
2
274
2
275
0
280
0
281
0
282
0
283
1
284
8
285
0
286
0
287
3
288
0
340
11
341
21A
342
21A
343
21A
344
21A
  0
DIMSTYLE
105
230
100
AcDbSymbolTableRecord
100
AcDbDimStyleTableRecord
  2
DIMSTYLE_3
 70
0
  3

  4

 40
1.0
 41
3.5
 42
0.0625
 43
0.38
 44
0.18
 45
0.0
 46
0.0
 47
0.05
 48
0.05
140
3.5
141
0.09
142
0.0
143
25.4
144
1.0
145
0.0
146
1.0
147
0.09
 71
0.0
 72
0.0
 73
0
 74
0
 75
0
 76
0
 77
1
 78
8
170
0
171
2
172
0
173
0
174
0
175
0
176
0
177
0
178
2
270
2
271
3
272
3
273
2
274
2
275
0
280
0
281
0
282
0
283
1
284
8
285
0
286
0
287
3
288
0
340
11
341
21A
342
21A
343
21A
344
21A
  0
DIMSTYLE
105
231
100
AcDbSymbolTableRecord
100
AcDbDimStyleTableRecord
  2
DIMSTYLE_4
 70
0
  3

  4

 40
1.0
 41
3.5
 42
0.0625
 43
0.38
 44
0.18
 45
0.0
 46
0.0
 47
0.15
 48
0.15
140
3.5
141
0.09
142
0.0
143
25.4
144
1.0
145
0.0
146
1.0
147
0.09
 71
0.0
 72
0.0
 73
0
 74
0
 75
0
 76
0
 77
1
 78
8
170
0
171
2
172
0
173
0
174
0
175
0
176
0
177
0
178
2
270
2
271
3
272
3
273
2
274
2
275
0
280
0
281
0
282
0
283
1
284
8
285
0
286
0
287
3
288
0
340
11
341
21A
342
21A
343
21A
344
21A
  0
DIMSTYLE
105
232
100
AcDbSymbolTableRecord
100
AcDbDimStyleTableRecord
  2
DIMSTYLE_5
 70
0
  3

  4

 40
1.0
 41
3.5
 42
0.0625
 43
0.38
 44
0.18
 45
0.0
 46
0.0
 47
0.1
 48
0.1
140
3.5
141
0.09
142
0.0
143
25.4
144
1.0
145
0.0
146
1.0
147
0.09
 71
0.0
 72
0.0
 73
0
 74
0
 75
0
 76
0
 77
1
 78
8
170
0
171
2
172
0
173
0
174
0
175
0
176
0
177
0
178
2
270
2
271
3
272
3
273
2
274
2
275
0
280
0
281
0
282
0
283
1
284
8
285
0
286
0
287
3
288
0
340
11
341
21A
342
21A
343
21A
344
21A
  0
DIMSTYLE
105
233
100
AcDbSymbolTableRecord
100
AcDbDimStyleTableRecord
  2
DIMSTYLE_6
 70
0
  3

  4

 40
1.0
 41
3.5
 42
0.0625
 43
0.38
 44
0.18
 45
0.0
 46
0.0
 47
0.2
 48
0.2
140
3.5
141
0.09
142
0.0
143
25.4
144
1.0
145
0.0
146
1.0
147
0.09
 71
0.0
 72
0.0
 73
0
 74
0
 75
0
 76
0
 77
1
 78
8
170
0
171
2
172
0
173
0
174
0
175
0
176
0
177
0
178
2
270
2
271
3
272
3
273
2
274
2
275
0
280
0
281
0
282
0
283
1
284
8
285
0
286
0
287
3
288
0
340
11
341
21A
342
21A
343
21A
344
21A
  0
ENDTAB
  0
ENDSEC
  0
SECTION
  2
BLOCKS
  0
BLOCK
  5
20
100
AcDbEntity
  8
0
100
AcDbBlockBegin
  2
*Model_Space
 70
0
 10
0.0
 20
0.0
 30
0.0
  3
*Model_Space
  1

  0
ENDBLK
  5
21
100
AcDbEntity
  8
0
100
AcDbBlockEnd
  0
BLOCK
  5
1C
100
AcDbEntity
  8
0
100
AcDbBlockBegin
  2
*Paper_Space
 70
0
 10
0.0
 20
0.0
 30
0.0
  3
*Paper_Space
  1

  0
ENDBLK
  5
1D
100
AcDbEntity
  8
0
100
AcDbBlockEnd
  0
BLOCK
  5
234
100
AcDbEntity
  8
375171-000-00-ED1_CL
100
AcDbBlockBegin
 62
3
  6
CONTINUOUS
  2
BOMBALLOON_BL5
 70
64
 10
240.0316582309
 20
136.8973058238
  3
BOMBALLOON_BL5
  1

  0
CIRCLE
  5
235
100
AcDbEntity
  8
375171-000-00-ED1_CL
100
AcDbCircle
 62
3
  6
CONTINUOUS
 10
240.0316582309
 20
136.8973058238
 40
6.125
  0
LINE
  5
236
100
AcDbEntity
  8
375171-000-00-ED1_CL
100
AcDbLine
 62
3
  6
CONTINUOUS
 10
233.9066582309
 20
136.8973058238
 11
246.1566582309
 21
136.8973058238
  0
TEXT
  5
237
100
AcDbEntity
  8
375171-000-00-ED1_CL
100
AcDbText
 62
2
  6
CONTINUOUS
 10
238.9268405226
 20
137.8361079071
  7
STANDARD
 40
3.5
  1
1
 41
0.5714285714
 72
0
100
AcDbText
  0
TEXT
  5
238
100
AcDbEntity
  8
375171-000-00-ED1_CL
100
AcDbText
 62
2
  6
CONTINUOUS
 10
239.0271009393
 20
132.7228266571
  7
STANDARD
 40
3.5
  1
1
 41
0.5714285714
 72
0
100
AcDbText
  0
ENDBLK
  5
239
100
AcDbEntity
  8
0
  6
BYBLOCK
 62
0
100
AcDbBlockEnd
  0
BLOCK
  5
23A
100
AcDbEntity
  8
375171-000-00-ED1_CL
100
AcDbBlockBegin
 62
3
  6
CONTINUOUS
  2
GEOM_TOLERANCE_SYMBOLS_BL4
 70
64
 10
102.6791205799
 20
130.3680941102
  3
GEOM_TOLERANCE_SYMBOLS_BL4
  1

  0
LINE
  5
23B
100
AcDbEntity
  8
375171-000-00-ED1_CL
100
AcDbLine
 62
3
  6
CONTINUOUS
 10
108.9291205799
 20
128.8680941102
 11
106.4291205799
 21
130.3680941102
  0
LINE
  5
23C
100
AcDbEntity
  8
375171-000-00-ED1_CL
100
AcDbLine
 62
3
  6
CONTINUOUS
 10
106.4291205799
 20
130.3680941102
 11
108.9291205799
 21
131.8680941102
  0
LINE
  5
23D
100
AcDbEntity
  8
375171-000-00-ED1_CL
100
AcDbLine
 62
3
  6
CONTINUOUS
 10
108.9291205799
 20
131.8680941102
 11
108.9291205799
 21
128.8680941102
  0
LINE
  5
23E
100
AcDbEntity
  8
375171-000-00-ED1_CL
100
AcDbLine
 62
3
  6
CONTINUOUS
 10
106.4291205799
 20
130.3680941102
 11
103.4291205799
 21
130.3680941102
  0
LINE
  5
23F
100
AcDbEntity
  8
375171-000-00-ED1_CL
100
AcDbLine
 62
3
  6
CONTINUOUS
 10
103.4291205799
 20
126.8680941102
 11
103.4291205799
 21
133.8680941102
  0
LINE
  5
240
100
AcDbEntity
  8
375171-000-00-ED1_CL
100
AcDbLine
 62
3
  6
CONTINUOUS
 10
103.4291205799
 20
133.8680941102
 11
96.4291205799
 21
133.8680941102
  0
LINE
  5
241
100
AcDbEntity
  8
375171-000-00-ED1_CL
100
AcDbLine
 62
3
  6
CONTINUOUS
 10
96.4291205799
 20
133.8680941102
 11
96.4291205799
 21
126.8680941102
  0
LINE
  5
242
100
AcDbEntity
  8
375171-000-00-ED1_CL
100
AcDbLine
 62
3
  6
CONTINUOUS
 10
96.4291205799
 20
126.8680941102
 11
103.4291205799
 21
126.8680941102
  0
LINE
  5
243
100
AcDbEntity
  8
375171-000-00-ED1_CL
100
AcDbLine
 62
3
  6
CONTINUOUS
 10
108.9291205799
 20
131.7653052656
 11
108.7578058388
 21
131.7653052656
  0
LINE
  5
244
100
AcDbEntity
  8
375171-000-00-ED1_CL
100
AcDbLine
 62
3
  6
CONTINUOUS
 10
108.9291205799
 20
131.6653052656
 11
108.5911391721
 21
131.6653052656
  0
LINE
  5
245
100
AcDbEntity
  8
375171-000-00-ED1_CL
100
AcDbLine
 62
3
  6
CONTINUOUS
 10
108.9291205799
 20
131.5653052656
 11
108.4244725055
 21
131.5653052656
  0
LINE
  5
246
100
AcDbEntity
  8
375171-000-00-ED1_CL
100
AcDbLine
 62
3
  6
CONTINUOUS
 10
108.9291205799
 20
131.4653052656
 11
108.2578058388
 21
131.4653052656
  0
LINE
  5
247
100
AcDbEntity
  8
375171-000-00-ED1_CL
100
AcDbLine
 62
3
  6
CONTINUOUS
 10
108.9291205799
 20
131.3653052656
 11
108.0911391721
 21
131.3653052656
  0
LINE
  5
248
100
AcDbEntity
  8
375171-000-00-ED1_CL
100
AcDbLine
 62
3
  6
CONTINUOUS
 10
108.9291205799
 20
131.2653052656
 11
107.9244725055
 21
131.2653052656
  0
LINE
  5
249
100
AcDbEntity
  8
375171-000-00-ED1_CL
100
AcDbLine
 62
3
  6
CONTINUOUS
 10
108.9291205799
 20
131.1653052656
 11
107.7578058388
 21
131.1653052656
  0
LINE
  5
24A
100
AcDbEntity
  8
375171-000-00-ED1_CL
100
AcDbLine
 62
3
  6
CONTINUOUS
 10
108.9291205799
 20
131.0653052656
 11
107.5911391721
 21
131.0653052656
  0
LINE
  5
24B
100
AcDbEntity
  8
375171-000-00-ED1_CL
100
AcDbLine
 62
3
  6
CONTINUOUS
 10
108.9291205799
 20
130.9653052656
 11
107.4244725055
 21
130.9653052656
  0
LINE
  5
24C
100
AcDbEntity
  8
375171-000-00-ED1_CL
100
AcDbLine
 62
3
  6
CONTINUOUS
 10
108.9291205799
 20
130.8653052656
 11
107.2578058388
 21
130.8653052656
  0
LINE
  5
24D
100
AcDbEntity
  8
375171-000-00-ED1_CL
100
AcDbLine
 62
3
  6
CONTINUOUS
 10
108.9291205799
 20
130.7653052656
 11
107.0911391721
 21
130.7653052656
  0
LINE
  5
24E
100
AcDbEntity
  8
375171-000-00-ED1_CL
100
AcDbLine
 62
3
  6
CONTINUOUS
 10
108.9291205799
 20
130.6653052656
 11
106.9244725055
 21
130.6653052656
  0
LINE
  5
24F
100
AcDbEntity
  8
375171-000-00-ED1_CL
100
AcDbLine
 62
3
  6
CONTINUOUS
 10
108.9291205799
 20
130.5653052656
 11
106.7578058388
 21
130.5653052656
  0
LINE
  5
250
100
AcDbEntity
  8
375171-000-00-ED1_CL
100
AcDbLine
 62
3
  6
CONTINUOUS
 10
108.9291205799
 20
130.4653052656
 11
106.5911391721
 21
130.4653052656
  0
LINE
  5
251
100
AcDbEntity
  8
375171-000-00-ED1_CL
100
AcDbLine
 62
3
  6
CONTINUOUS
 10
108.9291205799
 20
130.3653052656
 11
106.4337686542
 21
130.3653052656
  0
LINE
  5
252
100
AcDbEntity
  8
375171-000-00-ED1_CL
100
AcDbLine
 62
3
  6
CONTINUOUS
 10
108.9291205799
 20
130.2653052656
 11
106.6004353209
 21
130.2653052656
  0
LINE
  5
253
100
AcDbEntity
  8
375171-000-00-ED1_CL
100
AcDbLine
 62
3
  6
CONTINUOUS
 10
108.9291205799
 20
130.1653052656
 11
106.7671019876
 21
130.1653052656
  0
LINE
  5
254
100
AcDbEntity
  8
375171-000-00-ED1_CL
100
AcDbLine
 62
3
  6
CONTINUOUS
 10
108.9291205799
 20
130.0653052656
 11
106.9337686542
 21
130.0653052656
  0
LINE
  5
255
100
AcDbEntity
  8
375171-000-00-ED1_CL
100
AcDbLine
 62
3
  6
CONTINUOUS
 10
108.9291205799
 20
129.9653052656
 11
107.1004353209
 21
129.9653052656
  0
LINE
  5
256
100
AcDbEntity
  8
375171-000-00-ED1_CL
100
AcDbLine
 62
3
  6
CONTINUOUS
 10
108.9291205799
 20
129.8653052656
 11
107.2671019876
 21
129.8653052656
  0
LINE
  5
257
100
AcDbEntity
  8
375171-000-00-ED1_CL
100
AcDbLine
 62
3
  6
CONTINUOUS
 10
108.9291205799
 20
129.7653052656
 11
107.4337686542
 21
129.7653052656
  0
LINE
  5
258
100
AcDbEntity
  8
375171-000-00-ED1_CL
100
AcDbLine
 62
3
  6
CONTINUOUS
 10
108.9291205799
 20
129.6653052656
 11
107.6004353209
 21
129.6653052656
  0
LINE
  5
259
100
AcDbEntity
  8
375171-000-00-ED1_CL
100
AcDbLine
 62
3
  6
CONTINUOUS
 10
108.9291205799
 20
129.5653052656
 11
107.7671019876
 21
129.5653052656
  0
LINE
  5
25A
100
AcDbEntity
  8
375171-000-00-ED1_CL
100
AcDbLine
 62
3
  6
CONTINUOUS
 10
108.9291205799
 20
129.4653052656
 11
107.9337686542
 21
129.4653052656
  0
LINE
  5
25B
100
AcDbEntity
  8
375171-000-00-ED1_CL
100
AcDbLine
 62
3
  6
CONTINUOUS
 10
108.9291205799
 20
129.3653052656
 11
108.1004353209
 21
129.3653052656
  0
LINE
  5
25C
100
AcDbEntity
  8
375171-000-00-ED1_CL
100
AcDbLine
 62
3
  6
CONTINUOUS
 10
108.9291205799
 20
129.2653052656
 11
108.2671019876
 21
129.2653052656
  0
LINE
  5
25D
100
AcDbEntity
  8
375171-000-00-ED1_CL
100
AcDbLine
 62
3
  6
CONTINUOUS
 10
108.9291205799
 20
129.1653052656
 11
108.4337686542
 21
129.1653052656
  0
LINE
  5
25E
100
AcDbEntity
  8
375171-000-00-ED1_CL
100
AcDbLine
 62
3
  6
CONTINUOUS
 10
108.9291205799
 20
129.0653052656
 11
108.6004353209
 21
129.0653052656
  0
LINE
  5
25F
100
AcDbEntity
  8
375171-000-00-ED1_CL
100
AcDbLine
 62
3
  6
CONTINUOUS
 10
108.9291205799
 20
128.9653052656
 11
108.7671019876
 21
128.9653052656
  0
TEXT
  5
260
100
AcDbEntity
  8
375171-000-00-ED1_CL
100
AcDbText
 62
2
  6
CONTINUOUS
 10
98.9541205799
 20
128.6180941102
  7
STANDARD
 40
3.5
  1
B
 41
0.7857142857
 72
0
100
AcDbText
  0
ENDBLK
  5
261
100
AcDbEntity
  8
0
  6
BYBLOCK
 62
0
100
AcDbBlockEnd
  0
BLOCK
  5
262
100
AcDbEntity
  8
375171-000-00-ED1_CL
100
AcDbBlockBegin
 62
3
  6
CONTINUOUS
  2
GEOM_TOLERANCE_SYMBOLS_BL3
 70
64
 10
91.5986232846
 20
189.2445650084
  3
GEOM_TOLERANCE_SYMBOLS_BL3
  1

  0
LINE
  5
263
100
AcDbEntity
  8
375171-000-00-ED1_CL
100
AcDbLine
 62
3
  6
CONTINUOUS
 10
93.5498666279
 20
183.027622158
 11
90.5536246
 21
182.8775098319
  0
LINE
  5
264
100
AcDbEntity
  8
375171-000-00-ED1_CL
100
AcDbLine
 62
3
  6
CONTINUOUS
 10
87.9278765383
 20
195.261637184
 11
94.9191079367
 21
195.6118992781
  0
LINE
  5
265
100
AcDbEntity
  8
375171-000-00-ED1_CL
100
AcDbLine
 62
3
  6
CONTINUOUS
 10
94.9191079367
 20
195.6118992781
 11
95.2693700308
 21
188.6206678798
  0
LINE
  5
266
100
AcDbEntity
  8
375171-000-00-ED1_CL
100
AcDbLine
 62
3
  6
CONTINUOUS
 10
95.2693700308
 20
188.6206678798
 11
88.2781386325
 21
188.2704057856
  0
LINE
  5
267
100
AcDbEntity
  8
375171-000-00-ED1_CL
100
AcDbLine
 62
3
  6
CONTINUOUS
 10
88.2781386325
 20
188.2704057856
 11
87.9278765383
 21
195.261637184
  0
LINE
  5
268
100
AcDbEntity
  8
375171-000-00-ED1_CL
100
AcDbLine
 62
3
  6
CONTINUOUS
 10
90.5480538977
 20
182.8772307386
 11
91.9238666577
 21
185.4492948048
  0
LINE
  5
269
100
AcDbEntity
  8
375171-000-00-ED1_CL
100
AcDbLine
 62
3
  6
CONTINUOUS
 10
91.9238666577
 20
185.4492948048
 11
93.5442959255
 21
183.0273430647
  0
LINE
  5
26A
100
AcDbEntity
  8
375171-000-00-ED1_CL
100
AcDbLine
 62
3
  6
CONTINUOUS
 10
91.9238666577
 20
185.4492948048
 11
91.7737543316
 21
188.4455368327
  0
LINE
  5
26B
100
AcDbEntity
  8
375171-000-00-ED1_CL
100
AcDbLine
 62
3
  6
CONTINUOUS
 10
90.6507139831
 20
182.8823740294
 11
90.6421577397
 21
183.0531566477
  0
LINE
  5
26C
100
AcDbEntity
  8
375171-000-00-ED1_CL
100
AcDbLine
 62
3
  6
CONTINUOUS
 10
90.7505887174
 20
182.8873777736
 11
90.7337083767
 21
183.2243093732
  0
LINE
  5
26D
100
AcDbEntity
  8
375171-000-00-ED1_CL
100
AcDbLine
 62
3
  6
CONTINUOUS
 10
90.8504634516
 20
182.8923815178
 11
90.8252590137
 21
183.3954620987
  0
LINE
  5
26E
100
AcDbEntity
  8
375171-000-00-ED1_CL
100
AcDbLine
 62
3
  6
CONTINUOUS
 10
90.9503381859
 20
182.897385262
 11
90.9168096507
 21
183.5666148242
  0
LINE
  5
26F
100
AcDbEntity
  8
375171-000-00-ED1_CL
100
AcDbLine
 62
3
  6
CONTINUOUS
 10
91.0502129201
 20
182.9023890063
 11
91.0083602877
 21
183.7377675497
  0
LINE
  5
270
100
AcDbEntity
  8
375171-000-00-ED1_CL
100
AcDbLine
 62
3
  6
CONTINUOUS
 10
91.1500876544
 20
182.9073927505
 11
91.0999109247
 21
183.9089202752
  0
LINE
  5
271
100
AcDbEntity
  8
375171-000-00-ED1_CL
100
AcDbLine
 62
3
  6
CONTINUOUS
 10
91.2499623887
 20
182.9123964947
 11
91.1914615617
 21
184.0800730007
  0
LINE
  5
272
100
AcDbEntity
  8
375171-000-00-ED1_CL
100
AcDbLine
 62
3
  6
CONTINUOUS
 10
91.3498371229
 20
182.9174002389
 11
91.2830121987
 21
184.2512257263
  0
LINE
  5
273
100
AcDbEntity
  8
375171-000-00-ED1_CL
100
AcDbLine
 62
3
  6
CONTINUOUS
 10
91.4497118572
 20
182.9224039831
 11
91.3745628357
 21
184.4223784518
  0
LINE
  5
274
100
AcDbEntity
  8
375171-000-00-ED1_CL
100
AcDbLine
 62
3
  6
CONTINUOUS
 10
91.5495865915
 20
182.9274077273
 11
91.4661134727
 21
184.5935311773
  0
LINE
  5
275
100
AcDbEntity
  8
375171-000-00-ED1_CL
100
AcDbLine
 62
3
  6
CONTINUOUS
 10
91.6494613257
 20
182.9324114715
 11
91.5576641097
 21
184.7646839028
  0
LINE
  5
276
100
AcDbEntity
  8
375171-000-00-ED1_CL
100
AcDbLine
 62
3
  6
CONTINUOUS
 10
91.74933606
 20
182.9374152157
 11
91.6492147467
 21
184.9358366283
  0
LINE
  5
277
100
AcDbEntity
  8
375171-000-00-ED1_CL
100
AcDbLine
 62
3
  6
CONTINUOUS
 10
91.8492107942
 20
182.9424189599
 11
91.7407653837
 21
185.1069893538
  0
LINE
  5
278
100
AcDbEntity
  8
375171-000-00-ED1_CL
100
AcDbLine
 62
3
  6
CONTINUOUS
 10
91.9490855285
 20
182.9474227041
 11
91.8323160207
 21
185.2781420793
  0
LINE
  5
279
100
AcDbEntity
  8
375171-000-00-ED1_CL
100
AcDbLine
 62
3
  6
CONTINUOUS
 10
92.0489602628
 20
182.9524264483
 11
91.9238666577
 21
185.4492948048
  0
LINE
  5
27A
100
AcDbEntity
  8
375171-000-00-ED1_CL
100
AcDbLine
 62
3
  6
CONTINUOUS
 10
92.148834997
 20
182.9574301925
 11
92.0320964997
 21
185.2875305987
  0
LINE
  5
27B
100
AcDbEntity
  8
375171-000-00-ED1_CL
100
AcDbLine
 62
3
  6
CONTINUOUS
 10
92.2487097313
 20
182.9624339367
 11
92.1403263417
 21
185.1257663925
  0
LINE
  5
27C
100
AcDbEntity
  8
375171-000-00-ED1_CL
100
AcDbLine
 62
3
  6
CONTINUOUS
 10
92.3485844655
 20
182.9674376809
 11
92.2485561837
 21
184.9640021863
  0
LINE
  5
27D
100
AcDbEntity
  8
375171-000-00-ED1_CL
100
AcDbLine
 62
3
  6
CONTINUOUS
 10
92.4484591998
 20
182.9724414251
 11
92.3567860257
 21
184.8022379802
  0
LINE
  5
27E
100
AcDbEntity
  8
375171-000-00-ED1_CL
100
AcDbLine
 62
3
  6
CONTINUOUS
 10
92.5483339341
 20
182.9774451693
 11
92.4650158677
 21
184.640473774
  0
LINE
  5
27F
100
AcDbEntity
  8
375171-000-00-ED1_CL
100
AcDbLine
 62
3
  6
CONTINUOUS
 10
92.6482086683
 20
182.9824489135
 11
92.5732457097
 21
184.4787095678
  0
LINE
  5
280
100
AcDbEntity
  8
375171-000-00-ED1_CL
100
AcDbLine
 62
3
  6
CONTINUOUS
 10
92.7480834026
 20
182.9874526577
 11
92.6814755517
 21
184.3169453616
  0
LINE
  5
281
100
AcDbEntity
  8
375171-000-00-ED1_CL
100
AcDbLine
 62
3
  6
CONTINUOUS
 10
92.8479581369
 20
182.9924564019
 11
92.7897053937
 21
184.1551811555
  0
LINE
  5
282
100
AcDbEntity
  8
375171-000-00-ED1_CL
100
AcDbLine
 62
3
  6
CONTINUOUS
 10
92.9478328711
 20
182.9974601461
 11
92.8979352357
 21
183.9934169493
  0
LINE
  5
283
100
AcDbEntity
  8
375171-000-00-ED1_CL
100
AcDbLine
 62
3
  6
CONTINUOUS
 10
93.0477076054
 20
183.0024638903
 11
93.0061650777
 21
183.8316527431
  0
LINE
  5
284
100
AcDbEntity
  8
375171-000-00-ED1_CL
100
AcDbLine
 62
3
  6
CONTINUOUS
 10
93.1475823396
 20
183.0074676345
 11
93.1143949197
 21
183.669888537
  0
LINE
  5
285
100
AcDbEntity
  8
375171-000-00-ED1_CL
100
AcDbLine
 62
3
  6
CONTINUOUS
 10
93.2474570739
 20
183.0124713787
 11
93.2226247617
 21
183.5081243308
  0
LINE
  5
286
100
AcDbEntity
  8
375171-000-00-ED1_CL
100
AcDbLine
 62
3
  6
CONTINUOUS
 10
93.3473318082
 20
183.0174751229
 11
93.3308546037
 21
183.3463601246
  0
LINE
  5
287
100
AcDbEntity
  8
375171-000-00-ED1_CL
100
AcDbLine
 62
3
  6
CONTINUOUS
 10
93.4472065424
 20
183.0224788671
 11
93.4390844457
 21
183.1845959185
  0
TEXT
  5
288
100
AcDbEntity
  8
375171-000-00-ED1_CL
100
AcDbText
 62
2
  6
CONTINUOUS
 10
90.590905062
 20
190.1356287152
  7
STANDARD
 40
3.5
  1
A
 50
2.868131941
 41
0.8571428571
 72
0
100
AcDbText
  0
ENDBLK
  5
289
100
AcDbEntity
  8
0
  6
BYBLOCK
 62
0
100
AcDbBlockEnd
  0
BLOCK
  5
28A
100
AcDbEntity
  8
375171-000-00-ED1_CL
100
AcDbBlockBegin
 62
3
  6
CONTINUOUS
  2
NOTE_HSK_BL2
 70
64
 10
88.5771536135
 20
219.6004297556
  3
NOTE_HSK_BL2
  1

  0
TEXT
  5
28B
100
AcDbEntity
  8
375171-000-00-ED1_CL
100
AcDbText
 62
2
  6
CONTINUOUS
 10
46.8509631373
 20
235.4754297556
  7
STANDARD
 40
5.0
  1
TRENNSTELLE HSK-A63
 41
0.7631578947
 72
0
100
AcDbText
  0
TEXT
  5
28C
100
AcDbEntity
  8
375171-000-00-ED1_CL
100
AcDbText
 62
2
  6
CONTINUOUS
 10
46.8509631373
 20
227.9754297556
  7
STANDARD
 40
5.0
  1
(AEHNLICH DIN 69893-1)
 41
0.7251082251
 72
0
100
AcDbText
  0
TEXT
  5
28D
100
AcDbEntity
  8
375171-000-00-ED1_CL
100
AcDbText
 62
2
  6
CONTINUOUS
 10
46.8509631373
 20
220.4754297556
  7
STANDARD
 40
5.0
  1
NACH  MN609 BLATT 2-4
 41
0.7947845805
 72
0
100
AcDbText
  0
TEXT
  5
28E
100
AcDbEntity
  8
375171-000-00-ED1_CL
100
AcDbText
 62
2
  6
CONTINUOUS
 10
46.8509631373
 20
213.7254297556
  7
STANDARD
 40
3.5
  1
 
 41
0.7
 72
0
100
AcDbText
  0
TEXT
  5
28F
100
AcDbEntity
  8
375171-000-00-ED1_CL
100
AcDbText
 62
2
  6
CONTINUOUS
 10
46.8509631373
 20
206.2254297556
  7
STANDARD
 40
3.5
  1
 
 41
0.7
 72
0
100
AcDbText
  0
TEXT
  5
290
100
AcDbEntity
  8
375171-000-00-ED1_CL
100
AcDbText
 62
2
  6
CONTINUOUS
 10
46.8509631373
 20
198.7254297556
  7
STANDARD
 40
3.5
  1
 
 41
0.7
 72
0
100
AcDbText
  0
ENDBLK
  5
291
100
AcDbEntity
  8
0
  6
BYBLOCK
 62
0
100
AcDbBlockEnd
  0
BLOCK
  5
292
100
AcDbEntity
  8
375171-000-00-ED1_CL
100
AcDbBlockBegin
 62
3
  6
CONTINUOUS
  2
GEOM_TOLERANCE_SYMBOLS_BL1
 70
64
 10
340.0443407832
 20
119.4777556878
  3
GEOM_TOLERANCE_SYMBOLS_BL1
  1

  0
LINE
  5
293
100
AcDbEntity
  8
375171-000-00-ED1_CL
100
AcDbLine
 62
3
  6
CONTINUOUS
 10
324.5259233882
 20
122.9774948245
 11
324.5259233882
 21
115.9774946005
  0
LINE
  5
294
100
AcDbEntity
  8
375171-000-00-ED1_CL
100
AcDbLine
 62
3
  6
CONTINUOUS
 10
324.5259233882
 20
115.9774946005
 11
346.5259240922
 21
115.9774946005
  0
LINE
  5
295
100
AcDbEntity
  8
375171-000-00-ED1_CL
100
AcDbLine
 62
3
  6
CONTINUOUS
 10
353.5259243162
 20
115.9774946005
 11
353.5259243162
 21
122.9774948245
  0
LINE
  5
296
100
AcDbEntity
  8
375171-000-00-ED1_CL
100
AcDbLine
 62
3
  6
CONTINUOUS
 10
346.5259240922
 20
122.9774948245
 11
324.5259233882
 21
122.9774948245
  0
LINE
  5
297
100
AcDbEntity
  8
375171-000-00-ED1_CL
100
AcDbLine
 62
3
  6
CONTINUOUS
 10
331.5259236122
 20
122.9774948245
 11
331.5259236122
 21
115.9774946005
  0
LINE
  5
298
100
AcDbEntity
  8
375171-000-00-ED1_CL
100
AcDbLine
 62
3
  6
CONTINUOUS
 10
346.5259240922
 20
122.9774948245
 11
346.5259240922
 21
115.9774946005
  0
LINE
  5
299
100
AcDbEntity
  8
375171-000-00-ED1_CL
100
AcDbLine
 62
3
  6
CONTINUOUS
 10
346.5259240922
 20
122.9774948245
 11
353.5259243162
 21
122.9774948245
  0
LINE
  5
29A
100
AcDbEntity
  8
375171-000-00-ED1_CL
100
AcDbLine
 62
3
  6
CONTINUOUS
 10
346.5259240922
 20
115.9774946005
 11
353.5259243162
 21
115.9774946005
  0
LINE
  5
29B
100
AcDbEntity
  8
375171-000-00-ED1_CL
100
AcDbLine
 62
3
  6
CONTINUOUS
 10
319.5259233882
 20
119.4774946005
 11
324.5259233882
 21
119.4774946005
  0
LINE
  5
29C
100
AcDbEntity
  8
375171-000-00-ED1_CL
100
AcDbLine
 62
3
  6
CONTINUOUS
 10
353.5627579542
 20
122.9780167751
 11
360.5627581782
 21
122.9780167751
  0
LINE
  5
29D
100
AcDbEntity
  8
375171-000-00-ED1_CL
100
AcDbLine
 62
3
  6
CONTINUOUS
 10
360.5627579542
 20
122.9780167751
 11
360.5627579542
 21
115.9780165511
  0
LINE
  5
29E
100
AcDbEntity
  8
375171-000-00-ED1_CL
100
AcDbLine
 62
3
  6
CONTINUOUS
 10
353.5627579542
 20
115.9780167751
 11
360.5627581782
 21
115.9780167751
  0
TEXT
  5
29F
100
AcDbEntity
  8
375171-000-00-ED1_CL
100
AcDbText
 62
2
  6
CONTINUOUS
 10
324.675923393
 20
118.2774946741
  7
TEXTSTYLE_3
 40
2.4000000768
  1
t
 41
1.0
 72
0
100
AcDbText
  0
TEXT
  5
2A0
100
AcDbEntity
  8
375171-000-00-ED1_CL
100
AcDbText
 62
2
  6
CONTINUOUS
 10
332.6509236482
 20
117.7274946565
  7
STANDARD
 40
3.500000112
  1
0.003
 41
0.7285714286
 72
0
100
AcDbText
  0
TEXT
  5
2A1
100
AcDbEntity
  8
375171-000-00-ED1_CL
100
AcDbText
 62
2
  6
CONTINUOUS
 10
348.5259241562
 20
117.7274946565
  7
STANDARD
 40
3.500000112
  1
A
 41
0.8571428571
 72
0
100
AcDbText
  0
TEXT
  5
2A2
100
AcDbEntity
  8
375171-000-00-ED1_CL
100
AcDbText
 62
2
  6
CONTINUOUS
 10
355.6877580662
 20
117.7280166955
  7
STANDARD
 40
3.5
  1
B
 41
0.7857142857
 72
0
100
AcDbText
  0
ENDBLK
  5
2A3
100
AcDbEntity
  8
0
  6
BYBLOCK
 62
0
100
AcDbBlockEnd
  0
BLOCK
  5
2A4
100
AcDbEntity
  8
375171-000-00-ED1_FORMAT
100
AcDbBlockBegin
 62
3
  6
CONTINUOUS
  2
BARCODEBOX_BL0
 70
64
 10
87.5
 20
46.5
  3
BARCODEBOX_BL0
  1

  0
LINE
  5
2A5
100
AcDbEntity
  8
375171-000-00-ED1_FORMAT
100
AcDbLine
 62
3
  6
CONTINUOUS
 10
48.0
 20
83.0
 11
53.0
 21
83.0
  0
LINE
  5
2A6
100
AcDbEntity
  8
375171-000-00-ED1_FORMAT
100
AcDbLine
 62
3
  6
CONTINUOUS
 10
53.0
 20
83.0
 11
53.0
 21
78.0
  0
LINE
  5
2A7
100
AcDbEntity
  8
375171-000-00-ED1_FORMAT
100
AcDbLine
 62
3
  6
CONTINUOUS
 10
135.0
 20
65.0
 11
140.0
 21
65.0
  0
LINE
  5
2A8
100
AcDbEntity
  8
375171-000-00-ED1_FORMAT
100
AcDbLine
 62
3
  6
CONTINUOUS
 10
140.0
 20
65.0
 11
140.0
 21
60.0
  0
LINE
  5
2A9
100
AcDbEntity
  8
375171-000-00-ED1_FORMAT
100
AcDbLine
 62
3
  6
CONTINUOUS
 10
91.5
 20
65.0
 11
101.5
 21
65.0
  0
LINE
  5
2AA
100
AcDbEntity
  8
375171-000-00-ED1_FORMAT
100
AcDbLine
 62
3
  6
CONTINUOUS
 10
140.0
 20
42.5
 11
140.0
 21
32.5
  0
LINE
  5
2AB
100
AcDbEntity
  8
375171-000-00-ED1_FORMAT
100
AcDbLine
 62
3
  6
CONTINUOUS
 10
140.0
 20
10.0
 11
140.0
 21
15.0
  0
LINE
  5
2AC
100
AcDbEntity
  8
375171-000-00-ED1_FORMAT
100
AcDbLine
 62
3
  6
CONTINUOUS
 10
40.0
 20
83.0
 11
35.0
 21
83.0
  0
LINE
  5
2AD
100
AcDbEntity
  8
375171-000-00-ED1_FORMAT
100
AcDbLine
 62
3
  6
CONTINUOUS
 10
58.0
 20
65.0
 11
48.0
 21
65.0
  0
LINE
  5
2AE
100
AcDbEntity
  8
375171-000-00-ED1_FORMAT
100
AcDbLine
 62
3
  6
CONTINUOUS
 10
53.0
 20
65.0
 11
53.0
 21
70.0
  0
LINE
  5
2AF
100
AcDbEntity
  8
375171-000-00-ED1_FORMAT
100
AcDbLine
 62
3
  6
CONTINUOUS
 10
35.0
 20
65.0
 11
40.0
 21
65.0
  0
TEXT
  5
2B0
100
AcDbEntity
  8
375171-000-00-ED1_FORMAT
100
AcDbText
 62
2
  6
CONTINUOUS
 10
139.0
 20
11.0
  7
STANDARD
 40
2.0
  1
BARCODE-ZONE
 50
90.0
 41
0.7876984127
 72
0
100
AcDbText
  0
ENDBLK
  5
2B1
100
AcDbEntity
  8
0
  6
BYBLOCK
 62
0
100
AcDbBlockEnd
  0
BLOCK
  5
2B2
100
AcDbEntity
  8
0
100
AcDbBlockBegin
  2
_FILLED
 70
64
 10
0.0
 20
0.0
  3
_FILLED
  1

  0
SOLID
  5
2B3
100
AcDbEntity
  8
0
  6
BYBLOCK
 62
0
100
AcDbTrace
 10
0.0
 20
0.0
 11
-1.0
 21
0.125
 12
-1.0
 22
-0.125
 13
-1.0
 23
-0.125
  0
ENDBLK
  5
2B4
100
AcDbEntity
  8
0
  6
BYBLOCK
 62
0
100
AcDbBlockEnd
  0
BLOCK
  5
2B5
100
AcDbEntity
  8
0
100
AcDbBlockBegin
  2
_DOT
 70
64
 10
0.0
 20
0.0
  3
_DOT
  1

  0
LWPOLYLINE
  5
2B6
100
AcDbEntity
  8
0
  6
BYBLOCK
 62
0
100
AcDbPolyline
 90
2
 70
1
 43
0.125
 10
-0.0625
 20
0.0
 42
1.0
 10
0.0625
 20
0.0
 42
1.0
  0
LINE
  5
2B7
100
AcDbEntity
  8
0
  6
BYBLOCK
 62
0
100
AcDbLine
 10
-0.125
 20
0.0
 11
-1.0
 21
0.0
  0
ENDBLK
  5
2B8
100
AcDbEntity
  8
0
  6
BYBLOCK
 62
0
100
AcDbBlockEnd
  0
BLOCK
  5
2B9
100
AcDbEntity
  8
375171-000-00-ED1_DIM
100
AcDbBlockBegin
 62
3
  6
CONTINUOUS
  2
*D0
 70
65
 10
0.0
 20
0.0
  3
*D0
  1

  0
TEXT
  5
2BA
100
AcDbEntity
  8
375171-000-00-ED1_DIM
100
AcDbText
 62
2
  6
CONTINUOUS
 10
289.1976467963
 20
177.0267464162
  7
STANDARD
 40
3.5
  1
4.5
 50
79.5431690159
 41
0.6904761905
 72
1
 11
289.8555648982
 21
180.5915421707
100
AcDbText
  0
TEXT
  5
2BB
100
AcDbEntity
  8
375171-000-00-ED1_DIM
100
AcDbText
 62
2
  6
CONTINUOUS
 10
290.5134830002
 20
184.1563379252
  7
TEXTSTYLE_3
 40
3.5
  1
~
 50
79.5431690159
 41
1.0
 72
1
 11
290.7252267572
 21
185.3036285128
100
AcDbText
  0
TEXT
  5
2BC
100
AcDbEntity
  8
375171-000-00-ED1_DIM
100
AcDbText
 62
2
  6
CONTINUOUS
 10
290.4206897497
 20
186.5462037911
  7
TEXTSTYLE_3
 40
2.45
  1
`
 50
79.5431690159
 41
1.0
 72
1
 11
290.680075852
 21
187.951634761
100
AcDbText
  0
TEXT
  5
2BD
100
AcDbEntity
  8
375171-000-00-ED1_DIM
100
AcDbText
 62
2
  6
CONTINUOUS
 10
290.9394619542
 20
189.3570657308
  7
STANDARD
 40
2.45
  1
0.25
 50
79.5431690159
 41
0.7142857143
 72
1
 11
291.5746932251
 21
192.7989374938
100
AcDbText
  0
TEXT
  5
2BE
100
AcDbEntity
  8
375171-000-00-ED1_DIM
100
AcDbText
 62
2
  6
CONTINUOUS
 10
292.209924496
 20
196.2408092567
  7
TEXTSTYLE_3
 40
2.45
  1
~
 50
79.5431690159
 41
1.0
 72
1
 11
292.3581451259
 21
197.043912668
100
AcDbText
  0
LINE
  5
2BF
100
AcDbEntity
  8
375171-000-00-ED1_DIM
100
AcDbLine
 62
3
  6
CONTINUOUS
 10
307.0106623418
 20
170.1284805383
 11
291.023933513
 21
171.3866633837
  0
LINE
  5
2C0
100
AcDbEntity
  8
375171-000-00-ED1_DIM
100
AcDbLine
 62
3
  6
CONTINUOUS
 10
310.9291205799
 20
159.4774946005
 11
290.5560209972
 21
159.4774946005
  0
ARC
  5
2C1
100
AcDbEntity
  8
375171-000-00-ED1_DIM
100
AcDbCircle
 62
3
  6
CONTINUOUS
 10
442.3442703097
 20
159.4774946005
 40
150.2882493125
100
AcDbArc
 50
169.5431690159
 51
175.5
  0
ARC
  5
2C2
100
AcDbEntity
  8
375171-000-00-ED1_DIM
100
AcDbCircle
 62
3
  6
CONTINUOUS
 10
442.3442703097
 20
159.4774946005
 40
150.2882493125
100
AcDbArc
 50
180.0
 51
182.2874355025
  0
ARC
  5
2C3
100
AcDbEntity
  8
375171-000-00-ED1_DIM
100
AcDbCircle
 62
3
  6
CONTINUOUS
 10
442.3442703097
 20
159.4774946005
 40
150.2882493125
100
AcDbArc
 50
175.5
 51
180.0
  0
SOLID
  5
2C4
100
AcDbEntity
  8
375171-000-00-ED1_DIM
100
AcDbTrace
 62
3
  6
CONTINUOUS
 10
292.3988041218
 20
174.7941534165
 11
292.5193095136
 21
171.2689747401
 12
293.2702482696
 22
174.715349246
 13
293.2702482696
 23
174.715349246
  0
SOLID
  5
2C5
100
AcDbEntity
  8
375171-000-00-ED1_DIM
100
AcDbTrace
 62
3
  6
CONTINUOUS
 10
292.5342454323
 20
155.9828261413
 11
292.0560209972
 21
159.4774946005
 12
291.659304752
 22
155.9726376176
 13
291.659304752
 23
155.9726376176
  0
ENDBLK
  5
2C6
100
AcDbEntity
  8
0
  6
BYBLOCK
 62
0
100
AcDbBlockEnd
  0
BLOCK
  5
2C7
100
AcDbEntity
  8
375171-000-00-ED1_DIM
100
AcDbBlockBegin
 62
3
  6
CONTINUOUS
  2
*D1
 70
65
 10
0.0
 20
0.0
  3
*D1
  1

  0
TEXT
  5
2C8
100
AcDbEntity
  8
375171-000-00-ED1_DIM
100
AcDbText
 62
2
  6
CONTINUOUS
 10
338.0541205799
 20
154.3941612672
  7
TEXTSTYLE_3
 40
3.5
  1
n
 50
90.0
 41
1.0
 72
1
 11
338.0541205799
 21
156.7274946005
100
AcDbText
  0
TEXT
  5
2C9
100
AcDbEntity
  8
375171-000-00-ED1_DIM
100
AcDbText
 62
2
  6
CONTINUOUS
 10
338.0541205799
 20
159.0608279338
  7
STANDARD
 40
3.5
  1
27
 50
90.0
 41
0.7857142857
 72
1
 11
338.0541205799
 21
161.8108279338
100
AcDbText
  0
LINE
  5
2CA
100
AcDbEntity
  8
375171-000-00-ED1_DIM
100
AcDbLine
 62
3
  6
CONTINUOUS
 10
271.8105063713
 20
145.9774946005
 11
340.4291205799
 21
145.9774946005
  0
LINE
  5
2CB
100
AcDbEntity
  8
375171-000-00-ED1_DIM
100
AcDbLine
 62
3
  6
CONTINUOUS
 10
271.8105063713
 20
172.9774946005
 11
340.4291205799
 21
172.9774946005
  0
LINE
  5
2CC
100
AcDbEntity
  8
375171-000-00-ED1_DIM
100
AcDbLine
 62
3
  6
CONTINUOUS
 10
338.9291205799
 20
145.9774946005
 11
338.9291205799
 21
139.9774946005
  0
LINE
  5
2CD
100
AcDbEntity
  8
375171-000-00-ED1_DIM
100
AcDbLine
 62
3
  6
CONTINUOUS
 10
338.9291205799
 20
139.9774946005
 11
338.9291205799
 21
159.4774946005
  0
LINE
  5
2CE
100
AcDbEntity
  8
375171-000-00-ED1_DIM
100
AcDbLine
 62
3
  6
CONTINUOUS
 10
338.9291205799
 20
172.9774946005
 11
338.9291205799
 21
178.9774946005
  0
LINE
  5
2CF
100
AcDbEntity
  8
375171-000-00-ED1_DIM
100
AcDbLine
 62
3
  6
CONTINUOUS
 10
338.9291205799
 20
178.9774946005
 11
338.9291205799
 21
159.4774946005
  0
INSERT
  5
2D0
100
AcDbEntity
  8
375171-000-00-ED1_DIM
100
AcDbBlockReference
 62
3
  6
CONTINUOUS
  2
_FILLED
 10
338.9291205799
 20
145.9774946005
 41
3.5
 42
3.5
 43
3.5
 50
90.0
  0
INSERT
  5
2D1
100
AcDbEntity
  8
375171-000-00-ED1_DIM
100
AcDbBlockReference
 62
3
  6
CONTINUOUS
  2
_FILLED
 10
338.9291205799
 20
172.9774946005
 41
3.5
 42
3.5
 43
3.5
 50
270.0
  0
ENDBLK
  5
2D2
100
AcDbEntity
  8
0
  6
BYBLOCK
 62
0
100
AcDbBlockEnd
  0
BLOCK
  5
2D3
100
AcDbEntity
  8
375171-000-00-ED1_DIM
100
AcDbBlockBegin
 62
3
  6
CONTINUOUS
  2
*D2
 70
65
 10
0.0
 20
0.0
  3
*D2
  1

  0
TEXT
  5
2D4
100
AcDbEntity
  8
375171-000-00-ED1_DIM
100
AcDbText
 62
2
  6
CONTINUOUS
 10
328.0541205799
 20
154.7691612672
  7
TEXTSTYLE_3
 40
3.5
  1
n
 50
90.0
 41
1.0
 72
1
 11
328.0541205799
 21
157.1024946005
100
AcDbText
  0
TEXT
  5
2D5
100
AcDbEntity
  8
375171-000-00-ED1_DIM
100
AcDbText
 62
2
  6
CONTINUOUS
 10
328.0541205799
 20
159.4358279338
  7
STANDARD
 40
3.5
  1
21
 50
90.0
 41
0.6785714286
 72
1
 11
328.0541205799
 21
161.8108279338
100
AcDbText
  0
LINE
  5
2D6
100
AcDbEntity
  8
375171-000-00-ED1_DIM
100
AcDbLine
 62
3
  6
CONTINUOUS
 10
309.9291205799
 20
169.9774946005
 11
330.4291205799
 21
169.9774946005
  0
LINE
  5
2D7
100
AcDbEntity
  8
375171-000-00-ED1_DIM
100
AcDbLine
 62
3
  6
CONTINUOUS
 10
309.9291205799
 20
148.9774946005
 11
330.4291205799
 21
148.9774946005
  0
LINE
  5
2D8
100
AcDbEntity
  8
375171-000-00-ED1_DIM
100
AcDbLine
 62
3
  6
CONTINUOUS
 10
328.9291205799
 20
169.9774946005
 11
328.9291205799
 21
175.9774946005
  0
LINE
  5
2D9
100
AcDbEntity
  8
375171-000-00-ED1_DIM
100
AcDbLine
 62
3
  6
CONTINUOUS
 10
328.9291205799
 20
175.9774946005
 11
328.9291205799
 21
159.4774946005
  0
LINE
  5
2DA
100
AcDbEntity
  8
375171-000-00-ED1_DIM
100
AcDbLine
 62
3
  6
CONTINUOUS
 10
328.9291205799
 20
148.9774946005
 11
328.9291205799
 21
142.9774946005
  0
LINE
  5
2DB
100
AcDbEntity
  8
375171-000-00-ED1_DIM
100
AcDbLine
 62
3
  6
CONTINUOUS
 10
328.9291205799
 20
142.9774946005
 11
328.9291205799
 21
159.4774946005
  0
INSERT
  5
2DC
100
AcDbEntity
  8
375171-000-00-ED1_DIM
100
AcDbBlockReference
 62
3
  6
CONTINUOUS
  2
_FILLED
 10
328.9291205799
 20
169.9774946005
 41
3.5
 42
3.5
 43
3.5
 50
270.0
  0
INSERT
  5
2DD
100
AcDbEntity
  8
375171-000-00-ED1_DIM
100
AcDbBlockReference
 62
3
  6
CONTINUOUS
  2
_FILLED
 10
328.9291205799
 20
148.9774946005
 41
3.5
 42
3.5
 43
3.5
 50
90.0
  0
ENDBLK
  5
2DE
100
AcDbEntity
  8
0
  6
BYBLOCK
 62
0
100
AcDbBlockEnd
  0
BLOCK
  5
2DF
100
AcDbEntity
  8
375171-000-00-ED1_DIM
100
AcDbBlockBegin
 62
3
  6
CONTINUOUS
  2
*D3
 70
65
 10
0.0
 20
0.0
  3
*D3
  1

  0
TEXT
  5
2E0
100
AcDbEntity
  8
375171-000-00-ED1_DIM
100
AcDbText
 62
2
  6
CONTINUOUS
 10
241.5163709484
 20
177.5222272689
  7
STANDARD
 40
3.5
  1
M
 50
90.0
 41
0.8571428571
 72
0
100
AcDbText
  0
TEXT
  5
2E1
100
AcDbEntity
  8
375171-000-00-ED1_DIM
100
AcDbText
 62
2
  6
CONTINUOUS
 10
241.5163709484
 20
180.5222272689
  7
STANDARD
 40
3.5
  1
6
 50
90.0
 41
0.7857142857
 72
0
100
AcDbText
  0
LINE
  5
2E2
100
AcDbEntity
  8
375171-000-00-ED1_DIM
100
AcDbLine
 62
3
  6
CONTINUOUS
 10
271.4291205799
 20
156.4774946005
 11
240.8913709484
 21
156.4774946005
  0
LINE
  5
2E3
100
AcDbEntity
  8
375171-000-00-ED1_DIM
100
AcDbLine
 62
3
  6
CONTINUOUS
 10
271.4291205799
 20
162.4774946005
 11
240.8913709484
 21
162.4774946005
  0
LINE
  5
2E4
100
AcDbEntity
  8
375171-000-00-ED1_DIM
100
AcDbLine
 62
3
  6
CONTINUOUS
 10
242.3913709484
 20
156.4774946005
 11
242.3913709484
 21
150.4774946005
  0
LINE
  5
2E5
100
AcDbEntity
  8
375171-000-00-ED1_DIM
100
AcDbLine
 62
3
  6
CONTINUOUS
 10
242.3913709484
 20
150.4774946005
 11
242.3913709484
 21
159.4774946005
  0
LINE
  5
2E6
100
AcDbEntity
  8
375171-000-00-ED1_DIM
100
AcDbLine
 62
3
  6
CONTINUOUS
 10
242.3913709484
 20
162.4774946005
 11
242.3913709484
 21
183.2722272689
  0
LINE
  5
2E7
100
AcDbEntity
  8
375171-000-00-ED1_DIM
100
AcDbLine
 62
3
  6
CONTINUOUS
 10
242.3913709484
 20
183.2722272689
 11
242.3913709484
 21
159.4774946005
  0
INSERT
  5
2E8
100
AcDbEntity
  8
375171-000-00-ED1_DIM
100
AcDbBlockReference
 62
3
  6
CONTINUOUS
  2
_FILLED
 10
242.3913709484
 20
156.4774946005
 41
3.5
 42
3.5
 43
3.5
 50
90.0
  0
INSERT
  5
2E9
100
AcDbEntity
  8
375171-000-00-ED1_DIM
100
AcDbBlockReference
 62
3
  6
CONTINUOUS
  2
_FILLED
 10
242.3913709484
 20
162.4774946005
 41
3.5
 42
3.5
 43
3.5
 50
270.0
  0
ENDBLK
  5
2EA
100
AcDbEntity
  8
0
  6
BYBLOCK
 62
0
100
AcDbBlockEnd
  0
BLOCK
  5
2EB
100
AcDbEntity
  8
375171-000-00-ED1_DIM
100
AcDbBlockBegin
 62
3
  6
CONTINUOUS
  2
*D4
 70
65
 10
0.0
 20
0.0
  3
*D4
  1

  0
TEXT
  5
2EC
100
AcDbEntity
  8
375171-000-00-ED1_DIM
100
AcDbText
 62
2
  6
CONTINUOUS
 10
318.0541205799
 20
179.4774946005
  7
TEXTSTYLE_3
 40
3.5
  1
n
 50
90.0
 41
1.0
 72
0
100
AcDbText
  0
TEXT
  5
2ED
100
AcDbEntity
  8
375171-000-00-ED1_DIM
100
AcDbText
 62
2
  6
CONTINUOUS
 10
318.0541205799
 20
184.1441612672
  7
STANDARD
 40
3.5
  1
8
 50
90.0
 41
0.7857142857
 72
0
100
AcDbText
  0
LINE
  5
2EE
100
AcDbEntity
  8
375171-000-00-ED1_DIM
100
AcDbLine
 62
3
  6
CONTINUOUS
 10
307.9291205799
 20
155.4774946005
 11
320.4291205799
 21
155.4774946005
  0
LINE
  5
2EF
100
AcDbEntity
  8
375171-000-00-ED1_DIM
100
AcDbLine
 62
3
  6
CONTINUOUS
 10
307.9291205799
 20
163.4774946005
 11
320.4291205799
 21
163.4774946005
  0
LINE
  5
2F0
100
AcDbEntity
  8
375171-000-00-ED1_DIM
100
AcDbLine
 62
3
  6
CONTINUOUS
 10
318.9291205799
 20
155.4774946005
 11
318.9291205799
 21
149.4774946005
  0
LINE
  5
2F1
100
AcDbEntity
  8
375171-000-00-ED1_DIM
100
AcDbLine
 62
3
  6
CONTINUOUS
 10
318.9291205799
 20
149.4774946005
 11
318.9291205799
 21
159.4774946005
  0
LINE
  5
2F2
100
AcDbEntity
  8
375171-000-00-ED1_DIM
100
AcDbLine
 62
3
  6
CONTINUOUS
 10
318.9291205799
 20
163.4774946005
 11
318.9291205799
 21
186.8941612672
  0
LINE
  5
2F3
100
AcDbEntity
  8
375171-000-00-ED1_DIM
100
AcDbLine
 62
3
  6
CONTINUOUS
 10
318.9291205799
 20
186.8941612672
 11
318.9291205799
 21
159.4774946005
  0
INSERT
  5
2F4
100
AcDbEntity
  8
375171-000-00-ED1_DIM
100
AcDbBlockReference
 62
3
  6
CONTINUOUS
  2
_FILLED
 10
318.9291205799
 20
155.4774946005
 41
3.5
 42
3.5
 43
3.5
 50
90.0
  0
INSERT
  5
2F5
100
AcDbEntity
  8
375171-000-00-ED1_DIM
100
AcDbBlockReference
 62
3
  6
CONTINUOUS
  2
_FILLED
 10
318.9291205799
 20
163.4774946005
 41
3.5
 42
3.5
 43
3.5
 50
270.0
  0
ENDBLK
  5
2F6
100
AcDbEntity
  8
0
  6
BYBLOCK
 62
0
100
AcDbBlockEnd
  0
BLOCK
  5
2F7
100
AcDbEntity
  8
375171-000-00-ED1_DIM
100
AcDbBlockBegin
 62
3
  6
CONTINUOUS
  2
*D5
 70
65
 10
0.0
 20
0.0
  3
*D5
  1

  0
TEXT
  5
2F8
100
AcDbEntity
  8
375171-000-00-ED1_DIM
100
AcDbText
 62
2
  6
CONTINUOUS
 10
239.8195233838
 20
190.3524946005
  7
STANDARD
 40
3.5
  1
M
 41
0.8571428571
 72
2
 11
242.8195233838
 21
190.3524946005
100
AcDbText
  0
TEXT
  5
2F9
100
AcDbEntity
  8
375171-000-00-ED1_DIM
100
AcDbText
 62
2
  6
CONTINUOUS
 10
242.8195233838
 20
190.3524946005
  7
STANDARD
 40
3.5
  1
6
 41
0.7857142857
 72
2
 11
245.5695233838
 21
190.3524946005
100
AcDbText
  0
TEXT
  5
2FA
100
AcDbEntity
  8
375171-000-00-ED1_DIM
100
AcDbText
 62
2
  6
CONTINUOUS
 10
245.5695233838
 20
190.3524946005
  7
STANDARD
 40
3.5
  1
 (4x)
 41
0.6285714286
 72
2
 11
256.5695233838
 21
190.3524946005
100
AcDbText
  0
LINE
  5
2FB
100
AcDbEntity
  8
375171-000-00-ED1_DIM
100
AcDbLine
 62
3
  6
CONTINUOUS
 10
259.9291205799
 20
173.8774946005
 11
259.9291205799
 21
190.9774946005
  0
LINE
  5
2FC
100
AcDbEntity
  8
375171-000-00-ED1_DIM
100
AcDbLine
 62
3
  6
CONTINUOUS
 10
265.9291205799
 20
173.8774946005
 11
265.9291205799
 21
190.9774946005
  0
LINE
  5
2FD
100
AcDbEntity
  8
375171-000-00-ED1_DIM
100
AcDbLine
 62
3
  6
CONTINUOUS
 10
259.9291205799
 20
189.4774946005
 11
239.8195233838
 21
189.4774946005
  0
LINE
  5
2FE
100
AcDbEntity
  8
375171-000-00-ED1_DIM
100
AcDbLine
 62
3
  6
CONTINUOUS
 10
239.8195233838
 20
189.4774946005
 11
262.9291205799
 21
189.4774946005
  0
LINE
  5
2FF
100
AcDbEntity
  8
375171-000-00-ED1_DIM
100
AcDbLine
 62
3
  6
CONTINUOUS
 10
265.9291205799
 20
189.4774946005
 11
271.9291205799
 21
189.4774946005
  0
LINE
  5
300
100
AcDbEntity
  8
375171-000-00-ED1_DIM
100
AcDbLine
 62
3
  6
CONTINUOUS
 10
271.9291205799
 20
189.4774946005
 11
262.9291205799
 21
189.4774946005
  0
INSERT
  5
301
100
AcDbEntity
  8
375171-000-00-ED1_DIM
100
AcDbBlockReference
 62
3
  6
CONTINUOUS
  2
_FILLED
 10
259.9291205799
 20
189.4774946005
 41
3.5
 42
3.5
 43
3.5
  0
INSERT
  5
302
100
AcDbEntity
  8
375171-000-00-ED1_DIM
100
AcDbBlockReference
 62
3
  6
CONTINUOUS
  2
_FILLED
 10
265.9291205799
 20
189.4774946005
 41
3.5
 42
3.5
 43
3.5
 50
180.0
  0
ENDBLK
  5
303
100
AcDbEntity
  8
0
  6
BYBLOCK
 62
0
100
AcDbBlockEnd
  0
BLOCK
  5
304
100
AcDbEntity
  8
375171-000-00-ED1_DIM
100
AcDbBlockBegin
 62
3
  6
CONTINUOUS
  2
*D6
 70
65
 10
0.0
 20
0.0
  3
*D6
  1

  0
TEXT
  5
305
100
AcDbEntity
  8
375171-000-00-ED1_DIM
100
AcDbText
 62
2
  6
CONTINUOUS
 10
285.3395224403
 20
110.3524946005
  7
STANDARD
 40
3.5
  1
46
 41
0.7857142857
 72
1
 11
288.0895224403
 21
110.3524946005
100
AcDbText
  0
LINE
  5
306
100
AcDbEntity
  8
375171-000-00-ED1_DIM
100
AcDbLine
 62
3
  6
CONTINUOUS
 10
262.9291205799
 20
142.0774946005
 11
262.9291205799
 21
107.9774946005
  0
LINE
  5
307
100
AcDbEntity
  8
375171-000-00-ED1_DIM
100
AcDbLine
 62
3
  6
CONTINUOUS
 10
308.9291205799
 20
148.9018850921
 11
308.9291205799
 21
107.9774946005
  0
LINE
  5
308
100
AcDbEntity
  8
375171-000-00-ED1_DIM
100
AcDbLine
 62
3
  6
CONTINUOUS
 10
262.9291205799
 20
109.4774946005
 11
285.9291205799
 21
109.4774946005
  0
LINE
  5
309
100
AcDbEntity
  8
375171-000-00-ED1_DIM
100
AcDbLine
 62
3
  6
CONTINUOUS
 10
308.9291205799
 20
109.4774946005
 11
285.9291205799
 21
109.4774946005
  0
INSERT
  5
30A
100
AcDbEntity
  8
375171-000-00-ED1_DIM
100
AcDbBlockReference
 62
3
  6
CONTINUOUS
  2
_FILLED
 10
262.9291205799
 20
109.4774946005
 41
3.5
 42
3.5
 43
3.5
 50
180.0
  0
INSERT
  5
30B
100
AcDbEntity
  8
375171-000-00-ED1_DIM
100
AcDbBlockReference
 62
3
  6
CONTINUOUS
  2
_FILLED
 10
308.9291205799
 20
109.4774946005
 41
3.5
 42
3.5
 43
3.5
  0
ENDBLK
  5
30C
100
AcDbEntity
  8
0
  6
BYBLOCK
 62
0
100
AcDbBlockEnd
  0
BLOCK
  5
30D
100
AcDbEntity
  8
375171-000-00-ED1_DIM
100
AcDbBlockBegin
 62
3
  6
CONTINUOUS
  2
*D7
 70
65
 10
0.0
 20
0.0
  3
*D7
  1

  0
TEXT
  5
30E
100
AcDbEntity
  8
375171-000-00-ED1_DIM
100
AcDbText
 62
2
  6
CONTINUOUS
 10
145.6031255922
 20
184.7301867349
  7
STANDARD
 40
3.5
  1
R
 50
40.0769461212
 41
0.7857142857
 72
1
 11
146.6552487969
 21
185.6154334588
100
AcDbText
  0
TEXT
  5
30F
100
AcDbEntity
  8
375171-000-00-ED1_DIM
100
AcDbText
 62
2
  6
CONTINUOUS
 10
147.7073720016
 20
186.5006801827
  7
STANDARD
 40
3.5
  1
10
 50
40.0769461212
 41
0.6785714286
 72
1
 11
149.5246757188
 21
188.0297427058
100
AcDbText
  0
LINE
  5
310
100
AcDbEntity
  8
375171-000-00-ED1_DIM
100
AcDbLine
 62
3
  6
CONTINUOUS
 10
137.2273154549
 20
176.5393366085
 11
151.9053182603
 21
188.8892722804
  0
INSERT
  5
311
100
AcDbEntity
  8
375171-000-00-ED1_DIM
100
AcDbBlockReference
 62
3
  6
CONTINUOUS
  2
_FILLED
 10
137.2273154549
 20
176.5393366085
 41
3.5
 42
3.5
 43
3.5
 50
220.0769461212
  0
ENDBLK
  5
312
100
AcDbEntity
  8
0
  6
BYBLOCK
 62
0
100
AcDbBlockEnd
  0
BLOCK
  5
313
100
AcDbEntity
  8
30488595_DIM
100
AcDbBlockBegin
 62
3
  6
CONTINUOUS
  2
*D8
 70
65
 10
0.0
 20
0.0
  3
*D8
  1

  0
TEXT
  5
314
100
AcDbEntity
  8
30488595_DIM
100
AcDbText
 62
2
  6
CONTINUOUS
 10
254.7819484868
 20
130.3524946005
  7
STANDARD
 40
3.5
  1
10
 41
0.6785714286
 72
2
 11
259.5319484868
 21
130.3524946005
100
AcDbText
  0
TEXT
  5
315
100
AcDbEntity
  8
30488595_DIM
100
AcDbText
 62
2
  6
CONTINUOUS
 10
228.6152818202
 20
124.2274946005
  7
STANDARD
 40
3.5
  1
VERSTELLWEG
 41
0.803030303
 72
2
 11
259.5319484868
 21
124.2274946005
100
AcDbText
  0
LINE
  5
316
100
AcDbEntity
  8
30488595_DIM
100
AcDbLine
 62
3
  6
CONTINUOUS
 10
272.9291205799
 20
158.4774946005
 11
272.9291205799
 21
127.9774946005
  0
LINE
  5
317
100
AcDbEntity
  8
30488595_DIM
100
AcDbLine
 62
3
  6
CONTINUOUS
 10
282.9291205799
 20
158.4774946005
 11
282.9291205799
 21
127.9774946005
  0
LINE
  5
318
100
AcDbEntity
  8
30488595_DIM
100
AcDbLine
 62
3
  6
CONTINUOUS
 10
272.9291205799
 20
129.4774946005
 11
228.6152818202
 21
129.4774946005
  0
LINE
  5
319
100
AcDbEntity
  8
30488595_DIM
100
AcDbLine
 62
3
  6
CONTINUOUS
 10
228.6152818202
 20
129.4774946005
 11
277.9291205799
 21
129.4774946005
  0
LINE
  5
31A
100
AcDbEntity
  8
30488595_DIM
100
AcDbLine
 62
3
  6
CONTINUOUS
 10
282.9291205799
 20
129.4774946005
 11
288.9291205799
 21
129.4774946005
  0
LINE
  5
31B
100
AcDbEntity
  8
30488595_DIM
100
AcDbLine
 62
3
  6
CONTINUOUS
 10
288.9291205799
 20
129.4774946005
 11
277.9291205799
 21
129.4774946005
  0
INSERT
  5
31C
100
AcDbEntity
  8
30488595_DIM
100
AcDbBlockReference
 62
3
  6
CONTINUOUS
  2
_FILLED
 10
272.9291205799
 20
129.4774946005
 41
3.5
 42
3.5
 43
3.5
  0
INSERT
  5
31D
100
AcDbEntity
  8
30488595_DIM
100
AcDbBlockReference
 62
3
  6
CONTINUOUS
  2
_FILLED
 10
282.9291205799
 20
129.4774946005
 41
3.5
 42
3.5
 43
3.5
 50
180.0
  0
ENDBLK
  5
31E
100
AcDbEntity
  8
0
  6
BYBLOCK
 62
0
100
AcDbBlockEnd
  0
BLOCK
  5
31F
100
AcDbEntity
  8
30350709_DIM
100
AcDbBlockBegin
 62
3
  6
CONTINUOUS
  2
*D9
 70
65
 10
0.0
 20
0.0
  3
*D9
  1

  0
TEXT
  5
320
100
AcDbEntity
  8
30350709_DIM
100
AcDbText
 62
2
  6
CONTINUOUS
 10
288.3041205799
 20
120.3524946005
  7
STANDARD
 40
3.5
  1
36
 41
0.75
 72
1
 11
290.9291205799
 21
120.3524946005
100
AcDbText
  0
LINE
  5
321
100
AcDbEntity
  8
30350709_DIM
100
AcDbLine
 62
3
  6
CONTINUOUS
 10
272.9291205799
 20
158.4774946005
 11
272.9291205799
 21
117.9774946005
  0
LINE
  5
322
100
AcDbEntity
  8
30350709_DIM
100
AcDbLine
 62
3
  6
CONTINUOUS
 10
308.9291205799
 20
158.4774946005
 11
308.9291205799
 21
117.9774946005
  0
LINE
  5
323
100
AcDbEntity
  8
30350709_DIM
100
AcDbLine
 62
3
  6
CONTINUOUS
 10
272.9291205799
 20
119.4774946005
 11
290.9291205799
 21
119.4774946005
  0
LINE
  5
324
100
AcDbEntity
  8
30350709_DIM
100
AcDbLine
 62
3
  6
CONTINUOUS
 10
308.9291205799
 20
119.4774946005
 11
290.9291205799
 21
119.4774946005
  0
INSERT
  5
325
100
AcDbEntity
  8
30350709_DIM
100
AcDbBlockReference
 62
3
  6
CONTINUOUS
  2
_FILLED
 10
272.9291205799
 20
119.4774946005
 41
3.5
 42
3.5
 43
3.5
 50
180.0
  0
INSERT
  5
326
100
AcDbEntity
  8
30350709_DIM
100
AcDbBlockReference
 62
3
  6
CONTINUOUS
  2
_FILLED
 10
308.9291205799
 20
119.4774946005
 41
3.5
 42
3.5
 43
3.5
  0
ENDBLK
  5
327
100
AcDbEntity
  8
0
  6
BYBLOCK
 62
0
100
AcDbBlockEnd
  0
BLOCK
  5
328
100
AcDbEntity
  8
30350709_DIM
100
AcDbBlockBegin
 62
3
  6
CONTINUOUS
  2
*D10
 70
65
 10
0.0
 20
0.0
  3
*D10
  1

  0
TEXT
  5
329
100
AcDbEntity
  8
30350709_DIM
100
AcDbText
 62
2
  6
CONTINUOUS
 10
204.8041205799
 20
210.3524946005
  7
STANDARD
 40
3.5
  1
200
 41
0.7857142857
 72
1
 11
208.9291205799
 21
210.3524946005
100
AcDbText
  0
LINE
  5
32A
100
AcDbEntity
  8
30350709_DIM
100
AcDbLine
 62
3
  6
CONTINUOUS
 10
308.9291205799
 20
162.4167258324
 11
308.9291205799
 21
210.9774946005
  0
LINE
  5
32B
100
AcDbEntity
  8
30350709_DIM
100
AcDbLine
 62
3
  6
CONTINUOUS
 10
108.9291205799
 20
160.4774946005
 11
108.9291205799
 21
210.9774946005
  0
LINE
  5
32C
100
AcDbEntity
  8
30350709_DIM
100
AcDbLine
 62
3
  6
CONTINUOUS
 10
308.9291205799
 20
209.4774946005
 11
208.9291205799
 21
209.4774946005
  0
LINE
  5
32D
100
AcDbEntity
  8
30350709_DIM
100
AcDbLine
 62
3
  6
CONTINUOUS
 10
108.9291205799
 20
209.4774946005
 11
208.9291205799
 21
209.4774946005
  0
INSERT
  5
32E
100
AcDbEntity
  8
30350709_DIM
100
AcDbBlockReference
 62
3
  6
CONTINUOUS
  2
_FILLED
 10
308.9291205799
 20
209.4774946005
 41
3.5
 42
3.5
 43
3.5
  0
INSERT
  5
32F
100
AcDbEntity
  8
30350709_DIM
100
AcDbBlockReference
 62
3
  6
CONTINUOUS
  2
_FILLED
 10
108.9291205799
 20
209.4774946005
 41
3.5
 42
3.5
 43
3.5
 50
180.0
  0
ENDBLK
  5
330
100
AcDbEntity
  8
0
  6
BYBLOCK
 62
0
100
AcDbBlockEnd
  0
ENDSEC
  0
SECTION
  2
ENTITIES
  0
TEXT
  5
331
100
AcDbEntity
  8
375171-000-00-ED1_FORMAT
100
AcDbText
 62
90
  6
CONTINUOUS
 10
34.0
 20
287.75
  7
TEXTSTYLE_2
 40
3.5
  1
1
 41
0.5714285714
 72
1
 11
35.0
 21
287.75
100
AcDbText
  0
TEXT
  5
332
100
AcDbEntity
  8
375171-000-00-ED1_FORMAT
100
AcDbText
 62
90
  6
CONTINUOUS
 10
83.625
 20
287.75
  7
TEXTSTYLE_2
 40
3.5
  1
2
 41
0.7857142857
 72
1
 11
85.0
 21
287.75
100
AcDbText
  0
TEXT
  5
333
100
AcDbEntity
  8
375171-000-00-ED1_FORMAT
100
AcDbText
 62
90
  6
CONTINUOUS
 10
133.75
 20
287.75
  7
TEXTSTYLE_2
 40
3.5
  1
3
 41
0.7142857143
 72
1
 11
135.0
 21
287.75
100
AcDbText
  0
TEXT
  5
334
100
AcDbEntity
  8
375171-000-00-ED1_FORMAT
100
AcDbText
 62
90
  6
CONTINUOUS
 10
183.625
 20
287.75
  7
TEXTSTYLE_2
 40
3.5
  1
4
 41
0.7857142857
 72
1
 11
185.0
 21
287.75
100
AcDbText
  0
TEXT
  5
335
100
AcDbEntity
  8
375171-000-00-ED1_FORMAT
100
AcDbText
 62
90
  6
CONTINUOUS
 10
233.75
 20
287.75
  7
TEXTSTYLE_2
 40
3.5
  1
5
 41
0.7142857143
 72
1
 11
235.0
 21
287.75
100
AcDbText
  0
TEXT
  5
336
100
AcDbEntity
  8
375171-000-00-ED1_FORMAT
100
AcDbText
 62
90
  6
CONTINUOUS
 10
283.625
 20
287.75
  7
TEXTSTYLE_2
 40
3.5
  1
6
 41
0.7857142857
 72
1
 11
285.0
 21
287.75
100
AcDbText
  0
TEXT
  5
337
100
AcDbEntity
  8
375171-000-00-ED1_FORMAT
100
AcDbText
 62
90
  6
CONTINUOUS
 10
333.625
 20
287.75
  7
TEXTSTYLE_2
 40
3.5
  1
7
 41
0.7857142857
 72
1
 11
335.0
 21
287.75
100
AcDbText
  0
TEXT
  5
338
100
AcDbEntity
  8
375171-000-00-ED1_FORMAT
100
AcDbText
 62
90
  6
CONTINUOUS
 10
383.625
 20
287.75
  7
TEXTSTYLE_2
 40
3.5
  1
8
 41
0.7857142857
 72
1
 11
385.0
 21
287.75
100
AcDbText
  0
TEXT
  5
339
100
AcDbEntity
  8
375171-000-00-ED1_FORMAT
100
AcDbText
 62
90
  6
CONTINUOUS
 10
133.75
 20
5.75
  7
TEXTSTYLE_2
 40
3.5
  1
3
 41
0.7142857143
 72
1
 11
135.0
 21
5.75
100
AcDbText
  0
TEXT
  5
33A
100
AcDbEntity
  8
375171-000-00-ED1_FORMAT
100
AcDbText
 62
90
  6
CONTINUOUS
 10
83.625
 20
5.75
  7
TEXTSTYLE_2
 40
3.5
  1
2
 41
0.7857142857
 72
1
 11
85.0
 21
5.75
100
AcDbText
  0
TEXT
  5
33B
100
AcDbEntity
  8
375171-000-00-ED1_FORMAT
100
AcDbText
 62
90
  6
CONTINUOUS
 10
34.0
 20
5.75
  7
TEXTSTYLE_2
 40
3.5
  1
1
 41
0.5714285714
 72
1
 11
35.0
 21
5.75
100
AcDbText
  0
TEXT
  5
33C
100
AcDbEntity
  8
375171-000-00-ED1_FORMAT
100
AcDbText
 62
90
  6
CONTINUOUS
 10
19.0
 20
262.75
  7
TEXTSTYLE_2
 40
3.5
  1
A
 41
0.8571428571
 72
1
 11
20.5
 21
262.75
100
AcDbText
  0
TEXT
  5
33D
100
AcDbEntity
  8
375171-000-00-ED1_FORMAT
100
AcDbText
 62
90
  6
CONTINUOUS
 10
411.0
 20
262.75
  7
TEXTSTYLE_2
 40
3.5
  1
A
 41
0.8571428571
 72
1
 11
412.5
 21
262.75
100
AcDbText
  0
TEXT
  5
33E
100
AcDbEntity
  8
375171-000-00-ED1_FORMAT
100
AcDbText
 62
90
  6
CONTINUOUS
 10
411.125
 20
221.75
  7
TEXTSTYLE_2
 40
3.5
  1
B
 41
0.7857142857
 72
1
 11
412.5
 21
221.75
100
AcDbText
  0
TEXT
  5
33F
100
AcDbEntity
  8
375171-000-00-ED1_FORMAT
100
AcDbText
 62
90
  6
CONTINUOUS
 10
19.125
 20
221.75
  7
TEXTSTYLE_2
 40
3.5
  1
B
 41
0.7857142857
 72
1
 11
20.5
 21
221.75
100
AcDbText
  0
TEXT
  5
340
100
AcDbEntity
  8
375171-000-00-ED1_FORMAT
100
AcDbText
 62
90
  6
CONTINUOUS
 10
19.0416666667
 20
171.75
  7
TEXTSTYLE_2
 40
3.5
  1
C
 41
0.8333333333
 72
1
 11
20.5
 21
171.75
100
AcDbText
  0
TEXT
  5
341
100
AcDbEntity
  8
375171-000-00-ED1_FORMAT
100
AcDbText
 62
90
  6
CONTINUOUS
 10
411.0416666667
 20
171.75
  7
TEXTSTYLE_2
 40
3.5
  1
C
 41
0.8333333333
 72
1
 11
412.5
 21
171.75
100
AcDbText
  0
TEXT
  5
342
100
AcDbEntity
  8
375171-000-00-ED1_FORMAT
100
AcDbText
 62
90
  6
CONTINUOUS
 10
410.9166666667
 20
121.75
  7
TEXTSTYLE_2
 40
3.5
  1
D
 41
0.9047619048
 72
1
 11
412.5
 21
121.75
100
AcDbText
  0
TEXT
  5
343
100
AcDbEntity
  8
375171-000-00-ED1_FORMAT
100
AcDbText
 62
90
  6
CONTINUOUS
 10
18.9166666667
 20
121.75
  7
TEXTSTYLE_2
 40
3.5
  1
D
 41
0.9047619048
 72
1
 11
20.5
 21
121.75
100
AcDbText
  0
TEXT
  5
344
100
AcDbEntity
  8
375171-000-00-ED1_FORMAT
100
AcDbText
 62
90
  6
CONTINUOUS
 10
19.25
 20
71.75
  7
TEXTSTYLE_2
 40
3.5
  1
E
 41
0.7142857143
 72
1
 11
20.5
 21
71.75
100
AcDbText
  0
TEXT
  5
345
100
AcDbEntity
  8
375171-000-00-ED1_FORMAT
100
AcDbText
 62
90
  6
CONTINUOUS
 10
411.25
 20
71.75
  7
TEXTSTYLE_2
 40
3.5
  1
E
 41
0.7142857143
 72
1
 11
412.5
 21
71.75
100
AcDbText
  0
TEXT
  5
346
100
AcDbEntity
  8
375171-000-00-ED1_FORMAT
100
AcDbText
 62
90
  6
CONTINUOUS
 10
411.25
 20
21.75
  7
TEXTSTYLE_2
 40
3.5
  1
F
 41
0.7142857143
 72
1
 11
412.5
 21
21.75
100
AcDbText
  0
TEXT
  5
347
100
AcDbEntity
  8
375171-000-00-ED1_FORMAT
100
AcDbText
 62
90
  6
CONTINUOUS
 10
19.25
 20
21.75
  7
TEXTSTYLE_2
 40
3.5
  1
F
 41
0.7142857143
 72
1
 11
20.5
 21
21.75
100
AcDbText
  0
TEXT
  5
348
100
AcDbEntity
  8
375171-000-00-ED1_FORMAT
100
AcDbText
 62
2
  6
CONTINUOUS
 10
266.0792011722
 20
283.4479128464
  7
STANDARD
 40
1.9999997015
  1
INDEX
 41
0.780952381
 72
0
100
AcDbText
  0
TEXT
  5
349
100
AcDbEntity
  8
375171-000-00-ED1_FORMAT
100
AcDbText
 62
2
  6
CONTINUOUS
 10
267.8411056711
 20
280.4479132942
  7
STANDARD
 40
1.9999997015
  1
NR.
 41
0.7142857143
 72
0
100
AcDbText
  0
TEXT
  5
34A
100
AcDbEntity
  8
375171-000-00-ED1_FORMAT
100
AcDbText
 62
2
  6
CONTINUOUS
 10
310.3389765087
 20
281.9588201847
  7
STANDARD
 40
1.9999997015
  1
ART DER AENDERUNG
 41
0.799719888
 72
0
100
AcDbText
  0
TEXT
  5
34B
100
AcDbEntity
  8
375171-000-00-ED1_FORMAT
100
AcDbText
 62
2
  6
CONTINUOUS
 10
379.9980938591
 20
282.0962316584
  7
STANDARD
 40
1.9999997015
  1
DATUM
 41
0.8523809524
 72
0
100
AcDbText
  0
TEXT
  5
34C
100
AcDbEntity
  8
375171-000-00-ED1_FORMAT
100
AcDbText
 62
2
  6
CONTINUOUS
 10
397.8615854447
 20
282.0962316584
  7
STANDARD
 40
1.9999997015
  1
NAME
 41
0.8035714286
 72
0
100
AcDbText
  0
TEXT
  5
34D
100
AcDbEntity
  8
375171-000-00-ED1_FORMAT
100
AcDbText
 62
2
  6
CONTINUOUS
 10
27.6553587823
 20
149.7733961004
  7
STANDARD
 40
3.0
  1
VORGANGS-NR.:
 50
90.0
 41
0.7399267399
 72
0
100
AcDbText
  0
TEXT
  5
34E
100
AcDbEntity
  8
375171-000-00-ED1_FORMAT
100
AcDbText
 62
2
  6
CONTINUOUS
 10
27.9024680453
 20
94.666552576
  7
STANDARD
 40
3.0
  1
PROJEKT-NR.:
 50
90.0
 41
0.7142857143
 72
0
100
AcDbText
  0
TEXT
  5
34F
100
AcDbEntity
  8
375171-000-00-ED1_FORMAT
100
AcDbText
 62
2
  6
CONTINUOUS
 10
27.9024680453
 20
11.0873145846
  7
STANDARD
 40
3.0
  1
KUNDE:
 50
90.0
 41
0.7222222222
 72
0
100
AcDbText
  0
TEXT
  5
350
100
AcDbEntity
  8
375171-000-00-ED1_FORMAT
100
AcDbText
 62
2
  6
CONTINUOUS
 10
225.0528335394
 20
61.7772757079
  7
STANDARD
 40
1.4000001944
  1
DIE ZEICHNUNGEN,  MODELLE  ETC. BLEIBEN  UNSER  AUSSCHLIESSLICHES
 41
0.7549450549
 72
0
100
AcDbText
  0
TEXT
  5
351
100
AcDbEntity
  8
375171-000-00-ED1_FORMAT
100
AcDbText
 62
2
  6
CONTINUOUS
 10
225.0528335394
 20
58.9772753192
  7
STANDARD
 40
1.4000001944
  1
EIGENTUM. SIE WERDEN NUR ZU DEM VEREINBARTEN  ZWECK ANVERTRAUT
 41
0.7976190476
 72
0
100
AcDbText
  0
TEXT
  5
352
100
AcDbEntity
  8
375171-000-00-ED1_FORMAT
100
AcDbText
 62
2
  6
CONTINUOUS
 10
225.0528335394
 20
56.1772749305
  7
STANDARD
 40
1.4000001944
  1
UND DUERFEN ZU KEINEM ANDEREN  ZWECK VERWENDET WERDEN. KOPIEN
 41
0.8040593286
 72
0
100
AcDbText
  0
TEXT
  5
353
100
AcDbEntity
  8
375171-000-00-ED1_FORMAT
100
AcDbText
 62
2
  6
CONTINUOUS
 10
225.0528335394
 20
53.3772745417
  7
STANDARD
 40
1.4000001944
  1
ODER  SONSTIGE  VERVIELFAELTIGUNGEN  DUERFEN  NUR ZU DEM VEREIN-
 41
0.7689732143
 72
0
100
AcDbText
  0
TEXT
  5
354
100
AcDbEntity
  8
375171-000-00-ED1_FORMAT
100
AcDbText
 62
2
  6
CONTINUOUS
 10
225.0528335394
 20
50.577274153
  7
STANDARD
 40
1.4000001944
  1
BARTEN ZWECK ANGEFERTIGT WERDEN. WEDER ORIGINALE NOCH VERVIEL-
 41
0.7949308756
 72
0
100
AcDbText
  0
TEXT
  5
355
100
AcDbEntity
  8
375171-000-00-ED1_FORMAT
100
AcDbText
 62
2
  6
CONTINUOUS
 10
225.0528335394
 20
47.7772737643
  7
STANDARD
 40
1.4000001944
  1
FAELTIGUNGEN  DUERFEN  DRITTEN  AUSGEHAENDIGT ODER IN SONSTIGER
 41
0.776266062
 72
0
100
AcDbText
  0
TEXT
  5
356
100
AcDbEntity
  8
375171-000-00-ED1_FORMAT
100
AcDbText
 62
2
  6
CONTINUOUS
 10
225.0528335394
 20
44.9772733756
  7
STANDARD
 40
1.4000001944
  1
WEISE ZUGAENGLICH GEMACHT WERDEN.
 41
0.803030303
 72
0
100
AcDbText
  0
TEXT
  5
357
100
AcDbEntity
  8
375171-000-00-ED1_FORMAT
100
AcDbText
 62
2
  6
CONTINUOUS
 10
225.1601630615
 20
39.378272574
  7
STANDARD
 40
1.8000002499
  1
MASSE OHNE TOLERANZANGABE
 41
0.7857142857
 72
0
100
AcDbText
  0
TEXT
  5
358
100
AcDbEntity
  8
375171-000-00-ED1_FORMAT
100
AcDbText
 62
2
  6
CONTINUOUS
 10
236.0244502841
 20
36.6782721992
  7
STANDARD
 40
1.8000002499
  1
ISO 2768-F
 41
0.7571428571
 72
0
100
AcDbText
  0
TEXT
  5
359
100
AcDbEntity
  8
375171-000-00-ED1_FORMAT
100
AcDbText
 62
2
  6
CONTINUOUS
 10
262.1543713235
 20
39.5917730329
  7
STANDARD
 40
1.8000002499
  1
UNBEMASSTE EINZELHEITEN
 41
0.7608695652
 72
0
100
AcDbText
  0
TEXT
  5
35A
100
AcDbEntity
  8
375171-000-00-ED1_FORMAT
100
AcDbText
 62
2
  6
CONTINUOUS
 10
267.382943478
 20
36.8917726581
  7
STANDARD
 40
1.8000002499
  1
NACH WERKSNORM
 41
0.8350340136
 72
0
100
AcDbText
  0
TEXT
  5
35B
100
AcDbEntity
  8
375171-000-00-ED1_FORMAT
100
AcDbText
 62
2
  6
CONTINUOUS
 10
150.063304016
 20
38.7910868059
  7
STANDARD
 40
2.0
  1
ZUSAETZLICH ZU VA-NR. 07.05.01 BESCHRIFTET MIT:
 41
0.7507598784
 72
1
 11
185.3490183017
 21
38.7910868059
100
AcDbText
  0
TEXT
  5
35C
100
AcDbEntity
  8
375171-000-00-ED1_FORMAT
100
AcDbText
 62
2
  6
CONTINUOUS
 10
224.7601228044
 20
20.7999897947
  7
STANDARD
 40
2.5
  1
TECHNISCHE SPEZIFIKATION:
 41
0.7466666667
 72
0
100
AcDbText
  0
TEXT
  5
35D
100
AcDbEntity
  8
375171-000-00-ED1_FORMAT
100
AcDbText
 62
2
  6
CONTINUOUS
 10
224.8199471988
 20
31.7602174681
  7
STANDARD
 40
2.5
  1
BENENNUNG:
 41
0.7285714286
 72
0
100
AcDbText
  0
TEXT
  5
35E
100
AcDbEntity
  8
375171-000-00-ED1_FORMAT
100
AcDbText
 62
2
  6
CONTINUOUS
 10
224.5262063004
 20
11.0903924223
  7
STANDARD
 40
1.6000002221
  1
ERSATZ F. ZCHNR.:
 41
0.7380952381
 72
0
100
AcDbText
  0
TEXT
  5
35F
100
AcDbEntity
  8
375171-000-00-ED1_FORMAT
100
AcDbText
 62
2
  6
CONTINUOUS
 10
300.4889576042
 20
10.8414910836
  7
STANDARD
 40
1.6000002221
  1
ERSETZT D. ZCHNR.:
 41
0.7473544974
 72
0
100
AcDbText
  0
TEXT
  5
360
100
AcDbEntity
  8
375171-000-00-ED1_FORMAT
100
AcDbText
 62
2
  6
CONTINUOUS
 10
379.498513208
 20
60.814916182
  7
STANDARD
 40
2.0000002777
  1
DATUM
 41
0.8523809524
 72
0
100
AcDbText
  0
TEXT
  5
361
100
AcDbEntity
  8
375171-000-00-ED1_FORMAT
100
AcDbText
 62
2
  6
CONTINUOUS
 10
398.0389134502
 20
60.814916182
  7
STANDARD
 40
2.0000002777
  1
NAME
 41
0.8035714286
 72
0
100
AcDbText
  0
TEXT
  5
362
100
AcDbEntity
  8
375171-000-00-ED1_FORMAT
100
AcDbText
 62
2
  6
CONTINUOUS
 10
366.6248819325
 20
54.9911796252
  7
STANDARD
 40
2.0000002777
  1
GEZ.
 41
0.7142857143
 72
0
100
AcDbText
  0
TEXT
  5
363
100
AcDbEntity
  8
375171-000-00-ED1_FORMAT
100
AcDbText
 62
2
  6
CONTINUOUS
 10
366.6248819325
 20
48.9031554343
  7
STANDARD
 40
2.0
  1
GEPR.
 41
0.7285714286
 72
0
100
AcDbText
  0
TEXT
  5
364
100
AcDbEntity
  8
375171-000-00-ED1_FORMAT
100
AcDbText
 62
2
  6
CONTINUOUS
 10
366.6248819325
 20
42.8151311047
  7
STANDARD
 40
2.0
  1
FREIG.
 41
0.7023809524
 72
0
100
AcDbText
  0
TEXT
  5
365
100
AcDbEntity
  8
375171-000-00-ED1_FORMAT
100
AcDbText
 62
2
  6
CONTINUOUS
 10
300.5448732723
 20
20.8921153842
  7
STANDARD
 40
2.5
  1
MATERIALNUMMER:
 41
0.7571428571
 72
0
100
AcDbText
  0
TEXT
  5
366
100
AcDbEntity
  8
375171-000-00-ED1_FORMAT
100
AcDbText
 62
2
  6
CONTINUOUS
 10
345.5006276188
 20
20.8921153842
  7
STANDARD
 40
2.5
  1
ZEICHNUNGSNUMMER:
 41
0.7549019608
 72
0
100
AcDbText
  0
TEXT
  5
367
100
AcDbEntity
  8
375171-000-00-ED1_FORMAT
100
AcDbText
 62
2
  6
CONTINUOUS
 10
400.7764463981
 20
32.1524019301
  7
STANDARD
 40
2.0
  1
ORIGIN
 41
0.7380952381
 72
0
100
AcDbText
  0
TEXT
  5
368
100
AcDbEntity
  8
375171-000-00-ED1_FORMAT
100
AcDbText
 62
2
  6
CONTINUOUS
 10
400.4059589228
 20
21.1649440759
  7
STANDARD
 40
2.5
  1
INDEX
 41
0.780952381
 72
0
100
AcDbText
  0
TEXT
  5
369
100
AcDbEntity
  8
375171-000-00-ED1_FORMAT
100
AcDbText
 62
2
  6
CONTINUOUS
 10
366.825457919
 20
36.6922441013
  7
STANDARD
 40
2.0000002777
  1
MASSSTAB: 
 41
0.7714285714
 72
0
100
AcDbText
  0
TEXT
  5
36A
100
AcDbEntity
  8
375171-000-00-ED1_FORMAT
100
AcDbText
 62
2
  6
CONTINUOUS
 10
382.2540314895
 20
36.6922441013
  7
STANDARD
 40
2.0000002777
  1
1:1
 41
0.5
 72
0
100
AcDbText
  0
TEXT
  5
36B
100
AcDbEntity
  8
375171-000-00-ED1_FORMAT
100
AcDbText
 62
2
  6
CONTINUOUS
 10
148.8802806988
 20
67.4938922276
  7
STANDARD
 40
2.0000002777
  1
POS
 41
0.7857142857
 72
0
100
AcDbText
  0
TEXT
  5
36C
100
AcDbEntity
  8
375171-000-00-ED1_FORMAT
100
AcDbText
 62
2
  6
CONTINUOUS
 10
156.2800350516
 20
67.4938922276
  7
STANDARD
 40
2.0000002777
  1
TYP
 41
0.8333333333
 72
0
100
AcDbText
  0
TEXT
  5
36D
100
AcDbEntity
  8
375171-000-00-ED1_FORMAT
100
AcDbText
 62
2
  6
CONTINUOUS
 10
163.3396899162
 20
67.5421772957
  7
STANDARD
 40
2.0000002777
  1
MENGE
 41
0.7714285714
 72
0
100
AcDbText
  0
TEXT
  5
36E
100
AcDbEntity
  8
375171-000-00-ED1_FORMAT
100
AcDbText
 62
2
  6
CONTINUOUS
 10
172.6578100909
 20
67.5585023576
  7
STANDARD
 40
2.0000002777
  1
ME
 41
0.7857142857
 72
0
100
AcDbText
  0
TEXT
  5
36F
100
AcDbEntity
  8
375171-000-00-ED1_FORMAT
100
AcDbText
 62
2
  6
CONTINUOUS
 10
181.2151302056
 20
67.5585023576
  7
STANDARD
 40
2.0000002777
  1
MATERIALNUMMER
 41
0.7857142857
 72
0
100
AcDbText
  0
TEXT
  5
370
100
AcDbEntity
  8
375171-000-00-ED1_FORMAT
100
AcDbText
 62
2
  6
CONTINUOUS
 10
257.4508902212
 20
67.6477439033
  7
STANDARD
 40
2.0000002777
  1
BENENNUNG
 41
0.7698412698
 72
0
100
AcDbText
  0
TEXT
  5
371
100
AcDbEntity
  8
375171-000-00-ED1_FORMAT
100
AcDbText
 62
2
  6
CONTINUOUS
 10
321.8093099266
 20
67.455938924
  7
STANDARD
 40
2.0000002777
  1
TECHNISCHE SPEZIFIKATION
 41
0.7628968254
 72
0
100
AcDbText
  0
TEXT
  5
372
100
AcDbEntity
  8
375171-000-00-ED1_FORMAT
100
AcDbText
 62
2
  6
CONTINUOUS
 10
378.8634420866
 20
67.8395488825
  7
STANDARD
 40
2.0000002777
  1
KUNDENNUMMER
 41
0.7956349206
 72
0
100
AcDbText
  0
TEXT
  5
373
100
AcDbEntity
  8
375171-000-00-ED1_FORMAT
100
AcDbText
 62
2
  6
CONTINUOUS
 10
334.8050437149
 20
48.3350050929
  7
TEXTSTYLE_2
 40
1.8000001121
  1
Dr. Kress KG
 41
0.7361111111
 72
0
100
AcDbText
  0
TEXT
  5
374
100
AcDbEntity
  8
375171-000-00-ED1_FORMAT
100
AcDbText
 62
7
  6
CONTINUOUS
 10
334.8050437149
 20
57.9850056872
  7
TEXTSTYLE_2
 40
2.5000001557
  1
MAPAL
 41
0.8
 72
0
100
AcDbText
  0
TEXT
  5
375
100
AcDbEntity
  8
375171-000-00-ED1_FORMAT
100
AcDbText
 62
2
  6
CONTINUOUS
 10
334.8050437149
 20
53.3350053976
  7
TEXTSTYLE_2
 40
1.8000001121
  1
Präzisionswerkzeuge
 41
0.7034461153
 72
0
100
AcDbText
  0
TEXT
  5
376
100
AcDbEntity
  8
375171-000-00-ED1_FORMAT
100
AcDbText
 62
2
  6
CONTINUOUS
 10
378.2047936993
 20
10.9096736719
  7
STANDARD
 40
1.6
  1
BLATT   V.   BLAETTERN
 41
0.7781385281
 72
0
100
AcDbText
  0
TEXT
  5
377
100
AcDbEntity
  8
375171-000-00-ED1_FORMAT
100
AcDbText
 62
2
  6
CONTINUOUS
 10
385.137224502
 20
10.8641703019
  7
STANDARD
 40
1.6
  1
1
 41
0.5714285714
 72
0
100
AcDbText
  0
TEXT
  5
378
100
AcDbEntity
  8
375171-000-00-ED1_FORMAT
100
AcDbText
 62
2
  6
CONTINUOUS
 10
391.2747609807
 20
10.9140689725
  7
STANDARD
 40
1.6
  1
1
 41
0.5714285714
 72
0
100
AcDbText
  0
TEXT
  5
379
100
AcDbEntity
  8
375171-000-00-ED1_FORMAT
100
AcDbText
 62
2
  6
CONTINUOUS
 10
398.7751202552
 20
36.7556960436
  7
STANDARD
 40
2.0
  1
A3
 41
0.7857142857
 72
0
100
AcDbText
  0
TEXT
  5
37A
100
AcDbEntity
  8
375171-000-00-ED1_FORMAT
100
AcDbText
 62
2
  6
CONTINUOUS
 10
23.9272382303
 20
282.7195210512
  7
STANDARD
 40
1.9999995576
  1
MASCH.-NR.:
 41
0.7186147186
 72
0
100
AcDbText
  0
TEXT
  5
37B
100
AcDbEntity
  8
375171-000-00-ED1_FORMAT
100
AcDbText
 62
2
  6
CONTINUOUS
 10
61.221262923
 20
282.7441697896
  7
STANDARD
 40
1.9999995184
  1
STATION:
 41
0.7410714286
 72
0
100
AcDbText
  0
TEXT
  5
37C
100
AcDbEntity
  8
375171-000-00-ED1_FORMAT
100
AcDbText
 62
2
  6
CONTINUOUS
 10
99.2119750426
 20
282.7441697896
  7
STANDARD
 40
1.9999995184
  1
SPINDEL:
 41
0.7023809524
 72
0
100
AcDbText
  0
TEXT
  5
37D
100
AcDbEntity
  8
375171-000-00-ED1_FORMAT
100
AcDbText
 62
2
  6
CONTINUOUS
 10
23.5637846434
 20
277.4328879656
  7
STANDARD
 40
1.9999995576
  1
WERKST.-BEN.:
 41
0.7527472527
 72
0
100
AcDbText
  0
TEXT
  5
37E
100
AcDbEntity
  8
375171-000-00-ED1_FORMAT
100
AcDbText
 62
2
  6
CONTINUOUS
 10
23.7506774
 20
266.657832536
  7
STANDARD
 40
1.9999995184
  1
WERKSTOFF:
 41
0.7857142857
 72
0
100
AcDbText
  0
TEXT
  5
37F
100
AcDbEntity
  8
375171-000-00-ED1_FORMAT
100
AcDbText
 62
2
  6
CONTINUOUS
 10
99.2058269153
 20
260.6643446337
  7
STANDARD
 40
1.9999995184
  1
BOHRUNGS-NR.:
 41
0.7307692308
 72
0
100
AcDbText
  0
TEXT
  5
380
100
AcDbEntity
  8
375171-000-00-ED1_FORMAT
100
AcDbText
 62
2
  6
CONTINUOUS
 10
23.8681648642
 20
272.062255871
  7
STANDARD
 40
1.9999995576
  1
WERKST.-NR.:
 41
0.755952381
 72
0
100
AcDbText
  0
TEXT
  5
381
100
AcDbEntity
  8
375171-000-00-ED1_FORMAT
100
AcDbText
 62
2
  6
CONTINUOUS
 10
61.140009526
 20
260.6643443929
  7
STANDARD
 40
2.0
  1
OP-NR.:
 41
0.6836734694
 72
0
100
AcDbText
  0
TEXT
  5
382
100
AcDbEntity
  8
375171-000-00-ED1_FORMAT
100
AcDbText
 62
2
  6
CONTINUOUS
 10
23.9309790234
 20
260.9091406462
  7
STANDARD
 40
2.0
  1
TOOL-NR.:
 41
0.6984126984
 72
0
100
AcDbText
  0
INSERT
  5
383
100
AcDbEntity
  8
375171-000-00-ED1_FORMAT
100
AcDbBlockReference
 62
3
  6
CONTINUOUS
  2
BARCODEBOX_BL0
 10
87.5
 20
46.5
  0
DIMENSION
  5
384
100
AcDbEntity
  8
375171-000-00-ED1_DIM
100
AcDbDimension
 62
3
  6
CONTINUOUS
  2
*D0
 10
290.5560209972
 20
159.4774946005
 11
290.8948834214
 21
189.860285626
 70
162
 71
2
 42
0.0785398163
  3
DIMSTYLE_1
100
AcDb2LineAngularDimension
 13
291.023933513
 23
171.3866633837
 14
307.0106623418
 24
170.1284805383
 15
310.9291205799
 25
159.4774946005
 16
292.1718877908
 26
165.3777835793
  0
DIMENSION
  5
385
100
AcDbEntity
  8
375171-000-00-ED1_DIM
100
AcDbDimension
 62
3
  6
CONTINUOUS
  2
*D1
 10
338.9291205799
 20
172.9774946005
 11
337.4429743542
 21
157.2052530805
 70
160
 71
2
 42
27.0
  1
%%c<>
  3
DIMSTYLE_2
100
AcDbAlignedDimension
 13
271.8105063713
 23
145.9774946005
 14
271.8105063713
 24
172.9774946005
 50
90.0
100
AcDbRotatedDimension
  0
DIMENSION
  5
386
100
AcDbEntity
  8
375171-000-00-ED1_DIM
100
AcDbDimension
 62
3
  6
CONTINUOUS
  2
*D2
 10
328.9291205799
 20
148.9774946005
 11
327.3589605512
 21
157.3728774549
 70
160
 71
2
 42
21.0
  1
%%c<>
  3
DIMSTYLE_2
100
AcDbAlignedDimension
 13
309.9291205799
 23
169.9774946005
 14
309.9291205799
 24
148.9774946005
 50
270.0
100
AcDbRotatedDimension
  0
DIMENSION
  5
387
100
AcDbEntity
  8
375171-000-00-ED1_DIM
100
AcDbDimension
 62
3
  6
CONTINUOUS
  2
*D3
 10
242.3913709484
 20
162.4774946005
 11
239.7663709484
 21
180.3972272689
 70
160
 71
1
 42
6.0
  1
M<>
  3
DIMSTYLE_3
100
AcDbAlignedDimension
 13
271.4291205799
 23
156.4774946005
 14
271.4291205799
 24
162.4774946005
 50
90.0
100
AcDbRotatedDimension
  0
DIMENSION
  5
388
100
AcDbEntity
  8
375171-000-00-ED1_DIM
100
AcDbDimension
 62
3
  6
CONTINUOUS
  2
*D4
 10
318.9291205799
 20
163.4774946005
 11
316.3041205799
 21
183.1858279338
 70
160
 71
1
 42
8.0
  1
%%c<>
  3
DIMSTYLE_2
100
AcDbAlignedDimension
 13
307.9291205799
 23
155.4774946005
 14
307.9291205799
 24
163.4774946005
 50
90.0
100
AcDbRotatedDimension
  0
LEADER
  5
389
100
AcDbEntity
  8
375171-000-00-ED1_CL
100
AcDbLeader
 62
3
  6
CONTINUOUS
  3
STANDARD
 71
1
 72
0
 73
2
 75
0
 76
3
 10
318.9291205799
 20
155.4774946005
 30
0.0
 10
318.9291205799
 20
119.4774946005
 30
0.0
 10
319.5259233882
 20
119.4774946005
 30
0.0
340
38A
1001
ACAD
1000
DSTYLE
1002
{
1070
77
1070
0
1002
}
  0
INSERT
  5
38A
102
{ACAD_REACTORS
330
389
102
}
100
AcDbEntity
  8
375171-000-00-ED1_CL
100
AcDbBlockReference
 62
3
  6
CONTINUOUS
  2
GEOM_TOLERANCE_SYMBOLS_BL1
 10
340.0443407832
 20
119.4777556878
  0
DIMENSION
  5
38B
100
AcDbEntity
  8
375171-000-00-ED1_DIM
100
AcDbDimension
 62
3
  6
CONTINUOUS
  2
*D5
 10
265.9291205799
 20
189.4774946005
 11
240.0695233838
 21
192.1024946005
 70
160
 71
3
 42
6.0
  1
M<> (4x)
  3
DIMSTYLE_3
100
AcDbAlignedDimension
 13
259.9291205799
 23
173.8774946005
 14
265.9291205799
 24
173.8774946005
100
AcDbRotatedDimension
  0
DIMENSION
  5
38C
100
AcDbEntity
  8
375171-000-00-ED1_DIM
100
AcDbDimension
 62
3
  6
CONTINUOUS
  2
*D6
 10
308.9291205799
 20
109.4774946005
 11
285.3395224403
 21
112.1024946005
 70
160
 71
2
 42
46.0
  3
DIMSTYLE_4
100
AcDbAlignedDimension
 13
262.9291205799
 23
142.0774946005
 14
308.9291205799
 24
148.9018850921
100
AcDbRotatedDimension
  0
DIMENSION
  5
38D
100
AcDbEntity
  8
375171-000-00-ED1_DIM
100
AcDbDimension
 62
3
  6
CONTINUOUS
  2
*D7
 10
144.8791205799
 20
182.9774946005
 11
148.7000780007
 21
187.1867354182
 70
164
 71
2
 42
10.0
  1
<>
  3
DIMSTYLE_5
100
AcDbRadialDimension
 15
137.2273154549
 25
176.5393366085
  0
DIMENSION
  5
38E
100
AcDbEntity
  8
30488595_DIM
100
AcDbDimension
 62
3
  6
CONTINUOUS
  2
*D8
 10
282.9291205799
 20
129.4774946005
 11
226.2402818202
 21
129.0399946005
 70
160
 71
3
 42
10.0
  1
<>\PVERSTELLWEG
  3
DIMSTYLE_2
100
AcDbAlignedDimension
 13
272.9291205799
 23
158.4774946005
 14
282.9291205799
 24
158.4774946005
100
AcDbRotatedDimension
  0
DIMENSION
  5
38F
100
AcDbEntity
  8
30350709_DIM
100
AcDbDimension
 62
3
  6
CONTINUOUS
  2
*D9
 10
308.9291205799
 20
119.4774946005
 11
288.3041205799
 21
122.1024946005
 70
160
 71
2
 42
36.0
  3
DIMSTYLE_4
100
AcDbAlignedDimension
 13
272.9291205799
 23
158.4774946005
 14
308.9291205799
 24
158.4774946005
100
AcDbRotatedDimension
  0
DIMENSION
  5
390
100
AcDbEntity
  8
30350709_DIM
100
AcDbDimension
 62
3
  6
CONTINUOUS
  2
*D10
 10
108.9291205799
 20
209.4774946005
 11
204.8041205799
 21
212.1024946005
 70
160
 71
2
 42
200.0
  3
DIMSTYLE_6
100
AcDbAlignedDimension
 13
308.9291205799
 23
162.4167258324
 14
108.9291205799
 24
160.4774946005
 50
180.0
100
AcDbRotatedDimension
  0
LINE
  5
391
100
AcDbEntity
  8
375171-000-00-ED1_FORMAT
100
AcDbLine
 62
3
  6
CONTINUOUS
 10
264.9
 20
287.0000007463
 11
410.0
 21
287.0000007463
  0
LINE
  5
392
100
AcDbEntity
  8
375171-000-00-ED1_FORMAT
100
AcDbLine
 62
3
  6
CONTINUOUS
 10
264.9
 20
287.0000007463
 11
264.9
 21
225.0000007463
  0
LINE
  5
393
100
AcDbEntity
  8
375171-000-00-ED1_FORMAT
100
AcDbLine
 62
3
  6
CONTINUOUS
 10
264.9
 20
225.0000007463
 11
410.0
 21
225.0000007463
  0
LINE
  5
394
100
AcDbEntity
  8
375171-000-00-ED1_FORMAT
100
AcDbLine
 62
3
  6
CONTINUOUS
 10
410.0
 20
287.0000007463
 11
410.0
 21
225.0000007463
  0
LINE
  5
395
100
AcDbEntity
  8
375171-000-00-ED1_FORMAT
100
AcDbLine
 62
3
  6
CONTINUOUS
 10
23.0
 20
10.0
 11
23.0
 21
210.0
  0
LINE
  5
396
100
AcDbEntity
  8
375171-000-00-ED1_FORMAT
100
AcDbLine
 62
3
  6
CONTINUOUS
 10
23.0
 20
10.0
 11
29.0
 21
10.0
  0
LINE
  5
397
100
AcDbEntity
  8
375171-000-00-ED1_FORMAT
100
AcDbLine
 62
3
  6
CONTINUOUS
 10
29.0
 20
10.0
 11
29.0
 21
210.0
  0
LINE
  5
398
100
AcDbEntity
  8
375171-000-00-ED1_FORMAT
100
AcDbLine
 62
3
  6
CONTINUOUS
 10
23.0
 20
210.0
 11
29.0
 21
210.0
  0
LINE
  5
399
100
AcDbEntity
  8
375171-000-00-ED1_FORMAT
100
AcDbLine
 62
3
  6
CONTINUOUS
 10
146.999991584
 20
65.00000176
 11
410.000001584
 21
65.00000176
  0
LINE
  5
39A
100
AcDbEntity
  8
375171-000-00-ED1_FORMAT
100
AcDbLine
 62
3
  6
CONTINUOUS
 10
146.999991584
 20
65.00000176
 11
146.999991584
 21
78.50000176
  0
LINE
  5
39B
100
AcDbEntity
  8
375171-000-00-ED1_FORMAT
100
AcDbLine
 62
3
  6
CONTINUOUS
 10
146.999991584
 20
72.50000176
 11
410.000001584
 21
72.50000176
  0
LINE
  5
39C
100
AcDbEntity
  8
375171-000-00-ED1_FORMAT
100
AcDbLine
 62
3
  6
CONTINUOUS
 10
146.999991584
 20
78.50000176
 11
410.000001584
 21
78.50000176
  0
LINE
  5
39D
100
AcDbEntity
  8
375171-000-00-ED1_FORMAT
100
AcDbLine
 62
3
  6
CONTINUOUS
 10
154.499991584
 20
65.00000176
 11
154.499991584
 21
78.50000176
  0
LINE
  5
39E
100
AcDbEntity
  8
375171-000-00-ED1_FORMAT
100
AcDbLine
 62
3
  6
CONTINUOUS
 10
161.999991584
 20
65.00000176
 11
161.999991584
 21
78.50000176
  0
LINE
  5
39F
100
AcDbEntity
  8
375171-000-00-ED1_FORMAT
100
AcDbLine
 62
3
  6
CONTINUOUS
 10
171.398801584
 20
65.00000176
 11
171.398801584
 21
78.50000176
  0
LINE
  5
3A0
100
AcDbEntity
  8
375171-000-00-ED1_FORMAT
100
AcDbLine
 62
3
  6
CONTINUOUS
 10
176.398801584
 20
65.00000176
 11
176.398801584
 21
78.50000176
  0
LINE
  5
3A1
100
AcDbEntity
  8
375171-000-00-ED1_FORMAT
100
AcDbLine
 62
3
  6
CONTINUOUS
 10
208.000001584
 20
65.00000176
 11
208.000001584
 21
78.50000176
  0
LINE
  5
3A2
100
AcDbEntity
  8
375171-000-00-ED1_FORMAT
100
AcDbLine
 62
3
  6
CONTINUOUS
 10
314.000001584
 20
65.00000176
 11
314.000001584
 21
78.50000176
  0
LINE
  5
3A3
100
AcDbEntity
  8
375171-000-00-ED1_FORMAT
100
AcDbLine
 62
3
  6
CONTINUOUS
 10
366.000001584
 20
65.00000176
 11
366.000001584
 21
78.50000176
  0
LINE
  5
3A4
100
AcDbEntity
  8
375171-000-00-ED1_FORMAT
100
AcDbLine
 62
3
  6
CONTINUOUS
 10
410.000001584
 20
65.00000176
 11
410.000001584
 21
78.50000176
  0
TEXT
  5
3A5
100
AcDbEntity
  8
375171-000-00-ED1_FORMAT
100
AcDbText
 62
2
  6
CONTINUOUS
 10
148.224991584
 20
74.25000176
  7
STANDARD
 40
2.0
  1
1
 41
0.5714285714
 72
0
100
AcDbText
  0
TEXT
  5
3A6
100
AcDbEntity
  8
375171-000-00-ED1_FORMAT
100
AcDbText
 62
2
  6
CONTINUOUS
 10
163.224991584
 20
74.25000176
  7
STANDARD
 40
2.0
  1
1
 41
0.5714285714
 72
0
100
AcDbText
  0
TEXT
  5
3A7
100
AcDbEntity
  8
375171-000-00-ED1_FORMAT
100
AcDbText
 62
2
  6
CONTINUOUS
 10
177.623801584
 20
74.25000176
  7
STANDARD
 40
2.0
  1
30252540
 41
0.7589285714
 72
0
100
AcDbText
  0
TEXT
  5
3A8
100
AcDbEntity
  8
375171-000-00-ED1_FORMAT
100
AcDbText
 62
2
  6
CONTINUOUS
 10
209.225001584
 20
74.25000176
  7
STANDARD
 40
2.0
  1
ANSCHLAGSCHRAUBE
 41
0.7916666667
 72
0
100
AcDbText
  0
TEXT
  5
3A9
100
AcDbEntity
  8
375171-000-00-ED1_FORMAT
100
AcDbText
 62
2
  6
CONTINUOUS
 10
315.225001584
 20
74.25000176
  7
STANDARD
 40
2.0
  1
M6 SW 3
 41
0.8673469388
 72
0
100
AcDbText
  0
TEXT
  5
3AA
100
AcDbEntity
  8
375171-000-00-ED1_FORMAT
100
AcDbText
 62
2
  6
CONTINUOUS
 10
406.5928587269
 20
76.72000176
  7
STANDARD
 40
0.03
  1
30252540
 41
0.7589285714
 72
2
 11
406.775001584
 21
76.72000176
100
AcDbText
  0
TEXT
  5
3AB
100
AcDbEntity
  8
375171-000-00-ED1_FORMAT
100
AcDbText
 62
2
  6
CONTINUOUS
 10
407.7257158697
 20
76.72000176
  7
STANDARD
 40
0.03
  1
KA
 41
0.8214285714
 72
2
 11
407.775001584
 21
76.72000176
100
AcDbText
  0
LINE
  5
3AC
100
AcDbEntity
  8
375171-000-00-ED1_FORMAT
100
AcDbLine
 62
3
  6
CONTINUOUS
 10
23.0
 20
287.0
 11
135.0
 21
287.0
  0
LINE
  5
3AD
100
AcDbEntity
  8
375171-000-00-ED1_FORMAT
100
AcDbLine
 62
3
  6
CONTINUOUS
 10
23.0
 20
287.0
 11
23.0
 21
259.00001
  0
LINE
  5
3AE
100
AcDbEntity
  8
375171-000-00-ED1_FORMAT
100
AcDbLine
 62
3
  6
CONTINUOUS
 10
23.0
 20
259.00001
 11
135.0
 21
259.00001
  0
LINE
  5
3AF
100
AcDbEntity
  8
375171-000-00-ED1_FORMAT
100
AcDbLine
 62
3
  6
CONTINUOUS
 10
135.0
 20
287.0
 11
135.0
 21
259.00001
  0
LINE
  5
3B0
100
AcDbEntity
  8
375171-000-00-ED1_FORMAT
100
AcDbLine
 62
3
  6
CONTINUOUS
 10
146.999991584
 20
65.00000176
 11
409.999961584
 21
65.00000176
  0
LINE
  5
3B1
100
AcDbEntity
  8
375171-000-00-ED1_FORMAT
100
AcDbLine
 62
3
  6
CONTINUOUS
 10
146.999991584
 20
65.00000176
 11
146.999991584
 21
10.00000176
  0
LINE
  5
3B2
100
AcDbEntity
  8
375171-000-00-ED1_FORMAT
100
AcDbLine
 62
3
  6
CONTINUOUS
 10
146.999991584
 20
10.00000176
 11
409.999961584
 21
10.00000176
  0
LINE
  5
3B3
100
AcDbEntity
  8
375171-000-00-ED1_FORMAT
100
AcDbLine
 62
3
  6
CONTINUOUS
 10
409.999961584
 20
65.00000176
 11
409.999961584
 21
10.00000176
  0
TEXT
  5
3B4
100
AcDbEntity
  8
375171-000-00-ED1_FORMAT
100
AcDbText
 62
2
  6
CONTINUOUS
 10
184.5178487269
 20
60.75000176
  7
STANDARD
 40
2.5
  1
 
 41
0.7857142857
 72
1
 11
185.499991584
 21
60.75000176
100
AcDbText
  0
TEXT
  5
3B5
100
AcDbEntity
  8
375171-000-00-ED1_FORMAT
100
AcDbText
 62
2
  6
CONTINUOUS
 10
154.130943965
 20
58.24975176
  7
STANDARD
 40
2.5
  1
AUSWUCHTGUETE DIN ISO 1940-G 
 41
0.7939244663
 72
1
 11
182.9107058697
 21
58.24975176
100
AcDbText
  0
TEXT
  5
3B6
100
AcDbEntity
  8
375171-000-00-ED1_FORMAT
100
AcDbText
 62
2
  6
CONTINUOUS
 10
211.6904677745
 20
58.24975176
  7
STANDARD
 40
2.5
  1
2.5
 41
0.6904761905
 72
1
 11
214.2797534888
 21
58.24975176
100
AcDbText
  0
TEXT
  5
3B7
100
AcDbEntity
  8
375171-000-00-ED1_FORMAT
100
AcDbText
 62
2
  6
CONTINUOUS
 10
184.5178487269
 20
56.57968176
  7
STANDARD
 40
2.5
  1
 
 41
0.7857142857
 72
1
 11
185.499991584
 21
56.57968176
100
AcDbText
  0
TEXT
  5
3B8
100
AcDbEntity
  8
375171-000-00-ED1_FORMAT
100
AcDbText
 62
2
  6
CONTINUOUS
 10
167.7321344411
 20
52.82968176
  7
STANDARD
 40
2.5
  1
(KOMPLETT MONTIERT)
 41
0.7481203008
 72
1
 11
185.499991584
 21
52.82968176
100
AcDbText
  0
TEXT
  5
3B9
100
AcDbEntity
  8
375171-000-00-ED1_FORMAT
100
AcDbText
 62
2
  6
CONTINUOUS
 10
378.122491584
 20
54.95468176
  7
STANDARD
 40
2.0
  1
03.04.13
 41
0.6875
 72
0
100
AcDbText
  0
TEXT
  5
3BA
100
AcDbEntity
  8
375171-000-00-ED1_FORMAT
100
AcDbText
 62
2
  6
CONTINUOUS
 10
398.8058694411
 20
54.95468176
  7
STANDARD
 40
2.0
  1
LIM
 41
0.7142857143
 72
1
 11
400.948726584
 21
54.95468176
100
AcDbText
  0
TEXT
  5
3BB
100
AcDbEntity
  8
375171-000-00-ED1_FORMAT
100
AcDbText
 62
2
  6
CONTINUOUS
 10
157.8511820602
 20
46.82968176
  7
STANDARD
 40
2.5
  1
FUER NENNDREHZAHL 
 41
0.7724867725
 72
1
 11
175.2321344411
 21
46.82968176
100
AcDbText
  0
TEXT
  5
3BC
100
AcDbEntity
  8
375171-000-00-ED1_FORMAT
100
AcDbText
 62
2
  6
CONTINUOUS
 10
192.6130868221
 20
46.82968176
  7
STANDARD
 40
2.5
  1
25000
 41
0.7714285714
 72
1
 11
197.4345153935
 21
46.82968176
100
AcDbText
  0
TEXT
  5
3BD
100
AcDbEntity
  8
375171-000-00-ED1_FORMAT
100
AcDbText
 62
2
  6
CONTINUOUS
 10
202.255943965
 20
46.82968176
  7
STANDARD
 40
2.5
  1
 MIN
 41
0.7678571429
 72
1
 11
206.0952296792
 21
46.82968176
100
AcDbText
  0
TEXT
  5
3BE
100
AcDbEntity
  8
375171-000-00-ED1_FORMAT
100
AcDbText
 62
2
  6
CONTINUOUS
 10
209.9345153935
 20
48.70468176
  7
STANDARD
 40
2.5
  1
-1
 41
0.6428571429
 72
1
 11
211.5416582507
 21
48.70468176
100
AcDbText
  0
TEXT
  5
3BF
100
AcDbEntity
  8
375171-000-00-ED1_FORMAT
100
AcDbText
 62
7
  6
CONTINUOUS
 10
225.224991584
 20
26.00000176
  7
STANDARD
 40
2.5
  1
SCHRUMPFFUTTER, HSK, STANDARDAUSFUEHRUNG
 41
0.7857142857
 72
0
100
AcDbText
  0
TEXT
  5
3C0
100
AcDbEntity
  8
375171-000-00-ED1_FORMAT
100
AcDbText
 62
2
  6
CONTINUOUS
 10
402.5951996792
 20
26.00000176
  7
STANDARD
 40
2.0
  1
EHD
 41
0.8015873016
 72
1
 11
404.999961584
 21
26.00000176
100
AcDbText
  0
TEXT
  5
3C1
100
AcDbEntity
  8
375171-000-00-ED1_FORMAT
100
AcDbText
 62
7
  6
CONTINUOUS
 10
225.224991584
 20
15.25000176
  7
STANDARD
 40
2.5
  1
MTC-HSK-A063-08-200-1-0-A
 41
0.7676190476
 72
0
100
AcDbText
  0
TEXT
  5
3C2
100
AcDbEntity
  8
375171-000-00-ED1_FORMAT
100
AcDbText
 62
7
  6
CONTINUOUS
 10
301.224991584
 20
15.25000176
  7
STANDARD
 40
2.5
  1
30488595
 41
0.7589285714
 72
0
100
AcDbText
  0
TEXT
  5
3C3
100
AcDbEntity
  8
375171-000-00-ED1_FORMAT
100
AcDbText
 62
7
  6
CONTINUOUS
 10
346.224991584
 20
15.25000176
  7
STANDARD
 40
2.5
  1
375171-000-00-ED1
 41
0.7296918768
 72
0
100
AcDbText
  0
TEXT
  5
3C4
100
AcDbEntity
  8
375171-000-00-ED1_FORMAT
100
AcDbText
 62
2
  6
CONTINUOUS
 10
403.0356758697
 20
15.25000176
  7
STANDARD
 40
2.5
  1
00
 41
0.7857142857
 72
1
 11
404.999961584
 21
15.25000176
100
AcDbText
  0
LINE
  5
3C5
100
AcDbEntity
  8
375171-000-00-ED1_FORMAT
100
AcDbLine
 62
3
  6
CONTINUOUS
 10
29.0
 20
10.0
 11
29.0
 21
145.0
  0
LINE
  5
3C6
100
AcDbEntity
  8
375171-000-00-ED1_FORMAT
100
AcDbLine
 62
3
  6
CONTINUOUS
 10
29.0
 20
10.0
 11
35.0
 21
10.0
  0
LINE
  5
3C7
100
AcDbEntity
  8
375171-000-00-ED1_FORMAT
100
AcDbLine
 62
3
  6
CONTINUOUS
 10
35.0
 20
10.0
 11
35.0
 21
145.0
  0
LINE
  5
3C8
100
AcDbEntity
  8
375171-000-00-ED1_FORMAT
100
AcDbLine
 62
3
  6
CONTINUOUS
 10
29.0
 20
80.0
 11
35.0
 21
80.0
  0
LINE
  5
3C9
100
AcDbEntity
  8
375171-000-00-ED1_FORMAT
100
AcDbLine
 62
3
  6
CONTINUOUS
 10
29.0
 20
145.0
 11
35.0
 21
145.0
  0
TEXT
  5
3CA
100
AcDbEntity
  8
375171-000-00-ED1_FORMAT
100
AcDbText
 62
2
  6
CONTINUOUS
 10
34.0
 20
11.225
  7
STANDARD
 40
3.0
  1
AEHNLICH:
 50
90.0
 41
0.7116402116
 72
0
100
AcDbText
  0
TEXT
  5
3CB
100
AcDbEntity
  8
375171-000-00-ED1_FORMAT
100
AcDbText
 62
2
  6
CONTINUOUS
 10
34.0
 20
81.225
  7
STANDARD
 40
3.0
  1
SKIZZE:
 50
90.0
 41
0.693877551
 72
0
100
AcDbText
  0
LINE
  5
3CC
100
AcDbEntity
  8
375171-000-00-ED1_FORMAT
100
AcDbLine
 62
3
  6
CONTINUOUS
 10
365.999998592
 20
35.0000008
 11
294.999998592
 21
35.0000008
  0
LINE
  5
3CD
100
AcDbEntity
  8
375171-000-00-ED1_FORMAT
100
AcDbLine
 62
3
  6
CONTINUOUS
 10
365.999998592
 20
35.0000008
 11
365.999998592
 21
43.5000008
  0
LINE
  5
3CE
100
AcDbEntity
  8
375171-000-00-ED1_FORMAT
100
AcDbLine
 62
3
  6
CONTINUOUS
 10
365.999998592
 20
43.5000008
 11
294.999998592
 21
43.5000008
  0
LINE
  5
3CF
100
AcDbEntity
  8
375171-000-00-ED1_FORMAT
100
AcDbLine
 62
3
  6
CONTINUOUS
 10
294.999998592
 20
35.0000008
 11
294.999998592
 21
43.5000008
  0
TEXT
  5
3D0
100
AcDbEntity
  8
375171-000-00-ED1_FORMAT
100
AcDbText
 62
2
  6
CONTINUOUS
 10
304.9642843063
 20
38.0000008
  7
STANDARD
 40
2.5
  1
PATENTRECHTLICH GESCHUETZT
 41
0.7857142857
 72
1
 11
330.499998592
 21
38.0000008
100
AcDbText
  0
TEXT
  5
3D1
100
AcDbEntity
  8
375171-000-00-ED1_TEXT
100
AcDbText
 62
2
  6
CONTINUOUS
 10
326.1663181052
 20
107.7274946005
  7
STANDARD
 40
3.5
  1
FUER SCHAEFTE MIT
 41
0.7759103641
 72
0
100
AcDbText
  0
TEXT
  5
3D2
100
AcDbEntity
  8
375171-000-00-ED1_TEXT
100
AcDbText
 62
2
  6
CONTINUOUS
 10
326.1663181052
 20
102.4774946005
  7
STANDARD
 40
3.5
  1
TOLERANZFELD h6
 41
0.7650793651
 72
0
100
AcDbText
  0
LEADER
  5
3D3
100
AcDbEntity
  8
375171-000-00-ED1_TEXT
100
AcDbLeader
 62
3
  6
CONTINUOUS
  3
STANDARD
 71
1
 72
0
 73
3
 75
0
 76
3
 10
318.9291205799
 20
155.4774946005
 30
0.0
 10
318.9291205799
 20
109.4774946005
 30
0.0
 10
326.1663181052
 20
109.4774946005
 30
0.0
1001
ACAD
1000
DSTYLE
1002
{
1070
77
1070
0
1002
}
  0
INSERT
  5
3D4
100
AcDbEntity
  8
375171-000-00-ED1_CL
100
AcDbBlockReference
 62
3
  6
CONTINUOUS
  2
NOTE_HSK_BL2
 10
88.5771536135
 20
219.6004297556
  0
INSERT
  5
3D5
100
AcDbEntity
  8
375171-000-00-ED1_CL
100
AcDbBlockReference
 62
3
  6
CONTINUOUS
  2
GEOM_TOLERANCE_SYMBOLS_BL3
 10
91.5986232846
 20
189.2445650084
  0
INSERT
  5
3D6
100
AcDbEntity
  8
375171-000-00-ED1_CL
100
AcDbBlockReference
 62
3
  6
CONTINUOUS
  2
GEOM_TOLERANCE_SYMBOLS_BL4
 10
102.6791205799
 20
130.3680941102
  0
LEADER
  5
3D7
100
AcDbEntity
  8
375171-000-00-ED1_CL
100
AcDbLeader
 62
3
  6
CONTINUOUS
  3
STANDARD
 71
1
 72
0
 73
2
 75
0
 76
2
 10
267.8002630543
 20
157.9774946005
 30
0.0
 10
244.9101780273
 20
140.6007730636
 30
0.0
340
3D8
1001
ACAD
1000
DSTYLE
1002
{
1070
77
1070
0
1070
341
1005
21B
1002
}
  0
INSERT
  5
3D8
102
{ACAD_REACTORS
330
3D7
102
}
100
AcDbEntity
  8
375171-000-00-ED1_CL
100
AcDbBlockReference
 62
3
  6
CONTINUOUS
  2
BOMBALLOON_BL5
 10
240.0316582309
 20
136.8973058238
  0
LINE
  5
3D9
100
AcDbEntity
  8
375171-000-00-ED1_FORMAT
100
AcDbLine
 62
6
  6
HIDDEN
 10
0.0
 20
297.0
 11
0.0
 21
0.0
  0
LINE
  5
3DA
100
AcDbEntity
  8
375171-000-00-ED1_FORMAT
100
AcDbLine
 62
7
  6
CONTINUOUS
 10
18.0
 20
292.0
 11
18.0
 21
5.0
  0
LINE
  5
3DB
100
AcDbEntity
  8
375171-000-00-ED1_FORMAT
100
AcDbLine
 62
3
  6
CONTINUOUS
 10
23.0
 20
259.0000097341
 11
23.0
 21
10.0
  0
LINE
  5
3DC
100
AcDbEntity
  8
375171-000-00-ED1_FORMAT
100
AcDbLine
 62
7
  6
CONTINUOUS
 10
23.0
 20
259.0000097341
 11
23.0
 21
287.0
  0
LINE
  5
3DD
100
AcDbEntity
  8
375171-000-00-ED1_FORMAT
100
AcDbLine
 62
3
  6
CONTINUOUS
 10
28.9999998068
 20
9.9999999122
 11
28.9999998068
 21
209.9999964
  0
LINE
  5
3DE
100
AcDbEntity
  8
375171-000-00-ED1_FORMAT
100
AcDbLine
 62
3
  6
CONTINUOUS
 10
60.0
 20
10.0
 11
60.0
 21
5.0
  0
LINE
  5
3DF
100
AcDbEntity
  8
375171-000-00-ED1_FORMAT
100
AcDbLine
 62
3
  6
CONTINUOUS
 10
60.0
 20
287.0
 11
60.0
 21
292.0
  0
LINE
  5
3E0
100
AcDbEntity
  8
375171-000-00-ED1_FORMAT
100
AcDbLine
 62
7
  6
CONTINUOUS
 10
60.4999978194
 20
259.0000097341
 11
60.4999978194
 21
265.0000076482
  0
LINE
  5
3E1
100
AcDbEntity
  8
375171-000-00-ED1_FORMAT
100
AcDbLine
 62
7
  6
CONTINUOUS
 10
60.500027184
 20
281.0047710842
 11
60.500027184
 21
287.0
  0
LINE
  5
3E2
100
AcDbEntity
  8
375171-000-00-ED1_FORMAT
100
AcDbLine
 62
6
  6
HIDDEN
 10
0.0
 20
0.0
 11
420.0
 21
0.0
  0
LINE
  5
3E3
100
AcDbEntity
  8
375171-000-00-ED1_FORMAT
100
AcDbLine
 62
7
  6
CONTINUOUS
 10
18.0
 20
5.0
 11
415.0
 21
5.0
  0
LINE
  5
3E4
100
AcDbEntity
  8
375171-000-00-ED1_FORMAT
100
AcDbLine
 62
3
  6
CONTINUOUS
 10
23.0
 20
10.0
 11
146.999991584
 21
10.0
  0
LINE
  5
3E5
100
AcDbEntity
  8
375171-000-00-ED1_FORMAT
100
AcDbLine
 62
7
  6
CONTINUOUS
 10
146.999991584
 20
10.0
 11
410.0
 21
10.0
  0
LINE
  5
3E6
100
AcDbEntity
  8
375171-000-00-ED1_FORMAT
100
AcDbLine
 62
7
  6
CONTINUOUS
 10
410.0
 20
13.500000112
 11
223.999992048
 21
13.500000112
  0
LINE
  5
3E7
100
AcDbEntity
  8
375171-000-00-ED1_FORMAT
100
AcDbLine
 62
90
  6
CONTINUOUS
 10
312.2078938594
 20
51.4102448407
 11
310.7759784871
 21
51.0971573578
  0
LINE
  5
3E8
100
AcDbEntity
  8
375171-000-00-ED1_FORMAT
100
AcDbLine
 62
90
  6
CONTINUOUS
 10
319.4917077896
 20
52.901936523
 11
319.3296594397
 21
52.8683099645
  0
LINE
  5
3E9
100
AcDbEntity
  8
375171-000-00-ED1_FORMAT
100
AcDbLine
 62
7
  6
CONTINUOUS
 10
410.0
 20
24.250000456
 11
223.999992048
 21
24.250000456
  0
LINE
  5
3EA
100
AcDbEntity
  8
375171-000-00-ED1_FORMAT
100
AcDbLine
 62
7
  6
CONTINUOUS
 10
98.4999894133
 20
259.0000097341
 11
98.4999894133
 21
265.0000076482
  0
LINE
  5
3EB
100
AcDbEntity
  8
375171-000-00-ED1_FORMAT
100
AcDbLine
 62
7
  6
CONTINUOUS
 10
98.5000134045
 20
281.0047710842
 11
98.5000134045
 21
287.0
  0
LINE
  5
3EC
100
AcDbEntity
  8
375171-000-00-ED1_FORMAT
100
AcDbLine
 62
90
  6
CONTINUOUS
 10
321.735726484
 20
56.8852055088
 11
323.4244472923
 21
57.2541096455
  0
LINE
  5
3ED
100
AcDbEntity
  8
375171-000-00-ED1_FORMAT
100
AcDbLine
 62
90
  6
CONTINUOUS
 10
318.9722070248
 20
53.9466639135
 11
319.1567773488
 21
53.9852228758
  0
LINE
  5
3EE
100
AcDbEntity
  8
375171-000-00-ED1_FORMAT
100
AcDbLine
 62
90
  6
CONTINUOUS
 10
312.8827596241
 20
51.5341805479
 11
312.6779866622
 21
51.4975518225
  0
LINE
  5
3EF
100
AcDbEntity
  8
375171-000-00-ED1_FORMAT
100
AcDbLine
 62
90
  6
CONTINUOUS
 10
313.0814290701
 20
51.5666398089
 11
312.8827596241
 21
51.5341805479
  0
LINE
  5
3F0
100
AcDbEntity
  8
375171-000-00-ED1_FORMAT
100
AcDbLine
 62
90
  6
CONTINUOUS
 10
313.2753377736
 20
51.5952614843
 11
313.0814290701
 21
51.5666398089
  0
LINE
  5
3F1
100
AcDbEntity
  8
375171-000-00-ED1_FORMAT
100
AcDbLine
 62
90
  6
CONTINUOUS
 10
319.3296594397
 20
52.8683099645
 11
319.1589746146
 21
52.8447618368
  0
LINE
  5
3F2
100
AcDbEntity
  8
375171-000-00-ED1_FORMAT
100
AcDbLine
 62
90
  6
CONTINUOUS
 10
313.4658590257
 20
51.6203545645
 11
313.2753377736
 21
51.5952614843
  0
LINE
  5
3F3
100
AcDbEntity
  8
375171-000-00-ED1_FORMAT
100
AcDbLine
 62
90
  6
CONTINUOUS
 10
313.6543355999
 20
51.6422471134
 11
313.4658590257
 21
51.6203545645
  0
LINE
  5
3F4
100
AcDbEntity
  8
375171-000-00-ED1_FORMAT
100
AcDbLine
 62
90
  6
CONTINUOUS
 10
313.842171305
 20
51.6612557511
 11
313.6543355999
 21
51.6422471134
  0
LINE
  5
3F5
100
AcDbEntity
  8
375171-000-00-ED1_FORMAT
100
AcDbLine
 62
90
  6
CONTINUOUS
 10
314.0306783968
 20
51.6777047267
 11
313.842171305
 21
51.6612557511
  0
LINE
  5
3F6
100
AcDbEntity
  8
375171-000-00-ED1_FORMAT
100
AcDbLine
 62
90
  6
CONTINUOUS
 10
315.8962180637
 20
51.8284043516
 11
315.6792380698
 21
51.8104561999
  0
LINE
  5
3F7
100
AcDbEntity
  8
375171-000-00-ED1_FORMAT
100
AcDbLine
 62
90
  6
CONTINUOUS
 10
318.7601098437
 20
53.9302530848
 11
318.9722070248
 21
53.9466639135
  0
LINE
  5
3F8
100
AcDbEntity
  8
375171-000-00-ED1_FORMAT
100
AcDbLine
 62
90
  6
CONTINUOUS
 10
319.1589746146
 20
52.8447618368
 11
318.9797143495
 21
52.8313264722
  0
LINE
  5
3F9
100
AcDbEntity
  8
375171-000-00-ED1_FORMAT
100
AcDbLine
 62
90
  6
CONTINUOUS
 10
314.221260684
 20
51.6919106602
 11
314.0306783968
 21
51.6777047267
  0
LINE
  5
3FA
100
AcDbEntity
  8
375171-000-00-ED1_FORMAT
100
AcDbLine
 62
90
  6
CONTINUOUS
 10
315.4687888379
 20
52.775513633
 11
314.4483114794
 21
52.701374987
  0
LINE
  5
3FB
100
AcDbEntity
  8
375171-000-00-ED1_FORMAT
100
AcDbLine
 62
90
  6
CONTINUOUS
 10
316.110634581
 20
51.8401879522
 11
315.8962180637
 21
51.8284043516
  0
LINE
  5
3FC
100
AcDbEntity
  8
375171-000-00-ED1_FORMAT
100
AcDbLine
 62
7
  6
CONTINUOUS
 10
223.999992048
 20
35.0000008
 11
410.0
 21
35.0000008
  0
LINE
  5
3FD
100
AcDbEntity
  8
375171-000-00-ED1_FORMAT
100
AcDbLine
 62
7
  6
CONTINUOUS
 10
410.0
 20
40.9546819905
 11
365.999998592
 21
40.9546819905
  0
LINE
  5
3FE
100
AcDbEntity
  8
375171-000-00-ED1_FORMAT
100
AcDbLine
 62
7
  6
CONTINUOUS
 10
365.999998592
 20
43.500001072
 11
146.999991584
 21
43.500001072
  0
LINE
  5
3FF
100
AcDbEntity
  8
375171-000-00-ED1_FORMAT
100
AcDbLine
 62
7
  6
CONTINUOUS
 10
410.0
 20
46.9546821825
 11
365.999998592
 21
46.9546821825
  0
LINE
  5
400
100
AcDbEntity
  8
375171-000-00-ED1_FORMAT
100
AcDbLine
 62
90
  6
CONTINUOUS
 10
316.8693931732
 20
47.6402784804
 11
317.6933373163
 21
47.6402784804
  0
LINE
  5
401
100
AcDbEntity
  8
375171-000-00-ED1_FORMAT
100
AcDbLine
 62
3
  6
CONTINUOUS
 10
110.0
 20
10.0
 11
110.0
 21
5.0
  0
LINE
  5
402
100
AcDbEntity
  8
375171-000-00-ED1_FORMAT
100
AcDbLine
 62
3
  6
CONTINUOUS
 10
110.0
 20
287.0
 11
110.0
 21
292.0
  0
LINE
  5
403
100
AcDbEntity
  8
375171-000-00-ED1_FORMAT
100
AcDbLine
 62
90
  6
CONTINUOUS
 10
314.5568930292
 20
53.7608995891
 11
315.336312023
 21
53.8016825201
  0
LINE
  5
404
100
AcDbEntity
  8
375171-000-00-ED1_FORMAT
100
AcDbLine
 62
90
  6
CONTINUOUS
 10
317.504647119
 20
56.61847423
 11
317.7463768704
 21
56.6283962582
  0
LINE
  5
405
100
AcDbEntity
  8
375171-000-00-ED1_FORMAT
100
AcDbLine
 62
90
  6
CONTINUOUS
 10
317.7463768704
 20
56.6283962582
 11
317.9648522258
 21
56.6358997682
  0
LINE
  5
406
100
AcDbEntity
  8
375171-000-00-ED1_FORMAT
100
AcDbLine
 62
90
  6
CONTINUOUS
 10
316.3231284907
 20
51.8472298838
 11
316.110634581
 21
51.8401879522
  0
LINE
  5
407
100
AcDbEntity
  8
375171-000-00-ED1_FORMAT
100
AcDbLine
 62
90
  6
CONTINUOUS
 10
317.9648522258
 20
56.6358997682
 11
318.1659935957
 21
56.6412594182
  0
LINE
  5
408
100
AcDbEntity
  8
375171-000-00-ED1_FORMAT
100
AcDbLine
 62
90
  6
CONTINUOUS
 10
318.1659935957
 20
56.6412594182
 11
318.3558434611
 21
56.6447384223
  0
LINE
  5
409
100
AcDbEntity
  8
375171-000-00-ED1_FORMAT
100
AcDbLine
 62
90
  6
CONTINUOUS
 10
316.5344322148
 20
51.8509568432
 11
316.3231284907
 21
51.8472298838
  0
LINE
  5
40A
100
AcDbEntity
  8
375171-000-00-ED1_FORMAT
100
AcDbLine
 62
90
  6
CONTINUOUS
 10
318.9797143495
 20
52.8313264722
 11
318.7919396796
 21
52.828049647
  0
LINE
  5
40B
100
AcDbEntity
  8
375171-000-00-ED1_FORMAT
100
AcDbLine
 62
90
  6
CONTINUOUS
 10
318.310067091
 20
47.930279414
 11
316.2669761435
 21
47.930279414
  0
LINE
  5
40C
100
AcDbEntity
  8
375171-000-00-ED1_FORMAT
100
AcDbLine
 62
90
  6
CONTINUOUS
 10
315.6645591138
 20
48.2202803476
 11
318.9268273833
 21
48.2202803476
  0
LINE
  5
40D
100
AcDbEntity
  8
375171-000-00-ED1_FORMAT
100
AcDbLine
 62
3
  6
CONTINUOUS
 10
23.0
 20
48.5
 11
18.0
 21
48.5
  0
LINE
  5
40E
100
AcDbEntity
  8
375171-000-00-ED1_FORMAT
100
AcDbLine
 62
3
  6
CONTINUOUS
 10
410.0
 20
48.5
 11
415.0
 21
48.5
  0
LINE
  5
40F
100
AcDbEntity
  8
375171-000-00-ED1_FORMAT
100
AcDbLine
 62
90
  6
CONTINUOUS
 10
319.5435571581
 20
48.5102774665
 11
315.0621420841
 21
48.5102774665
  0
LINE
  5
410
100
AcDbEntity
  8
375171-000-00-ED1_FORMAT
100
AcDbLine
 62
90
  6
CONTINUOUS
 10
314.4597250544
 20
48.8002784001
 11
320.1602869328
 21
48.8002784001
  0
LINE
  5
411
100
AcDbEntity
  8
375171-000-00-ED1_FORMAT
100
AcDbLine
 62
90
  6
CONTINUOUS
 10
328.4875274416
 20
49.0902793337
 11
328.1043792244
 21
49.0902793337
  0
LINE
  5
412
100
AcDbEntity
  8
375171-000-00-ED1_FORMAT
100
AcDbLine
 62
90
  6
CONTINUOUS
 10
320.7770472251
 20
49.0902793337
 11
313.8573080247
 21
49.0902793337
  0
LINE
  5
413
100
AcDbEntity
  8
375171-000-00-ED1_FORMAT
100
AcDbLine
 62
90
  6
CONTINUOUS
 10
306.5293961914
 20
49.3802802673
 11
307.1344987681
 21
49.3802802673
  0
LINE
  5
414
100
AcDbEntity
  8
375171-000-00-ED1_FORMAT
100
AcDbLine
 62
90
  6
CONTINUOUS
 10
313.254890995
 20
49.3802802673
 11
321.3937769999
 21
49.3802802673
  0
LINE
  5
415
100
AcDbEntity
  8
375171-000-00-ED1_FORMAT
100
AcDbLine
 62
90
  6
CONTINUOUS
 10
327.5346465229
 20
49.3802802673
 11
328.1114898205
 21
49.3802802673
  0
LINE
  5
416
100
AcDbEntity
  8
375171-000-00-ED1_FORMAT
100
AcDbLine
 62
90
  6
CONTINUOUS
 10
328.2963042852
 20
49.3802802673
 11
328.8704925534
 21
49.3802802673
  0
LINE
  5
417
100
AcDbEntity
  8
375171-000-00-ED1_FORMAT
100
AcDbLine
 62
90
  6
CONTINUOUS
 10
328.8858123785
 20
49.6702773862
 11
328.2963042852
 21
49.6702773862
  0
LINE
  5
418
100
AcDbEntity
  8
375171-000-00-ED1_FORMAT
100
AcDbLine
 62
90
  6
CONTINUOUS
 10
327.5366912008
 20
49.6702773862
 11
326.9648833038
 21
49.6702773862
  0
LINE
  5
419
100
AcDbEntity
  8
375171-000-00-ED1_FORMAT
100
AcDbLine
 62
90
  6
CONTINUOUS
 10
322.0105067746
 20
49.6702773862
 11
312.6524739653
 21
49.6702773862
  0
LINE
  5
41A
100
AcDbEntity
  8
375171-000-00-ED1_FORMAT
100
AcDbLine
 62
90
  6
CONTINUOUS
 10
307.6516801968
 20
49.6702773862
 11
307.1118852413
 21
49.6702773862
  0
LINE
  5
41B
100
AcDbEntity
  8
375171-000-00-ED1_FORMAT
100
AcDbLine
 62
90
  6
CONTINUOUS
 10
306.8541337604
 20
49.6702773862
 11
306.2529679515
 21
49.6702773862
  0
LINE
  5
41C
100
AcDbEntity
  8
375171-000-00-ED1_FORMAT
100
AcDbLine
 62
90
  6
CONTINUOUS
 10
306.2529679515
 20
49.9602783197
 11
306.8542558307
 21
49.9602783197
  0
LINE
  5
41D
100
AcDbEntity
  8
375171-000-00-ED1_FORMAT
100
AcDbLine
 62
90
  6
CONTINUOUS
 10
307.6427080283
 20
49.9602783197
 11
308.1688921431
 21
49.9602783197
  0
LINE
  5
41E
100
AcDbEntity
  8
375171-000-00-ED1_FORMAT
100
AcDbLine
 62
90
  6
CONTINUOUS
 10
312.0500569355
 20
49.9602783197
 11
322.6272365493
 21
49.9602783197
  0
LINE
  5
41F
100
AcDbEntity
  8
375171-000-00-ED1_FORMAT
100
AcDbLine
 62
90
  6
CONTINUOUS
 10
326.3951200848
 20
49.9602783197
 11
326.961892581
 21
49.9602783197
  0
LINE
  5
420
100
AcDbEntity
  8
375171-000-00-ED1_FORMAT
100
AcDbLine
 62
90
  6
CONTINUOUS
 10
328.2963042852
 20
49.9602783197
 11
328.8858123785
 21
49.9602783197
  0
LINE
  5
421
100
AcDbEntity
  8
375171-000-00-ED1_FORMAT
100
AcDbLine
 62
90
  6
CONTINUOUS
 10
328.8858123785
 20
50.2502792533
 11
328.2963042852
 21
50.2502792533
  0
LINE
  5
422
100
AcDbEntity
  8
375171-000-00-ED1_FORMAT
100
AcDbLine
 62
90
  6
CONTINUOUS
 10
326.3870939612
 20
50.2502792533
 11
325.8253873833
 21
50.2502792533
  0
LINE
  5
423
100
AcDbEntity
  8
375171-000-00-ED1_FORMAT
100
AcDbLine
 62
90
  6
CONTINUOUS
 10
323.2439968416
 20
50.2502792533
 11
311.4476093883
 21
50.2502792533
  0
LINE
  5
424
100
AcDbEntity
  8
375171-000-00-ED1_FORMAT
100
AcDbLine
 62
90
  6
CONTINUOUS
 10
308.6563494488
 20
50.2502792533
 11
308.1735308152
 21
50.2502792533
  0
LINE
  5
425
100
AcDbEntity
  8
375171-000-00-ED1_FORMAT
100
AcDbLine
 62
90
  6
CONTINUOUS
 10
306.8543473835
 20
50.2502792533
 11
306.2529679515
 21
50.2502792533
  0
LINE
  5
426
100
AcDbEntity
  8
375171-000-00-ED1_FORMAT
100
AcDbLine
 62
90
  6
CONTINUOUS
 10
306.2529679515
 20
50.5402801869
 11
306.8544389362
 21
50.5402801869
  0
LINE
  5
427
100
AcDbEntity
  8
375171-000-00-ED1_FORMAT
100
AcDbLine
 62
90
  6
CONTINUOUS
 10
308.4533770241
 20
50.5402801869
 11
308.6559222027
 21
50.5402801869
  0
LINE
  5
428
100
AcDbEntity
  8
375171-000-00-ED1_FORMAT
100
AcDbLine
 62
90
  6
CONTINUOUS
 10
310.8451923586
 20
50.5402801869
 11
323.8607266164
 21
50.5402801869
  0
LINE
  5
429
100
AcDbEntity
  8
375171-000-00-ED1_FORMAT
100
AcDbLine
 62
90
  6
CONTINUOUS
 10
325.2556241642
 20
50.5402801869
 11
325.8122953414
 21
50.5402801869
  0
LINE
  5
42A
100
AcDbEntity
  8
375171-000-00-ED1_FORMAT
100
AcDbLine
 62
90
  6
CONTINUOUS
 10
328.2963042852
 20
50.5402801869
 11
328.8858123785
 21
50.5402801869
  0
LINE
  5
42B
100
AcDbEntity
  8
375171-000-00-ED1_FORMAT
100
AcDbLine
 62
90
  6
CONTINUOUS
 10
328.8858123785
 20
50.8302773058
 11
328.2963042852
 21
50.8302773058
  0
LINE
  5
42C
100
AcDbEntity
  8
375171-000-00-ED1_FORMAT
100
AcDbLine
 62
90
  6
CONTINUOUS
 10
325.4072355017
 20
50.8302773058
 11
325.1310514025
 21
50.8302773058
  0
LINE
  5
42D
100
AcDbEntity
  8
375171-000-00-ED1_FORMAT
100
AcDbLine
 62
90
  6
CONTINUOUS
 10
324.4774563911
 20
50.8302773058
 11
310.2427753289
 21
50.8302773058
  0
LINE
  5
42E
100
AcDbEntity
  8
375171-000-00-ED1_FORMAT
100
AcDbLine
 62
90
  6
CONTINUOUS
 10
308.6555254742
 20
50.8302773058
 11
308.4533770241
 21
50.8302773058
  0
LINE
  5
42F
100
AcDbEntity
  8
375171-000-00-ED1_FORMAT
100
AcDbLine
 62
90
  6
CONTINUOUS
 10
306.8545304889
 20
50.8302773058
 11
306.2529679515
 21
50.8302773058
  0
LINE
  5
430
100
AcDbEntity
  8
375171-000-00-ED1_FORMAT
100
AcDbLine
 62
90
  6
CONTINUOUS
 10
306.2529679515
 20
51.1202782394
 11
306.8546220417
 21
51.1202782394
  0
LINE
  5
431
100
AcDbEntity
  8
375171-000-00-ED1_FORMAT
100
AcDbLine
 62
90
  6
CONTINUOUS
 10
308.4533770241
 20
51.1202782394
 11
308.655098228
 21
51.1202782394
  0
LINE
  5
432
100
AcDbEntity
  8
375171-000-00-ED1_FORMAT
100
AcDbLine
 62
90
  6
CONTINUOUS
 10
309.6403582992
 20
51.1202782394
 11
310.7759784871
 21
51.1202782394
  0
LINE
  5
433
100
AcDbEntity
  8
375171-000-00-ED1_FORMAT
100
AcDbLine
 62
90
  6
CONTINUOUS
 10
310.8817219019
 20
51.1202782394
 11
323.7463467264
 21
51.1202782394
  0
LINE
  5
434
100
AcDbEntity
  8
375171-000-00-ED1_FORMAT
100
AcDbLine
 62
90
  6
CONTINUOUS
 10
324.5632718261
 20
51.1202782394
 11
325.0942166834
 21
51.1202782394
  0
LINE
  5
435
100
AcDbEntity
  8
375171-000-00-ED1_FORMAT
100
AcDbLine
 62
90
  6
CONTINUOUS
 10
325.1310514025
 20
51.1202782394
 11
325.4072355017
 21
51.1202782394
  0
LINE
  5
436
100
AcDbEntity
  8
375171-000-00-ED1_FORMAT
100
AcDbLine
 62
90
  6
CONTINUOUS
 10
327.9700103195
 20
51.1202782394
 11
328.8858123785
 21
51.1202782394
  0
LINE
  5
437
100
AcDbEntity
  8
375171-000-00-ED1_FORMAT
100
AcDbLine
 62
90
  6
CONTINUOUS
 10
328.2166228837
 20
51.410279173
 11
327.2521758022
 21
51.410279173
  0
LINE
  5
438
100
AcDbEntity
  8
375171-000-00-ED1_FORMAT
100
AcDbLine
 62
90
  6
CONTINUOUS
 10
325.4072355017
 20
51.410279173
 11
324.5094082974
 21
51.410279173
  0
LINE
  5
439
100
AcDbEntity
  8
375171-000-00-ED1_FORMAT
100
AcDbLine
 62
90
  6
CONTINUOUS
 10
322.9744655749
 20
51.410279173
 11
312.2078938594
 21
51.410279173
  0
LINE
  5
43A
100
AcDbEntity
  8
375171-000-00-ED1_FORMAT
100
AcDbLine
 62
90
  6
CONTINUOUS
 10
310.7759784871
 20
51.410279173
 11
309.7665484926
 21
51.410279173
  0
LINE
  5
43B
100
AcDbEntity
  8
375171-000-00-ED1_FORMAT
100
AcDbLine
 62
90
  6
CONTINUOUS
 10
309.5571978936
 20
51.410279173
 11
309.0379412695
 21
51.410279173
  0
LINE
  5
43C
100
AcDbEntity
  8
375171-000-00-ED1_FORMAT
100
AcDbLine
 62
90
  6
CONTINUOUS
 10
308.6546709819
 20
51.410279173
 11
308.4533770241
 21
51.410279173
  0
LINE
  5
43D
100
AcDbEntity
  8
375171-000-00-ED1_FORMAT
100
AcDbLine
 62
90
  6
CONTINUOUS
 10
306.8547135944
 20
51.410279173
 11
306.2529679515
 21
51.410279173
  0
LINE
  5
43E
100
AcDbEntity
  8
375171-000-00-ED1_FORMAT
100
AcDbLine
 62
90
  6
CONTINUOUS
 10
306.2529679515
 20
51.7002801066
 11
306.8548356647
 21
51.7002801066
  0
LINE
  5
43F
100
AcDbEntity
  8
375171-000-00-ED1_FORMAT
100
AcDbLine
 62
90
  6
CONTINUOUS
 10
308.4533770241
 20
51.7002801066
 11
309.4360431009
 21
51.7002801066
  0
LINE
  5
440
100
AcDbEntity
  8
375171-000-00-ED1_FORMAT
100
AcDbLine
 62
90
  6
CONTINUOUS
 10
309.889900551
 20
51.7002801066
 11
310.7759784871
 21
51.7002801066
  0
LINE
  5
441
100
AcDbEntity
  8
375171-000-00-ED1_FORMAT
100
AcDbLine
 62
90
  6
CONTINUOUS
 10
312.2078938594
 20
51.7002801066
 11
312.7341084918
 21
51.7002801066
  0
LINE
  5
442
100
AcDbEntity
  8
375171-000-00-ED1_FORMAT
100
AcDbLine
 62
90
  6
CONTINUOUS
 10
314.2231222564
 20
51.7002801066
 11
320.5559473578
 21
51.7002801066
  0
LINE
  5
443
100
AcDbEntity
  8
375171-000-00-ED1_FORMAT
100
AcDbLine
 62
90
  6
CONTINUOUS
 10
322.0495387594
 20
51.7002801066
 11
322.9518825656
 21
51.7002801066
  0
LINE
  5
444
100
AcDbEntity
  8
375171-000-00-ED1_FORMAT
100
AcDbLine
 62
90
  6
CONTINUOUS
 10
324.4555752862
 20
51.7002801066
 11
325.4072355017
 21
51.7002801066
  0
LINE
  5
445
100
AcDbEntity
  8
375171-000-00-ED1_FORMAT
100
AcDbLine
 62
90
  6
CONTINUOUS
 10
326.932168458
 20
51.7002801066
 11
327.4721770366
 21
51.7002801066
  0
LINE
  5
446
100
AcDbEntity
  8
375171-000-00-ED1_FORMAT
100
AcDbLine
 62
90
  6
CONTINUOUS
 10
316.7452476576
 20
51.8527840833
 11
316.5344322148
 21
51.8527840833
  0
LINE
  5
447
100
AcDbEntity
  8
375171-000-00-ED1_FORMAT
100
AcDbLine
 62
90
  6
CONTINUOUS
 10
316.9563377587
 20
51.854138301
 11
316.7452476576
 21
51.854138301
  0
LINE
  5
448
100
AcDbEntity
  8
375171-000-00-ED1_FORMAT
100
AcDbLine
 62
90
  6
CONTINUOUS
 10
317.1683433871
 20
51.8564423783
 11
316.9563377587
 21
51.8564423783
  0
LINE
  5
449
100
AcDbEntity
  8
375171-000-00-ED1_FORMAT
100
AcDbLine
 62
90
  6
CONTINUOUS
 10
327.4483428066
 20
51.9902772255
 11
326.932168458
 21
51.9902772255
  0
LINE
  5
44A
100
AcDbEntity
  8
375171-000-00-ED1_FORMAT
100
AcDbLine
 62
90
  6
CONTINUOUS
 10
325.4072355017
 20
51.9902772255
 11
324.4017422751
 21
51.9902772255
  0
LINE
  5
44B
100
AcDbEntity
  8
375171-000-00-ED1_FORMAT
100
AcDbLine
 62
90
  6
CONTINUOUS
 10
322.3748866801
 20
51.9902772255
 11
322.1039821222
 21
51.9902772255
  0
LINE
  5
44C
100
AcDbEntity
  8
375171-000-00-ED1_FORMAT
100
AcDbLine
 62
90
  6
CONTINUOUS
 10
320.6219568834
 20
51.9902772255
 11
318.793435041
 21
51.9902772255
  0
LINE
  5
44D
100
AcDbEntity
  8
375171-000-00-ED1_FORMAT
100
AcDbLine
 62
90
  6
CONTINUOUS
 10
317.504647119
 20
51.9902772255
 11
317.1344993909
 21
51.9902772255
  0
LINE
  5
44E
100
AcDbEntity
  8
375171-000-00-ED1_FORMAT
100
AcDbLine
 62
90
  6
CONTINUOUS
 10
315.6400229794
 20
51.9902772255
 11
314.2883688425
 21
51.9902772255
  0
LINE
  5
44F
100
AcDbEntity
  8
375171-000-00-ED1_FORMAT
100
AcDbLine
 62
90
  6
CONTINUOUS
 10
312.8143697273
 20
51.9902772255
 11
312.2078938594
 21
51.9902772255
  0
LINE
  5
450
100
AcDbEntity
  8
375171-000-00-ED1_FORMAT
100
AcDbLine
 62
90
  6
CONTINUOUS
 10
310.7759784871
 20
51.9902772255
 11
310.0132526095
 21
51.9902772255
  0
LINE
  5
451
100
AcDbEntity
  8
375171-000-00-ED1_FORMAT
100
AcDbLine
 62
90
  6
CONTINUOUS
 10
309.3149188258
 20
51.9902772255
 11
308.4533770241
 21
51.9902772255
  0
LINE
  5
452
100
AcDbEntity
  8
375171-000-00-ED1_FORMAT
100
AcDbLine
 62
90
  6
CONTINUOUS
 10
306.8549272175
 20
51.9902772255
 11
306.2529679515
 21
51.9902772255
  0
LINE
  5
453
100
AcDbEntity
  8
375171-000-00-ED1_FORMAT
100
AcDbLine
 62
90
  6
CONTINUOUS
 10
306.2529679515
 20
52.280278159
 11
306.8550187702
 21
52.280278159
  0
LINE
  5
454
100
AcDbEntity
  8
375171-000-00-ED1_FORMAT
100
AcDbLine
 62
90
  6
CONTINUOUS
 10
308.4533770241
 20
52.280278159
 11
309.1937640331
 21
52.280278159
  0
LINE
  5
455
100
AcDbEntity
  8
375171-000-00-ED1_FORMAT
100
AcDbLine
 62
90
  6
CONTINUOUS
 10
310.1365741504
 20
52.280278159
 11
310.7759784871
 21
52.280278159
  0
LINE
  5
456
100
AcDbEntity
  8
375171-000-00-ED1_FORMAT
100
AcDbLine
 62
90
  6
CONTINUOUS
 10
312.2078938594
 20
52.280278159
 11
312.8946309628
 21
52.280278159
  0
LINE
  5
457
100
AcDbEntity
  8
375171-000-00-ED1_FORMAT
100
AcDbLine
 62
90
  6
CONTINUOUS
 10
314.353584911
 20
52.280278159
 11
315.576760036
 21
52.280278159
  0
LINE
  5
458
100
AcDbEntity
  8
375171-000-00-ED1_FORMAT
100
AcDbLine
 62
90
  6
CONTINUOUS
 10
317.0611656461
 20
52.280278159
 11
317.504647119
 21
52.280278159
  0
LINE
  5
459
100
AcDbEntity
  8
375171-000-00-ED1_FORMAT
100
AcDbLine
 62
90
  6
CONTINUOUS
 10
318.7929162422
 20
52.280278159
 11
320.6879358914
 21
52.280278159
  0
LINE
  5
45A
100
AcDbEntity
  8
375171-000-00-ED1_FORMAT
100
AcDbLine
 62
90
  6
CONTINUOUS
 10
324.3479092639
 20
52.280278159
 11
325.4072355017
 21
52.280278159
  0
LINE
  5
45B
100
AcDbEntity
  8
375171-000-00-ED1_FORMAT
100
AcDbLine
 62
90
  6
CONTINUOUS
 10
326.932168458
 20
52.280278159
 11
327.7005706055
 21
52.280278159
  0
LINE
  5
45C
100
AcDbEntity
  8
375171-000-00-ED1_FORMAT
100
AcDbLine
 62
90
  6
CONTINUOUS
 10
328.2963653203
 20
52.5702790926
 11
326.932168458
 21
52.5702790926
  0
LINE
  5
45D
100
AcDbEntity
  8
375171-000-00-ED1_FORMAT
100
AcDbLine
 62
90
  6
CONTINUOUS
 10
325.4072355017
 20
52.5702790926
 11
324.2940457352
 21
52.5702790926
  0
LINE
  5
45E
100
AcDbEntity
  8
375171-000-00-ED1_FORMAT
100
AcDbLine
 62
90
  6
CONTINUOUS
 10
320.7539148995
 20
52.5702790926
 11
318.7923974433
 21
52.5702790926
  0
LINE
  5
45F
100
AcDbEntity
  8
375171-000-00-ED1_FORMAT
100
AcDbLine
 62
90
  6
CONTINUOUS
 10
317.504647119
 20
52.5702790926
 11
316.9878624188
 21
52.5702790926
  0
LINE
  5
460
100
AcDbEntity
  8
375171-000-00-ED1_FORMAT
100
AcDbLine
 62
90
  6
CONTINUOUS
 10
315.5135276102
 20
52.5702790926
 11
314.4188314971
 21
52.5702790926
  0
LINE
  5
461
100
AcDbEntity
  8
375171-000-00-ED1_FORMAT
100
AcDbLine
 62
90
  6
CONTINUOUS
 10
312.9748921982
 20
52.5702790926
 11
312.2078938594
 21
52.5702790926
  0
LINE
  5
462
100
AcDbEntity
  8
375171-000-00-ED1_FORMAT
100
AcDbLine
 62
90
  6
CONTINUOUS
 10
310.7759784871
 20
52.5702790926
 11
310.2599262088
 21
52.5702790926
  0
LINE
  5
463
100
AcDbEntity
  8
375171-000-00-ED1_FORMAT
100
AcDbLine
 62
90
  6
CONTINUOUS
 10
309.0726397579
 20
52.5702790926
 11
308.4533770241
 21
52.5702790926
  0
LINE
  5
464
100
AcDbEntity
  8
375171-000-00-ED1_FORMAT
100
AcDbLine
 62
90
  6
CONTINUOUS
 10
306.855110323
 20
52.5702790926
 11
306.2529679515
 21
52.5702790926
  0
LINE
  5
465
100
AcDbEntity
  8
375171-000-00-ED1_FORMAT
100
AcDbLine
 62
90
  6
CONTINUOUS
 10
306.0443192568
 20
52.8602800262
 11
306.8552018757
 21
52.8602800262
  0
LINE
  5
466
100
AcDbEntity
  8
375171-000-00-ED1_FORMAT
100
AcDbLine
 62
90
  6
CONTINUOUS
 10
308.4533770241
 20
52.8602800262
 11
308.9514849652
 21
52.8602800262
  0
LINE
  5
467
100
AcDbEntity
  8
375171-000-00-ED1_FORMAT
100
AcDbLine
 62
90
  6
CONTINUOUS
 10
310.3832782673
 20
52.8602800262
 11
310.7759784871
 21
52.8602800262
  0
LINE
  5
468
100
AcDbEntity
  8
375171-000-00-ED1_FORMAT
100
AcDbLine
 62
90
  6
CONTINUOUS
 10
312.2078938594
 20
52.8602800262
 11
313.0551534337
 21
52.8602800262
  0
LINE
  5
469
100
AcDbEntity
  8
375171-000-00-ED1_FORMAT
100
AcDbLine
 62
90
  6
CONTINUOUS
 10
316.914528674
 20
52.8602800262
 11
317.504647119
 21
52.8602800262
  0
LINE
  5
46A
100
AcDbEntity
  8
375171-000-00-ED1_FORMAT
100
AcDbLine
 62
90
  6
CONTINUOUS
 10
319.304635024
 20
52.8602800262
 11
320.8198939075
 21
52.8602800262
  0
LINE
  5
46B
100
AcDbEntity
  8
375171-000-00-ED1_FORMAT
100
AcDbLine
 62
90
  6
CONTINUOUS
 10
324.240212724
 20
52.8602800262
 11
325.4072355017
 21
52.8602800262
  0
LINE
  5
46C
100
AcDbEntity
  8
375171-000-00-ED1_FORMAT
100
AcDbLine
 62
90
  6
CONTINUOUS
 10
326.932168458
 20
52.8602800262
 11
328.8921600352
 21
52.8602800262
  0
LINE
  5
46D
100
AcDbEntity
  8
375171-000-00-ED1_FORMAT
100
AcDbLine
 62
7
  6
CONTINUOUS
 10
410.0
 20
52.9546823745
 11
365.999998592
 21
52.9546823745
  0
LINE
  5
46E
100
AcDbEntity
  8
375171-000-00-ED1_FORMAT
100
AcDbLine
 62
90
  6
CONTINUOUS
 10
329.48795475
 20
53.1502809598
 11
326.932168458
 21
53.1502809598
  0
LINE
  5
46F
100
AcDbEntity
  8
375171-000-00-ED1_FORMAT
100
AcDbLine
 62
90
  6
CONTINUOUS
 10
325.4072355017
 20
53.1502809598
 11
324.1863797128
 21
53.1502809598
  0
LINE
  5
470
100
AcDbEntity
  8
375171-000-00-ED1_FORMAT
100
AcDbLine
 62
90
  6
CONTINUOUS
 10
320.8859034331
 20
53.1502809598
 11
320.0719995738
 21
53.1502809598
  0
LINE
  5
471
100
AcDbEntity
  8
375171-000-00-ED1_FORMAT
100
AcDbLine
 62
90
  6
CONTINUOUS
 10
317.504647119
 20
53.1502809598
 11
316.8411949292
 21
53.1502809598
  0
LINE
  5
472
100
AcDbEntity
  8
375171-000-00-ED1_FORMAT
100
AcDbLine
 62
90
  6
CONTINUOUS
 10
313.1354146692
 20
53.1502809598
 11
312.2078938594
 21
53.1502809598
  0
LINE
  5
473
100
AcDbEntity
  8
375171-000-00-ED1_FORMAT
100
AcDbLine
 62
90
  6
CONTINUOUS
 10
310.7759784871
 20
53.1502809598
 11
310.5066303258
 21
53.1502809598
  0
LINE
  5
474
100
AcDbEntity
  8
375171-000-00-ED1_FORMAT
100
AcDbLine
 62
90
  6
CONTINUOUS
 10
308.8303606901
 20
53.1502809598
 11
308.4533770241
 21
53.1502809598
  0
LINE
  5
475
100
AcDbEntity
  8
375171-000-00-ED1_FORMAT
100
AcDbLine
 62
90
  6
CONTINUOUS
 10
306.8552934284
 20
53.1502809598
 11
305.4760513992
 21
53.1502809598
  0
LINE
  5
476
100
AcDbEntity
  8
375171-000-00-ED1_FORMAT
100
AcDbLine
 62
90
  6
CONTINUOUS
 10
304.9078140591
 20
53.4402780787
 11
306.8554154988
 21
53.4402780787
  0
LINE
  5
477
100
AcDbEntity
  8
375171-000-00-ED1_FORMAT
100
AcDbLine
 62
90
  6
CONTINUOUS
 10
308.4533770241
 20
53.4402780787
 11
308.7092058974
 21
53.4402780787
  0
LINE
  5
478
100
AcDbEntity
  8
375171-000-00-ED1_FORMAT
100
AcDbLine
 62
90
  6
CONTINUOUS
 10
310.6299823842
 20
53.4402780787
 11
310.7759784871
 21
53.4402780787
  0
LINE
  5
479
100
AcDbEntity
  8
375171-000-00-ED1_FORMAT
100
AcDbLine
 62
90
  6
CONTINUOUS
 10
312.2078938594
 20
53.4402780787
 11
313.2157064222
 21
53.4402780787
  0
LINE
  5
47A
100
AcDbEntity
  8
375171-000-00-ED1_FORMAT
100
AcDbLine
 62
90
  6
CONTINUOUS
 10
316.7678611844
 20
53.4402780787
 11
317.504647119
 21
53.4402780787
  0
LINE
  5
47B
100
AcDbEntity
  8
375171-000-00-ED1_FORMAT
100
AcDbLine
 62
90
  6
CONTINUOUS
 10
320.3908472499
 20
53.4402780787
 11
320.9518824411
 21
53.4402780787
  0
LINE
  5
47C
100
AcDbEntity
  8
375171-000-00-ED1_FORMAT
100
AcDbLine
 62
90
  6
CONTINUOUS
 10
322.2457362814
 20
53.4402780787
 11
322.8289272357
 21
53.4402780787
  0
LINE
  5
47D
100
AcDbEntity
  8
375171-000-00-ED1_FORMAT
100
AcDbLine
 62
90
  6
CONTINUOUS
 10
324.1325161841
 20
53.4402780787
 11
325.4072355017
 21
53.4402780787
  0
LINE
  5
47E
100
AcDbEntity
  8
375171-000-00-ED1_FORMAT
100
AcDbLine
 62
90
  6
CONTINUOUS
 10
326.932168458
 20
53.4402780787
 11
330.0837494649
 21
53.4402780787
  0
LINE
  5
47F
100
AcDbEntity
  8
375171-000-00-ED1_FORMAT
100
AcDbLine
 62
90
  6
CONTINUOUS
 10
330.6795441797
 20
53.7302790123
 11
326.932168458
 21
53.7302790123
  0
LINE
  5
480
100
AcDbEntity
  8
375171-000-00-ED1_FORMAT
100
AcDbLine
 62
90
  6
CONTINUOUS
 10
325.4072355017
 20
53.7302790123
 11
324.0786831729
 21
53.7302790123
  0
LINE
  5
481
100
AcDbEntity
  8
375171-000-00-ED1_FORMAT
100
AcDbLine
 62
90
  6
CONTINUOUS
 10
322.784432604
 20
53.7302790123
 11
322.2876064012
 21
53.7302790123
  0
LINE
  5
482
100
AcDbEntity
  8
375171-000-00-ED1_FORMAT
100
AcDbLine
 62
90
  6
CONTINUOUS
 10
321.0178614491
 20
53.7302790123
 11
320.5930262176
 21
53.7302790123
  0
LINE
  5
483
100
AcDbEntity
  8
375171-000-00-ED1_FORMAT
100
AcDbLine
 62
90
  6
CONTINUOUS
 10
317.504647119
 20
53.7302790123
 11
316.6945274396
 21
53.7302790123
  0
LINE
  5
484
100
AcDbEntity
  8
375171-000-00-ED1_FORMAT
100
AcDbLine
 62
90
  6
CONTINUOUS
 10
313.2959676577
 20
53.7302790123
 11
312.2078938594
 21
53.7302790123
  0
LINE
  5
485
100
AcDbEntity
  8
375171-000-00-ED1_FORMAT
100
AcDbLine
 62
90
  6
CONTINUOUS
 10
310.7759784871
 20
53.7302790123
 11
310.7533344427
 21
53.7302790123
  0
LINE
  5
486
100
AcDbEntity
  8
375171-000-00-ED1_FORMAT
100
AcDbLine
 62
90
  6
CONTINUOUS
 10
308.5880816223
 20
53.7302790123
 11
308.4533770241
 21
53.7302790123
  0
LINE
  5
487
100
AcDbEntity
  8
375171-000-00-ED1_FORMAT
100
AcDbLine
 62
90
  6
CONTINUOUS
 10
306.8555070515
 20
53.7302790123
 11
304.3395462015
 21
53.7302790123
  0
LINE
  5
488
100
AcDbEntity
  8
375171-000-00-ED1_FORMAT
100
AcDbLine
 62
90
  6
CONTINUOUS
 10
303.7713088614
 20
54.0202799459
 11
306.8555986042
 21
54.0202799459
  0
LINE
  5
489
100
AcDbEntity
  8
375171-000-00-ED1_FORMAT
100
AcDbLine
 62
90
  6
CONTINUOUS
 10
308.4533770241
 20
54.0202799459
 11
308.4669268296
 21
54.0202799459
  0
LINE
  5
48A
100
AcDbEntity
  8
375171-000-00-ED1_FORMAT
100
AcDbLine
 62
90
  6
CONTINUOUS
 10
312.2078938594
 20
54.0202799459
 11
313.3762288931
 21
54.0202799459
  0
LINE
  5
48B
100
AcDbEntity
  8
375171-000-00-ED1_FORMAT
100
AcDbLine
 62
90
  6
CONTINUOUS
 10
314.6156393707
 20
54.0202799459
 11
315.2890708091
 21
54.0202799459
  0
LINE
  5
48C
100
AcDbEntity
  8
375171-000-00-ED1_FORMAT
100
AcDbLine
 62
90
  6
CONTINUOUS
 10
316.6212242124
 20
54.0202799459
 11
317.504647119
 21
54.0202799459
  0
LINE
  5
48D
100
AcDbEntity
  8
375171-000-00-ED1_FORMAT
100
AcDbLine
 62
90
  6
CONTINUOUS
 10
318.7596825975
 20
54.0202799459
 11
319.2434777937
 21
54.0202799459
  0
LINE
  5
48E
100
AcDbEntity
  8
375171-000-00-ED1_FORMAT
100
AcDbLine
 62
90
  6
CONTINUOUS
 10
320.7216578174
 20
54.0202799459
 11
321.0838404571
 21
54.0202799459
  0
LINE
  5
48F
100
AcDbEntity
  8
375171-000-00-ED1_FORMAT
100
AcDbLine
 62
90
  6
CONTINUOUS
 10
322.329476521
 20
54.0202799459
 11
322.7399379724
 21
54.0202799459
  0
LINE
  5
490
100
AcDbEntity
  8
375171-000-00-ED1_FORMAT
100
AcDbLine
 62
90
  6
CONTINUOUS
 10
324.0248501618
 20
54.0202799459
 11
325.4072355017
 21
54.0202799459
  0
LINE
  5
491
100
AcDbEntity
  8
375171-000-00-ED1_FORMAT
100
AcDbLine
 62
90
  6
CONTINUOUS
 10
326.932168458
 20
54.0202799459
 11
331.2753083769
 21
54.0202799459
  0
LINE
  5
492
100
AcDbEntity
  8
375171-000-00-ED1_FORMAT
100
AcDbLine
 62
3
  6
CONTINUOUS
 10
302.0615309229
 20
54.2350054536
 11
302.435676454
 21
54.2350054536
  0
LINE
  5
493
100
AcDbEntity
  8
375171-000-00-ED1_FORMAT
100
AcDbLine
 62
90
  6
CONTINUOUS
 10
331.5333039985
 20
54.3102808795
 11
326.932168458
 21
54.3102808795
  0
LINE
  5
494
100
AcDbEntity
  8
375171-000-00-ED1_FORMAT
100
AcDbLine
 62
90
  6
CONTINUOUS
 10
325.4072355017
 20
54.3102808795
 11
323.9710171506
 21
54.3102808795
  0
LINE
  5
495
100
AcDbEntity
  8
375171-000-00-ED1_FORMAT
100
AcDbLine
 62
90
  6
CONTINUOUS
 10
322.6954433407
 20
54.3102808795
 11
322.3713771584
 21
54.3102808795
  0
LINE
  5
496
100
AcDbEntity
  8
375171-000-00-ED1_FORMAT
100
AcDbLine
 62
90
  6
CONTINUOUS
 10
321.1498499827
 20
54.3102808795
 11
320.7964869236
 21
54.3102808795
  0
LINE
  5
497
100
AcDbEntity
  8
375171-000-00-ED1_FORMAT
100
AcDbLine
 62
90
  6
CONTINUOUS
 10
319.5666894837
 20
54.3102808795
 11
318.758339824
 21
54.3102808795
  0
LINE
  5
498
100
AcDbEntity
  8
375171-000-00-ED1_FORMAT
100
AcDbLine
 62
90
  6
CONTINUOUS
 10
317.504647119
 20
54.3102808795
 11
316.5478904676
 21
54.3102808795
  0
LINE
  5
499
100
AcDbEntity
  8
375171-000-00-ED1_FORMAT
100
AcDbLine
 62
90
  6
CONTINUOUS
 10
315.2263876998
 20
54.3102808795
 11
314.6813132029
 21
54.3102808795
  0
LINE
  5
49A
100
AcDbEntity
  8
375171-000-00-ED1_FORMAT
100
AcDbLine
 62
90
  6
CONTINUOUS
 10
313.4564901286
 20
54.3102808795
 11
312.2078938594
 21
54.3102808795
  0
LINE
  5
49B
100
AcDbEntity
  8
375171-000-00-ED1_FORMAT
100
AcDbLine
 62
90
  6
CONTINUOUS
 10
306.855690157
 20
54.3102808795
 11
303.517005867
 21
54.3102808795
  0
LINE
  5
49C
100
AcDbEntity
  8
375171-000-00-ED1_FORMAT
100
AcDbLine
 62
90
  6
CONTINUOUS
 10
304.1583328113
 20
54.6002779983
 11
306.8557817097
 21
54.6002779983
  0
LINE
  5
49D
100
AcDbEntity
  8
375171-000-00-ED1_FORMAT
100
AcDbLine
 62
90
  6
CONTINUOUS
 10
312.2078938594
 20
54.6002779983
 11
313.5367513641
 21
54.6002779983
  0
LINE
  5
49E
100
AcDbEntity
  8
375171-000-00-ED1_FORMAT
100
AcDbLine
 62
90
  6
CONTINUOUS
 10
314.7469870351
 20
54.6002779983
 11
315.1637045904
 21
54.6002779983
  0
LINE
  5
49F
100
AcDbEntity
  8
375171-000-00-ED1_FORMAT
100
AcDbLine
 62
90
  6
CONTINUOUS
 10
316.4745567228
 20
54.6002779983
 11
317.504647119
 21
54.6002779983
  0
LINE
  5
4A0
100
AcDbEntity
  8
375171-000-00-ED1_FORMAT
100
AcDbLine
 62
90
  6
CONTINUOUS
 10
318.7569970505
 20
54.6002779983
 11
319.6591272336
 21
54.6002779983
  0
LINE
  5
4A1
100
AcDbEntity
  8
375171-000-00-ED1_FORMAT
100
AcDbLine
 62
90
  6
CONTINUOUS
 10
320.8410120729
 20
54.6002779983
 11
321.2158289907
 21
54.6002779983
  0
LINE
  5
4A2
100
AcDbEntity
  8
375171-000-00-ED1_FORMAT
100
AcDbLine
 62
90
  6
CONTINUOUS
 10
322.4132472782
 20
54.6002779983
 11
322.650948709
 21
54.6002779983
  0
LINE
  5
4A3
100
AcDbEntity
  8
375171-000-00-ED1_FORMAT
100
AcDbLine
 62
90
  6
CONTINUOUS
 10
323.9171536218
 20
54.6002779983
 11
325.4072355017
 21
54.6002779983
  0
LINE
  5
4A4
100
AcDbEntity
  8
375171-000-00-ED1_FORMAT
100
AcDbLine
 62
90
  6
CONTINUOUS
 10
326.932168458
 20
54.6002779983
 11
330.8277070307
 21
54.6002779983
  0
LINE
  5
4A5
100
AcDbEntity
  8
375171-000-00-ED1_FORMAT
100
AcDbLine
 62
90
  6
CONTINUOUS
 10
330.1221100629
 20
54.8902789319
 11
326.932168458
 21
54.8902789319
  0
LINE
  5
4A6
100
AcDbEntity
  8
375171-000-00-ED1_FORMAT
100
AcDbLine
 62
90
  6
CONTINUOUS
 10
325.4072355017
 20
54.8902789319
 11
323.8633206107
 21
54.8902789319
  0
LINE
  5
4A7
100
AcDbEntity
  8
375171-000-00-ED1_FORMAT
100
AcDbLine
 62
90
  6
CONTINUOUS
 10
322.6064540773
 20
54.8902789319
 11
322.455117398
 21
54.8902789319
  0
LINE
  5
4A8
100
AcDbEntity
  8
375171-000-00-ED1_FORMAT
100
AcDbLine
 62
90
  6
CONTINUOUS
 10
321.2818079987
 20
54.8902789319
 11
320.8535242807
 21
54.8902789319
  0
LINE
  5
4A9
100
AcDbEntity
  8
375171-000-00-ED1_FORMAT
100
AcDbLine
 62
90
  6
CONTINUOUS
 10
319.671090125
 20
54.8902789319
 11
318.755654277
 21
54.8902789319
  0
LINE
  5
4AA
100
AcDbEntity
  8
375171-000-00-ED1_FORMAT
100
AcDbLine
 62
90
  6
CONTINUOUS
 10
317.504647119
 20
54.8902789319
 11
316.401222978
 21
54.8902789319
  0
LINE
  5
4AB
100
AcDbEntity
  8
375171-000-00-ED1_FORMAT
100
AcDbLine
 62
90
  6
CONTINUOUS
 10
315.101021481
 20
54.8902789319
 11
314.8126608674
 21
54.8902789319
  0
LINE
  5
4AC
100
AcDbEntity
  8
375171-000-00-ED1_FORMAT
100
AcDbLine
 62
90
  6
CONTINUOUS
 10
313.6170125995
 20
54.8902789319
 11
312.2078938594
 21
54.8902789319
  0
LINE
  5
4AD
100
AcDbEntity
  8
375171-000-00-ED1_FORMAT
100
AcDbLine
 62
90
  6
CONTINUOUS
 10
306.8558732625
 20
54.8902789319
 11
304.7996902731
 21
54.8902789319
  0
LINE
  5
4AE
100
AcDbEntity
  8
375171-000-00-ED1_FORMAT
100
AcDbLine
 62
90
  6
CONTINUOUS
 10
305.4410172173
 20
55.1802798655
 11
306.8559953328
 21
55.1802798655
  0
LINE
  5
4AF
100
AcDbEntity
  8
375171-000-00-ED1_FORMAT
100
AcDbLine
 62
90
  6
CONTINUOUS
 10
309.4869159068
 20
55.1802798655
 11
309.6559527825
 21
55.1802798655
  0
LINE
  5
4B0
100
AcDbEntity
  8
375171-000-00-ED1_FORMAT
100
AcDbLine
 62
90
  6
CONTINUOUS
 10
312.2078938594
 20
55.1802798655
 11
313.6973043526
 21
55.1802798655
  0
LINE
  5
4B1
100
AcDbEntity
  8
375171-000-00-ED1_FORMAT
100
AcDbLine
 62
90
  6
CONTINUOUS
 10
314.8783346996
 20
55.1802798655
 11
315.0383383716
 21
55.1802798655
  0
LINE
  5
4B2
100
AcDbEntity
  8
375171-000-00-ED1_FORMAT
100
AcDbLine
 62
90
  6
CONTINUOUS
 10
316.3278892332
 20
55.1802798655
 11
317.504647119
 21
55.1802798655
  0
LINE
  5
4B3
100
AcDbEntity
  8
375171-000-00-ED1_FORMAT
100
AcDbLine
 62
90
  6
CONTINUOUS
 10
318.7542809859
 20
55.1802798655
 11
319.6139306976
 21
55.1802798655
  0
LINE
  5
4B4
100
AcDbEntity
  8
375171-000-00-ED1_FORMAT
100
AcDbLine
 62
90
  6
CONTINUOUS
 10
320.8345118283
 20
55.1802798655
 11
321.3477870068
 21
55.1802798655
  0
LINE
  5
4B5
100
AcDbEntity
  8
375171-000-00-ED1_FORMAT
100
AcDbLine
 62
90
  6
CONTINUOUS
 10
323.8094875995
 20
55.1802798655
 11
325.4072355017
 21
55.1802798655
  0
LINE
  5
4B6
100
AcDbEntity
  8
375171-000-00-ED1_FORMAT
100
AcDbLine
 62
90
  6
CONTINUOUS
 10
326.932168458
 20
55.1802798655
 11
329.4165436128
 21
55.1802798655
  0
LINE
  5
4B7
100
AcDbEntity
  8
375171-000-00-ED1_FORMAT
100
AcDbLine
 62
90
  6
CONTINUOUS
 10
328.710946645
 20
55.4702807991
 11
326.932168458
 21
55.4702807991
  0
LINE
  5
4B8
100
AcDbEntity
  8
375171-000-00-ED1_FORMAT
100
AcDbLine
 62
90
  6
CONTINUOUS
 10
325.4072355017
 20
55.4702807991
 11
323.7556240708
 21
55.4702807991
  0
LINE
  5
4B9
100
AcDbEntity
  8
375171-000-00-ED1_FORMAT
100
AcDbLine
 62
90
  6
CONTINUOUS
 10
321.4137660148
 20
55.4702807991
 11
320.7832728114
 21
55.4702807991
  0
LINE
  5
4BA
100
AcDbEntity
  8
375171-000-00-ED1_FORMAT
100
AcDbLine
 62
90
  6
CONTINUOUS
 10
319.2926416151
 20
55.4702807991
 11
318.7529382123
 21
55.4702807991
  0
LINE
  5
4BB
100
AcDbEntity
  8
375171-000-00-ED1_FORMAT
100
AcDbLine
 62
90
  6
CONTINUOUS
 10
317.504647119
 20
55.4702807991
 11
316.254586006
 21
55.4702807991
  0
LINE
  5
4BC
100
AcDbEntity
  8
375171-000-00-ED1_FORMAT
100
AcDbLine
 62
90
  6
CONTINUOUS
 10
314.9756552623
 20
55.4702807991
 11
314.9440085318
 21
55.4702807991
  0
LINE
  5
4BD
100
AcDbEntity
  8
375171-000-00-ED1_FORMAT
100
AcDbLine
 62
90
  6
CONTINUOUS
 10
313.777565588
 20
55.4702807991
 11
312.2078938594
 21
55.4702807991
  0
LINE
  5
4BE
100
AcDbEntity
  8
375171-000-00-ED1_FORMAT
100
AcDbLine
 62
90
  6
CONTINUOUS
 10
309.8534320429
 20
55.4702807991
 11
309.3890765452
 21
55.4702807991
  0
LINE
  5
4BF
100
AcDbEntity
  8
375171-000-00-ED1_FORMAT
100
AcDbLine
 62
90
  6
CONTINUOUS
 10
306.8560868855
 20
55.4702807991
 11
306.0823441616
 21
55.4702807991
  0
LINE
  5
4C0
100
AcDbEntity
  8
375171-000-00-ED1_FORMAT
100
AcDbLine
 62
90
  6
CONTINUOUS
 10
306.2538224437
 20
55.760277918
 11
306.8561784383
 21
55.760277918
  0
LINE
  5
4C1
100
AcDbEntity
  8
375171-000-00-ED1_FORMAT
100
AcDbLine
 62
90
  6
CONTINUOUS
 10
309.2912371837
 20
55.760277918
 11
310.0508807857
 21
55.760277918
  0
LINE
  5
4C2
100
AcDbEntity
  8
375171-000-00-ED1_FORMAT
100
AcDbLine
 62
90
  6
CONTINUOUS
 10
312.2078938594
 20
55.760277918
 11
313.8578268235
 21
55.760277918
  0
LINE
  5
4C3
100
AcDbEntity
  8
375171-000-00-ED1_FORMAT
100
AcDbLine
 62
90
  6
CONTINUOUS
 10
316.1812522612
 20
55.760277918
 11
317.504647119
 21
55.760277918
  0
LINE
  5
4C4
100
AcDbEntity
  8
375171-000-00-ED1_FORMAT
100
AcDbLine
 62
90
  6
CONTINUOUS
 10
320.6674280777
 20
55.760277918
 11
321.4797755404
 21
55.760277918
  0
LINE
  5
4C5
100
AcDbEntity
  8
375171-000-00-ED1_FORMAT
100
AcDbLine
 62
90
  6
CONTINUOUS
 10
323.7017910596
 20
55.760277918
 11
325.4072355017
 21
55.760277918
  0
LINE
  5
4C6
100
AcDbEntity
  8
375171-000-00-ED1_FORMAT
100
AcDbLine
 62
90
  6
CONTINUOUS
 10
326.932168458
 20
55.760277918
 11
328.0053496772
 21
55.760277918
  0
LINE
  5
4C7
100
AcDbEntity
  8
375171-000-00-ED1_FORMAT
100
AcDbLine
 62
90
  6
CONTINUOUS
 10
327.5174346078
 20
56.0502788516
 11
326.932168458
 21
56.0502788516
  0
LINE
  5
4C8
100
AcDbEntity
  8
375171-000-00-ED1_FORMAT
100
AcDbLine
 62
90
  6
CONTINUOUS
 10
325.4072355017
 20
56.0502788516
 11
323.6479580484
 21
56.0502788516
  0
LINE
  5
4C9
100
AcDbEntity
  8
375171-000-00-ED1_FORMAT
100
AcDbLine
 62
90
  6
CONTINUOUS
 10
321.5457545484
 20
56.0502788516
 11
320.4613123422
 21
56.0502788516
  0
LINE
  5
4CA
100
AcDbEntity
  8
375171-000-00-ED1_FORMAT
100
AcDbLine
 62
90
  6
CONTINUOUS
 10
317.504647119
 20
56.0502788516
 11
316.1079185164
 21
56.0502788516
  0
LINE
  5
4CB
100
AcDbEntity
  8
375171-000-00-ED1_FORMAT
100
AcDbLine
 62
90
  6
CONTINUOUS
 10
313.938088059
 20
56.0502788516
 11
312.2078938594
 21
56.0502788516
  0
LINE
  5
4CC
100
AcDbEntity
  8
375171-000-00-ED1_FORMAT
100
AcDbLine
 62
90
  6
CONTINUOUS
 10
310.2483295284
 20
56.0502788516
 11
309.1933978221
 21
56.0502788516
  0
LINE
  5
4CD
100
AcDbEntity
  8
375171-000-00-ED1_FORMAT
100
AcDbLine
 62
90
  6
CONTINUOUS
 10
306.856269991
 20
56.0502788516
 11
306.2538224437
 21
56.0502788516
  0
LINE
  5
4CE
100
AcDbEntity
  8
375171-000-00-ED1_FORMAT
100
AcDbLine
 62
90
  6
CONTINUOUS
 10
306.2538224437
 20
56.3402797852
 11
306.8563615437
 21
56.3402797852
  0
LINE
  5
4CF
100
AcDbEntity
  8
375171-000-00-ED1_FORMAT
100
AcDbLine
 62
90
  6
CONTINUOUS
 10
309.0955584605
 20
56.3402797852
 11
310.4458087888
 21
56.3402797852
  0
LINE
  5
4D0
100
AcDbEntity
  8
375171-000-00-ED1_FORMAT
100
AcDbLine
 62
90
  6
CONTINUOUS
 10
312.2078938594
 20
56.3402797852
 11
314.0183492945
 21
56.3402797852
  0
LINE
  5
4D1
100
AcDbEntity
  8
375171-000-00-ED1_FORMAT
100
AcDbLine
 62
90
  6
CONTINUOUS
 10
316.0345847716
 20
56.3402797852
 11
317.504647119
 21
56.3402797852
  0
LINE
  5
4D2
100
AcDbEntity
  8
375171-000-00-ED1_FORMAT
100
AcDbLine
 62
90
  6
CONTINUOUS
 10
320.0910425437
 20
56.3402797852
 11
321.6117335564
 21
56.3402797852
  0
LINE
  5
4D3
100
AcDbEntity
  8
375171-000-00-ED1_FORMAT
100
AcDbLine
 62
90
  6
CONTINUOUS
 10
323.5941250373
 20
56.3402797852
 11
325.4072355017
 21
56.3402797852
  0
LINE
  5
4D4
100
AcDbEntity
  8
375171-000-00-ED1_FORMAT
100
AcDbLine
 62
90
  6
CONTINUOUS
 10
326.932168458
 20
56.3402797852
 11
327.5174346078
 21
56.3402797852
  0
LINE
  5
4D5
100
AcDbEntity
  8
375171-000-00-ED1_FORMAT
100
AcDbLine
 62
90
  6
CONTINUOUS
 10
327.5174346078
 20
56.6302807188
 11
326.932168458
 21
56.6302807188
  0
LINE
  5
4D6
100
AcDbEntity
  8
375171-000-00-ED1_FORMAT
100
AcDbLine
 62
90
  6
CONTINUOUS
 10
325.4072355017
 20
56.6302807188
 11
323.5402615085
 21
56.6302807188
  0
LINE
  5
4D7
100
AcDbEntity
  8
375171-000-00-ED1_FORMAT
100
AcDbLine
 62
90
  6
CONTINUOUS
 10
321.6777125644
 20
56.6302807188
 11
319.2477502549
 21
56.6302807188
  0
LINE
  5
4D8
100
AcDbEntity
  8
375171-000-00-ED1_FORMAT
100
AcDbLine
 62
90
  6
CONTINUOUS
 10
317.8003319519
 20
56.6302807188
 11
314.7750937263
 21
56.6302807188
  0
LINE
  5
4D9
100
AcDbEntity
  8
375171-000-00-ED1_FORMAT
100
AcDbLine
 62
90
  6
CONTINUOUS
 10
314.0986105299
 20
56.6302807188
 11
312.2078938594
 21
56.6302807188
  0
LINE
  5
4DA
100
AcDbEntity
  8
375171-000-00-ED1_FORMAT
100
AcDbLine
 62
90
  6
CONTINUOUS
 10
310.6432575315
 20
56.6302807188
 11
308.997719099
 21
56.6302807188
  0
LINE
  5
4DB
100
AcDbEntity
  8
375171-000-00-ED1_FORMAT
100
AcDbLine
 62
90
  6
CONTINUOUS
 10
306.8564530965
 20
56.6302807188
 11
306.2538224437
 21
56.6302807188
  0
LINE
  5
4DC
100
AcDbEntity
  8
375171-000-00-ED1_FORMAT
100
AcDbLine
 62
90
  6
CONTINUOUS
 10
318.3558434611
 20
56.6447384223
 11
318.5402917147
 21
56.6447384223
  0
LINE
  5
4DD
100
AcDbEntity
  8
375171-000-00-ED1_FORMAT
100
AcDbLine
 62
90
  6
CONTINUOUS
 10
318.916970205
 20
56.6466038094
 11
319.1211633329
 21
56.6466038094
  0
LINE
  5
4DE
100
AcDbEntity
  8
375171-000-00-ED1_FORMAT
100
AcDbLine
 62
90
  6
CONTINUOUS
 10
318.5402917147
 20
56.6466114388
 11
318.72535032
 21
56.6466114388
  0
LINE
  5
4DF
100
AcDbEntity
  8
375171-000-00-ED1_FORMAT
100
AcDbLine
 62
90
  6
CONTINUOUS
 10
318.72535032
 20
56.6471416817
 11
318.916970205
 21
56.6471416817
  0
LINE
  5
4E0
100
AcDbEntity
  8
375171-000-00-ED1_FORMAT
100
AcDbLine
 62
90
  6
CONTINUOUS
 10
306.2538224437
 20
56.9202778376
 11
306.8565751668
 21
56.9202778376
  0
LINE
  5
4E1
100
AcDbEntity
  8
375171-000-00-ED1_FORMAT
100
AcDbLine
 62
90
  6
CONTINUOUS
 10
308.8998797374
 20
56.9202778376
 11
309.1677935725
 21
56.9202778376
  0
LINE
  5
4E2
100
AcDbEntity
  8
375171-000-00-ED1_FORMAT
100
AcDbLine
 62
90
  6
CONTINUOUS
 10
309.3290484653
 20
56.9202778376
 11
310.8407367919
 21
56.9202778376
  0
LINE
  5
4E3
100
AcDbEntity
  8
375171-000-00-ED1_FORMAT
100
AcDbLine
 62
90
  6
CONTINUOUS
 10
312.1970601185
 20
56.9202778376
 11
321.8962794726
 21
56.9202778376
  0
LINE
  5
4E4
100
AcDbEntity
  8
375171-000-00-ED1_FORMAT
100
AcDbLine
 62
90
  6
CONTINUOUS
 10
323.4864284974
 20
56.9202778376
 11
325.4072355017
 21
56.9202778376
  0
LINE
  5
4E5
100
AcDbEntity
  8
375171-000-00-ED1_FORMAT
100
AcDbLine
 62
90
  6
CONTINUOUS
 10
326.932168458
 20
56.9202778376
 11
327.5174346078
 21
56.9202778376
  0
LINE
  5
4E6
100
AcDbEntity
  8
375171-000-00-ED1_FORMAT
100
AcDbLine
 62
90
  6
CONTINUOUS
 10
327.5174346078
 20
57.2102787712
 11
326.932168458
 21
57.2102787712
  0
LINE
  5
4E7
100
AcDbEntity
  8
375171-000-00-ED1_FORMAT
100
AcDbLine
 62
90
  6
CONTINUOUS
 10
325.4072355017
 20
57.2102787712
 11
325.1310514025
 21
57.2102787712
  0
LINE
  5
4E8
100
AcDbEntity
  8
375171-000-00-ED1_FORMAT
100
AcDbLine
 62
90
  6
CONTINUOUS
 10
324.643502544
 20
57.2102787712
 11
323.4325954862
 21
57.2102787712
  0
LINE
  5
4E9
100
AcDbEntity
  8
375171-000-00-ED1_FORMAT
100
AcDbLine
 62
90
  6
CONTINUOUS
 10
323.2237942037
 20
57.2102787712
 11
309.9671405461
 21
57.2102787712
  0
LINE
  5
4EA
100
AcDbEntity
  8
375171-000-00-ED1_FORMAT
100
AcDbLine
 62
90
  6
CONTINUOUS
 10
309.0664141716
 20
57.2102787712
 11
308.8020098583
 21
57.2102787712
  0
LINE
  5
4EB
100
AcDbEntity
  8
375171-000-00-ED1_FORMAT
100
AcDbLine
 62
90
  6
CONTINUOUS
 10
306.8566667195
 20
57.2102787712
 11
306.2538224437
 21
57.2102787712
  0
LINE
  5
4EC
100
AcDbEntity
  8
375171-000-00-ED1_FORMAT
100
AcDbLine
 62
90
  6
CONTINUOUS
 10
306.2538224437
 20
57.5002797048
 11
306.8567582723
 21
57.5002797048
  0
LINE
  5
4ED
100
AcDbEntity
  8
375171-000-00-ED1_FORMAT
100
AcDbLine
 62
90
  6
CONTINUOUS
 10
308.7041704967
 20
57.5002797048
 11
308.9650347708
 21
57.5002797048
  0
LINE
  5
4EE
100
AcDbEntity
  8
375171-000-00-ED1_FORMAT
100
AcDbLine
 62
90
  6
CONTINUOUS
 10
310.6052021092
 20
57.5002797048
 11
324.0003750626
 21
57.5002797048
  0
LINE
  5
4EF
100
AcDbEntity
  8
375171-000-00-ED1_FORMAT
100
AcDbLine
 62
90
  6
CONTINUOUS
 10
325.1310514025
 20
57.5002797048
 11
325.4072355017
 21
57.5002797048
  0
LINE
  5
4F0
100
AcDbEntity
  8
375171-000-00-ED1_FORMAT
100
AcDbLine
 62
90
  6
CONTINUOUS
 10
326.932168458
 20
57.5002797048
 11
327.5174346078
 21
57.5002797048
  0
LINE
  5
4F1
100
AcDbEntity
  8
375171-000-00-ED1_FORMAT
100
AcDbLine
 62
90
  6
CONTINUOUS
 10
327.5174346078
 20
57.7902806384
 11
326.932168458
 21
57.7902806384
  0
LINE
  5
4F2
100
AcDbEntity
  8
375171-000-00-ED1_FORMAT
100
AcDbLine
 62
90
  6
CONTINUOUS
 10
325.4072355017
 20
57.7902806384
 11
325.1310514025
 21
57.7902806384
  0
LINE
  5
4F3
100
AcDbEntity
  8
375171-000-00-ED1_FORMAT
100
AcDbLine
 62
90
  6
CONTINUOUS
 10
323.3572780987
 20
57.7902806384
 11
311.24329419
 21
57.7902806384
  0
LINE
  5
4F4
100
AcDbEntity
  8
375171-000-00-ED1_FORMAT
100
AcDbLine
 62
90
  6
CONTINUOUS
 10
308.8636553699
 20
57.7902806384
 11
308.6063311351
 21
57.7902806384
  0
LINE
  5
4F5
100
AcDbEntity
  8
375171-000-00-ED1_FORMAT
100
AcDbLine
 62
90
  6
CONTINUOUS
 10
306.856849825
 20
57.7902806384
 11
306.2538224437
 21
57.7902806384
  0
LINE
  5
4F6
100
AcDbEntity
  8
375171-000-00-ED1_FORMAT
100
AcDbLine
 62
90
  6
CONTINUOUS
 10
306.2538224437
 20
58.0802777573
 11
306.8569413778
 21
58.0802777573
  0
LINE
  5
4F7
100
AcDbEntity
  8
375171-000-00-ED1_FORMAT
100
AcDbLine
 62
90
  6
CONTINUOUS
 10
308.5084917736
 20
58.0802777573
 11
308.7622759691
 21
58.0802777573
  0
LINE
  5
4F8
100
AcDbEntity
  8
375171-000-00-ED1_FORMAT
100
AcDbLine
 62
90
  6
CONTINUOUS
 10
311.8813862707
 20
58.0802777573
 11
322.7141811348
 21
58.0802777573
  0
LINE
  5
4F9
100
AcDbEntity
  8
375171-000-00-ED1_FORMAT
100
AcDbLine
 62
90
  6
CONTINUOUS
 10
325.1310514025
 20
58.0802777573
 11
325.4072355017
 21
58.0802777573
  0
LINE
  5
4FA
100
AcDbEntity
  8
375171-000-00-ED1_FORMAT
100
AcDbLine
 62
90
  6
CONTINUOUS
 10
326.932168458
 20
58.0802777573
 11
327.5174346078
 21
58.0802777573
  0
LINE
  5
4FB
100
AcDbEntity
  8
375171-000-00-ED1_FORMAT
100
AcDbLine
 62
90
  6
CONTINUOUS
 10
327.4869170277
 20
58.3702786909
 11
326.932168458
 21
58.3702786909
  0
LINE
  5
4FC
100
AcDbEntity
  8
375171-000-00-ED1_FORMAT
100
AcDbLine
 62
90
  6
CONTINUOUS
 10
325.9910368076
 20
58.3702786909
 11
325.3282254871
 21
58.3702786909
  0
LINE
  5
4FD
100
AcDbEntity
  8
375171-000-00-ED1_FORMAT
100
AcDbLine
 62
90
  6
CONTINUOUS
 10
322.0710536534
 20
58.3702786909
 11
312.5194478339
 21
58.3702786909
  0
LINE
  5
4FE
100
AcDbEntity
  8
375171-000-00-ED1_FORMAT
100
AcDbLine
 62
90
  6
CONTINUOUS
 10
308.6608965682
 20
58.3702786909
 11
308.2872088008
 21
58.3702786909
  0
LINE
  5
4FF
100
AcDbEntity
  8
375171-000-00-ED1_FORMAT
100
AcDbLine
 62
90
  6
CONTINUOUS
 10
306.8570329305
 20
58.3702786909
 11
306.2538224437
 21
58.3702786909
  0
LINE
  5
500
100
AcDbEntity
  8
375171-000-00-ED1_FORMAT
100
AcDbLine
 62
90
  6
CONTINUOUS
 10
306.2538224437
 20
58.6602796245
 11
306.8571550008
 21
58.6602796245
  0
LINE
  5
501
100
AcDbEntity
  8
375171-000-00-ED1_FORMAT
100
AcDbLine
 62
90
  6
CONTINUOUS
 10
307.674629417
 20
58.6602796245
 11
308.2281267659
 21
58.6602796245
  0
LINE
  5
502
100
AcDbEntity
  8
375171-000-00-ED1_FORMAT
100
AcDbLine
 62
90
  6
CONTINUOUS
 10
313.1575399147
 20
58.6602796245
 11
321.4279566895
 21
58.6602796245
  0
LINE
  5
503
100
AcDbEntity
  8
375171-000-00-ED1_FORMAT
100
AcDbLine
 62
90
  6
CONTINUOUS
 10
326.0322355407
 20
58.6602796245
 11
326.7106108271
 21
58.6602796245
  0
LINE
  5
504
100
AcDbEntity
  8
375171-000-00-ED1_FORMAT
100
AcDbLine
 62
90
  6
CONTINUOUS
 10
326.932168458
 20
58.6602796245
 11
327.2830290756
 21
58.6602796245
  0
LINE
  5
505
100
AcDbEntity
  8
375171-000-00-ED1_FORMAT
100
AcDbLine
 62
90
  6
CONTINUOUS
 10
327.079171641
 20
58.9502805581
 11
326.7362761119
 21
58.9502805581
  0
LINE
  5
506
100
AcDbEntity
  8
375171-000-00-ED1_FORMAT
100
AcDbLine
 62
90
  6
CONTINUOUS
 10
320.7848597256
 20
58.9502805581
 11
313.7956319954
 21
58.9502805581
  0
LINE
  5
507
100
AcDbEntity
  8
375171-000-00-ED1_FORMAT
100
AcDbLine
 62
90
  6
CONTINUOUS
 10
307.6149065129
 20
58.9502805581
 11
307.0620195155
 21
58.9502805581
  0
LINE
  5
508
100
AcDbEntity
  8
375171-000-00-ED1_FORMAT
100
AcDbLine
 62
90
  6
CONTINUOUS
 10
306.8572465536
 20
58.9502805581
 11
306.2538224437
 21
58.9502805581
  0
LINE
  5
509
100
AcDbEntity
  8
375171-000-00-ED1_FORMAT
100
AcDbLine
 62
7
  6
CONTINUOUS
 10
410.0
 20
58.9546825665
 11
365.999998592
 21
58.9546825665
  0
LINE
  5
50A
100
AcDbEntity
  8
375171-000-00-ED1_FORMAT
100
AcDbLine
 62
90
  6
CONTINUOUS
 10
306.6714555264
 20
59.240277677
 11
307.0016862598
 21
59.240277677
  0
LINE
  5
50B
100
AcDbEntity
  8
375171-000-00-ED1_FORMAT
100
AcDbLine
 62
90
  6
CONTINUOUS
 10
314.4336935586
 20
59.240277677
 11
320.1417322441
 21
59.240277677
  0
LINE
  5
50C
100
AcDbEntity
  8
375171-000-00-ED1_FORMAT
100
AcDbLine
 62
90
  6
CONTINUOUS
 10
319.4986352803
 20
59.5302786105
 11
315.0717856394
 21
59.5302786105
  0
LINE
  5
50D
100
AcDbEntity
  8
375171-000-00-ED1_FORMAT
100
AcDbLine
 62
90
  6
CONTINUOUS
 10
315.7098777201
 20
59.8202795441
 11
318.8555383164
 21
59.8202795441
  0
LINE
  5
50E
100
AcDbEntity
  8
375171-000-00-ED1_FORMAT
100
AcDbLine
 62
90
  6
CONTINUOUS
 10
318.2124108349
 20
60.1102804777
 11
316.3479392833
 21
60.1102804777
  0
LINE
  5
50F
100
AcDbEntity
  8
375171-000-00-ED1_FORMAT
100
AcDbLine
 62
90
  6
CONTINUOUS
 10
317.5471381942
 20
60.4102804964
 11
317.0080338075
 21
60.4102804964
  0
LINE
  5
510
100
AcDbEntity
  8
375171-000-00-ED1_FORMAT
100
AcDbLine
 62
90
  6
CONTINUOUS
 10
315.5730674088
 20
56.5955211951
 11
315.773903603
 21
56.5907451938
  0
LINE
  5
511
100
AcDbEntity
  8
375171-000-00-ED1_FORMAT
100
AcDbLine
 62
90
  6
CONTINUOUS
 10
315.773903603
 20
56.5907451938
 11
315.9725120138
 21
56.5857631989
  0
LINE
  5
512
100
AcDbEntity
  8
375171-000-00-ED1_FORMAT
100
AcDbLine
 62
90
  6
CONTINUOUS
 10
315.3701865368
 20
56.6009647684
 11
315.5730674088
 21
56.5955211951
  0
LINE
  5
513
100
AcDbEntity
  8
375171-000-00-ED1_FORMAT
100
AcDbLine
 62
90
  6
CONTINUOUS
 10
315.1653830573
 20
56.6079761825
 11
315.3701865368
 21
56.6009647684
  0
LINE
  5
514
100
AcDbEntity
  8
375171-000-00-ED1_FORMAT
100
AcDbLine
 62
90
  6
CONTINUOUS
 10
317.7706383465
 20
51.8433922981
 11
317.504647119
 21
51.8526314954
  0
LINE
  5
515
100
AcDbEntity
  8
375171-000-00-ED1_FORMAT
100
AcDbLine
 62
90
  6
CONTINUOUS
 10
314.9588095581
 20
56.617440447
 11
315.1653830573
 21
56.6079761825
  0
LINE
  5
516
100
AcDbEntity
  8
375171-000-00-ED1_FORMAT
100
AcDbLine
 62
90
  6
CONTINUOUS
 10
318.9437646402
 20
55.5377780567
 11
318.7525720014
 21
55.5470821039
  0
LINE
  5
517
100
AcDbEntity
  8
375171-000-00-ED1_FORMAT
100
AcDbLine
 62
90
  6
CONTINUOUS
 10
318.0062645819
 20
51.8308648315
 11
317.7706383465
 21
51.8433922981
  0
LINE
  5
518
100
AcDbEntity
  8
375171-000-00-ED1_FORMAT
100
AcDbLine
 62
90
  6
CONTINUOUS
 10
318.2189110795
 20
51.8161324697
 11
318.0062645819
 21
51.8308648315
  0
LINE
  5
519
100
AcDbEntity
  8
375171-000-00-ED1_FORMAT
100
AcDbLine
 62
90
  6
CONTINUOUS
 10
318.7938317696
 20
51.769318502
 11
318.605233125
 21
51.7842911897
  0
LINE
  5
51A
100
AcDbEntity
  8
375171-000-00-ED1_FORMAT
100
AcDbLine
 62
90
  6
CONTINUOUS
 10
318.416085164
 20
51.8002480693
 11
318.2189110795
 21
51.8161324697
  0
LINE
  5
51B
100
AcDbEntity
  8
375171-000-00-ED1_FORMAT
100
AcDbLine
 62
90
  6
CONTINUOUS
 10
318.605233125
 20
51.7842911897
 11
318.416085164
 21
51.8002480693
  0
LINE
  5
51C
100
AcDbEntity
  8
375171-000-00-ED1_FORMAT
100
AcDbLine
 62
7
  6
CONTINUOUS
 10
135.000019298
 20
287.0000045341
 11
135.000019298
 21
259.0000098321
  0
LINE
  5
51D
100
AcDbEntity
  8
375171-000-00-ED1_FORMAT
100
AcDbLine
 62
7
  6
CONTINUOUS
 10
146.999991584
 20
65.00000176
 11
410.0
 21
65.00000176
  0
LINE
  5
51E
100
AcDbEntity
  8
375171-000-00-ED1_FORMAT
100
AcDbLine
 62
7
  6
CONTINUOUS
 10
146.999993584
 20
72.500002
 11
410.0
 21
72.500002
  0
LINE
  5
51F
100
AcDbEntity
  8
375171-000-00-ED1_FORMAT
100
AcDbLine
 62
90
  6
CONTINUOUS
 10
314.750557592
 20
56.6302463865
 11
314.9588095581
 21
56.617440447
  0
LINE
  5
520
100
AcDbEntity
  8
375171-000-00-ED1_FORMAT
100
AcDbLine
 62
90
  6
CONTINUOUS
 10
314.5408102645
 20
56.6472866402
 11
314.750557592
 21
56.6302463865
  0
LINE
  5
521
100
AcDbEntity
  8
375171-000-00-ED1_FORMAT
100
AcDbLine
 62
90
  6
CONTINUOUS
 10
322.2427760762
 20
53.4197740796
 11
322.8411647853
 21
53.3604707922
  0
LINE
  5
522
100
AcDbEntity
  8
375171-000-00-ED1_FORMAT
100
AcDbLine
 62
90
  6
CONTINUOUS
 10
314.3296591283
 20
56.669446218
 11
314.5408102645
 21
56.6472866402
  0
LINE
  5
523
100
AcDbEntity
  8
375171-000-00-ED1_FORMAT
100
AcDbLine
 62
90
  6
CONTINUOUS
 10
322.0031825554
 20
51.4534806222
 11
320.5375452571
 21
51.6192978933
  0
LINE
  5
524
100
AcDbEntity
  8
375171-000-00-ED1_FORMAT
100
AcDbLine
 62
90
  6
CONTINUOUS
 10
319.1197290067
 20
55.5162898657
 11
318.9437646402
 21
55.5377780567
  0
LINE
  5
525
100
AcDbEntity
  8
375171-000-00-ED1_FORMAT
100
AcDbLine
 62
90
  6
CONTINUOUS
 10
314.1172567713
 20
56.6976177591
 11
314.3296591283
 21
56.669446218
  0
LINE
  5
526
100
AcDbEntity
  8
375171-000-00-ED1_FORMAT
100
AcDbLine
 62
90
  6
CONTINUOUS
 10
319.1211633329
 20
56.6452572212
 11
319.3581628594
 21
56.6093113266
  0
LINE
  5
527
100
AcDbEntity
  8
375171-000-00-ED1_FORMAT
100
AcDbLine
 62
90
  6
CONTINUOUS
 10
322.9365017053
 20
51.8976983318
 11
322.1121303161
 21
52.0335969303
  0
LINE
  5
528
100
AcDbEntity
  8
375171-000-00-ED1_FORMAT
100
AcDbLine
 62
90
  6
CONTINUOUS
 10
324.5936673358
 20
50.9565552373
 11
322.9856044916
 21
51.2672776077
  0
LINE
  5
529
100
AcDbEntity
  8
375171-000-00-ED1_FORMAT
100
AcDbLine
 62
7
  6
CONTINUOUS
 10
146.999991584
 20
10.0
 11
146.999993584
 21
72.500002
  0
LINE
  5
52A
100
AcDbEntity
  8
375171-000-00-ED1_FORMAT
100
AcDbLine
 62
90
  6
CONTINUOUS
 10
311.0026020363
 20
57.1580441183
 11
312.2078938594
 21
56.9181225336
  0
LINE
  5
52B
100
AcDbEntity
  8
375171-000-00-ED1_FORMAT
100
AcDbLine
 62
90
  6
CONTINUOUS
 10
319.3581628594
 20
56.6093113266
 11
319.5746545721
 21
56.5594341567
  0
LINE
  5
52C
100
AcDbEntity
  8
375171-000-00-ED1_FORMAT
100
AcDbLine
 62
90
  6
CONTINUOUS
 10
319.2772302372
 20
55.4772960278
 11
319.1197290067
 21
55.5162898657
  0
LINE
  5
52D
100
AcDbEntity
  8
375171-000-00-ED1_FORMAT
100
AcDbLine
 62
7
  6
CONTINUOUS
 10
154.499993824
 20
65.00000176
 11
154.499993824
 21
72.500002
  0
LINE
  5
52E
100
AcDbEntity
  8
375171-000-00-ED1_FORMAT
100
AcDbLine
 62
3
  6
CONTINUOUS
 10
160.0
 20
10.0
 11
160.0
 21
5.0
  0
LINE
  5
52F
100
AcDbEntity
  8
375171-000-00-ED1_FORMAT
100
AcDbLine
 62
3
  6
CONTINUOUS
 10
160.0
 20
287.0
 11
160.0
 21
292.0
  0
LINE
  5
530
100
AcDbEntity
  8
375171-000-00-ED1_FORMAT
100
AcDbLine
 62
7
  6
CONTINUOUS
 10
161.999994064
 20
65.00000176
 11
161.999994064
 21
72.500002
  0
LINE
  5
531
100
AcDbEntity
  8
375171-000-00-ED1_FORMAT
100
AcDbLine
 62
3
  6
CONTINUOUS
 10
22.9999999122
 20
93.4999984459
 11
28.9999998068
 21
93.4999984459
  0
LINE
  5
532
100
AcDbEntity
  8
375171-000-00-ED1_FORMAT
100
AcDbLine
 62
3
  6
CONTINUOUS
 10
23.0
 20
98.5
 11
18.0
 21
98.5
  0
LINE
  5
533
100
AcDbEntity
  8
375171-000-00-ED1_FORMAT
100
AcDbLine
 62
3
  6
CONTINUOUS
 10
410.0
 20
98.5
 11
415.0
 21
98.5
  0
LINE
  5
534
100
AcDbEntity
  8
375171-000-00-ED1_FORMAT
100
AcDbLine
 62
90
  6
CONTINUOUS
 10
319.5746545721
 20
56.5594341567
 11
319.771370893
 21
56.4966518652
  0
LINE
  5
535
100
AcDbEntity
  8
375171-000-00-ED1_FORMAT
100
AcDbLine
 62
90
  6
CONTINUOUS
 10
327.4483428066
 20
51.7095612656
 11
328.8858123785
 21
51.1495865603
  0
LINE
  5
536
100
AcDbEntity
  8
375171-000-00-ED1_FORMAT
100
AcDbLine
 62
90
  6
CONTINUOUS
 10
326.932168458
 20
51.5395669008
 11
328.2963042852
 21
50.9884537378
  0
LINE
  5
537
100
AcDbEntity
  8
375171-000-00-ED1_FORMAT
100
AcDbLine
 62
90
  6
CONTINUOUS
 10
319.771370893
 20
56.4966518652
 11
319.9490137263
 21
56.4220058645
  0
LINE
  5
538
100
AcDbEntity
  8
375171-000-00-ED1_FORMAT
100
AcDbLine
 62
90
  6
CONTINUOUS
 10
317.2765282083
 20
47.4442869521
 11
308.6544268413
 21
51.5949067174
  0
LINE
  5
539
100
AcDbEntity
  8
375171-000-00-ED1_FORMAT
100
AcDbLine
 62
3
  6
CONTINUOUS
 10
306.2529679515
 20
52.1786164706
 11
302.0615436566
 21
54.2349992063
  0
LINE
  5
53A
100
AcDbEntity
  8
375171-000-00-ED1_FORMAT
100
AcDbLine
 62
3
  6
CONTINUOUS
 10
317.2765282083
 20
46.7702794944
 11
308.6552813335
 21
51.0000084565
  0
LINE
  5
53B
100
AcDbEntity
  8
375171-000-00-ED1_FORMAT
100
AcDbLine
 62
90
  6
CONTINUOUS
 10
306.8480912796
 20
49.2196929465
 11
306.2529679515
 21
49.5195586878
  0
LINE
  5
53C
100
AcDbEntity
  8
375171-000-00-ED1_FORMAT
100
AcDbLine
 62
7
  6
CONTINUOUS
 10
171.3988033648
 20
65.00000176
 11
171.3988033648
 21
72.500002
  0
LINE
  5
53D
100
AcDbEntity
  8
375171-000-00-ED1_FORMAT
100
AcDbLine
 62
7
  6
CONTINUOUS
 10
176.3988035248
 20
65.00000176
 11
176.3988035248
 21
72.500002
  0
LINE
  5
53E
100
AcDbEntity
  8
375171-000-00-ED1_FORMAT
100
AcDbLine
 62
90
  6
CONTINUOUS
 10
327.5174346078
 20
55.960812751
 11
331.7164705138
 21
54.2350054536
  0
LINE
  5
53F
100
AcDbEntity
  8
375171-000-00-ED1_FORMAT
100
AcDbLine
 62
3
  6
CONTINUOUS
 10
317.2765282083
 20
61.1759505575
 11
325.1310514025
 21
57.6838620222
  0
LINE
  5
540
100
AcDbEntity
  8
375171-000-00-ED1_FORMAT
100
AcDbLine
 62
3
  6
CONTINUOUS
 10
327.5174346078
 20
56.6228802056
 11
332.8883150692
 21
54.2350054536
  0
LINE
  5
541
100
AcDbEntity
  8
375171-000-00-ED1_FORMAT
100
AcDbLine
 62
90
  6
CONTINUOUS
 10
317.2765282083
 20
60.5323080919
 11
325.1310514025
 21
56.99042631
  0
LINE
  5
542
100
AcDbEntity
  8
375171-000-00-ED1_FORMAT
100
AcDbLine
 62
90
  6
CONTINUOUS
 10
319.4130945035
 20
55.4154712254
 11
319.2772302372
 21
55.4772960278
  0
LINE
  5
543
100
AcDbEntity
  8
375171-000-00-ED1_FORMAT
100
AcDbLine
 62
90
  6
CONTINUOUS
 10
306.8379899606
 20
59.3176893334
 11
308.625160482
 21
58.4725202134
  0
LINE
  5
544
100
AcDbEntity
  8
375171-000-00-ED1_FORMAT
100
AcDbLine
 62
90
  6
CONTINUOUS
 10
306.8572770711
 20
59.0472120216
 11
308.4341204311
 21
58.3007329407
  0
LINE
  5
545
100
AcDbEntity
  8
375171-000-00-ED1_FORMAT
100
AcDbLine
 62
90
  6
CONTINUOUS
 10
328.2963042852
 20
49.2870452456
 11
325.4072355017
 21
50.7446373469
  0
LINE
  5
546
100
AcDbEntity
  8
375171-000-00-ED1_FORMAT
100
AcDbLine
 62
90
  6
CONTINUOUS
 10
328.3335052152
 20
48.9736602163
 11
325.1310514025
 21
50.6036919035
  0
LINE
  5
547
100
AcDbEntity
  8
375171-000-00-ED1_FORMAT
100
AcDbLine
 62
90
  6
CONTINUOUS
 10
306.2529679515
 20
52.7537889307
 11
303.350532468
 21
54.2350054536
  0
LINE
  5
548
100
AcDbEntity
  8
375171-000-00-ED1_FORMAT
100
AcDbLine
 62
90
  6
CONTINUOUS
 10
319.9490137263
 20
56.4220058645
 11
320.108315494
 21
56.3365261228
  0
LINE
  5
549
100
AcDbEntity
  8
375171-000-00-ED1_FORMAT
100
AcDbLine
 62
90
  6
CONTINUOUS
 10
320.108315494
 20
56.3365261228
 11
320.2500391357
 21
56.2412464233
  0
LINE
  5
54A
100
AcDbEntity
  8
375171-000-00-ED1_FORMAT
100
AcDbLine
 62
7
  6
CONTINUOUS
 10
207.999993536
 20
65.00000176
 11
207.999993536
 21
72.500002
  0
LINE
  5
54B
100
AcDbEntity
  8
375171-000-00-ED1_FORMAT
100
AcDbLine
 62
7
  6
CONTINUOUS
 10
210.0
 20
292.0
 11
210.0
 21
277.0
  0
LINE
  5
54C
100
AcDbEntity
  8
375171-000-00-ED1_FORMAT
100
AcDbLine
 62
3
  6
CONTINUOUS
 10
210.0
 20
10.0
 11
210.0
 21
5.0
  0
LINE
  5
54D
100
AcDbEntity
  8
375171-000-00-ED1_FORMAT
100
AcDbLine
 62
7
  6
CONTINUOUS
 10
415.0
 20
148.5
 11
400.0
 21
148.5
  0
LINE
  5
54E
100
AcDbEntity
  8
375171-000-00-ED1_FORMAT
100
AcDbLine
 62
7
  6
CONTINUOUS
 10
18.0
 20
148.5
 11
33.0
 21
148.5
  0
LINE
  5
54F
100
AcDbEntity
  8
375171-000-00-ED1_FORMAT
100
AcDbLine
 62
3
  6
CONTINUOUS
 10
23.0
 20
148.515014696
 11
29.000000192
 21
148.515014696
  0
LINE
  5
550
100
AcDbEntity
  8
375171-000-00-ED1_FORMAT
100
AcDbLine
 62
90
  6
CONTINUOUS
 10
319.524086942
 20
55.3254977701
 11
319.4130945035
 21
55.4154712254
  0
LINE
  5
551
100
AcDbEntity
  8
375171-000-00-ED1_FORMAT
100
AcDbLine
 62
90
  6
CONTINUOUS
 10
320.2500391357
 20
56.2412464233
 11
320.3748255204
 21
56.1372005489
  0
LINE
  5
552
100
AcDbEntity
  8
375171-000-00-ED1_FORMAT
100
AcDbLine
 62
7
  6
CONTINUOUS
 10
223.999992048
 20
10.0
 11
223.999992048
 21
65.00000176
  0
LINE
  5
553
100
AcDbEntity
  8
375171-000-00-ED1_FORMAT
100
AcDbLine
 62
90
  6
CONTINUOUS
 10
320.3748255204
 20
56.1372005489
 11
320.4834681053
 21
56.025418468
  0
LINE
  5
554
100
AcDbEntity
  8
375171-000-00-ED1_FORMAT
100
AcDbLine
 62
90
  6
CONTINUOUS
 10
320.4834681053
 20
56.025418468
 11
320.5766382771
 21
55.9069454076
  0
LINE
  5
555
100
AcDbEntity
  8
375171-000-00-ED1_FORMAT
100
AcDbLine
 62
90
  6
CONTINUOUS
 10
327.0021757866
 20
59.0598043381
 11
327.5174346078
 21
58.326871248
  0
LINE
  5
556
100
AcDbEntity
  8
375171-000-00-ED1_FORMAT
100
AcDbLine
 62
90
  6
CONTINUOUS
 10
319.6070032069
 20
55.2020465295
 11
319.524086942
 21
55.3254977701
  0
LINE
  5
557
100
AcDbEntity
  8
375171-000-00-ED1_FORMAT
100
AcDbLine
 62
90
  6
CONTINUOUS
 10
320.5766382771
 20
55.9069454076
 11
320.6550989753
 21
55.7828037068
  0
LINE
  5
558
100
AcDbEntity
  8
375171-000-00-ED1_FORMAT
100
AcDbLine
 62
3
  6
CONTINUOUS
 10
260.0
 20
10.0
 11
260.0
 21
5.0
  0
LINE
  5
559
100
AcDbEntity
  8
375171-000-00-ED1_FORMAT
100
AcDbLine
 62
3
  6
CONTINUOUS
 10
260.0
 20
287.0
 11
260.0
 21
292.0
  0
LINE
  5
55A
100
AcDbEntity
  8
375171-000-00-ED1_FORMAT
100
AcDbLine
 62
7
  6
CONTINUOUS
 10
260.999993232
 20
43.500001072
 11
260.999993232
 21
35.0000008
  0
LINE
  5
55B
100
AcDbEntity
  8
375171-000-00-ED1_FORMAT
100
AcDbLine
 62
7
  6
CONTINUOUS
 10
264.9013593819
 20
287.0
 11
264.9013593819
 21
225.000007
  0
LINE
  5
55C
100
AcDbEntity
  8
375171-000-00-ED1_FORMAT
100
AcDbLine
 62
3
  6
CONTINUOUS
 10
23.0
 20
198.5
 11
18.0
 21
198.5
  0
LINE
  5
55D
100
AcDbEntity
  8
375171-000-00-ED1_FORMAT
100
AcDbLine
 62
3
  6
CONTINUOUS
 10
410.0
 20
198.5
 11
415.0
 21
198.5
  0
LINE
  5
55E
100
AcDbEntity
  8
375171-000-00-ED1_FORMAT
100
AcDbLine
 62
90
  6
CONTINUOUS
 10
320.6550989753
 20
55.7828037068
 11
320.7195215868
 21
55.6540347778
  0
LINE
  5
55F
100
AcDbEntity
  8
375171-000-00-ED1_FORMAT
100
AcDbLine
 62
90
  6
CONTINUOUS
 10
309.6609271481
 20
51.1619538096
 11
308.4533770241
 21
54.0527163187
  0
LINE
  5
560
100
AcDbEntity
  8
375171-000-00-ED1_FORMAT
100
AcDbLine
 62
7
  6
CONTINUOUS
 10
274.9014193732
 20
225.000007
 11
274.9014193732
 21
287.0000007463
  0
LINE
  5
561
100
AcDbEntity
  8
375171-000-00-ED1_FORMAT
100
AcDbLine
 62
3
  6
CONTINUOUS
 10
28.9999998068
 20
209.9999964
 11
22.9999999122
 21
209.9999964
  0
LINE
  5
562
100
AcDbEntity
  8
375171-000-00-ED1_FORMAT
100
AcDbLine
 62
90
  6
CONTINUOUS
 10
320.7195215868
 20
55.6540347778
 11
320.7706995685
 21
55.5216724039
  0
LINE
  5
563
100
AcDbEntity
  8
375171-000-00-ED1_FORMAT
100
AcDbLine
 62
90
  6
CONTINUOUS
 10
308.625160482
 20
58.4725202134
 11
309.189918818
 21
56.8570377824
  0
LINE
  5
564
100
AcDbEntity
  8
375171-000-00-ED1_FORMAT
100
AcDbLine
 62
90
  6
CONTINUOUS
 10
308.4341204311
 20
58.3007329407
 11
309.5429461837
 21
55.0142718596
  0
LINE
  5
565
100
AcDbEntity
  8
375171-000-00-ED1_FORMAT
100
AcDbLine
 62
7
  6
CONTINUOUS
 10
294.99999432
 20
65.00000176
 11
294.99999432
 21
35.0000008
  0
LINE
  5
566
100
AcDbEntity
  8
375171-000-00-ED1_FORMAT
100
AcDbLine
 62
7
  6
CONTINUOUS
 10
264.9013593819
 20
225.000007
 11
410.0000007463
 21
225.000007
  0
LINE
  5
567
100
AcDbEntity
  8
375171-000-00-ED1_FORMAT
100
AcDbLine
 62
7
  6
CONTINUOUS
 10
274.9014193732
 20
229.5500015411
 11
376.900004085
 21
229.5500015411
  0
LINE
  5
568
100
AcDbEntity
  8
375171-000-00-ED1_FORMAT
100
AcDbLine
 62
7
  6
CONTINUOUS
 10
264.9013593819
 20
234.0999960821
 11
410.0000007463
 21
234.0999960821
  0
LINE
  5
569
100
AcDbEntity
  8
375171-000-00-ED1_FORMAT
100
AcDbLine
 62
90
  6
CONTINUOUS
 10
319.6586389523
 20
55.03980363
 11
319.6070032069
 21
55.2020465295
  0
LINE
  5
56A
100
AcDbEntity
  8
375171-000-00-ED1_FORMAT
100
AcDbLine
 62
90
  6
CONTINUOUS
 10
320.7706995685
 20
55.5216724039
 11
320.8093043072
 21
55.3867427385
  0
LINE
  5
56B
100
AcDbEntity
  8
375171-000-00-ED1_FORMAT
100
AcDbLine
 62
90
  6
CONTINUOUS
 10
315.9725120138
 20
56.5857631989
 11
317.1683433871
 21
51.8564423783
  0
LINE
  5
56C
100
AcDbEntity
  8
375171-000-00-ED1_FORMAT
100
AcDbLine
 62
90
  6
CONTINUOUS
 10
315.6792380698
 20
51.8104561999
 11
315.4687888379
 21
52.775513633
  0
LINE
  5
56D
100
AcDbEntity
  8
375171-000-00-ED1_FORMAT
100
AcDbLine
 62
90
  6
CONTINUOUS
 10
315.336312023
 20
53.8016825201
 11
314.9602133668
 21
55.541772045
  0
LINE
  5
56E
100
AcDbEntity
  8
375171-000-00-ED1_FORMAT
100
AcDbLine
 62
90
  6
CONTINUOUS
 10
319.6758203499
 20
54.8334437538
 11
319.6586389523
 21
55.03980363
  0
LINE
  5
56F
100
AcDbEntity
  8
375171-000-00-ED1_FORMAT
100
AcDbLine
 62
7
  6
CONTINUOUS
 10
299.9999903875
 20
10.0
 11
299.999990634
 21
24.250000456
  0
LINE
  5
570
100
AcDbEntity
  8
375171-000-00-ED1_FORMAT
100
AcDbLine
 62
90
  6
CONTINUOUS
 10
306.2529679515
 20
49.5195586878
 11
306.2529679515
 21
52.7537889307
  0
LINE
  5
571
100
AcDbEntity
  8
375171-000-00-ED1_FORMAT
100
AcDbLine
 62
90
  6
CONTINUOUS
 10
306.2538224437
 20
55.54782597
 11
306.2538224437
 21
59.0461400916
  0
LINE
  5
572
100
AcDbEntity
  8
375171-000-00-ED1_FORMAT
100
AcDbLine
 62
90
  6
CONTINUOUS
 10
308.4533770241
 20
54.0527163187
 11
308.4533770241
 21
50.4031799586
  0
LINE
  5
573
100
AcDbEntity
  8
375171-000-00-ED1_FORMAT
100
AcDbLine
 62
90
  6
CONTINUOUS
 10
308.6544268413
 20
51.5949067174
 11
308.6544268413
 21
50.2336204693
  0
LINE
  5
574
100
AcDbEntity
  8
375171-000-00-ED1_FORMAT
100
AcDbLine
 62
3
  6
CONTINUOUS
 10
310.0
 20
10.0
 11
310.0
 21
5.0
  0
LINE
  5
575
100
AcDbEntity
  8
375171-000-00-ED1_FORMAT
100
AcDbLine
 62
3
  6
CONTINUOUS
 10
310.0
 20
287.0
 11
310.0
 21
292.0
  0
LINE
  5
576
100
AcDbEntity
  8
375171-000-00-ED1_FORMAT
100
AcDbLine
 62
90
  6
CONTINUOUS
 10
310.7759784871
 20
51.0971573578
 11
310.7759784871
 21
53.7835398188
  0
LINE
  5
577
100
AcDbEntity
  8
375171-000-00-ED1_FORMAT
100
AcDbLine
 62
90
  6
CONTINUOUS
 10
312.2078938594
 20
56.9181225336
 11
312.2078938594
 21
51.4102448407
  0
LINE
  5
578
100
AcDbEntity
  8
375171-000-00-ED1_FORMAT
100
AcDbLine
 62
7
  6
CONTINUOUS
 10
314.0000008808
 20
65.00000176
 11
314.0000008808
 21
72.500002
  0
LINE
  5
579
100
AcDbEntity
  8
375171-000-00-ED1_FORMAT
100
AcDbLine
 62
90
  6
CONTINUOUS
 10
306.8541032428
 20
49.5294349396
 11
306.8572770711
 21
59.0472120216
  0
LINE
  5
57A
100
AcDbEntity
  8
375171-000-00-ED1_FORMAT
100
AcDbLine
 62
7
  6
CONTINUOUS
 10
274.9014193732
 20
238.6499906232
 11
376.900004085
 21
238.6499906232
  0
LINE
  5
57B
100
AcDbEntity
  8
375171-000-00-ED1_FORMAT
100
AcDbLine
 62
7
  6
CONTINUOUS
 10
264.9013593819
 20
243.1999851642
 11
410.0000007463
 21
243.1999851642
  0
LINE
  5
57C
100
AcDbEntity
  8
375171-000-00-ED1_FORMAT
100
AcDbLine
 62
7
  6
CONTINUOUS
 10
274.9014193732
 20
247.7499797053
 11
376.900004085
 21
247.7499797053
  0
LINE
  5
57D
100
AcDbEntity
  8
375171-000-00-ED1_FORMAT
100
AcDbLine
 62
3
  6
CONTINUOUS
 10
23.0
 20
248.5
 11
18.0
 21
248.5
  0
LINE
  5
57E
100
AcDbEntity
  8
375171-000-00-ED1_FORMAT
100
AcDbLine
 62
3
  6
CONTINUOUS
 10
410.0
 20
248.5
 11
415.0
 21
248.5
  0
LINE
  5
57F
100
AcDbEntity
  8
375171-000-00-ED1_FORMAT
100
AcDbLine
 62
7
  6
CONTINUOUS
 10
264.9013593819
 20
252.2999732463
 11
410.0000007463
 21
252.2999732463
  0
LINE
  5
580
100
AcDbEntity
  8
375171-000-00-ED1_FORMAT
100
AcDbLine
 62
90
  6
CONTINUOUS
 10
320.8093043072
 20
55.3867427385
 11
320.8360377073
 21
55.2502871941
  0
LINE
  5
581
100
AcDbEntity
  8
375171-000-00-ED1_FORMAT
100
AcDbLine
 62
90
  6
CONTINUOUS
 10
323.4244472923
 20
57.2541096455
 11
324.5936673358
 21
50.9565552373
  0
LINE
  5
582
100
AcDbEntity
  8
375171-000-00-ED1_FORMAT
100
AcDbLine
 62
90
  6
CONTINUOUS
 10
322.8411647853
 20
53.3604707922
 11
322.5284816604
 21
55.3982936425
  0
LINE
  5
583
100
AcDbEntity
  8
375171-000-00-ED1_FORMAT
100
AcDbLine
 62
90
  6
CONTINUOUS
 10
320.8360377073
 20
55.2502871941
 11
320.8516932259
 21
55.113335739
  0
LINE
  5
584
100
AcDbEntity
  8
375171-000-00-ED1_FORMAT
100
AcDbLine
 62
90
  6
CONTINUOUS
 10
322.9856044916
 20
51.2672776077
 11
322.9365017053
 21
51.8976983318
  0
LINE
  5
585
100
AcDbEntity
  8
375171-000-00-ED1_FORMAT
100
AcDbLine
 62
90
  6
CONTINUOUS
 10
320.8516932259
 20
55.113335739
 11
320.8569422496
 21
54.976925971
  0
LINE
  5
586
100
AcDbEntity
  8
375171-000-00-ED1_FORMAT
100
AcDbLine
 62
90
  6
CONTINUOUS
 10
318.7525720014
 20
55.5470821039
 11
318.7601098437
 21
53.9302530848
  0
LINE
  5
587
100
AcDbEntity
  8
375171-000-00-ED1_FORMAT
100
AcDbLine
 62
90
  6
CONTINUOUS
 10
317.504647119
 20
51.8526314954
 11
317.504647119
 21
56.61847423
  0
LINE
  5
588
100
AcDbEntity
  8
375171-000-00-ED1_FORMAT
100
AcDbLine
 62
90
  6
CONTINUOUS
 10
318.7919396796
 20
52.828049647
 11
318.7919396796
 21
51.769318502
  0
LINE
  5
589
100
AcDbEntity
  8
375171-000-00-ED1_FORMAT
100
AcDbLine
 62
90
  6
CONTINUOUS
 10
325.1310514025
 20
50.6036919035
 11
325.1310514025
 21
51.1375969661
  0
LINE
  5
58A
100
AcDbEntity
  8
375171-000-00-ED1_FORMAT
100
AcDbLine
 62
90
  6
CONTINUOUS
 10
325.1310514025
 20
56.99042631
 11
325.1310514025
 21
58.2890561516
  0
LINE
  5
58B
100
AcDbEntity
  8
375171-000-00-ED1_FORMAT
100
AcDbLine
 62
90
  6
CONTINUOUS
 10
325.4072355017
 20
50.7446373469
 11
325.4072355017
 21
58.1349919636
  0
LINE
  5
58C
100
AcDbEntity
  8
375171-000-00-ED1_FORMAT
100
AcDbLine
 62
90
  6
CONTINUOUS
 10
326.932168458
 20
58.7495740636
 11
326.932168458
 21
51.5395669008
  0
LINE
  5
58D
100
AcDbEntity
  8
375171-000-00-ED1_FORMAT
100
AcDbLine
 62
90
  6
CONTINUOUS
 10
327.4483428066
 20
52.1575097493
 11
327.4483428066
 21
51.7095612656
  0
LINE
  5
58E
100
AcDbEntity
  8
375171-000-00-ED1_FORMAT
100
AcDbLine
 62
90
  6
CONTINUOUS
 10
327.5174346078
 20
58.326871248
 11
327.5174346078
 21
55.960812751
  0
LINE
  5
58F
100
AcDbEntity
  8
375171-000-00-ED1_FORMAT
100
AcDbLine
 62
90
  6
CONTINUOUS
 10
328.2963042852
 20
50.9884537378
 11
328.2963042852
 21
49.2870452456
  0
LINE
  5
590
100
AcDbEntity
  8
375171-000-00-ED1_FORMAT
100
AcDbLine
 62
90
  6
CONTINUOUS
 10
328.8858123785
 20
51.1495865603
 11
328.8858123785
 21
49.3918693183
  0
LINE
  5
591
100
AcDbEntity
  8
375171-000-00-ED1_FORMAT
100
AcDbLine
 62
90
  6
CONTINUOUS
 10
320.8569422496
 20
54.976925971
 11
320.8524256478
 21
54.7780543461
  0
LINE
  5
592
100
AcDbEntity
  8
375171-000-00-ED1_FORMAT
100
AcDbLine
 62
90
  6
CONTINUOUS
 10
319.6602563841
 20
54.6050921466
 11
319.6758203499
 21
54.8334437538
  0
LINE
  5
593
100
AcDbEntity
  8
375171-000-00-ED1_FORMAT
100
AcDbLine
 62
90
  6
CONTINUOUS
 10
320.8524256478
 20
54.7780543461
 11
320.8380823852
 21
54.5885821358
  0
LINE
  5
594
100
AcDbEntity
  8
375171-000-00-ED1_FORMAT
100
AcDbLine
 62
7
  6
CONTINUOUS
 10
274.9014193732
 20
256.8499677874
 11
376.900004085
 21
256.8499677874
  0
LINE
  5
595
100
AcDbEntity
  8
375171-000-00-ED1_FORMAT
100
AcDbLine
 62
7
  6
CONTINUOUS
 10
135.0000610636
 20
259.0000097341
 11
23.0001
 21
259.0000097341
  0
LINE
  5
596
100
AcDbEntity
  8
375171-000-00-ED1_FORMAT
100
AcDbLine
 62
7
  6
CONTINUOUS
 10
264.9013593819
 20
261.3999623285
 11
410.0000007463
 21
261.3999623285
  0
LINE
  5
597
100
AcDbEntity
  8
375171-000-00-ED1_FORMAT
100
AcDbLine
 62
7
  6
CONTINUOUS
 10
135.0000610636
 20
265.0000076482
 11
23.0001
 21
265.0000076482
  0
LINE
  5
598
100
AcDbEntity
  8
375171-000-00-ED1_FORMAT
100
AcDbLine
 62
7
  6
CONTINUOUS
 10
274.9014193732
 20
265.9499568695
 11
376.900004085
 21
265.9499568695
  0
LINE
  5
599
100
AcDbEntity
  8
375171-000-00-ED1_FORMAT
100
AcDbLine
 62
90
  6
CONTINUOUS
 10
320.8380823852
 20
54.5885821358
 11
320.8140040145
 21
54.4085627459
  0
LINE
  5
59A
100
AcDbEntity
  8
375171-000-00-ED1_FORMAT
100
AcDbLine
 62
90
  6
CONTINUOUS
 10
322.5284816604
 20
55.3982936425
 11
322.2427760762
 21
53.4197740796
  0
LINE
  5
59B
100
AcDbEntity
  8
375171-000-00-ED1_FORMAT
100
AcDbLine
 62
90
  6
CONTINUOUS
 10
322.1121303161
 20
52.0335969303
 11
322.0031825554
 21
51.4534806222
  0
LINE
  5
59C
100
AcDbEntity
  8
375171-000-00-ED1_FORMAT
100
AcDbLine
 62
90
  6
CONTINUOUS
 10
320.8140040145
 20
54.4085627459
 11
320.780251571
 21
54.2380190647
  0
LINE
  5
59D
100
AcDbEntity
  8
375171-000-00-ED1_FORMAT
100
AcDbLine
 62
90
  6
CONTINUOUS
 10
314.4483114794
 20
52.701374987
 11
314.221260684
 21
51.6919106602
  0
LINE
  5
59E
100
AcDbEntity
  8
375171-000-00-ED1_FORMAT
100
AcDbLine
 62
90
  6
CONTINUOUS
 10
314.9602133668
 20
55.541772045
 11
314.5568930292
 21
53.7608995891
  0
LINE
  5
59F
100
AcDbEntity
  8
375171-000-00-ED1_FORMAT
100
AcDbLine
 62
90
  6
CONTINUOUS
 10
320.5375452571
 20
51.6192978933
 11
321.735726484
 21
56.8852055088
  0
LINE
  5
5A0
100
AcDbEntity
  8
375171-000-00-ED1_FORMAT
100
AcDbLine
 62
90
  6
CONTINUOUS
 10
319.6160669282
 20
54.4151469138
 11
319.6602563841
 21
54.6050921466
  0
LINE
  5
5A1
100
AcDbEntity
  8
375171-000-00-ED1_FORMAT
100
AcDbLine
 62
90
  6
CONTINUOUS
 10
320.780251571
 20
54.2380190647
 11
320.7368860898
 21
54.077000683
  0
LINE
  5
5A2
100
AcDbEntity
  8
375171-000-00-ED1_FORMAT
100
AcDbLine
 62
90
  6
CONTINUOUS
 10
312.6779866622
 20
51.4975518225
 11
314.1172567713
 21
56.6976177591
  0
LINE
  5
5A3
100
AcDbEntity
  8
375171-000-00-ED1_FORMAT
100
AcDbLine
 62
90
  6
CONTINUOUS
 10
310.7759784871
 20
53.7835398188
 11
309.6609271481
 21
51.1619538096
  0
LINE
  5
5A4
100
AcDbEntity
  8
375171-000-00-ED1_FORMAT
100
AcDbLine
 62
90
  6
CONTINUOUS
 10
308.4533770241
 20
50.4031799586
 11
306.8541032428
 21
49.5294349396
  0
LINE
  5
5A5
100
AcDbEntity
  8
375171-000-00-ED1_FORMAT
100
AcDbLine
 62
90
  6
CONTINUOUS
 10
319.9253015666
 20
53.0628747959
 11
319.7895898882
 21
52.9992570857
  0
LINE
  5
5A6
100
AcDbEntity
  8
375171-000-00-ED1_FORMAT
100
AcDbLine
 62
90
  6
CONTINUOUS
 10
306.2538224437
 20
59.0461400916
 11
306.8379899606
 21
59.3176893334
  0
LINE
  5
5A7
100
AcDbEntity
  8
375171-000-00-ED1_FORMAT
100
AcDbLine
 62
3
  6
CONTINUOUS
 10
302.0615436566
 20
54.2349992063
 11
306.2538224437
 21
56.1474824568
  0
LINE
  5
5A8
100
AcDbEntity
  8
375171-000-00-ED1_FORMAT
100
AcDbLine
 62
3
  6
CONTINUOUS
 10
309.0000094785
 20
57.4002704925
 11
317.2765282083
 21
61.1759505575
  0
LINE
  5
5A9
100
AcDbEntity
  8
375171-000-00-ED1_FORMAT
100
AcDbLine
 62
90
  6
CONTINUOUS
 10
309.189918818
 20
56.8570377824
 11
317.2765282083
 21
60.5323080919
  0
LINE
  5
5AA
100
AcDbEntity
  8
375171-000-00-ED1_FORMAT
100
AcDbLine
 62
90
  6
CONTINUOUS
 10
303.350532468
 20
54.2350054536
 11
306.2538224437
 21
55.54782597
  0
LINE
  5
5AB
100
AcDbEntity
  8
375171-000-00-ED1_FORMAT
100
AcDbLine
 62
90
  6
CONTINUOUS
 10
325.1310514025
 20
58.2890561516
 11
327.0021757866
 21
59.0598043381
  0
LINE
  5
5AC
100
AcDbEntity
  8
375171-000-00-ED1_FORMAT
100
AcDbLine
 62
90
  6
CONTINUOUS
 10
319.1567773488
 20
53.9852228758
 11
319.3136377102
 21
54.0486460365
  0
LINE
  5
5AD
100
AcDbEntity
  8
375171-000-00-ED1_FORMAT
100
AcDbLine
 62
90
  6
CONTINUOUS
 10
325.4072355017
 20
58.1349919636
 11
326.932168458
 21
58.7495740636
  0
LINE
  5
5AE
100
AcDbEntity
  8
375171-000-00-ED1_FORMAT
100
AcDbLine
 62
90
  6
CONTINUOUS
 10
319.7895898882
 20
52.9992570857
 11
319.6450586292
 21
52.9455957359
  0
LINE
  5
5AF
100
AcDbEntity
  8
375171-000-00-ED1_FORMAT
100
AcDbLine
 62
90
  6
CONTINUOUS
 10
319.6450586292
 20
52.9455957359
 11
319.4917077896
 21
52.901936523
  0
LINE
  5
5B0
100
AcDbEntity
  8
375171-000-00-ED1_FORMAT
100
AcDbLine
 62
7
  6
CONTINUOUS
 10
264.9013593819
 20
270.4999514106
 11
410.0000007463
 21
270.4999514106
  0
LINE
  5
5B1
100
AcDbEntity
  8
375171-000-00-ED1_FORMAT
100
AcDbLine
 62
7
  6
CONTINUOUS
 10
274.9014193732
 20
275.0499459516
 11
376.900004085
 21
275.0499459516
  0
LINE
  5
5B2
100
AcDbEntity
  8
375171-000-00-ED1_FORMAT
100
AcDbLine
 62
7
  6
CONTINUOUS
 10
264.9013593819
 20
279.5999404927
 11
410.0000007463
 21
279.5999404927
  0
LINE
  5
5B3
100
AcDbEntity
  8
375171-000-00-ED1_FORMAT
100
AcDbLine
 62
7
  6
CONTINUOUS
 10
135.0000610636
 20
281.0000010853
 11
23.0001
 21
281.0000010853
  0
LINE
  5
5B4
100
AcDbEntity
  8
375171-000-00-ED1_FORMAT
100
AcDbLine
 62
7
  6
CONTINUOUS
 10
344.9999968815
 20
13.500000112
 11
344.9999968815
 21
24.250000456
  0
LINE
  5
5B5
100
AcDbEntity
  8
375171-000-00-ED1_FORMAT
100
AcDbLine
 62
90
  6
CONTINUOUS
 10
320.7368860898
 20
54.077000683
 11
320.683968606
 21
53.9255419334
  0
LINE
  5
5B6
100
AcDbEntity
  8
375171-000-00-ED1_FORMAT
100
AcDbLine
 62
90
  6
CONTINUOUS
 10
320.683968606
 20
53.9255419334
 11
320.6215601549
 21
53.783688592
  0
LINE
  5
5B7
100
AcDbEntity
  8
375171-000-00-ED1_FORMAT
100
AcDbLine
 62
90
  6
CONTINUOUS
 10
319.5434350877
 20
54.2608958056
 11
319.6160669282
 21
54.4151469138
  0
LINE
  5
5B8
100
AcDbEntity
  8
375171-000-00-ED1_FORMAT
100
AcDbLine
 62
90
  6
CONTINUOUS
 10
320.6215601549
 20
53.783688592
 11
320.5497522891
 21
53.6514749913
  0
LINE
  5
5B9
100
AcDbEntity
  8
375171-000-00-ED1_FORMAT
100
AcDbLine
 62
90
  6
CONTINUOUS
 10
320.5497522891
 20
53.6514749913
 11
320.4686060438
 21
53.5289430928
  0
LINE
  5
5BA
100
AcDbEntity
  8
375171-000-00-ED1_FORMAT
100
AcDbLine
 62
90
  6
CONTINUOUS
 10
309.5429461837
 20
55.0142718596
 11
311.0026020363
 21
57.1580441183
  0
LINE
  5
5BB
100
AcDbEntity
  8
375171-000-00-ED1_FORMAT
100
AcDbLine
 62
90
  6
CONTINUOUS
 10
320.4686060438
 20
53.5289430928
 11
320.3782129718
 21
53.4161310435
  0
LINE
  5
5BC
100
AcDbEntity
  8
375171-000-00-ED1_FORMAT
100
AcDbLine
 62
90
  6
CONTINUOUS
 10
319.4425744858
 20
54.1396303867
 11
319.5434350877
 21
54.2608958056
  0
LINE
  5
5BD
100
AcDbEntity
  8
375171-000-00-ED1_FORMAT
100
AcDbLine
 62
90
  6
CONTINUOUS
 10
320.3782129718
 20
53.4161310435
 11
320.2786035906
 21
53.3130769905
  0
LINE
  5
5BE
100
AcDbEntity
  8
375171-000-00-ED1_FORMAT
100
AcDbLine
 62
90
  6
CONTINUOUS
 10
320.2786035906
 20
53.3130769905
 11
320.1698694529
 21
53.2198228953
  0
LINE
  5
5BF
100
AcDbEntity
  8
375171-000-00-ED1_FORMAT
100
AcDbLine
 62
90
  6
CONTINUOUS
 10
320.1698694529
 20
53.2198228953
 11
320.052071594
 21
53.1364107197
  0
LINE
  5
5C0
100
AcDbEntity
  8
375171-000-00-ED1_FORMAT
100
AcDbLine
 62
90
  6
CONTINUOUS
 10
319.3136377102
 20
54.0486460365
 11
319.4425744858
 21
54.1396303867
  0
LINE
  5
5C1
100
AcDbEntity
  8
375171-000-00-ED1_FORMAT
100
AcDbLine
 62
90
  6
CONTINUOUS
 10
320.052071594
 20
53.1364107197
 11
319.9253015666
 21
53.0628747959
  0
LINE
  5
5C2
100
AcDbEntity
  8
375171-000-00-ED1_FORMAT
100
AcDbLine
 62
90
  6
CONTINUOUS
 10
308.6563799664
 20
50.2336204693
 11
306.8480912796
 21
49.2196929465
  0
LINE
  5
5C3
100
AcDbEntity
  8
375171-000-00-ED1_FORMAT
100
AcDbLine
 62
90
  6
CONTINUOUS
 10
331.7164705138
 20
54.2350054536
 11
327.4483428066
 21
52.1575097493
  0
LINE
  5
5C4
100
AcDbEntity
  8
375171-000-00-ED1_FORMAT
100
AcDbLine
 62
3
  6
CONTINUOUS
 10
325.2098477941
 20
50.5635765446
 11
317.2765282083
 21
46.7702794944
  0
LINE
  5
5C5
100
AcDbEntity
  8
375171-000-00-ED1_FORMAT
100
AcDbLine
 62
3
  6
CONTINUOUS
 10
332.8883150692
 20
54.2350054536
 11
327.5355620503
 21
51.6755990137
  0
LINE
  5
5C6
100
AcDbEntity
  8
375171-000-00-ED1_FORMAT
100
AcDbLine
 62
90
  6
CONTINUOUS
 10
325.1310514025
 20
51.1375969661
 11
317.2765282083
 21
47.4442869521
  0
LINE
  5
5C7
100
AcDbEntity
  8
375171-000-00-ED1_FORMAT
100
AcDbLine
 62
7
  6
CONTINUOUS
 10
410.0
 20
287.0
 11
264.9013593819
 21
287.0
  0
LINE
  5
5C8
100
AcDbEntity
  8
375171-000-00-ED1_FORMAT
100
AcDbLine
 62
3
  6
CONTINUOUS
 10
23.0
 20
287.0
 11
23.0001
 21
287.0
  0
LINE
  5
5C9
100
AcDbEntity
  8
375171-000-00-ED1_FORMAT
100
AcDbLine
 62
7
  6
CONTINUOUS
 10
23.0001
 20
287.0
 11
135.0000610636
 21
287.0
  0
LINE
  5
5CA
100
AcDbEntity
  8
375171-000-00-ED1_FORMAT
100
AcDbLine
 62
3
  6
CONTINUOUS
 10
135.0000610636
 20
287.0
 11
264.9013593819
 21
287.0
  0
LINE
  5
5CB
100
AcDbEntity
  8
375171-000-00-ED1_FORMAT
100
AcDbLine
 62
7
  6
CONTINUOUS
 10
415.0
 20
292.0
 11
18.0
 21
292.0
  0
LINE
  5
5CC
100
AcDbEntity
  8
375171-000-00-ED1_FORMAT
100
AcDbLine
 62
6
  6
HIDDEN
 10
420.0
 20
297.0
 11
0.0
 21
297.0
  0
LINE
  5
5CD
100
AcDbEntity
  8
375171-000-00-ED1_FORMAT
100
AcDbLine
 62
3
  6
CONTINUOUS
 10
360.0
 20
10.0
 11
360.0
 21
5.0
  0
LINE
  5
5CE
100
AcDbEntity
  8
375171-000-00-ED1_FORMAT
100
AcDbLine
 62
3
  6
CONTINUOUS
 10
360.0
 20
287.0
 11
360.0
 21
292.0
  0
LINE
  5
5CF
100
AcDbEntity
  8
375171-000-00-ED1_FORMAT
100
AcDbLine
 62
7
  6
CONTINUOUS
 10
365.999998592
 20
35.0000008
 11
366.0000025448
 21
72.500002
  0
LINE
  5
5D0
100
AcDbEntity
  8
375171-000-00-ED1_FORMAT
100
AcDbLine
 62
90
  6
CONTINUOUS
 10
328.8858123785
 20
49.3918693183
 11
328.3335052152
 21
48.9736602163
  0
LINE
  5
5D1
100
AcDbEntity
  8
375171-000-00-ED1_FORMAT
100
AcDbLine
 62
7
  6
CONTINUOUS
 10
376.8994429408
 20
40.9546819905
 11
376.8994429408
 21
65.00000176
  0
LINE
  5
5D2
100
AcDbEntity
  8
375171-000-00-ED1_FORMAT
100
AcDbLine
 62
7
  6
CONTINUOUS
 10
376.900004085
 20
225.000007
 11
376.900004085
 21
287.0000007463
  0
LINE
  5
5D3
100
AcDbEntity
  8
375171-000-00-ED1_FORMAT
100
AcDbLine
 62
7
  6
CONTINUOUS
 10
377.7325379674
 20
13.500000112
 11
377.7325379674
 21
10.0
  0
LINE
  5
5D4
100
AcDbEntity
  8
375171-000-00-ED1_FORMAT
100
AcDbLine
 62
7
  6
CONTINUOUS
 10
391.8994434208
 20
65.00000176
 11
391.8994434208
 21
35.0000008
  0
LINE
  5
5D5
100
AcDbEntity
  8
375171-000-00-ED1_FORMAT
100
AcDbLine
 62
7
  6
CONTINUOUS
 10
391.900002572
 20
225.000007
 11
391.900002572
 21
287.0000007463
  0
LINE
  5
5D6
100
AcDbEntity
  8
375171-000-00-ED1_FORMAT
100
AcDbLine
 62
7
  6
CONTINUOUS
 10
399.9999602137
 20
13.500000112
 11
399.9999602137
 21
35.0000008
  0
LINE
  5
5D7
100
AcDbEntity
  8
375171-000-00-ED1_FORMAT
100
AcDbLine
 62
7
  6
CONTINUOUS
 10
410.0
 20
10.0
 11
410.0
 21
78.4999970131
  0
LINE
  5
5D8
100
AcDbEntity
  8
375171-000-00-ED1_FORMAT
100
AcDbLine
 62
3
  6
CONTINUOUS
 10
410.0
 20
78.4999970131
 11
410.0000007463
 21
225.000007
  0
LINE
  5
5D9
100
AcDbEntity
  8
375171-000-00-ED1_FORMAT
100
AcDbLine
 62
7
  6
CONTINUOUS
 10
410.0000007463
 20
225.000007
 11
410.0000007463
 21
287.0000007463
  0
LINE
  5
5DA
100
AcDbEntity
  8
375171-000-00-ED1_FORMAT
100
AcDbLine
 62
7
  6
CONTINUOUS
 10
415.0
 20
5.0
 11
415.0
 21
292.0
  0
LINE
  5
5DB
100
AcDbEntity
  8
375171-000-00-ED1_FORMAT
100
AcDbLine
 62
6
  6
HIDDEN
 10
420.0
 20
0.0
 11
420.0
 21
297.0
  0
LINE
  5
5DC
100
AcDbEntity
  8
30350709_CL
100
AcDbLine
 62
7
  6
CONTINUOUS
 10
77.0291205799
 20
152.2074946005
 11
77.0291205799
 21
137.8967548263
  0
LINE
  5
5DD
100
AcDbEntity
  8
30350709_CL
100
AcDbLine
 62
7
  6
CONTINUOUS
 10
77.0291205799
 20
166.7474946005
 11
77.0291205799
 21
181.0585446364
  0
LINE
  5
5DE
100
AcDbEntity
  8
30350709_CL
100
AcDbLine
 62
7
  6
CONTINUOUS
 10
78.0291205799
 20
153.2074946005
 11
78.0291205799
 21
150.3847153299
  0
LINE
  5
5DF
100
AcDbEntity
  8
30350709_HL
100
AcDbLine
 62
6
  6
HIDDEN
 10
78.0291205799
 20
142.4774946005
 11
78.0291205799
 21
150.3847153299
  0
LINE
  5
5E0
100
AcDbEntity
  8
30350709_CL
100
AcDbLine
 62
7
  6
CONTINUOUS
 10
78.0291205799
 20
165.7474946005
 11
78.0291205799
 21
168.5702738711
  0
LINE
  5
5E1
100
AcDbEntity
  8
30350709_HL
100
AcDbLine
 62
6
  6
HIDDEN
 10
78.0291205799
 20
168.5702738711
 11
78.0291205799
 21
176.4774946005
  0
LINE
  5
5E2
100
AcDbEntity
  8
30350709_CL
100
AcDbLine
 62
9
  6
CONTINUOUS
 10
78.1690756494
 20
182.2570414475
 11
78.1690756494
 21
168.60732497
  0
LINE
  5
5E3
100
AcDbEntity
  8
30350709_CL
100
AcDbLine
 62
9
  6
CONTINUOUS
 10
78.1690756494
 20
150.347664231
 11
78.1690756494
 21
136.6979477535
  0
LINE
  5
5E4
100
AcDbEntity
  8
30350709_CL
100
AcDbLine
 62
9
  6
CONTINUOUS
 10
81.5291205799
 20
153.2074946005
 11
81.5291205799
 21
149.8481984382
  0
LINE
  5
5E5
100
AcDbEntity
  8
30350709_CL
100
AcDbLine
 62
9
  6
CONTINUOUS
 10
81.5291205799
 20
165.7474946005
 11
81.5291205799
 21
169.1067907627
  0
LINE
  5
5E6
100
AcDbEntity
  8
30350709_CL
100
AcDbLine
 62
7
  6
CONTINUOUS
 10
83.0291205799
 20
166.6250294265
 11
83.0291205799
 21
152.3299597745
  0
LINE
  5
5E7
100
AcDbEntity
  8
30350709_CL
100
AcDbLine
 62
9
  6
CONTINUOUS
 10
85.5291205799
 20
153.2074946005
 11
85.5291205799
 21
147.2404276438
  0
LINE
  5
5E8
100
AcDbEntity
  8
30350709_CL
100
AcDbLine
 62
9
  6
CONTINUOUS
 10
85.5291205799
 20
165.7474946005
 11
85.5291205799
 21
171.7145615572
  0
LINE
  5
5E9
100
AcDbEntity
  8
30350709_HL
100
AcDbLine
 62
6
  6
HIDDEN
 10
87.0291205799
 20
152.0675084286
 11
87.0291205799
 21
166.8874807724
  0
LINE
  5
5EA
100
AcDbEntity
  8
30350709_HL
100
AcDbLine
 62
6
  6
HIDDEN
 10
89.9330951761
 20
176.4774946005
 11
89.9330951761
 21
142.4774946005
  0
LINE
  5
5EB
100
AcDbEntity
  8
30350709_CL
100
AcDbLine
 62
9
  6
CONTINUOUS
 10
91.4919409029
 20
139.7774946005
 11
91.4919409029
 21
179.1774946005
  0
LINE
  5
5EC
100
AcDbEntity
  8
30350709_CL
100
AcDbLine
 62
9
  6
CONTINUOUS
 10
92.0115561451
 20
139.4774946005
 11
92.0115561451
 21
179.4774946005
  0
LINE
  5
5ED
100
AcDbEntity
  8
30350709_HL
100
AcDbLine
 62
6
  6
HIDDEN
 10
89.9330951761
 20
176.4774946005
 11
91.4919409029
 21
179.1774946005
  0
LINE
  5
5EE
100
AcDbEntity
  8
30350709_HL
100
AcDbLine
 62
6
  6
HIDDEN
 10
89.9330951761
 20
142.4774946005
 11
91.4919409029
 21
139.7774946005
  0
LINE
  5
5EF
100
AcDbEntity
  8
30350709_AXIS
100
AcDbLine
 62
3
  6
CENTER
 10
99.9291205799
 20
159.4774946005
 11
99.9291205799
 21
150.7274946005
  0
LINE
  5
5F0
100
AcDbEntity
  8
30350709_AXIS
100
AcDbLine
 62
3
  6
CENTER
 10
99.9291205799
 20
159.4774946005
 11
99.9291205799
 21
168.2274946005
  0
LINE
  5
5F1
100
AcDbEntity
  8
30350709_CL
100
AcDbLine
 62
9
  6
CONTINUOUS
 10
102.6841225815
 20
156.9333908347
 11
102.6841225815
 21
139.4774946005
  0
LINE
  5
5F2
100
AcDbEntity
  8
30350709_CL
100
AcDbLine
 62
9
  6
CONTINUOUS
 10
102.6841225815
 20
162.0215983663
 11
102.6841225815
 21
179.4774946005
  0
LINE
  5
5F3
100
AcDbEntity
  8
30350709_CL
100
AcDbLine
 62
7
  6
CONTINUOUS
 10
106.9291205799
 20
135.2570637387
 11
106.9291205799
 21
183.6979254622
  0
LINE
  5
5F4
100
AcDbEntity
  8
30350709_CL
100
AcDbLine
 62
9
  6
CONTINUOUS
 10
107.5992308129
 20
183.5183699665
 11
107.5992308129
 21
135.4366192345
  0
LINE
  5
5F5
100
AcDbEntity
  8
30350709_CL
100
AcDbLine
 62
9
  6
CONTINUOUS
 10
107.7545222399
 20
183.4979254622
 11
107.7545222399
 21
135.4570637387
  0
LINE
  5
5F6
100
AcDbEntity
  8
30350709_CL
100
AcDbLine
 62
9
  6
CONTINUOUS
 10
108.4291205799
 20
183.4979254622
 11
108.4291205799
 21
135.4570637387
  0
LINE
  5
5F7
100
AcDbEntity
  8
30350709_CL
100
AcDbLine
 62
7
  6
CONTINUOUS
 10
108.9291205799
 20
128.1774974121
 11
108.9291205799
 21
190.7774917889
  0
LINE
  5
5F8
100
AcDbEntity
  8
30350709_CL
100
AcDbLine
 62
9
  6
CONTINUOUS
 10
109.0232814211
 20
134.7735598782
 11
109.0232814211
 21
184.1814293228
  0
LINE
  5
5F9
100
AcDbEntity
  8
30350709_HL
100
AcDbLine
 62
6
  6
HIDDEN
 10
109.0291205799
 20
184.0979254622
 11
109.0291205799
 21
134.8570637387
  0
LINE
  5
5FA
100
AcDbEntity
  8
30350709_CL
100
AcDbLine
 62
7
  6
CONTINUOUS
 10
109.1291205799
 20
127.9774946005
 11
109.1291205799
 21
190.9774946005
  0
LINE
  5
5FB
100
AcDbEntity
  8
30350709_HL
100
AcDbLine
 62
6
  6
HIDDEN
 10
110.9291205799
 20
190.3774946005
 11
110.9291205799
 21
186.2774946005
  0
LINE
  5
5FC
100
AcDbEntity
  8
30350709_HL
100
AcDbLine
 62
6
  6
HIDDEN
 10
112.1791205799
 20
128.4261346301
 11
112.1791205799
 21
134.6190032454
  0
LINE
  5
5FD
100
AcDbEntity
  8
30350709_HL
100
AcDbLine
 62
6
  6
HIDDEN
 10
113.8791205799
 20
160.4774946005
 11
113.8791205799
 21
158.4774946005
  0
LINE
  5
5FE
100
AcDbEntity
  8
30350709_HL
100
AcDbLine
 62
6
  6
HIDDEN
 10
108.9291205799
 20
134.1035706793
 11
109.0232814211
 21
134.7735598782
  0
LINE
  5
5FF
100
AcDbEntity
  8
30350709_CL
100
AcDbLine
 62
7
  6
CONTINUOUS
 10
108.9291205799
 20
190.7774946005
 11
109.1291205799
 21
190.9774946005
  0
LINE
  5
600
100
AcDbEntity
  8
30350709_CL
100
AcDbLine
 62
7
  6
CONTINUOUS
 10
108.9291205799
 20
128.1774946005
 11
109.1291205799
 21
127.9774946005
  0
LINE
  5
601
100
AcDbEntity
  8
30350709_HL
100
AcDbLine
 62
6
  6
HIDDEN
 10
108.9291205799
 20
184.8514185216
 11
109.0232814211
 21
184.1814293228
  0
LINE
  5
602
100
AcDbEntity
  8
30350709_AXIS
100
AcDbLine
 62
3
  6
CENTER
 10
115.9291205799
 20
138.9474946005
 11
115.9291205799
 21
124.7361346301
  0
LINE
  5
603
100
AcDbEntity
  8
30350709_AXIS
100
AcDbLine
 62
3
  6
CENTER
 10
115.9291205799
 20
182.3774946005
 11
115.9291205799
 21
195.3774946005
  0
LINE
  5
604
100
AcDbEntity
  8
30350709_HL
100
AcDbLine
 62
6
  6
HIDDEN
 10
116.5999643823
 20
176.4774946005
 11
116.5999643823
 21
142.4774946005
  0
LINE
  5
605
100
AcDbEntity
  8
30350709_HL
100
AcDbLine
 62
6
  6
HIDDEN
 10
118.9291205799
 20
175.2240403652
 11
118.9291205799
 21
143.7309488358
  0
LINE
  5
606
100
AcDbEntity
  8
30350709_HL
100
AcDbLine
 62
6
  6
HIDDEN
 10
118.9291205799
 20
143.7309488358
 11
118.9291205799
 21
143.7274971969
  0
LINE
  5
607
100
AcDbEntity
  8
30350709_HL
100
AcDbLine
 62
6
  6
HIDDEN
 10
118.9291205799
 20
175.2240403652
 11
118.9291205799
 21
175.2274920041
  0
LINE
  5
608
100
AcDbEntity
  8
30350709_HL
100
AcDbLine
 62
6
  6
HIDDEN
 10
119.6791205799
 20
128.4261346301
 11
119.6791205799
 21
134.6190032454
  0
LINE
  5
609
100
AcDbEntity
  8
30350709_HL
100
AcDbLine
 62
6
  6
HIDDEN
 10
120.9291205799
 20
190.3774946005
 11
120.9291205799
 21
186.2774946005
  0
LINE
  5
60A
100
AcDbEntity
  8
30350709_CL
100
AcDbLine
 62
7
  6
CONTINUOUS
 10
77.0291205799
 20
152.2074946005
 11
78.0291205799
 21
153.2074946005
  0
LINE
  5
60B
100
AcDbEntity
  8
30350709_HL
100
AcDbLine
 62
6
  6
HIDDEN
 10
121.5291205799
 20
190.9774946005
 11
120.9291205799
 21
190.3774946005
  0
LINE
  5
60C
100
AcDbEntity
  8
30350709_HL
100
AcDbLine
 62
6
  6
HIDDEN
 10
116.5291205799
 20
185.9774946005
 11
115.9291205799
 21
185.3774946005
  0
LINE
  5
60D
100
AcDbEntity
  8
30350709_CL
100
AcDbLine
 62
7
  6
CONTINUOUS
 10
78.0291205799
 20
165.7474946005
 11
77.0291205799
 21
166.7474946005
  0
LINE
  5
60E
100
AcDbEntity
  8
30350709_HL
100
AcDbLine
 62
6
  6
HIDDEN
 10
120.1277605667
 20
127.9774946433
 11
119.6791205799
 21
128.4261346301
  0
LINE
  5
60F
100
AcDbEntity
  8
30350709_CL
100
AcDbLine
 62
7
  6
CONTINUOUS
 10
123.5516215051
 20
190.9774946005
 11
123.5516215051
 21
167.4774946005
  0
LINE
  5
610
100
AcDbEntity
  8
30350709_CL
100
AcDbLine
 62
7
  6
CONTINUOUS
 10
123.5516215051
 20
151.4774946005
 11
123.5516215051
 21
139.4774946005
  0
LINE
  5
611
100
AcDbEntity
  8
30350709_CL
100
AcDbLine
 62
7
  6
CONTINUOUS
 10
123.5516215051
 20
135.1413075532
 11
123.5516215051
 21
127.9774946005
  0
LINE
  5
612
100
AcDbEntity
  8
30350709_HL
100
AcDbLine
 62
6
  6
HIDDEN
 10
123.5516215051
 20
135.1413075532
 11
123.5516215051
 21
139.4774946005
  0
LINE
  5
613
100
AcDbEntity
  8
30350709_CL
100
AcDbLine
 62
7
  6
CONTINUOUS
 10
125.0541205799
 20
188.375089661
 11
125.0541205799
 21
167.4774946005
  0
LINE
  5
614
100
AcDbEntity
  8
30350709_CL
100
AcDbLine
 62
7
  6
CONTINUOUS
 10
125.0541205799
 20
130.5799017203
 11
125.0541205799
 21
151.4774946005
  0
LINE
  5
615
100
AcDbEntity
  8
30350709_CL
100
AcDbLine
 62
9
  6
CONTINUOUS
 10
125.8041205799
 20
186.9774946005
 11
125.8041205799
 21
166.8259638288
  0
LINE
  5
616
100
AcDbEntity
  8
30350709_CL
100
AcDbLine
 62
9
  6
CONTINUOUS
 10
125.8041205799
 20
152.1290253721
 11
125.8041205799
 21
131.9774946005
  0
LINE
  5
617
100
AcDbEntity
  8
30350709_AXIS
100
AcDbLine
 62
3
  6
CENTER
 10
126.9291205799
 20
159.4774946005
 11
126.9291205799
 21
152.5274946005
  0
LINE
  5
618
100
AcDbEntity
  8
30350709_AXIS
100
AcDbLine
 62
3
  6
CENTER
 10
126.9291205799
 20
159.4774946005
 11
126.9291205799
 21
166.4274946005
  0
LINE
  5
619
100
AcDbEntity
  8
30350709_HL
100
AcDbLine
 62
6
  6
HIDDEN
 10
127.2291205799
 20
149.9774973484
 11
127.2291205799
 21
168.9774918526
  0
LINE
  5
61A
100
AcDbEntity
  8
30350709_CL
100
AcDbLine
 62
9
  6
CONTINUOUS
 10
128.0541205799
 20
186.9774946005
 11
128.0541205799
 21
166.8259638288
  0
LINE
  5
61B
100
AcDbEntity
  8
30350709_CL
100
AcDbLine
 62
9
  6
CONTINUOUS
 10
128.0541205799
 20
152.1290253721
 11
128.0541205799
 21
131.9774946005
  0
LINE
  5
61C
100
AcDbEntity
  8
30350709_CL
100
AcDbLine
 62
7
  6
CONTINUOUS
 10
128.8041205799
 20
130.5799017203
 11
128.8041205799
 21
151.4774946005
  0
LINE
  5
61D
100
AcDbEntity
  8
30350709_CL
100
AcDbLine
 62
7
  6
CONTINUOUS
 10
128.8041205799
 20
167.4774946005
 11
128.8041205799
 21
188.375089661
  0
LINE
  5
61E
100
AcDbEntity
  8
30350709_CL
100
AcDbLine
 62
7
  6
CONTINUOUS
 10
130.3066196546
 20
190.9774946005
 11
128.8041205799
 21
188.3750898647
  0
LINE
  5
61F
100
AcDbEntity
  8
30350709_HL
100
AcDbLine
 62
6
  6
HIDDEN
 10
120.9291205799
 20
186.2774946005
 11
120.6291205799
 21
185.9774946005
  0
LINE
  5
620
100
AcDbEntity
  8
30350709_CL
100
AcDbLine
 62
7
  6
CONTINUOUS
 10
130.3066196546
 20
127.9774946005
 11
128.8041205799
 21
130.5798993363
  0
LINE
  5
621
100
AcDbEntity
  8
30350709_CL
100
AcDbLine
 62
7
  6
CONTINUOUS
 10
130.3066196546
 20
190.9774946005
 11
130.3066196546
 21
167.4774946005
  0
LINE
  5
622
100
AcDbEntity
  8
30350709_CL
100
AcDbLine
 62
7
  6
CONTINUOUS
 10
130.3066196546
 20
151.4774946005
 11
130.3066196546
 21
139.4774946005
  0
LINE
  5
623
100
AcDbEntity
  8
30350709_CL
100
AcDbLine
 62
7
  6
CONTINUOUS
 10
130.3066196546
 20
135.1413075532
 11
130.3066196546
 21
127.9774946005
  0
LINE
  5
624
100
AcDbEntity
  8
30350709_HL
100
AcDbLine
 62
6
  6
HIDDEN
 10
130.3066196546
 20
135.1413075532
 11
130.3066196546
 21
139.4774946005
  0
LINE
  5
625
100
AcDbEntity
  8
30350709_HL
100
AcDbLine
 62
6
  6
HIDDEN
 10
130.9291205799
 20
149.9774973484
 11
130.9291205799
 21
168.9774918526
  0
LINE
  5
626
100
AcDbEntity
  8
30350709_CL
100
AcDbLine
 62
7
  6
CONTINUOUS
 10
134.8791205799
 20
127.9774947743
 11
134.8791205799
 21
190.9774942152
  0
LINE
  5
627
100
AcDbEntity
  8
30350709_CL
100
AcDbLine
 62
9
  6
CONTINUOUS
 10
77.5001566719
 20
169.6948426508
 11
77.2759095187
 21
169.5930365737
  0
LINE
  5
628
100
AcDbEntity
  8
30350709_CL
100
AcDbLine
 62
9
  6
CONTINUOUS
 10
77.2759095187
 20
149.3619526273
 11
77.5001566719
 21
149.2601465502
  0
LINE
  5
629
100
AcDbEntity
  8
30350709_CL
100
AcDbLine
 62
9
  6
CONTINUOUS
 10
144.8791205799
 20
172.9774946005
 11
144.8791205799
 21
145.9774946005
  0
LINE
  5
62A
100
AcDbEntity
  8
30350709_HL
100
AcDbLine
 62
6
  6
HIDDEN
 10
119.6791205799
 20
134.6190032454
 11
116.0291205799
 21
135.9474946005
  0
LINE
  5
62B
100
AcDbEntity
  8
30350709_CL
100
AcDbLine
 62
7
  6
CONTINUOUS
 10
125.0541205799
 20
130.5798993363
 11
123.5516215051
 21
127.9774946005
  0
LINE
  5
62C
100
AcDbEntity
  8
30350709_HL
100
AcDbLine
 62
6
  6
HIDDEN
 10
78.0291205799
 20
142.4774946005
 11
77.0291205799
 21
141.9001443313
  0
LINE
  5
62D
100
AcDbEntity
  8
30350709_HL
100
AcDbLine
 62
6
  6
HIDDEN
 10
78.0291205799
 20
176.4774946005
 11
77.0291205799
 21
177.0548448697
  0
LINE
  5
62E
100
AcDbEntity
  8
30350709_HL
100
AcDbLine
 62
6
  6
HIDDEN
 10
110.9291205799
 20
186.2774946005
 11
111.2291205799
 21
185.9774946005
  0
LINE
  5
62F
100
AcDbEntity
  8
30350709_CL
100
AcDbLine
 62
7
  6
CONTINUOUS
 10
125.0541205799
 20
188.3750898647
 11
123.5516215051
 21
190.9774946005
  0
LINE
  5
630
100
AcDbEntity
  8
30350709_HL
100
AcDbLine
 62
6
  6
HIDDEN
 10
111.7304805749
 20
127.9774946251
 11
112.1791205799
 21
128.4261346301
  0
LINE
  5
631
100
AcDbEntity
  8
30350709_CL
100
AcDbLine
 62
7
  6
CONTINUOUS
 10
109.1291205799
 20
127.9774946005
 11
111.7304807601
 21
127.9774946005
  0
LINE
  5
632
100
AcDbEntity
  8
30350709_CL
100
AcDbLine
 62
7
  6
CONTINUOUS
 10
120.1277602449
 20
127.9774946005
 11
123.5516215051
 21
127.9774946005
  0
LINE
  5
633
100
AcDbEntity
  8
30350709_CL
100
AcDbLine
 62
7
  6
CONTINUOUS
 10
130.3066196546
 20
127.9774946005
 11
134.8791205799
 21
127.9774946005
  0
LINE
  5
634
100
AcDbEntity
  8
30350709_HL
100
AcDbLine
 62
6
  6
HIDDEN
 10
119.6791205799
 20
128.4261346301
 11
112.1791205799
 21
128.4261346301
  0
LINE
  5
635
100
AcDbEntity
  8
30350709_HL
100
AcDbLine
 62
6
  6
HIDDEN
 10
110.3291205799
 20
190.9774946005
 11
110.9291205799
 21
190.3774946005
  0
LINE
  5
636
100
AcDbEntity
  8
30350709_HL
100
AcDbLine
 62
6
  6
HIDDEN
 10
115.3291205799
 20
185.9774946005
 11
115.9291205799
 21
185.3774946005
  0
LINE
  5
637
100
AcDbEntity
  8
30350709_CL
100
AcDbLine
 62
7
  6
CONTINUOUS
 10
128.0541205799
 20
131.9774946005
 11
125.8041205799
 21
131.9774946005
  0
LINE
  5
638
100
AcDbEntity
  8
30350709_HL
100
AcDbLine
 62
6
  6
HIDDEN
 10
119.6791205799
 20
134.6190032454
 11
112.1791205799
 21
134.6190032454
  0
LINE
  5
639
100
AcDbEntity
  8
30350709_CL
100
AcDbLine
 62
7
  6
CONTINUOUS
 10
114.7674066762
 20
135.1413075532
 11
123.5516215051
 21
135.1413075532
  0
LINE
  5
63A
100
AcDbEntity
  8
30350709_CL
100
AcDbLine
 62
7
  6
CONTINUOUS
 10
130.3066196546
 20
135.1413075532
 11
134.8791205799
 21
135.1413075532
  0
LINE
  5
63B
100
AcDbEntity
  8
30350709_CL
100
AcDbLine
 62
7
  6
CONTINUOUS
 10
107.7545222399
 20
135.4570637387
 11
108.4291205799
 21
135.4570637387
  0
LINE
  5
63C
100
AcDbEntity
  8
30350709_HL
100
AcDbLine
 62
6
  6
HIDDEN
 10
115.8291233056
 20
135.9474946005
 11
116.0291178541
 21
135.9474946005
  0
LINE
  5
63D
100
AcDbEntity
  8
30350709_CL
100
AcDbLine
 62
7
  6
CONTINUOUS
 10
78.1690756494
 20
136.6979477535
 11
106.9291205799
 21
135.2570637387
  0
LINE
  5
63E
100
AcDbEntity
  8
30350709_CL
100
AcDbLine
 62
7
  6
CONTINUOUS
 10
270.8105063713
 20
145.9774946005
 11
308.0075796756
 21
148.9049677584
  0
LINE
  5
63F
100
AcDbEntity
  8
30350709_HL
100
AcDbLine
 62
6
  6
HIDDEN
 10
92.0115561451
 20
139.4774946005
 11
102.6841225815
 21
139.4774946005
  0
LINE
  5
640
100
AcDbEntity
  8
30350709_CL
100
AcDbLine
 62
7
  6
CONTINUOUS
 10
121.8791205799
 20
139.4774946005
 11
125.0541205799
 21
139.4774946005
  0
LINE
  5
641
100
AcDbEntity
  8
30350709_CL
100
AcDbLine
 62
7
  6
CONTINUOUS
 10
128.8041205799
 20
139.4774946005
 11
134.8791205799
 21
139.4774946005
  0
LINE
  5
642
100
AcDbEntity
  8
30350709_HL
100
AcDbLine
 62
6
  6
HIDDEN
 10
78.0291205799
 20
142.4774946005
 11
89.9330951761
 21
142.4774946005
  0
LINE
  5
643
100
AcDbEntity
  8
30350709_HL
100
AcDbLine
 62
6
  6
HIDDEN
 10
108.9291205799
 20
142.4774946005
 11
116.5999643823
 21
142.4774946005
  0
LINE
  5
644
100
AcDbEntity
  8
30350709_CL
100
AcDbLine
 62
7
  6
CONTINUOUS
 10
144.8791205799
 20
145.9774946005
 11
258.9291205799
 21
145.9774946005
  0
LINE
  5
645
100
AcDbEntity
  8
30350709_CL
100
AcDbLine
 62
7
  6
CONTINUOUS
 10
266.9291205799
 20
145.9774946005
 11
270.8105063713
 21
145.9774946005
  0
LINE
  5
646
100
AcDbEntity
  8
30350709_CL
100
AcDbLine
 62
7
  6
CONTINUOUS
 10
258.9291205799
 20
146.0774946005
 11
260.4291208536
 21
146.0774946005
  0
LINE
  5
647
100
AcDbEntity
  8
30350709_CL
100
AcDbLine
 62
7
  6
CONTINUOUS
 10
265.4291202313
 20
146.0774946005
 11
266.9291205799
 21
146.0774946005
  0
LINE
  5
648
100
AcDbEntity
  8
30350709_CL
100
AcDbLine
 62
9
  6
CONTINUOUS
 10
85.5291205799
 20
149.0200019612
 11
83.8312925987
 21
149.0200019612
  0
LINE
  5
649
100
AcDbEntity
  8
30350709_HL
100
AcDbLine
 62
6
  6
HIDDEN
 10
130.9291205799
 20
149.9774946005
 11
127.2291205799
 21
149.9774946005
  0
LINE
  5
64A
100
AcDbEntity
  8
30350709_HL
100
AcDbLine
 62
6
  6
HIDDEN
 10
127.2291205799
 20
150.4774946005
 11
118.9291205799
 21
150.4774946005
  0
LINE
  5
64B
100
AcDbEntity
  8
30350709_HL
100
AcDbLine
 62
6
  6
HIDDEN
 10
128.7563474055
 20
150.4774946005
 11
134.8791205799
 21
150.4774946005
  0
LINE
  5
64C
100
AcDbEntity
  8
30350709_HL
100
AcDbLine
 62
6
  6
HIDDEN
 10
127.2291205799
 20
150.9774946005
 11
118.9291205799
 21
150.9774946005
  0
LINE
  5
64D
100
AcDbEntity
  8
30350709_CL
100
AcDbLine
 62
7
  6
CONTINUOUS
 10
121.8791205799
 20
151.4774946005
 11
125.3152540026
 21
151.4774946005
  0
LINE
  5
64E
100
AcDbEntity
  8
30350709_CL
100
AcDbLine
 62
7
  6
CONTINUOUS
 10
128.5429871571
 20
151.4774946005
 11
134.8791205799
 21
151.4774946005
  0
LINE
  5
64F
100
AcDbEntity
  8
30350709_CL
100
AcDbLine
 62
7
  6
CONTINUOUS
 10
128.0541205799
 20
152.1290253721
 11
125.8041205799
 21
152.1290253721
  0
LINE
  5
650
100
AcDbEntity
  8
30350709_HL
100
AcDbLine
 62
6
  6
HIDDEN
 10
112.1791205799
 20
134.6190032454
 11
115.8291205799
 21
135.9474946005
  0
LINE
  5
651
100
AcDbEntity
  8
30350709_CL
100
AcDbLine
 62
7
  6
CONTINUOUS
 10
106.9291205799
 20
135.2570637387
 11
107.5992308129
 21
135.4366192345
  0
LINE
  5
652
100
AcDbEntity
  8
30350709_HL
100
AcDbLine
 62
6
  6
HIDDEN
 10
306.9291205799
 20
163.4774946005
 11
308.0162763226
 21
163.5726084035
  0
LINE
  5
653
100
AcDbEntity
  8
30350709_HL
100
AcDbLine
 62
6
  6
HIDDEN
 10
265.9291205799
 20
152.5774946005
 11
259.9291205799
 21
152.5774946005
  0
LINE
  5
654
100
AcDbEntity
  8
30350709_HL
100
AcDbLine
 62
6
  6
HIDDEN
 10
85.5291205799
 20
153.2074946005
 11
81.5291205799
 21
153.2074946005
  0
LINE
  5
655
100
AcDbEntity
  8
30350709_CL
100
AcDbLine
 62
7
  6
CONTINUOUS
 10
78.0291205799
 20
153.2074946005
 11
81.5291205799
 21
153.2074946005
  0
LINE
  5
656
100
AcDbEntity
  8
30350709_HL
100
AcDbLine
 62
6
  6
HIDDEN
 10
265.4291205799
 20
154.5774946005
 11
260.4291205799
 21
154.5774946005
  0
LINE
  5
657
100
AcDbEntity
  8
30350709_HL
100
AcDbLine
 62
6
  6
HIDDEN
 10
272.4291205799
 20
155.3274946005
 11
282.9291205799
 21
155.3274946005
  0
LINE
  5
658
100
AcDbEntity
  8
30350709_HL
100
AcDbLine
 62
6
  6
HIDDEN
 10
130.9291205799
 20
155.4774946005
 11
255.2291205799
 21
155.4774946005
  0
LINE
  5
659
100
AcDbEntity
  8
30350709_HL
100
AcDbLine
 62
6
  6
HIDDEN
 10
282.9291205799
 20
155.4774946005
 11
306.9291205799
 21
155.4774946005
  0
LINE
  5
65A
100
AcDbEntity
  8
30252540_HL
100
AcDbLine
 62
6
  6
HIDDEN
 10
272.4291205799
 20
155.9774946005
 11
272.9291205799
 21
155.9774946005
  0
LINE
  5
65B
100
AcDbEntity
  8
30350709_HL
100
AcDbLine
 62
6
  6
HIDDEN
 10
272.4291205799
 20
156.4774946005
 11
255.9291205799
 21
156.4774946005
  0
LINE
  5
65C
100
AcDbEntity
  8
30252540_HL
100
AcDbLine
 62
6
  6
HIDDEN
 10
261.0441205799
 20
156.4774946005
 11
268.9291205799
 21
156.4774946005
  0
LINE
  5
65D
100
AcDbEntity
  8
30350709_HL
100
AcDbLine
 62
6
  6
HIDDEN
 10
256.1304115084
 20
156.9774946005
 11
271.8291205799
 21
156.9774946005
  0
LINE
  5
65E
100
AcDbEntity
  8
30252540_HL
100
AcDbLine
 62
6
  6
HIDDEN
 10
260.4291205799
 20
157.0924946005
 11
269.9943318265
 21
157.0924946005
  0
LINE
  5
65F
100
AcDbEntity
  8
30252540_HL
100
AcDbLine
 62
6
  6
HIDDEN
 10
270.4755307414
 20
157.2774946005
 11
271.3321550684
 21
157.2774946005
  0
LINE
  5
660
100
AcDbEntity
  8
30252540_HL
100
AcDbLine
 62
6
  6
HIDDEN
 10
260.7291205799
 20
157.9774946005
 11
272.6291205799
 21
157.9774946005
  0
LINE
  5
661
100
AcDbEntity
  8
30350709_AXIS
100
AcDbLine
 62
3
  6
CENTER
 10
126.9291205799
 20
159.4774946005
 11
119.9791205799
 21
159.4774946005
  0
LINE
  5
662
100
AcDbEntity
  8
30350709_AXIS
100
AcDbLine
 62
3
  6
CENTER
 10
99.9291205799
 20
159.4774946005
 11
91.1791205799
 21
159.4774946005
  0
LINE
  5
663
100
AcDbEntity
  8
30350709_AXIS
100
AcDbLine
 62
3
  6
CENTER
 10
311.9291205799
 20
159.4774946005
 11
74.0291205799
 21
159.4774946005
  0
LINE
  5
664
100
AcDbEntity
  8
30350709_AXIS
100
AcDbLine
 62
3
  6
CENTER
 10
99.9291205799
 20
159.4774946005
 11
108.6791205799
 21
159.4774946005
  0
LINE
  5
665
100
AcDbEntity
  8
30350709_AXIS
100
AcDbLine
 62
3
  6
CENTER
 10
126.9291205799
 20
159.4774946005
 11
133.8791205799
 21
159.4774946005
  0
LINE
  5
666
100
AcDbEntity
  8
30252540_HL
100
AcDbLine
 62
6
  6
HIDDEN
 10
260.4291205799
 20
159.4774946005
 11
264.4291205799
 21
159.4774946005
  0
LINE
  5
667
100
AcDbEntity
  8
30252540_HL
100
AcDbLine
 62
6
  6
HIDDEN
 10
268.9291205799
 20
159.4774946005
 11
272.9291205799
 21
159.4774946005
  0
LINE
  5
668
100
AcDbEntity
  8
30252540_HL
100
AcDbLine
 62
6
  6
HIDDEN
 10
260.7291205799
 20
160.9774946005
 11
272.6291205799
 21
160.9774946005
  0
LINE
  5
669
100
AcDbEntity
  8
30252540_HL
100
AcDbLine
 62
6
  6
HIDDEN
 10
270.4755307414
 20
161.6774946005
 11
271.3321550684
 21
161.6774946005
  0
LINE
  5
66A
100
AcDbEntity
  8
30252540_HL
100
AcDbLine
 62
6
  6
HIDDEN
 10
260.4291205799
 20
161.8624946005
 11
269.9943318265
 21
161.8624946005
  0
LINE
  5
66B
100
AcDbEntity
  8
30350709_HL
100
AcDbLine
 62
6
  6
HIDDEN
 10
256.1304115084
 20
161.9774946005
 11
271.8291205799
 21
161.9774946005
  0
LINE
  5
66C
100
AcDbEntity
  8
30350709_HL
100
AcDbLine
 62
6
  6
HIDDEN
 10
272.4291205799
 20
162.4774946005
 11
255.9291205799
 21
162.4774946005
  0
LINE
  5
66D
100
AcDbEntity
  8
30252540_HL
100
AcDbLine
 62
6
  6
HIDDEN
 10
261.0441205799
 20
162.4774946005
 11
268.9291205799
 21
162.4774946005
  0
LINE
  5
66E
100
AcDbEntity
  8
30252540_HL
100
AcDbLine
 62
6
  6
HIDDEN
 10
272.4291205799
 20
162.9774946005
 11
272.9291205799
 21
162.9774946005
  0
LINE
  5
66F
100
AcDbEntity
  8
30350709_HL
100
AcDbLine
 62
6
  6
HIDDEN
 10
130.9291205799
 20
163.4774946005
 11
255.2291205799
 21
163.4774946005
  0
LINE
  5
670
100
AcDbEntity
  8
30350709_HL
100
AcDbLine
 62
6
  6
HIDDEN
 10
282.9291205799
 20
163.4774946005
 11
306.9291205799
 21
163.4774946005
  0
LINE
  5
671
100
AcDbEntity
  8
30350709_HL
100
AcDbLine
 62
6
  6
HIDDEN
 10
272.4291205799
 20
163.6274946005
 11
282.9291205799
 21
163.6274946005
  0
LINE
  5
672
100
AcDbEntity
  8
30350709_HL
100
AcDbLine
 62
6
  6
HIDDEN
 10
265.4291205799
 20
164.3774946005
 11
260.4291205799
 21
164.3774946005
  0
LINE
  5
673
100
AcDbEntity
  8
30350709_CL
100
AcDbLine
 62
7
  6
CONTINUOUS
 10
81.5291205799
 20
165.7474946005
 11
78.0291205799
 21
165.7474946005
  0
LINE
  5
674
100
AcDbEntity
  8
30350709_HL
100
AcDbLine
 62
6
  6
HIDDEN
 10
81.5291205799
 20
165.7474946005
 11
85.5291205799
 21
165.7474946005
  0
LINE
  5
675
100
AcDbEntity
  8
30350709_HL
100
AcDbLine
 62
6
  6
HIDDEN
 10
265.9291205799
 20
166.3774946005
 11
259.9291205799
 21
166.3774946005
  0
LINE
  5
676
100
AcDbEntity
  8
30350709_CL
100
AcDbLine
 62
7
  6
CONTINUOUS
 10
128.0541205799
 20
166.8259638288
 11
125.8041205799
 21
166.8259638288
  0
LINE
  5
677
100
AcDbEntity
  8
30350709_CL
100
AcDbLine
 62
7
  6
CONTINUOUS
 10
121.8791205799
 20
167.4774946005
 11
125.3152540026
 21
167.4774946005
  0
LINE
  5
678
100
AcDbEntity
  8
30350709_CL
100
AcDbLine
 62
7
  6
CONTINUOUS
 10
128.5429871571
 20
167.4774946005
 11
134.8791205799
 21
167.4774946005
  0
LINE
  5
679
100
AcDbEntity
  8
30350709_HL
100
AcDbLine
 62
6
  6
HIDDEN
 10
127.2291205799
 20
167.9774946005
 11
118.9291205799
 21
167.9774946005
  0
LINE
  5
67A
100
AcDbEntity
  8
30350709_HL
100
AcDbLine
 62
6
  6
HIDDEN
 10
134.8791205799
 20
168.4774946005
 11
128.7563474055
 21
168.4774946005
  0
LINE
  5
67B
100
AcDbEntity
  8
30350709_HL
100
AcDbLine
 62
6
  6
HIDDEN
 10
127.2291205799
 20
168.4774946005
 11
118.9291205799
 21
168.4774946005
  0
LINE
  5
67C
100
AcDbEntity
  8
30350709_HL
100
AcDbLine
 62
6
  6
HIDDEN
 10
306.9291205799
 20
155.4774946005
 11
308.0162763226
 21
155.3823807975
  0
LINE
  5
67D
100
AcDbEntity
  8
30350709_CL
100
AcDbLine
 62
7
  6
CONTINUOUS
 10
106.9291205799
 20
183.6979254622
 11
107.5992308129
 21
183.5183699665
  0
LINE
  5
67E
100
AcDbEntity
  8
30350709_HL
100
AcDbLine
 62
6
  6
HIDDEN
 10
130.9291205799
 20
168.9774946005
 11
127.2291205799
 21
168.9774946005
  0
LINE
  5
67F
100
AcDbEntity
  8
30350709_CL
100
AcDbLine
 62
9
  6
CONTINUOUS
 10
83.8312925987
 20
169.9349872397
 11
85.5291205799
 21
169.9349872397
  0
LINE
  5
680
100
AcDbEntity
  8
30350709_CL
100
AcDbLine
 62
7
  6
CONTINUOUS
 10
258.9291205799
 20
172.8774946005
 11
260.4291208536
 21
172.8774946005
  0
LINE
  5
681
100
AcDbEntity
  8
30350709_CL
100
AcDbLine
 62
7
  6
CONTINUOUS
 10
265.4291202313
 20
172.8774946005
 11
266.9291205799
 21
172.8774946005
  0
LINE
  5
682
100
AcDbEntity
  8
30350709_CL
100
AcDbLine
 62
7
  6
CONTINUOUS
 10
144.8791205799
 20
172.9774946005
 11
258.9291205799
 21
172.9774946005
  0
LINE
  5
683
100
AcDbEntity
  8
30350709_CL
100
AcDbLine
 62
7
  6
CONTINUOUS
 10
266.9291205799
 20
172.9774946005
 11
270.8105063713
 21
172.9774946005
  0
LINE
  5
684
100
AcDbEntity
  8
30350709_HL
100
AcDbLine
 62
6
  6
HIDDEN
 10
78.0291205799
 20
176.4774946005
 11
89.9330951761
 21
176.4774946005
  0
LINE
  5
685
100
AcDbEntity
  8
30350709_HL
100
AcDbLine
 62
6
  6
HIDDEN
 10
108.9291205799
 20
176.4774946005
 11
116.5999643823
 21
176.4774946005
  0
LINE
  5
686
100
AcDbEntity
  8
30350709_HL
100
AcDbLine
 62
6
  6
HIDDEN
 10
92.0115561451
 20
179.4774946005
 11
102.6841225815
 21
179.4774946005
  0
LINE
  5
687
100
AcDbEntity
  8
30350709_CL
100
AcDbLine
 62
7
  6
CONTINUOUS
 10
107.7545222399
 20
183.4979254622
 11
108.4291205799
 21
183.4979254622
  0
LINE
  5
688
100
AcDbEntity
  8
30350709_CL
100
AcDbLine
 62
7
  6
CONTINUOUS
 10
270.8105063713
 20
172.9774946005
 11
308.0075796756
 21
170.0500214426
  0
LINE
  5
689
100
AcDbEntity
  8
30350709_HL
100
AcDbLine
 62
6
  6
HIDDEN
 10
265.4291205799
 20
164.3774946005
 11
262.9291205799
 21
162.8753430529
  0
LINE
  5
68A
100
AcDbEntity
  8
30350709_CL
100
AcDbLine
 62
7
  6
CONTINUOUS
 10
78.1690756494
 20
182.2570414475
 11
106.9291205799
 21
183.6979254622
  0
LINE
  5
68B
100
AcDbEntity
  8
30350709_HL
100
AcDbLine
 62
6
  6
HIDDEN
 10
111.2291205799
 20
185.9774946005
 11
120.6291205799
 21
185.9774946005
  0
LINE
  5
68C
100
AcDbEntity
  8
30350709_HL
100
AcDbLine
 62
6
  6
HIDDEN
 10
110.9291205799
 20
186.2774946005
 11
120.9291205799
 21
186.2774946005
  0
LINE
  5
68D
100
AcDbEntity
  8
30350709_CL
100
AcDbLine
 62
7
  6
CONTINUOUS
 10
128.0541205799
 20
186.9774946005
 11
125.8041205799
 21
186.9774946005
  0
LINE
  5
68E
100
AcDbEntity
  8
30350709_HL
100
AcDbLine
 62
6
  6
HIDDEN
 10
110.9291205799
 20
190.3774946005
 11
120.9291205799
 21
190.3774946005
  0
LINE
  5
68F
100
AcDbEntity
  8
30350709_CL
100
AcDbLine
 62
7
  6
CONTINUOUS
 10
109.1291205799
 20
190.9774946005
 11
110.3291205799
 21
190.9774946005
  0
LINE
  5
690
100
AcDbEntity
  8
30350709_CL
100
AcDbLine
 62
7
  6
CONTINUOUS
 10
121.5291205799
 20
190.9774946005
 11
123.5516215051
 21
190.9774946005
  0
LINE
  5
691
100
AcDbEntity
  8
30350709_CL
100
AcDbLine
 62
7
  6
CONTINUOUS
 10
130.3066196546
 20
190.9774946005
 11
134.8791205799
 21
190.9774946005
  0
LINE
  5
692
100
AcDbEntity
  8
30350709_HL
100
AcDbLine
 62
6
  6
HIDDEN
 10
265.4291205799
 20
154.5774946005
 11
262.9291205799
 21
156.0796461481
  0
LINE
  5
693
100
AcDbEntity
  8
30350709_HL
100
AcDbLine
 62
6
  6
HIDDEN
 10
260.4291205799
 20
154.5774946005
 11
262.9291205799
 21
156.0796461481
  0
LINE
  5
694
100
AcDbEntity
  8
30252540_HL
100
AcDbLine
 62
6
  6
HIDDEN
 10
268.9291205799
 20
156.4774946005
 11
270.1755307414
 21
157.1971098428
  0
LINE
  5
695
100
AcDbEntity
  8
30252540_HL
100
AcDbLine
 62
6
  6
HIDDEN
 10
268.9291205799
 20
162.4774946005
 11
270.1755307414
 21
161.7578793582
  0
LINE
  5
696
100
AcDbEntity
  8
30350709_HL
100
AcDbLine
 62
6
  6
HIDDEN
 10
260.4291205799
 20
164.3774946005
 11
262.9291205799
 21
162.8753430529
  0
LINE
  5
697
100
AcDbEntity
  8
30252540_HL
100
AcDbLine
 62
6
  6
HIDDEN
 10
260.4291205799
 20
161.8624946005
 11
261.0441205799
 21
162.4774946005
  0
LINE
  5
698
100
AcDbEntity
  8
30252540_HL
100
AcDbLine
 62
6
  6
HIDDEN
 10
260.7291205799
 20
157.9774946005
 11
260.4291205799
 21
157.6774946005
  0
LINE
  5
699
100
AcDbEntity
  8
30252540_HL
100
AcDbLine
 62
6
  6
HIDDEN
 10
260.4291205799
 20
157.0924946005
 11
261.0441205799
 21
156.4774946005
  0
LINE
  5
69A
100
AcDbEntity
  8
30252540_HL
100
AcDbLine
 62
6
  6
HIDDEN
 10
260.7291205799
 20
160.9774946005
 11
260.4291205799
 21
161.2774946005
  0
LINE
  5
69B
100
AcDbEntity
  8
30350709_HL
100
AcDbLine
 62
6
  6
HIDDEN
 10
255.2291205799
 20
155.4774946005
 11
256.1304115084
 21
156.9774946005
  0
LINE
  5
69C
100
AcDbEntity
  8
30252540_HL
100
AcDbLine
 62
6
  6
HIDDEN
 10
272.6291205799
 20
160.9774946005
 11
272.9291205799
 21
161.2774946005
  0
LINE
  5
69D
100
AcDbEntity
  8
30252540_HL
100
AcDbLine
 62
6
  6
HIDDEN
 10
272.6291205799
 20
157.9774946005
 11
272.9291205799
 21
157.6774946005
  0
LINE
  5
69E
100
AcDbEntity
  8
30350709_HL
100
AcDbLine
 62
6
  6
HIDDEN
 10
255.2291205799
 20
163.4774946005
 11
256.1304115084
 21
161.9774946005
  0
LINE
  5
69F
100
AcDbEntity
  8
30350709_HL
100
AcDbLine
 62
6
  6
HIDDEN
 10
255.2291205799
 20
163.4774946005
 11
255.2291205799
 21
155.4774946005
  0
LINE
  5
6A0
100
AcDbEntity
  8
30350709_HL
100
AcDbLine
 62
6
  6
HIDDEN
 10
255.9291205799
 20
162.4774946005
 11
255.9291205799
 21
156.4774946005
  0
LINE
  5
6A1
100
AcDbEntity
  8
30350709_HL
100
AcDbLine
 62
6
  6
HIDDEN
 10
256.1304115084
 20
161.9774946005
 11
256.1304115084
 21
156.9774946005
  0
LINE
  5
6A2
100
AcDbEntity
  8
30350709_CL
100
AcDbLine
 62
7
  6
CONTINUOUS
 10
258.9291205799
 20
172.9774946005
 11
258.9291205799
 21
145.9774946005
  0
LINE
  5
6A3
100
AcDbEntity
  8
30350709_HL
100
AcDbLine
 62
6
  6
HIDDEN
 10
259.9291205799
 20
152.5774946005
 11
259.9291205799
 21
146.0774946211
  0
LINE
  5
6A4
100
AcDbEntity
  8
30350709_HL
100
AcDbLine
 62
6
  6
HIDDEN
 10
259.9291205799
 20
166.3774946005
 11
259.9291205799
 21
172.8774945799
  0
LINE
  5
6A5
100
AcDbEntity
  8
30350709_HL
100
AcDbLine
 62
6
  6
HIDDEN
 10
260.4291205799
 20
172.8774945495
 11
260.4291205799
 21
164.3774946005
  0
LINE
  5
6A6
100
AcDbEntity
  8
30252540_HL
100
AcDbLine
 62
6
  6
HIDDEN
 10
260.4291205799
 20
161.8624946005
 11
260.4291205799
 21
157.0924946005
  0
LINE
  5
6A7
100
AcDbEntity
  8
30350709_HL
100
AcDbLine
 62
6
  6
HIDDEN
 10
260.4291205799
 20
146.0774946515
 11
260.4291205799
 21
154.5774946005
  0
LINE
  5
6A8
100
AcDbEntity
  8
30252540_HL
100
AcDbLine
 62
6
  6
HIDDEN
 10
260.7291205799
 20
160.9774946005
 11
260.7291205799
 21
157.9774946005
  0
LINE
  5
6A9
100
AcDbEntity
  8
30252540_HL
100
AcDbLine
 62
6
  6
HIDDEN
 10
261.0441205799
 20
162.4774946005
 11
261.0441205799
 21
156.4774946005
  0
LINE
  5
6AA
100
AcDbEntity
  8
30350709_AXIS
100
AcDbLine
 62
3
  6
CENTER
 10
262.9291205799
 20
175.8774946005
 11
262.9291205799
 21
163.3774946005
  0
LINE
  5
6AB
100
AcDbEntity
  8
30350709_CL
100
AcDbLine
 62
30
  6
CONTINUOUS
 10
262.9291205799
 20
164.4724946005
 11
262.9291205799
 21
154.4824946383
  0
LINE
  5
6AC
100
AcDbEntity
  8
30350709_AXIS
100
AcDbLine
 62
3
  6
CENTER
 10
262.9291205799
 20
143.0774946005
 11
262.9291205799
 21
155.5774946005
  0
LINE
  5
6AD
100
AcDbEntity
  8
30252540_HL
100
AcDbLine
 62
6
  6
HIDDEN
 10
264.4291205799
 20
157.9774946005
 11
264.4291205799
 21
160.9774946005
  0
LINE
  5
6AE
100
AcDbEntity
  8
30350709_HL
100
AcDbLine
 62
6
  6
HIDDEN
 10
265.4291205799
 20
172.8774945356
 11
265.4291205799
 21
164.3774946005
  0
LINE
  5
6AF
100
AcDbEntity
  8
30350709_HL
100
AcDbLine
 62
6
  6
HIDDEN
 10
265.4291205799
 20
146.0774946654
 11
265.4291205799
 21
154.5774946005
  0
LINE
  5
6B0
100
AcDbEntity
  8
30350709_HL
100
AcDbLine
 62
6
  6
HIDDEN
 10
265.9291205799
 20
152.5774946005
 11
265.9291205799
 21
146.0774946211
  0
LINE
  5
6B1
100
AcDbEntity
  8
30350709_HL
100
AcDbLine
 62
6
  6
HIDDEN
 10
265.9291205799
 20
166.3774946005
 11
265.9291205799
 21
172.8774945799
  0
LINE
  5
6B2
100
AcDbEntity
  8
30350709_HL
100
AcDbLine
 62
6
  6
HIDDEN
 10
271.8291205799
 20
161.9774946005
 11
272.4291205799
 21
163.016725085
  0
LINE
  5
6B3
100
AcDbEntity
  8
30252540_HL
100
AcDbLine
 62
6
  6
HIDDEN
 10
271.8517703107
 20
161.9774946005
 11
272.4291205799
 21
162.9774946005
  0
LINE
  5
6B4
100
AcDbEntity
  8
30350709_HL
100
AcDbLine
 62
6
  6
HIDDEN
 10
271.8291205799
 20
156.9774946005
 11
272.4291205799
 21
155.9382641159
  0
LINE
  5
6B5
100
AcDbEntity
  8
30252540_HL
100
AcDbLine
 62
6
  6
HIDDEN
 10
271.8517703107
 20
156.9774946005
 11
272.4291205799
 21
155.9774946005
  0
LINE
  5
6B6
100
AcDbEntity
  8
30350709_CL
100
AcDbLine
 62
7
  6
CONTINUOUS
 10
266.9291205799
 20
172.9774946005
 11
266.9291205799
 21
145.9774946005
  0
LINE
  5
6B7
100
AcDbEntity
  8
30252540_HL
100
AcDbLine
 62
6
  6
HIDDEN
 10
268.9291205799
 20
162.4774946005
 11
268.9291205799
 21
156.4774946005
  0
LINE
  5
6B8
100
AcDbEntity
  8
30252540_HL
100
AcDbLine
 62
6
  6
HIDDEN
 10
269.9943318265
 20
161.8624946005
 11
269.9943318265
 21
157.0924946005
  0
LINE
  5
6B9
100
AcDbEntity
  8
30252540_CL
100
AcDbLine
 62
9
  6
CONTINUOUS
 10
270.1755307414
 20
157.1971098428
 11
270.1755307414
 21
161.7578793582
  0
LINE
  5
6BA
100
AcDbEntity
  8
30252540_CL
100
AcDbLine
 62
9
  6
CONTINUOUS
 10
270.4755307414
 20
157.2774946005
 11
270.4755307414
 21
161.6774946005
  0
LINE
  5
6BB
100
AcDbEntity
  8
30350709_CL
100
AcDbLine
 62
7
  6
CONTINUOUS
 10
270.8105063713
 20
145.9774946005
 11
270.8105063713
 21
172.9774946005
  0
LINE
  5
6BC
100
AcDbEntity
  8
30252540_CL
100
AcDbLine
 62
9
  6
CONTINUOUS
 10
271.3321550684
 20
157.2774946005
 11
271.3321550684
 21
161.6774946005
  0
LINE
  5
6BD
100
AcDbEntity
  8
30350709_HL
100
AcDbLine
 62
6
  6
HIDDEN
 10
271.8291205799
 20
161.9774946005
 11
271.8291205799
 21
156.9774946005
  0
LINE
  5
6BE
100
AcDbEntity
  8
30252540_CL
100
AcDbLine
 62
9
  6
CONTINUOUS
 10
271.8517703107
 20
156.9774946005
 11
271.8517703107
 21
161.9774946005
  0
LINE
  5
6BF
100
AcDbEntity
  8
30252540_HL
100
AcDbLine
 62
6
  6
HIDDEN
 10
272.4291205799
 20
162.9774946005
 11
272.4291205799
 21
155.9774946005
  0
LINE
  5
6C0
100
AcDbEntity
  8
30350709_HL
100
AcDbLine
 62
6
  6
HIDDEN
 10
272.4291205799
 20
155.3274946005
 11
272.4291205799
 21
163.6274946005
  0
LINE
  5
6C1
100
AcDbEntity
  8
30252540_HL
100
AcDbLine
 62
6
  6
HIDDEN
 10
272.6291205799
 20
160.9774946005
 11
272.6291205799
 21
157.9774946005
  0
LINE
  5
6C2
100
AcDbEntity
  8
30252540_HL
100
AcDbLine
 62
6
  6
HIDDEN
 10
272.9291205799
 20
155.9774946005
 11
272.9291205799
 21
162.9774946005
  0
LINE
  5
6C3
100
AcDbEntity
  8
30350709_HL
100
AcDbLine
 62
6
  6
HIDDEN
 10
282.9291205799
 20
155.3274946005
 11
282.9291205799
 21
163.6274946005
  0
LINE
  5
6C4
100
AcDbEntity
  8
30350709_HL
100
AcDbLine
 62
6
  6
HIDDEN
 10
306.9291205799
 20
163.4774946005
 11
306.9291205799
 21
155.4774946005
  0
LINE
  5
6C5
100
AcDbEntity
  8
30350709_CL
100
AcDbLine
 62
9
  6
CONTINUOUS
 10
308.0075796756
 20
170.0500214426
 11
308.0075796756
 21
148.9049677584
  0
LINE
  5
6C6
100
AcDbEntity
  8
30350709_CL
100
AcDbLine
 62
9
  6
CONTINUOUS
 10
308.0162763226
 20
155.3823807975
 11
308.0162763226
 21
163.5726084035
  0
LINE
  5
6C7
100
AcDbEntity
  8
30350709_CL
100
AcDbLine
 62
7
  6
CONTINUOUS
 10
308.9291205799
 20
169.0531030242
 11
308.9291205799
 21
149.9018850921
  0
ARC
  5
6C8
100
AcDbEntity
  8
30350709_HL
100
AcDbCircle
 62
6
  6
HIDDEN
 10
115.9222501935
 20
92.7208575005
 40
35.5053199463
100
AcDbArc
 50
86.2320587975
 51
89.5683230328
  0
ARC
  5
6C9
100
AcDbEntity
  8
30350709_HL
100
AcDbCircle
 62
6
  6
HIDDEN
 10
115.9290187191
 20
92.9983851603
 40
35.2277494788
100
AcDbArc
 50
89.5759305519
 51
89.9998343297
  0
ARC
  5
6CA
100
AcDbEntity
  8
30350709_HL
100
AcDbCircle
 62
6
  6
HIDDEN
 10
115.9291725683
 20
93.0154157169
 40
35.2107189222
100
AcDbArc
 50
90.000084597
 51
90.3352214987
  0
ARC
  5
6CB
100
AcDbEntity
  8
30350709_CL
100
AcDbCircle
 62
7
  6
CONTINUOUS
 10
144.8791205799
 20
135.9774946005
 40
10.0
100
AcDbArc
 50
90.0
 51
180.0
  0
ARC
  5
6CC
100
AcDbEntity
  8
30350709_CL
100
AcDbCircle
 62
7
  6
CONTINUOUS
 10
121.8791205799
 20
131.4774946005
 40
8.0
100
AcDbArc
 50
90.0
 51
152.7433806908
  0
ARC
  5
6CD
100
AcDbEntity
  8
30350709_HL
100
AcDbCircle
 62
6
  6
HIDDEN
 10
117.4291205799
 20
143.7274946005
 40
1.5
100
AcDbArc
 50
236.4426902381
 51
360.0
  0
ARC
  5
6CE
100
AcDbEntity
  8
30350709_CL
100
AcDbCircle
 62
7
  6
CONTINUOUS
 10
78.2291205799
 20
137.8964445646
 40
1.2
100
AcDbArc
 50
180.0
 51
267.131868059
  0
ARC
  5
6CF
100
AcDbEntity
  8
30350709_CL
100
AcDbCircle
 62
7
  6
CONTINUOUS
 10
128.0541205799
 20
131.2274946005
 40
0.75
100
AcDbArc
 50
0.0
 51
90.0
  0
ARC
  5
6D0
100
AcDbEntity
  8
30350709_CL
100
AcDbCircle
 62
7
  6
CONTINUOUS
 10
125.8041205799
 20
131.2274946005
 40
0.75
100
AcDbArc
 50
90.0
 51
180.0
  0
ARC
  5
6D1
100
AcDbEntity
  8
30350709_HL
100
AcDbCircle
 62
6
  6
HIDDEN
 10
92.0115561451
 20
140.0774946005
 40
0.6
100
AcDbArc
 50
210.0
 51
270.0
  0
ARC
  5
6D2
100
AcDbEntity
  8
30350709_HL
100
AcDbCircle
 62
6
  6
HIDDEN
 10
108.4291205799
 20
134.8570637387
 40
0.6
100
AcDbArc
 50
352.0
 51
33.5532737773
  0
ARC
  5
6D3
100
AcDbEntity
  8
30350709_CL
100
AcDbCircle
 62
7
  6
CONTINUOUS
 10
107.7545222399
 20
134.8570637387
 40
0.6
100
AcDbArc
 50
90.0
 51
105.0
  0
ARC
  5
6D4
100
AcDbEntity
  8
30350709_CL
100
AcDbCircle
 62
7
  6
CONTINUOUS
 10
108.4291205799
 20
134.8570637387
 40
0.6
100
AcDbArc
 50
33.5532737773
 51
90.0
  0
ARC
  5
6D5
100
AcDbEntity
  8
30350709_CL
100
AcDbCircle
 62
7
  6
CONTINUOUS
 10
-16.4135879304
 20
197.6728097012
 40
153.2985603755
100
AcDbArc
 50
335.9265985332
 51
337.3426013525
  0
ARC
  5
6D6
100
AcDbEntity
  8
30350709_HL
100
AcDbCircle
 62
6
  6
HIDDEN
 10
102.6841225815
 20
147.4774946005
 40
8.0
100
AcDbArc
 50
270.0
 51
321.3178125465
  0
ARC
  5
6D7
100
AcDbEntity
  8
30350709_HL
100
AcDbCircle
 62
6
  6
HIDDEN
 10
85.5291205799
 20
154.7074946005
 40
1.5
100
AcDbArc
 50
270.0
 51
360.0
  0
ARC
  5
6D8
100
AcDbEntity
  8
30350709_HL
100
AcDbCircle
 62
6
  6
HIDDEN
 10
81.5291205799
 20
154.7074946005
 40
1.5
100
AcDbArc
 50
358.3068594613
 51
360.0
  0
ARC
  5
6D9
100
AcDbEntity
  8
30350709_CL
100
AcDbCircle
 62
7
  6
CONTINUOUS
 10
81.5291205799
 20
154.7074946005
 40
1.5
100
AcDbArc
 50
270.0
 51
358.3068594613
  0
ARC
  5
6DA
100
AcDbEntity
  8
30350709_HL
100
AcDbCircle
 62
6
  6
HIDDEN
 10
102.6841225815
 20
171.4774946005
 40
8.0
100
AcDbArc
 50
38.6821874535
 51
90.0
  0
CIRCLE
  5
6DB
100
AcDbEntity
  8
30350709_CL
100
AcDbCircle
 62
7
  6
CONTINUOUS
 10
99.9291205799
 20
159.4774946005
 40
3.75
  0
ARC
  5
6DC
100
AcDbEntity
  8
30350709_HL
100
AcDbCircle
 62
6
  6
HIDDEN
 10
85.5291205799
 20
164.2474946005
 40
1.5
100
AcDbArc
 50
0.0
 51
90.0
  0
ARC
  5
6DD
100
AcDbEntity
  8
30350709_HL
100
AcDbCircle
 62
6
  6
HIDDEN
 10
81.5291205799
 20
164.2474946005
 40
1.5
100
AcDbArc
 50
0.0
 51
1.6931405387
  0
ARC
  5
6DE
100
AcDbEntity
  8
30350709_CL
100
AcDbCircle
 62
7
  6
CONTINUOUS
 10
81.5291205799
 20
164.2474946005
 40
1.5
100
AcDbArc
 50
1.6931405387
 51
90.0
  0
ARC
  5
6DF
100
AcDbEntity
  8
30350709_HL
100
AcDbCircle
 62
6
  6
HIDDEN
 10
121.8791205799
 20
158.4774946005
 40
8.0
100
AcDbArc
 50
180.0
 51
270.0
  0
ARC
  5
6E0
100
AcDbEntity
  8
30350709_HL
100
AcDbCircle
 62
6
  6
HIDDEN
 10
121.8791205799
 20
160.4774946005
 40
8.0
100
AcDbArc
 50
90.0
 51
180.0
  0
ARC
  5
6E1
100
AcDbEntity
  8
30350709_CL
100
AcDbCircle
 62
7
  6
CONTINUOUS
 10
121.8791205799
 20
159.4774946005
 40
8.0
100
AcDbArc
 50
90.0
 51
270.0
  0
CIRCLE
  5
6E2
100
AcDbEntity
  8
30350709_CL
100
AcDbCircle
 62
7
  6
CONTINUOUS
 10
126.9291205799
 20
159.4774946005
 40
3.95
  0
CIRCLE
  5
6E3
100
AcDbEntity
  8
30350709_CL
100
AcDbCircle
 62
7
  6
CONTINUOUS
 10
126.9291205799
 20
159.4774946005
 40
3.75
  0
CIRCLE
  5
6E4
100
AcDbEntity
  8
30350709_CL
100
AcDbCircle
 62
7
  6
CONTINUOUS
 10
126.9291205799
 20
159.4774946005
 40
0.1
  0
ARC
  5
6E5
100
AcDbEntity
  8
30350709_CL
100
AcDbCircle
 62
7
  6
CONTINUOUS
 10
144.8791205799
 20
182.9774946005
 40
10.0
100
AcDbArc
 50
180.0
 51
270.0
  0
ARC
  5
6E6
100
AcDbEntity
  8
30350709_HL
100
AcDbCircle
 62
6
  6
HIDDEN
 10
117.4291205799
 20
175.2274946005
 40
1.5
100
AcDbArc
 50
0.0
 51
123.5573097619
  0
ARC
  5
6E7
100
AcDbEntity
  8
30350709_CL
100
AcDbCircle
 62
7
  6
CONTINUOUS
 10
78.2291205799
 20
181.0585446364
 40
1.2
100
AcDbArc
 50
92.868131941
 51
180.0
  0
ARC
  5
6E8
100
AcDbEntity
  8
30350709_CL
100
AcDbCircle
 62
7
  6
CONTINUOUS
 10
128.0541205799
 20
187.7274946005
 40
0.75
100
AcDbArc
 50
270.0
 51
360.0
  0
ARC
  5
6E9
100
AcDbEntity
  8
30350709_CL
100
AcDbCircle
 62
7
  6
CONTINUOUS
 10
125.8041205799
 20
187.7274946005
 40
0.75
100
AcDbArc
 50
180.0
 51
270.0
  0
ARC
  5
6EA
100
AcDbEntity
  8
30350709_HL
100
AcDbCircle
 62
6
  6
HIDDEN
 10
92.0115561451
 20
178.8774946005
 40
0.6
100
AcDbArc
 50
90.0
 51
150.0
  0
ARC
  5
6EB
100
AcDbEntity
  8
30350709_HL
100
AcDbCircle
 62
6
  6
HIDDEN
 10
108.4291205799
 20
184.0979254622
 40
0.6
100
AcDbArc
 50
326.4467262227
 51
8.0
  0
ARC
  5
6EC
100
AcDbEntity
  8
30350709_CL
100
AcDbCircle
 62
7
  6
CONTINUOUS
 10
107.7545222399
 20
184.0979254622
 40
0.6
100
AcDbArc
 50
255.0
 51
270.0
  0
ARC
  5
6ED
100
AcDbEntity
  8
30350709_CL
100
AcDbCircle
 62
7
  6
CONTINUOUS
 10
108.4291205799
 20
184.0979254622
 40
0.6
100
AcDbArc
 50
270.0
 51
326.4467262227
  0
ARC
  5
6EE
100
AcDbEntity
  8
30350709_HL
100
AcDbCircle
 62
6
  6
HIDDEN
 10
263.0565868428
 20
132.0047403384
 40
14.3159348798
100
AcDbArc
 50
98.4843338985
 51
100.5756956691
  0
ARC
  5
6EF
100
AcDbEntity
  8
30350709_HL
100
AcDbCircle
 62
6
  6
HIDDEN
 10
262.9422330513
 20
132.8365581427
 40
13.4763520827
100
AcDbArc
 50
90.7456242048
 51
98.5252477954
  0
ARC
  5
6F0
100
AcDbEntity
  8
30350709_HL
100
AcDbCircle
 62
6
  6
HIDDEN
 10
262.9291316224
 20
133.1452516015
 40
13.1675174036
100
AcDbArc
 50
90.0000480495
 51
90.7061004109
  0
ARC
  5
6F1
100
AcDbEntity
  8
30350709_HL
100
AcDbCircle
 62
6
  6
HIDDEN
 10
262.9291092873
 20
133.1536037302
 40
13.159165275
100
AcDbArc
 50
89.7641915493
 51
89.9999508316
  0
ARC
  5
6F2
100
AcDbEntity
  8
30350709_HL
100
AcDbCircle
 62
6
  6
HIDDEN
 10
262.9291205799
 20
159.4774946005
 40
3.0
100
AcDbArc
 50
194.8746193427
 51
195.0
  0
ARC
  5
6F3
100
AcDbEntity
  8
30350709_CL
100
AcDbCircle
 62
7
  6
CONTINUOUS
 10
270.2718290903
 20
197.6728097013
 40
153.2985603758
100
AcDbArc
 50
202.6573986475
 51
204.0734014668
  0
ARC
  5
6F4
100
AcDbEntity
  8
30350709_HL
100
AcDbCircle
 62
6
  6
HIDDEN
 10
262.9096057403
 20
186.2129164295
 40
13.5709137544
100
AcDbArc
 50
270.7674612543
 51
279.6017694373
  0
ARC
  5
6F5
100
AcDbEntity
  8
30350709_HL
100
AcDbCircle
 62
6
  6
HIDDEN
 10
262.9291095373
 20
185.8097376001
 40
13.1675174043
100
AcDbArc
 50
270.0000480495
 51
270.7061003876
  0
ARC
  5
6F6
100
AcDbEntity
  8
30350709_HL
100
AcDbCircle
 62
6
  6
HIDDEN
 10
262.9291318724
 20
185.8013854742
 40
13.1591652784
100
AcDbArc
 50
269.7641915466
 51
269.9999508316
  0
ARC
  5
6F7
100
AcDbEntity
  8
30350709_HL
100
AcDbCircle
 62
6
  6
HIDDEN
 10
262.9291205799
 20
159.4774946005
 40
3.0
100
AcDbArc
 50
255.0
 51
255.1369588327
  0
ARC
  5
6F8
100
AcDbEntity
  8
30350709_CL
100
AcDbCircle
 62
3
  6
CONTINUOUS
 10
262.9291205799
 20
159.4774946005
 40
3.0
100
AcDbArc
 50
255.1369588327
 51
194.8746193427
  0
CIRCLE
  5
6F9
100
AcDbEntity
  8
30350709_CL
100
AcDbCircle
 62
7
  6
CONTINUOUS
 10
262.9291205799
 20
159.4774946005
 40
2.5
  0
ARC
  5
6FA
100
AcDbEntity
  8
30350709_HL
100
AcDbCircle
 62
6
  6
HIDDEN
 10
307.9291205799
 20
164.5688031016
 40
1.0
100
AcDbArc
 50
275.0
 51
360.0
  0
ARC
  5
6FB
100
AcDbEntity
  8
30350709_HL
100
AcDbCircle
 62
6
  6
HIDDEN
 10
307.9291205799
 20
154.3861860994
 40
1.0
100
AcDbArc
 50
0.0
 51
85.0
  0
ARC
  5
6FC
100
AcDbEntity
  8
30350709_CL
100
AcDbCircle
 62
7
  6
CONTINUOUS
 10
307.9291205799
 20
169.0531041088
 40
1.0
100
AcDbArc
 50
0.0
 51
85.5
  0
ARC
  5
6FD
100
AcDbEntity
  8
30350709_CL
100
AcDbCircle
 62
7
  6
CONTINUOUS
 10
307.9291205799
 20
149.9018850921
 40
1.0
100
AcDbArc
 50
274.5
 51
360.0
  0
ARC
  5
6FE
100
AcDbEntity
  8
30252540_HL
100
AcDbCircle
 62
6
  6
HIDDEN
 10
271.3321550684
 20
162.2774946005
 40
0.6
100
AcDbArc
 50
270.0
 51
330.0
  0
ARC
  5
6FF
100
AcDbEntity
  8
30252540_HL
100
AcDbCircle
 62
6
  6
HIDDEN
 10
270.4755307414
 20
162.2774946005
 40
0.6
100
AcDbArc
 50
240.0
 51
270.0
  0
ARC
  5
700
100
AcDbEntity
  8
30252540_HL
100
AcDbCircle
 62
6
  6
HIDDEN
 10
271.3321550684
 20
156.6774946005
 40
0.6
100
AcDbArc
 50
30.0
 51
90.0
  0
ARC
  5
701
100
AcDbEntity
  8
30252540_HL
100
AcDbCircle
 62
6
  6
HIDDEN
 10
270.4755307414
 20
156.6774946005
 40
0.6
100
AcDbArc
 50
90.0
 51
120.0
  0
SPLINE
  5
702
100
AcDbEntity
  8
30350709_HL
100
AcDbSpline
 62
6
  6
HIDDEN
 70
0
 71
3
 72
30
 73
26
 74
0
 42
0.0000001
 43
0.0000001
 44
0.0000000001
 40
0.0
 40
0.0
 40
0.0
 40
0.0
 40
0.125579292
 40
0.2511562903
 40
0.3767264394
 40
0.4395069476
 40
0.5022818706
 40
0.5650483957
 40
0.6278020704
 40
0.6905354406
 40
0.7532342849
 40
0.7845637788
 40
0.8158719576
 40
0.8471487784
 40
0.878375489
 40
0.8939608691
 40
0.9095175172
 40
0.9250328648
 40
0.9404852086
 40
0.9558352423
 40
0.9709951917
 40
0.9784606945
 40
0.9857996471
 40
0.9929783542
 40
1.0
 40
1.0
 40
1.0
 40
1.0
 10
78.1690756494
 20
168.60732497
 30
0.0
 10
78.4146589341
 20
168.6375399926
 30
0.0
 10
78.9055960256
 20
168.6998245587
 30
0.0
 10
79.6411002074
 20
168.7999927722
 30
0.0
 10
80.2530157578
 20
168.8904631445
 30
0.0
 10
80.7416593564
 20
168.968337354
 30
0.0
 10
81.1075707615
 20
169.0299706276
 30
0.0
 10
81.4727633098
 20
169.0954428958
 30
0.0
 10
81.837007634
 20
169.1655961703
 30
0.0
 10
82.1999352799
 20
169.241647081
 30
0.0
 10
82.5008553348
 20
169.3114698611
 30
0.0
 10
82.7400911706
 20
169.3727818541
 30
0.0
 10
82.9184522765
 20
169.4221190955
 30
0.0
 10
83.0953787223
 20
169.4757006626
 30
0.0
 10
83.2411681753
 20
169.5250237142
 30
0.0
 10
83.3561479951
 20
169.5684316233
 30
0.0
 10
83.4411917597
 20
169.6033890885
 30
0.0
 10
83.5246485079
 20
169.6413722503
 30
0.0
 10
83.6057858478
 20
169.6832815462
 30
0.0
 10
83.6831704004
 20
169.7304684793
 30
0.0
 10
83.7427252973
 20
169.7762997215
 30
0.0
 10
83.7838500046
 20
169.8188377985
 30
0.0
 10
83.8094455553
 20
169.8540278584
 30
0.0
 10
83.8272640306
 20
169.8929645298
 30
0.0
 10
83.8314885001
 20
169.9211535338
 30
0.0
 10
83.8312925987
 20
169.9349872397
 30
0.0
  0
SPLINE
  5
703
100
AcDbEntity
  8
30350709_HL
100
AcDbSpline
 62
6
  6
HIDDEN
 70
0
 71
3
 72
25
 73
21
 74
0
 42
0.0000001
 43
0.0000001
 44
0.0000000001
 40
0.0
 40
0.0
 40
0.0
 40
0.0
 40
0.125518835
 40
0.2501646904
 40
0.3739632401
 40
0.4355655972
 40
0.4969826902
 40
0.5582347443
 40
0.6193549325
 40
0.6804009159
 40
0.7414805443
 40
0.8028216506
 40
0.8337694364
 40
0.8650797897
 40
0.897050108
 40
0.9301990214
 40
0.9474567585
 40
0.9650355715
 40
0.9826398633
 40
1.0
 40
1.0
 40
1.0
 40
1.0
 10
86.102154838
 20
169.9866380457
 30
0.0
 10
86.1023164673
 20
170.0698361919
 30
0.0
 10
86.0995624258
 20
170.2356786052
 30
0.0
 10
86.0858248178
 20
170.4832343334
 30
0.0
 10
86.065619029
 20
170.6878340127
 30
0.0
 10
86.0432670767
 20
170.8499178401
 30
0.0
 10
86.0230642666
 20
170.9703972656
 30
0.0
 10
85.9988911544
 20
171.0898245258
 30
0.0
 10
85.9700146602
 20
171.2079600817
 30
0.0
 10
85.9353484385
 20
171.3244411644
 30
0.0
 10
85.8931507649
 20
171.438590073
 30
0.0
 10
85.8492966137
 20
171.5305972831
 30
0.0
 10
85.8061416452
 20
171.60034237
 30
0.0
 10
85.7679849776
 20
171.6499878128
 30
0.0
 10
85.7219180149
 20
171.694694084
 30
0.0
 10
85.674192608
 20
171.7231345736
 30
0.0
 10
85.6302967071
 20
171.7346710663
 30
0.0
 10
85.5952351995
 20
171.7358238287
 30
0.0
 10
85.5608133123
 20
171.7289432615
 30
0.0
 10
85.5393247804
 20
171.7198797586
 30
0.0
 10
85.5291205799
 20
171.7145615572
 30
0.0
  0
SPLINE
  5
704
100
AcDbEntity
  8
30350709_HL
100
AcDbSpline
 62
6
  6
HIDDEN
 70
0
 71
3
 72
19
 73
15
 74
0
 42
0.0000001
 43
0.0000001
 44
0.0000000001
 40
0.0
 40
0.0
 40
0.0
 40
0.0
 40
0.0301881491
 40
0.0604408896
 40
0.1212459756
 40
0.1825562122
 40
0.2442739646
 40
0.3062939643
 40
0.3685428758
 40
0.4935582816
 40
0.6191569126
 40
0.7453458905
 40
0.8722350155
 40
1.0
 40
1.0
 40
1.0
 40
1.0
 10
86.102154838
 20
148.9683511552
 30
0.0
 10
86.1020910533
 20
149.0011841061
 30
0.0
 10
86.1052605415
 20
149.0669710767
 30
0.0
 10
86.1241422806
 20
149.1976479053
 30
0.0
 10
86.168098587
 20
149.3580235761
 30
0.0
 10
86.2401747548
 20
149.5446574531
 30
0.0
 10
86.3222906877
 20
149.7284502576
 30
0.0
 10
86.4087408302
 20
149.9113283816
 30
0.0
 10
86.5251489743
 20
150.1561846809
 30
0.0
 10
86.6660235379
 20
150.4660255457
 30
0.0
 10
86.814235722
 20
150.8484471048
 30
0.0
 10
86.9319381859
 20
151.2437253833
 30
0.0
 10
87.0098808195
 20
151.6513181286
 30
0.0
 10
87.0291205799
 20
151.9285496152
 30
0.0
 10
87.0291205799
 20
152.0675084286
 30
0.0
  0
SPLINE
  5
705
100
AcDbEntity
  8
30350709_HL
100
AcDbSpline
 62
6
  6
HIDDEN
 70
0
 71
3
 72
25
 73
21
 74
0
 42
0.0000001
 43
0.0000001
 44
0.0000000001
 40
0.0
 40
0.0
 40
0.0
 40
0.0
 40
0.0173597793
 40
0.0349637879
 40
0.0525425
 40
0.0698004949
 40
0.1029478668
 40
0.1349174964
 40
0.1662284337
 40
0.1971765642
 40
0.25851807
 40
0.3195978915
 40
0.3806439637
 40
0.4417642334
 40
0.5030163902
 40
0.5644335963
 40
0.6260360711
 40
0.7498348573
 40
0.8744809442
 40
1.0
 40
1.0
 40
1.0
 40
1.0
 10
85.5291205799
 20
147.2404276438
 30
0.0
 10
85.5393245709
 20
147.2351095516
 30
0.0
 10
85.5608126714
 20
147.2260461724
 30
0.0
 10
85.5952340201
 20
147.2191653361
 30
0.0
 10
85.6302954301
 20
147.2203181337
 30
0.0
 10
85.6741906115
 20
147.2318537237
 30
0.0
 10
85.7219151128
 20
147.2602930239
 30
0.0
 10
85.7679823727
 20
147.3049974781
 30
0.0
 10
85.806138788
 20
147.3546433539
 30
0.0
 10
85.8492953055
 20
147.4243884844
 30
0.0
 10
85.8931495776
 20
147.5163964187
 30
0.0
 10
85.9353476472
 20
147.6305456335
 30
0.0
 10
85.9700140688
 20
147.7470269276
 30
0.0
 10
85.9988906994
 20
147.8651626412
 30
0.0
 10
86.0230639254
 20
147.9845900875
 30
0.0
 10
86.0432668348
 20
148.1050697276
 30
0.0
 10
86.0656188832
 20
148.2671538643
 30
0.0
 10
86.0858247511
 20
148.4717539382
 30
0.0
 10
86.0995624187
 20
148.7193101351
 30
0.0
 10
86.1023164676
 20
148.8851528579
 30
0.0
 10
86.102154838
 20
148.9683511552
 30
0.0
  0
SPLINE
  5
706
100
AcDbEntity
  8
30350709_HL
100
AcDbSpline
 62
6
  6
HIDDEN
 70
0
 71
3
 72
30
 73
26
 74
0
 42
0.0000001
 43
0.0000001
 44
0.0000000001
 40
0.0
 40
0.0
 40
0.0
 40
0.0
 40
0.125579292
 40
0.2511562903
 40
0.3767264394
 40
0.4395069476
 40
0.5022818706
 40
0.5650483957
 40
0.6278020704
 40
0.6905354406
 40
0.7532342849
 40
0.7845637788
 40
0.8158719576
 40
0.8471487784
 40
0.878375489
 40
0.8939608691
 40
0.9095175172
 40
0.9250328648
 40
0.9404852086
 40
0.9558352423
 40
0.9709951917
 40
0.9784606945
 40
0.9857996471
 40
0.9929783542
 40
1.0
 40
1.0
 40
1.0
 40
1.0
 10
78.1690756494
 20
150.347664231
 30
0.0
 10
78.4146589341
 20
150.3174492083
 30
0.0
 10
78.9055960256
 20
150.2551646423
 30
0.0
 10
79.6411002074
 20
150.1549964288
 30
0.0
 10
80.2530157578
 20
150.0645260565
 30
0.0
 10
80.7416593564
 20
149.986651847
 30
0.0
 10
81.1075707615
 20
149.9250185734
 30
0.0
 10
81.4727633098
 20
149.8595463052
 30
0.0
 10
81.837007634
 20
149.7893930307
 30
0.0
 10
82.1999352799
 20
149.71334212
 30
0.0
 10
82.5008553348
 20
149.6435193399
 30
0.0
 10
82.7400911706
 20
149.5822073469
 30
0.0
 10
82.9184522765
 20
149.5328701055
 30
0.0
 10
83.0953787223
 20
149.4792885383
 30
0.0
 10
83.2411681753
 20
149.4299654868
 30
0.0
 10
83.3561479951
 20
149.3865575776
 30
0.0
 10
83.4411917597
 20
149.3516001125
 30
0.0
 10
83.5246485079
 20
149.3136169507
 30
0.0
 10
83.6057858478
 20
149.2717076548
 30
0.0
 10
83.6831704004
 20
149.2245207216
 30
0.0
 10
83.7427252973
 20
149.1786894795
 30
0.0
 10
83.7838500046
 20
149.1361514025
 30
0.0
 10
83.8094455553
 20
149.1009613426
 30
0.0
 10
83.8272640306
 20
149.0620246712
 30
0.0
 10
83.8314885001
 20
149.0338356672
 30
0.0
 10
83.8312925987
 20
149.0200019612
 30
0.0
  0
SPLINE
  5
707
100
AcDbEntity
  8
30350709_CL
100
AcDbSpline
 62
9
  6
CONTINUOUS
 70
0
 71
3
 72
9
 73
5
 74
0
 42
0.0000001
 43
0.0000001
 44
0.0000000001
 40
0.0
 40
0.0
 40
0.0
 40
0.0
 40
0.4923307953
 40
1.0
 40
1.0
 40
1.0
 40
1.0
 10
86.102154838
 20
148.9683511552
 30
0.0
 10
86.0092546447
 20
148.9857856308
 30
0.0
 10
85.8186699801
 20
149.0115619833
 30
0.0
 10
85.6265873739
 20
149.0200019612
 30
0.0
 10
85.5291205799
 20
149.0200019612
 30
0.0
  0
SPLINE
  5
708
100
AcDbEntity
  8
30350709_HL
100
AcDbSpline
 62
6
  6
HIDDEN
 70
0
 71
3
 72
17
 73
13
 74
0
 42
0.0000001
 43
0.0000001
 44
0.0000000001
 40
0.0
 40
0.0
 40
0.0
 40
0.0
 40
0.1291833345
 40
0.2577646506
 40
0.3855464807
 40
0.5122397886
 40
0.6374163775
 40
0.7605023181
 40
0.8211827076
 40
0.8812350474
 40
0.9407635095
 40
1.0
 40
1.0
 40
1.0
 40
1.0
 10
85.5291205799
 20
147.2404276438
 30
0.0
 10
85.4308878894
 20
147.2916243277
 30
0.0
 10
85.2366497897
 20
147.3972388056
 30
0.0
 10
84.9532587552
 20
147.5677449728
 30
0.0
 10
84.6814499673
 20
147.7525366694
 30
0.0
 10
84.4259536077
 20
147.9549365266
 30
0.0
 10
84.1945342608
 20
148.1790486316
 30
0.0
 10
84.0312149142
 20
148.389579203
 30
0.0
 10
83.9302041246
 20
148.5731276324
 30
0.0
 10
83.8730255686
 20
148.717260291
 30
0.0
 10
83.8376852578
 20
148.8670657144
 30
0.0
 10
83.8305733582
 20
148.9692123308
 30
0.0
 10
83.8312925987
 20
149.0200019612
 30
0.0
  0
SPLINE
  5
709
100
AcDbEntity
  8
30350709_HL
100
AcDbSpline
 62
6
  6
HIDDEN
 70
0
 71
3
 72
17
 73
13
 74
0
 42
0.0000001
 43
0.0000001
 44
0.0000000001
 40
0.0
 40
0.0
 40
0.0
 40
0.0
 40
0.059236492
 40
0.1187649505
 40
0.1788172831
 40
0.2394976655
 40
0.3625835974
 40
0.4877601909
 40
0.6144535116
 40
0.7422353489
 40
0.8708166675
 40
1.0
 40
1.0
 40
1.0
 40
1.0
 10
83.8312925987
 20
169.9349872397
 30
0.0
 10
83.8305733582
 20
169.9857768715
 30
0.0
 10
83.8376852576
 20
170.0879234861
 30
0.0
 10
83.8730255668
 20
170.2377289016
 30
0.0
 10
83.9302041149
 20
170.3818615466
 30
0.0
 10
84.0312148903
 20
170.5654099613
 30
0.0
 10
84.194534228
 20
170.775940527
 30
0.0
 10
84.4259535704
 20
171.0000526474
 30
0.0
 10
84.6814499489
 20
171.2024525151
 30
0.0
 10
84.9532587499
 20
171.3872442268
 30
0.0
 10
85.2366497919
 20
171.5577503944
 30
0.0
 10
85.430887891
 20
171.6633648741
 30
0.0
 10
85.5291205799
 20
171.7145615572
 30
0.0
  0
SPLINE
  5
70A
100
AcDbEntity
  8
30350709_CL
100
AcDbSpline
 62
9
  6
CONTINUOUS
 70
0
 71
3
 72
9
 73
5
 74
0
 42
0.0000001
 43
0.0000001
 44
0.0000000001
 40
0.0
 40
0.0
 40
0.0
 40
0.0
 40
0.5076692047
 40
1.0
 40
1.0
 40
1.0
 40
1.0
 10
85.5291205799
 20
169.9349872397
 30
0.0
 10
85.6265873739
 20
169.9349872397
 30
0.0
 10
85.8186699801
 20
169.9434272177
 30
0.0
 10
86.0092546447
 20
169.9692035702
 30
0.0
 10
86.102154838
 20
169.9866380457
 30
0.0
  0
SPLINE
  5
70B
100
AcDbEntity
  8
30350709_HL
100
AcDbSpline
 62
6
  6
HIDDEN
 70
0
 71
3
 72
12
 73
8
 74
0
 42
0.0000001
 43
0.0000001
 44
0.0000000001
 40
0.0
 40
0.0
 40
0.0
 40
0.0
 40
0.0819441258
 40
0.3114471751
 40
0.5409602461
 40
0.7704781778
 40
1.0
 40
1.0
 40
1.0
 40
1.0
 10
125.3152539204
 20
167.4774945728
 30
0.0
 10
125.3063382272
 20
167.5040103523
 30
0.0
 10
125.2737620891
 20
167.6052295647
 30
0.0
 10
125.2248509393
 20
167.7834175585
 30
0.0
 10
125.1739663482
 20
168.0129654664
 30
0.0
 10
125.1328256955
 20
168.2444509236
 30
0.0
 10
125.111276681
 20
168.399706322
 30
0.0
 10
125.1018937542
 20
168.4774946005
 30
0.0
  0
SPLINE
  5
70C
100
AcDbEntity
  8
30350709_HL
100
AcDbSpline
 62
6
  6
HIDDEN
 70
0
 71
3
 72
12
 73
8
 74
0
 42
0.0000001
 43
0.0000001
 44
0.0000000001
 40
0.0
 40
0.0
 40
0.0
 40
0.0
 40
0.2295218208
 40
0.4590397526
 40
0.688552823
 40
0.9180558722
 40
1.0
 40
1.0
 40
1.0
 40
1.0
 10
125.1018937542
 20
150.4774946005
 30
0.0
 10
125.1112766809
 20
150.5552828785
 30
0.0
 10
125.1328256949
 20
150.7105382765
 30
0.0
 10
125.1739663482
 20
150.9420237329
 30
0.0
 10
125.2248509389
 20
151.1715716407
 30
0.0
 10
125.2737620886
 20
151.3497596351
 30
0.0
 10
125.3063382269
 20
151.450978848
 30
0.0
 10
125.3152539205
 20
151.4774946281
 30
0.0
  0
SPLINE
  5
70D
100
AcDbEntity
  8
30350709_HL
100
AcDbSpline
 62
6
  6
HIDDEN
 70
0
 71
3
 72
19
 73
15
 74
0
 42
0.0000001
 43
0.0000001
 44
0.0000000001
 40
0.0
 40
0.0
 40
0.0
 40
0.0
 40
0.127765831
 40
0.2546556699
 40
0.3808448504
 40
0.5064434221
 40
0.631458722
 40
0.6937075445
 40
0.7557274349
 40
0.8174450542
 40
0.8787550192
 40
0.9395594475
 40
0.9698119232
 40
1.0
 40
1.0
 40
1.0
 40
1.0
 10
87.0291205799
 20
166.8874807724
 30
0.0
 10
87.0291205799
 20
167.0264405058
 30
0.0
 10
87.0098805665
 20
167.3036736775
 30
0.0
 10
86.931937353
 20
167.7112683099
 30
0.0
 10
86.8142332422
 20
168.106547034
 30
0.0
 10
86.6660219956
 20
168.4889690053
 30
0.0
 10
86.5251459183
 20
168.7988088871
 30
0.0
 10
86.4087391291
 20
169.0436654552
 30
0.0
 10
86.3222893879
 20
169.2265433672
 30
0.0
 10
86.240173512
 20
169.4103355836
 30
0.0
 10
86.168097595
 20
169.596968307
 30
0.0
 10
86.1241415622
 20
169.757342742
 30
0.0
 10
86.1052605933
 20
169.8880185823
 30
0.0
 10
86.1020910535
 20
169.9538051736
 30
0.0
 10
86.102154838
 20
169.9866380457
 30
0.0
  0
SPLINE
  5
70E
100
AcDbEntity
  8
30350709_HL
100
AcDbSpline
 62
6
  6
HIDDEN
 70
0
 71
3
 72
12
 73
8
 74
0
 42
0.0000001
 43
0.0000001
 44
0.0000000001
 40
0.0
 40
0.0
 40
0.0
 40
0.0
 40
0.0819441218
 40
0.3114471739
 40
0.5409602453
 40
0.7704781779
 40
1.0
 40
1.0
 40
1.0
 40
1.0
 10
128.5429872394
 20
151.4774946282
 30
0.0
 10
128.5519029323
 20
151.45097885
 30
0.0
 10
128.5844790707
 20
151.3497596382
 30
0.0
 10
128.63339022
 20
151.1715716445
 30
0.0
 10
128.6842748107
 20
150.9420237351
 30
0.0
 10
128.7254154647
 20
150.7105382777
 30
0.0
 10
128.7469644787
 20
150.5552828789
 30
0.0
 10
128.7563474055
 20
150.4774946005
 30
0.0
  0
SPLINE
  5
70F
100
AcDbEntity
  8
30350709_HL
100
AcDbSpline
 62
6
  6
HIDDEN
 70
0
 71
3
 72
12
 73
8
 74
0
 42
0.0000001
 43
0.0000001
 44
0.0000000001
 40
0.0
 40
0.0
 40
0.0
 40
0.0
 40
0.2295218236
 40
0.4590397561
 40
0.688552828
 40
0.9180558802
 40
1.0
 40
1.0
 40
1.0
 40
1.0
 10
128.7563474055
 20
168.4774946005
 30
0.0
 10
128.7469644786
 20
168.3997063215
 30
0.0
 10
128.7254154641
 20
168.2444509224
 30
0.0
 10
128.6842748106
 20
168.0129654642
 30
0.0
 10
128.6333902196
 20
167.7834175547
 30
0.0
 10
128.5844790702
 20
167.6052295615
 30
0.0
 10
128.5519029321
 20
167.5040103503
 30
0.0
 10
128.5429872394
 20
167.4774945728
 30
0.0
  0
SPLINE
  5
710
100
AcDbEntity
  8
30350709_HL
100
AcDbSpline
 62
6
  6
HIDDEN
 70
0
 71
3
 72
32
 73
28
 74
0
 42
0.0000001
 43
0.0000001
 44
0.0000000001
 40
0.0
 40
0.0
 40
0.0
 40
0.0
 40
0.04
 40
0.08
 40
0.12
 40
0.16
 40
0.2
 40
0.24
 40
0.28
 40
0.32
 40
0.36
 40
0.4
 40
0.44
 40
0.48
 40
0.52
 40
0.56
 40
0.6
 40
0.64
 40
0.68
 40
0.72
 40
0.76
 40
0.8
 40
0.84
 40
0.88
 40
0.92
 40
0.96
 40
1.0
 40
1.0
 40
1.0
 40
1.0
 10
265.9291205798
 20
172.8774946005
 30
0.0
 10
265.9291205875
 20
172.8774946022
 30
0.0
 10
265.9252535157
 20
172.8766280385
 30
0.0
 10
265.9078427067
 20
172.8727408619
 30
0.0
 10
265.8788801714
 20
172.8663222289
 30
0.0
 10
265.838351522
 20
172.857440538
 30
0.0
 10
265.7864315778
 20
172.8462333227
 30
0.0
 10
265.7230856801
 20
172.8328206877
 30
0.0
 10
265.6486588698
 20
172.8174289532
 30
0.0
 10
265.563123584
 20
172.8002321137
 30
0.0
 10
265.4670307956
 20
172.7815424543
 30
0.0
 10
265.3604057036
 20
172.7615882153
 30
0.0
 10
265.2440199577
 20
172.7407524331
 30
0.0
 10
265.1179871033
 20
172.719308054
 30
0.0
 10
264.9832847037
 20
172.6976801006
 30
0.0
 10
264.8401204423
 20
172.676164149
 30
0.0
 10
264.6896266358
 20
172.6551880673
 30
0.0
 10
264.5320796523
 20
172.6350403804
 30
0.0
 10
264.3686856985
 20
172.6161110655
 30
0.0
 10
264.1997516732
 20
172.5986539326
 30
0.0
 10
264.026464208
 20
172.5829888036
 30
0.0
 10
263.8491382028
 20
172.5693170031
 30
0.0
 10
263.668862442
 20
172.5578711954
 30
0.0
 10
263.4859759103
 20
172.5487928485
 30
0.0
 10
263.3013904512
 20
172.5422240895
 30
0.0
 10
263.1155197487
 20
172.5382428949
 30
0.0
 10
262.9912355983
 20
172.5373595574
 30
0.0
 10
262.9291205799
 20
172.5373567743
 30
0.0
  0
SPLINE
  5
711
100
AcDbEntity
  8
30350709_HL
100
AcDbSpline
 62
6
  6
HIDDEN
 70
0
 71
3
 72
32
 73
28
 74
0
 42
0.0000001
 43
0.0000001
 44
0.0000000001
 40
0.0
 40
0.0
 40
0.0
 40
0.0
 40
0.04
 40
0.08
 40
0.12
 40
0.16
 40
0.2
 40
0.24
 40
0.28
 40
0.32
 40
0.36
 40
0.4
 40
0.44
 40
0.48
 40
0.52
 40
0.56
 40
0.6
 40
0.64
 40
0.68
 40
0.72
 40
0.76
 40
0.8
 40
0.84
 40
0.88
 40
0.92
 40
0.96
 40
1.0
 40
1.0
 40
1.0
 40
1.0
 10
262.9291205799
 20
172.5373567743
 30
0.0
 10
262.8670055814
 20
172.5373595604
 30
0.0
 10
262.7427215092
 20
172.5382429
 30
0.0
 10
262.5568525955
 20
172.5422240349
 30
0.0
 10
262.3722658804
 20
172.5487928261
 30
0.0
 10
262.1893818357
 20
172.5578710189
 30
0.0
 10
262.0091039397
 20
172.5693169354
 30
0.0
 10
261.8317805734
 20
172.5829885014
 30
0.0
 10
261.6584908192
 20
172.5986538029
 30
0.0
 10
261.4895591387
 20
172.6161106641
 30
0.0
 10
261.3261630867
 20
172.6350401862
 30
0.0
 10
261.1686179247
 20
172.6551876146
 30
0.0
 10
261.0181224679
 20
172.6761638933
 30
0.0
 10
260.8749593896
 20
172.6976796462
 30
0.0
 10
260.7402559156
 20
172.7193077445
 30
0.0
 10
260.6142235608
 20
172.7407520226
 30
0.0
 10
260.4978373691
 20
172.7615878635
 30
0.0
 10
260.3912121063
 20
172.7815421226
 30
0.0
 10
260.2951194733
 20
172.8002317374
 30
0.0
 10
260.2095834296
 20
172.8174287209
 30
0.0
 10
260.135157253
 20
172.8328203162
 30
0.0
 10
260.0718101969
 20
172.8462331909
 30
0.0
 10
260.0198911077
 20
172.8574402184
 30
0.0
 10
259.9793612244
 20
172.8663221763
 30
0.0
 10
259.9503993502
 20
172.8727406627
 30
0.0
 10
259.9329876897
 20
172.876628028
 30
0.0
 10
259.9291205875
 20
172.8774945987
 30
0.0
 10
259.9291205799
 20
172.8774946005
 30
0.0
  0
SPLINE
  5
712
100
AcDbEntity
  8
30350709_HL
100
AcDbSpline
 62
6
  6
HIDDEN
 70
0
 71
3
 72
32
 73
28
 74
0
 42
0.0000001
 43
0.0000001
 44
0.0000000001
 40
0.0
 40
0.0
 40
0.0
 40
0.0
 40
0.0399999746
 40
0.0799999492
 40
0.1199999238
 40
0.1599998984
 40
0.199999873
 40
0.2399998476
 40
0.2799998222
 40
0.3199997968
 40
0.3599997714
 40
0.399999746
 40
0.4399997206
 40
0.4799996952
 40
0.5199996698
 40
0.5599996444
 40
0.599999619
 40
0.6399995936
 40
0.6799995682
 40
0.7199995428
 40
0.7599995174
 40
0.799999492
 40
0.8399994666
 40
0.8799994412
 40
0.9199994158
 40
0.9599993904
 40
1.0
 40
1.0
 40
1.0
 40
1.0
 10
262.9291205799
 20
146.4176324266
 30
0.0
 10
262.9912355783
 20
146.4176296406
 30
0.0
 10
263.1155196505
 20
146.4167463009
 30
0.0
 10
263.3013885642
 20
146.4127651661
 30
0.0
 10
263.4859752793
 20
146.4061963749
 30
0.0
 10
263.668859324
 20
146.3971181821
 30
0.0
 10
263.84913722
 20
146.3856722656
 30
0.0
 10
264.0264605863
 20
146.3720006995
 30
0.0
 10
264.1997503406
 20
146.3563353981
 30
0.0
 10
264.368682021
 20
146.3388785369
 30
0.0
 10
264.532078073
 20
146.3199490148
 30
0.0
 10
264.689623235
 20
146.2998015864
 30
0.0
 10
264.8401186918
 20
146.2788253077
 30
0.0
 10
264.9832817701
 20
146.2573095547
 30
0.0
 10
265.1179852441
 20
146.2356814564
 30
0.0
 10
265.2440175989
 20
146.2142371784
 30
0.0
 10
265.3604037906
 20
146.1934013375
 30
0.0
 10
265.4670290534
 20
146.1734470784
 30
0.0
 10
265.5631216864
 20
146.1547574636
 30
0.0
 10
265.6486577301
 20
146.13756048
 30
0.0
 10
265.7230839067
 20
146.1221688848
 30
0.0
 10
265.7864309628
 20
146.1087560101
 30
0.0
 10
265.838350052
 20
146.0975489826
 30
0.0
 10
265.8788799353
 20
146.0886670247
 30
0.0
 10
265.9078418095
 20
146.0822485383
 30
0.0
 10
265.9252535621
 20
146.0783611524
 30
0.0
 10
265.9291206336
 20
146.0774945885
 30
0.0
 10
265.9291205798
 20
146.0774946005
 30
0.0
  0
SPLINE
  5
713
100
AcDbEntity
  8
30350709_HL
100
AcDbSpline
 62
6
  6
HIDDEN
 70
0
 71
3
 72
32
 73
28
 74
0
 42
0.0000001
 43
0.0000001
 44
0.0000000001
 40
0.0
 40
0.0
 40
0.0
 40
0.0
 40
0.0399993904
 40
0.0799994158
 40
0.1199994412
 40
0.1599994666
 40
0.199999492
 40
0.2399995174
 40
0.2799995428
 40
0.3199995682
 40
0.3599995936
 40
0.399999619
 40
0.4399996444
 40
0.4799996698
 40
0.5199996952
 40
0.5599997206
 40
0.599999746
 40
0.6399997714
 40
0.6799997968
 40
0.7199998222
 40
0.7599998476
 40
0.799999873
 40
0.8399998984
 40
0.8799999238
 40
0.9199999492
 40
0.9599999746
 40
1.0
 40
1.0
 40
1.0
 40
1.0
 10
259.9291205799
 20
146.0774946005
 30
0.0
 10
259.9291206336
 20
146.0774946125
 30
0.0
 10
259.9329877362
 20
146.078361183
 30
0.0
 10
259.950398453
 20
146.0822483391
 30
0.0
 10
259.9793609883
 20
146.0886669721
 30
0.0
 10
260.0198896377
 20
146.097548663
 30
0.0
 10
260.0718095819
 20
146.1087558783
 30
0.0
 10
260.1351554796
 20
146.1221685133
 30
0.0
 10
260.2095822899
 20
146.1375602478
 30
0.0
 10
260.2951175757
 20
146.1547570873
 30
0.0
 10
260.3912103641
 20
146.1734467467
 30
0.0
 10
260.4978354561
 20
146.1934009856
 30
0.0
 10
260.614221202
 20
146.2142367678
 30
0.0
 10
260.7402540564
 20
146.235681147
 30
0.0
 10
260.874956456
 20
146.2573091004
 30
0.0
 10
261.0181207174
 20
146.278825052
 30
0.0
 10
261.1686145239
 20
146.2998011337
 30
0.0
 10
261.3261615074
 20
146.3199488206
 30
0.0
 10
261.4895554612
 20
146.3388781355
 30
0.0
 10
261.6584894865
 20
146.3563352684
 30
0.0
 10
261.8317769517
 20
146.3720003974
 30
0.0
 10
262.0091029569
 20
146.3856721979
 30
0.0
 10
262.1893787177
 20
146.3971180056
 30
0.0
 10
262.3722652494
 20
146.4061963525
 30
0.0
 10
262.5568507085
 20
146.4127651114
 30
0.0
 10
262.742721411
 20
146.4167463061
 30
0.0
 10
262.8670055614
 20
146.4176296435
 30
0.0
 10
262.9291205799
 20
146.4176324266
 30
0.0
  0
SPLINE
  5
714
100
AcDbEntity
  8
30350709_HL
100
AcDbSpline
 62
6
  6
HIDDEN
 70
0
 71
3
 72
10
 73
6
 74
0
 42
0.0000001
 43
0.0000001
 44
0.0000000001
 40
0.0
 40
0.0
 40
0.0
 40
0.0
 40
0.3707433109
 40
0.6902629148
 40
1.0
 40
1.0
 40
1.0
 40
1.0
 10
115.7231657258
 20
128.2255319933
 30
0.0
 10
115.2287145977
 20
128.2226397896
 30
0.0
 10
114.3081130613
 20
128.197826552
 30
0.0
 10
112.9770600405
 20
128.1100807502
 30
0.0
 10
112.1418645217
 20
128.0258784362
 30
0.0
 10
111.73159661
 20
127.9776259131
 30
0.0
  0
LINE
  5
715
100
AcDbEntity
  8
30350709_HL
100
AcDbLine
 62
6
  6
HIDDEN
 10
111.73159661
 20
127.9776259131
 11
111.7304805503
 21
127.9774946005
  0
LINE
  5
716
100
AcDbEntity
  8
30350709_HL
100
AcDbLine
 62
6
  6
HIDDEN
 10
265.4291205799
 20
146.0774946005
 11
265.426762443
 21
146.0779344007
  0
SPLINE
  5
717
100
AcDbEntity
  8
30350709_HL
100
AcDbSpline
 62
6
  6
HIDDEN
 70
0
 71
3
 72
10
 73
6
 74
0
 42
0.0000001
 43
0.0000001
 44
0.0000000001
 40
0.0
 40
0.0
 40
0.0
 40
0.0
 40
0.3086583673
 40
0.6269223979
 40
1.0
 40
1.0
 40
1.0
 40
1.0
 10
265.426762443
 20
146.0779344007
 30
0.0
 10
265.178179209
 20
146.1242643796
 30
0.0
 10
264.6707142957
 20
146.2052778139
 30
0.0
 10
263.8554026863
 20
146.2892778039
 30
0.0
 10
263.2889031339
 20
146.3113999267
 30
0.0
 10
262.9832674407
 20
146.3126575575
 30
0.0
  0
LINE
  5
718
100
AcDbEntity
  8
30350709_HL
100
AcDbLine
 62
6
  6
HIDDEN
 10
260.4291205799
 20
172.8774946005
 11
260.4314787221
 21
172.8770547993
  0
SPLINE
  5
719
100
AcDbEntity
  8
30350709_HL
100
AcDbSpline
 62
6
  6
HIDDEN
 70
0
 71
3
 72
10
 73
6
 74
0
 42
0.0000001
 43
0.0000001
 44
0.0000000001
 40
0.0
 40
0.0
 40
0.0
 40
0.0
 40
0.3086583841
 40
0.6269224088
 40
1.0
 40
1.0
 40
1.0
 40
1.0
 10
260.4314787221
 20
172.8770547993
 30
0.0
 10
260.6800619691
 20
172.8307248184
 30
0.0
 10
261.1875268901
 20
172.7497113833
 30
0.0
 10
262.0028384977
 20
172.6657113959
 30
0.0
 10
262.5693380349
 20
172.6435892743
 30
0.0
 10
262.8749737184
 20
172.6423316435
 30
0.0
  0
LINE
  5
71A
100
AcDbEntity
  8
30350709_HL
100
AcDbLine
 62
6
  6
HIDDEN
 10
110.3291205799
 20
190.9774946005
 11
110.3303651285
 21
190.9773066843
  0
LINE
  5
71B
100
AcDbEntity
  8
30350709_HL
100
AcDbLine
 62
6
  6
HIDDEN
 10
121.5278655704
 20
190.9773051053
 11
121.5291205799
 21
190.9774946005
  0
SPLINE
  5
71C
100
AcDbEntity
  8
30350709_HL
100
AcDbSpline
 62
6
  6
HIDDEN
 70
0
 71
3
 72
26
 73
22
 74
0
 42
0.0000001
 43
0.0000001
 44
0.0000000001
 40
0.0
 40
0.0
 40
0.0
 40
0.0
 40
0.0002759032
 40
0.0011032834
 40
0.0024816465
 40
0.0044104988
 40
0.0099169957
 40
0.0176131696
 40
0.0274869842
 40
0.0395223253
 40
0.0537000224
 40
0.0699979096
 40
0.1088491941
 40
0.1558397493
 40
0.2106930264
 40
0.2730982954
 40
0.3427166876
 40
0.4191869139
 40
0.591155294
 40
0.7858450642
 40
1.0
 40
1.0
 40
1.0
 40
1.0
 10
120.1277606094
 20
127.9774946005
 30
0.0
 10
120.1275951461
 20
127.9775448676
 30
0.0
 10
120.1268930794
 20
127.9775525348
 30
0.0
 10
120.125363039
 20
127.9778048039
 30
0.0
 10
120.1227809162
 20
127.978067282
 30
0.0
 10
120.1172994363
 20
127.9787358015
 30
0.0
 10
120.1078760873
 20
127.9798223714
 30
0.0
 10
120.0935118748
 20
127.9815104755
 30
0.0
 10
120.0750797601
 20
127.9836538239
 30
0.0
 10
120.0526119464
 20
127.9862592434
 30
0.0
 10
120.026142077
 20
127.9893091786
 30
0.0
 10
119.9829713753
 20
127.9942509159
 30
0.0
 10
119.919357516
 20
128.0014427375
 30
0.0
 10
119.8317096686
 20
128.0111597589
 30
0.0
 10
119.7293596235
 20
128.0222398117
 30
0.0
 10
119.6128722767
 20
128.0344999656
 30
0.0
 10
119.4828649911
 20
128.0477417188
 30
0.0
 10
119.2844652508
 20
128.0672023074
 30
0.0
 10
119.0078772712
 20
128.0925560609
 30
0.0
 10
118.6450517609
 20
128.1223555116
 30
0.0
 10
118.3894413871
 20
128.1406156862
 30
0.0
 10
118.2555031934
 20
128.1494289496
 30
0.0
  0
SPLINE
  5
71D
100
AcDbEntity
  8
30350709_HL
100
AcDbSpline
 62
6
  6
HIDDEN
 70
0
 71
3
 72
23
 73
19
 74
0
 42
0.0000001
 43
0.0000001
 44
0.0000000001
 40
0.0
 40
0.0
 40
0.0
 40
0.0
 40
0.2306460754
 40
0.4323546614
 40
0.6043716156
 40
0.6790372574
 40
0.7460413548
 40
0.8053204705
 40
0.8568145467
 40
0.9004743095
 40
0.9362553704
 40
0.9641223518
 40
0.975079438
 40
0.984047769
 40
0.9910251546
 40
0.9960104174
 40
0.9990024138
 40
1.0
 40
1.0
 40
1.0
 40
1.0
 10
265.1732232526
 20
172.832119148
 30
0.0
 10
265.1929280516
 20
172.8354303257
 30
0.0
 10
265.2298524964
 20
172.8417145237
 30
0.0
 10
265.2814329684
 20
172.8507003943
 30
0.0
 10
265.3196785599
 20
172.8574956031
 30
0.0
 10
265.346423892
 20
172.8623087695
 30
0.0
 10
265.3635530891
 20
172.8654136005
 30
0.0
 10
265.3787042056
 20
172.8681777369
 30
0.0
 10
265.3918626675
 20
172.8705918214
 30
0.0
 10
265.4030195169
 20
172.8726478002
 30
0.0
 10
265.4121555079
 20
172.8743403598
 30
0.0
 10
265.418521423
 20
172.875517952
 30
0.0
 10
265.422574507
 20
172.8762783211
 30
0.0
 10
265.424902204
 20
172.8766983238
 30
0.0
 10
265.4265906452
 20
172.877047498
 30
0.0
 10
265.4280772947
 20
172.8772463283
 30
0.0
 10
265.428467843
 20
172.8774566405
 30
0.0
 10
265.4291945649
 20
172.8774499359
 30
0.0
 10
265.4291205799
 20
172.8774946005
 30
0.0
  0
SPLINE
  5
71E
100
AcDbEntity
  8
30350709_CL
100
AcDbSpline
 62
3
  6
CONTINUOUS
 70
0
 71
3
 72
32
 73
28
 74
0
 42
0.0000001
 43
0.0000001
 44
0.0000000001
 40
0.0
 40
0.0
 40
0.0
 40
0.0
 40
0.04
 40
0.08
 40
0.12
 40
0.16
 40
0.2
 40
0.24
 40
0.28
 40
0.32
 40
0.36
 40
0.4
 40
0.44
 40
0.48
 40
0.52
 40
0.56
 40
0.6
 40
0.64
 40
0.68
 40
0.72
 40
0.76
 40
0.8
 40
0.84
 40
0.88
 40
0.92
 40
0.96
 40
1.0
 40
1.0
 40
1.0
 40
1.0
 10
262.9291205799
 20
172.5373567743
 30
0.0
 10
262.9912355783
 20
172.5373595604
 30
0.0
 10
263.1155196505
 20
172.5382429
 30
0.0
 10
263.3013885642
 20
172.5422240349
 30
0.0
 10
263.4859752793
 20
172.5487928261
 30
0.0
 10
263.668859324
 20
172.5578710189
 30
0.0
 10
263.84913722
 20
172.5693169354
 30
0.0
 10
264.0264605863
 20
172.5829885014
 30
0.0
 10
264.1997503406
 20
172.5986538029
 30
0.0
 10
264.368682021
 20
172.6161106641
 30
0.0
 10
264.532078073
 20
172.6350401862
 30
0.0
 10
264.689623235
 20
172.6551876146
 30
0.0
 10
264.8401186918
 20
172.6761638933
 30
0.0
 10
264.9832817701
 20
172.6976796462
 30
0.0
 10
265.1179852441
 20
172.7193077445
 30
0.0
 10
265.2440175989
 20
172.7407520226
 30
0.0
 10
265.3604037906
 20
172.7615878635
 30
0.0
 10
265.4670290534
 20
172.7815421226
 30
0.0
 10
265.5631216864
 20
172.8002317374
 30
0.0
 10
265.6486577301
 20
172.8174287209
 30
0.0
 10
265.7230839067
 20
172.8328203162
 30
0.0
 10
265.7864309628
 20
172.8462331909
 30
0.0
 10
265.838350052
 20
172.8574402184
 30
0.0
 10
265.8788799353
 20
172.8663221763
 30
0.0
 10
265.9078418095
 20
172.8727406627
 30
0.0
 10
265.92525347
 20
172.876628028
 30
0.0
 10
265.9291205722
 20
172.8774945987
 30
0.0
 10
265.9291205798
 20
172.8774946005
 30
0.0
  0
SPLINE
  5
71F
100
AcDbEntity
  8
30350709_CL
100
AcDbSpline
 62
3
  6
CONTINUOUS
 70
0
 71
3
 72
32
 73
28
 74
0
 42
0.0000001
 43
0.0000001
 44
0.0000000001
 40
0.0
 40
0.0
 40
0.0
 40
0.0
 40
0.04
 40
0.08
 40
0.12
 40
0.16
 40
0.2
 40
0.24
 40
0.28
 40
0.32
 40
0.36
 40
0.4
 40
0.44
 40
0.48
 40
0.52
 40
0.56
 40
0.6
 40
0.64
 40
0.68
 40
0.72
 40
0.76
 40
0.8
 40
0.84
 40
0.88
 40
0.92
 40
0.96
 40
1.0
 40
1.0
 40
1.0
 40
1.0
 10
259.9291205799
 20
172.8774946005
 30
0.0
 10
259.9291205722
 20
172.8774946022
 30
0.0
 10
259.932987644
 20
172.8766280385
 30
0.0
 10
259.950398453
 20
172.8727408619
 30
0.0
 10
259.9793609883
 20
172.8663222289
 30
0.0
 10
260.0198896377
 20
172.857440538
 30
0.0
 10
260.0718095819
 20
172.8462333227
 30
0.0
 10
260.1351554796
 20
172.8328206877
 30
0.0
 10
260.2095822899
 20
172.8174289532
 30
0.0
 10
260.2951175757
 20
172.8002321137
 30
0.0
 10
260.3912103641
 20
172.7815424543
 30
0.0
 10
260.4978354561
 20
172.7615882153
 30
0.0
 10
260.614221202
 20
172.7407524331
 30
0.0
 10
260.7402540564
 20
172.719308054
 30
0.0
 10
260.874956456
 20
172.6976801006
 30
0.0
 10
261.0181207174
 20
172.676164149
 30
0.0
 10
261.1686145239
 20
172.6551880673
 30
0.0
 10
261.3261615074
 20
172.6350403804
 30
0.0
 10
261.4895554612
 20
172.6161110655
 30
0.0
 10
261.6584894865
 20
172.5986539326
 30
0.0
 10
261.8317769517
 20
172.5829888036
 30
0.0
 10
262.0091029569
 20
172.5693170031
 30
0.0
 10
262.1893787177
 20
172.5578711954
 30
0.0
 10
262.3722652494
 20
172.5487928485
 30
0.0
 10
262.5568507085
 20
172.5422240895
 30
0.0
 10
262.742721411
 20
172.5382428949
 30
0.0
 10
262.8670055614
 20
172.5373595574
 30
0.0
 10
262.9291205799
 20
172.5373567743
 30
0.0
  0
SPLINE
  5
720
100
AcDbEntity
  8
30350709_CL
100
AcDbSpline
 62
3
  6
CONTINUOUS
 70
0
 71
3
 72
32
 73
28
 74
0
 42
0.0000001
 43
0.0000001
 44
0.0000000001
 40
0.0
 40
0.0
 40
0.0
 40
0.0
 40
0.0399993904
 40
0.0799994158
 40
0.1199994412
 40
0.1599994666
 40
0.199999492
 40
0.2399995174
 40
0.2799995428
 40
0.3199995682
 40
0.3599995936
 40
0.399999619
 40
0.4399996444
 40
0.4799996698
 40
0.5199996952
 40
0.5599997206
 40
0.599999746
 40
0.6399997714
 40
0.6799997968
 40
0.7199998222
 40
0.7599998476
 40
0.799999873
 40
0.8399998984
 40
0.8799999238
 40
0.9199999492
 40
0.9599999746
 40
1.0
 40
1.0
 40
1.0
 40
1.0
 10
265.9291205798
 20
146.0774946005
 30
0.0
 10
265.9291205261
 20
146.0774946125
 30
0.0
 10
265.9252534235
 20
146.078361183
 30
0.0
 10
265.9078427067
 20
146.0822483391
 30
0.0
 10
265.8788801714
 20
146.0886669721
 30
0.0
 10
265.838351522
 20
146.097548663
 30
0.0
 10
265.7864315778
 20
146.1087558783
 30
0.0
 10
265.7230856801
 20
146.1221685133
 30
0.0
 10
265.6486588698
 20
146.1375602478
 30
0.0
 10
265.563123584
 20
146.1547570873
 30
0.0
 10
265.4670307956
 20
146.1734467467
 30
0.0
 10
265.3604057036
 20
146.1934009856
 30
0.0
 10
265.2440199577
 20
146.2142367678
 30
0.0
 10
265.1179871033
 20
146.235681147
 30
0.0
 10
264.9832847037
 20
146.2573091004
 30
0.0
 10
264.8401204423
 20
146.278825052
 30
0.0
 10
264.6896266358
 20
146.2998011337
 30
0.0
 10
264.5320796523
 20
146.3199488206
 30
0.0
 10
264.3686856985
 20
146.3388781355
 30
0.0
 10
264.1997516732
 20
146.3563352684
 30
0.0
 10
264.026464208
 20
146.3720003974
 30
0.0
 10
263.8491382028
 20
146.3856721979
 30
0.0
 10
263.668862442
 20
146.3971180056
 30
0.0
 10
263.4859759103
 20
146.4061963525
 30
0.0
 10
263.3013904512
 20
146.4127651114
 30
0.0
 10
263.1155197487
 20
146.4167463061
 30
0.0
 10
262.9912355983
 20
146.4176296435
 30
0.0
 10
262.9291205799
 20
146.4176324266
 30
0.0
  0
SPLINE
  5
721
100
AcDbEntity
  8
30350709_CL
100
AcDbSpline
 62
3
  6
CONTINUOUS
 70
0
 71
3
 72
32
 73
28
 74
0
 42
0.0000001
 43
0.0000001
 44
0.0000000001
 40
0.0
 40
0.0
 40
0.0
 40
0.0
 40
0.0399999746
 40
0.0799999492
 40
0.1199999238
 40
0.1599998984
 40
0.199999873
 40
0.2399998476
 40
0.2799998222
 40
0.3199997968
 40
0.3599997714
 40
0.399999746
 40
0.4399997206
 40
0.4799996952
 40
0.5199996698
 40
0.5599996444
 40
0.599999619
 40
0.6399995936
 40
0.6799995682
 40
0.7199995428
 40
0.7599995174
 40
0.799999492
 40
0.8399994666
 40
0.8799994412
 40
0.9199994158
 40
0.9599993904
 40
1.0
 40
1.0
 40
1.0
 40
1.0
 10
262.9291205799
 20
146.4176324266
 30
0.0
 10
262.8670055814
 20
146.4176296406
 30
0.0
 10
262.7427215092
 20
146.4167463009
 30
0.0
 10
262.5568525955
 20
146.4127651661
 30
0.0
 10
262.3722658804
 20
146.4061963749
 30
0.0
 10
262.1893818357
 20
146.3971181821
 30
0.0
 10
262.0091039397
 20
146.3856722656
 30
0.0
 10
261.8317805734
 20
146.3720006995
 30
0.0
 10
261.6584908192
 20
146.3563353981
 30
0.0
 10
261.4895591387
 20
146.3388785369
 30
0.0
 10
261.3261630867
 20
146.3199490148
 30
0.0
 10
261.1686179247
 20
146.2998015864
 30
0.0
 10
261.0181224679
 20
146.2788253077
 30
0.0
 10
260.8749593896
 20
146.2573095547
 30
0.0
 10
260.7402559156
 20
146.2356814564
 30
0.0
 10
260.6142235608
 20
146.2142371784
 30
0.0
 10
260.4978373691
 20
146.1934013375
 30
0.0
 10
260.3912121063
 20
146.1734470784
 30
0.0
 10
260.2951194733
 20
146.1547574636
 30
0.0
 10
260.2095834296
 20
146.13756048
 30
0.0
 10
260.135157253
 20
146.1221688848
 30
0.0
 10
260.0718101969
 20
146.1087560101
 30
0.0
 10
260.0198911077
 20
146.0975489826
 30
0.0
 10
259.9793612244
 20
146.0886670247
 30
0.0
 10
259.9503993502
 20
146.0822485383
 30
0.0
 10
259.9329875976
 20
146.0783611524
 30
0.0
 10
259.9291205261
 20
146.0774945885
 30
0.0
 10
259.9291205799
 20
146.0774946005
 30
0.0
  0
SPLINE
  5
722
100
AcDbEntity
  8
30350709_CL
100
AcDbSpline
 62
7
  6
CONTINUOUS
 70
0
 71
3
 72
11
 73
7
 74
0
 42
0.0000001
 43
0.0000001
 44
0.0000000001
 40
0.0
 40
0.0
 40
0.0
 40
0.0
 40
0.3723208743
 40
0.695176926
 40
0.9190024421
 40
1.0
 40
1.0
 40
1.0
 40
1.0
 10
115.9291205798
 20
128.226134639
 30
0.0
 10
116.4513839398
 20
128.226134639
 30
0.0
 10
117.4266709615
 20
128.2043916411
 30
0.0
 10
118.7134675441
 20
128.1225251066
 30
0.0
 10
119.5900371478
 20
128.0387799553
 30
0.0
 10
120.0149219693
 20
127.9907663902
 30
0.0
 10
120.1277606094
 20
127.9774946005
 30
0.0
  0
SPLINE
  5
723
100
AcDbEntity
  8
30350709_CL
100
AcDbSpline
 62
7
  6
CONTINUOUS
 70
0
 71
3
 72
32
 73
28
 74
0
 42
0.0000001
 43
0.0000001
 44
0.0000000001
 40
0.0
 40
0.0
 40
0.0
 40
0.0
 40
0.0000765125
 40
0.0003059995
 40
0.0006883855
 40
0.0012235949
 40
0.0027521725
 40
0.0048906551
 40
0.0076372922
 40
0.0109902107
 40
0.0149468439
 40
0.0195042317
 40
0.0304077782
 40
0.0436691035
 40
0.0592501444
 40
0.0771069254
 40
0.0971898998
 40
0.1194442382
 40
0.1702239983
 40
0.2289185467
 40
0.2949390296
 40
0.3676434123
 40
0.4463405968
 40
0.5302931213
 40
0.618717809
 40
0.8056264398
 40
1.0
 40
1.0
 40
1.0
 40
1.0
 10
260.4291205799
 20
146.0774946005
 30
0.0
 10
260.4290664761
 20
146.0774601666
 30
0.0
 10
260.4296038198
 20
146.0776197295
 30
0.0
 10
260.4298956792
 20
146.0776169519
 30
0.0
 10
260.4309967403
 20
146.0778546917
 30
0.0
 10
260.4329175847
 20
146.078192953
 30
0.0
 10
260.4364508722
 20
146.0788655713
 30
0.0
 10
260.441702223
 20
146.0798347382
 30
0.0
 10
260.448504764
 20
146.0810989153
 30
0.0
 10
260.4567884649
 20
146.0826297176
 30
0.0
 10
260.4665721788
 20
146.0844327796
 30
0.0
 10
260.4825798384
 20
146.0873698744
 30
0.0
 10
260.5062654013
 20
146.0916836045
 30
0.0
 10
260.5390532065
 20
146.0975839588
 30
0.0
 10
260.5775944916
 20
146.1044201809
 30
0.0
 10
260.6217882973
 20
146.1121263906
 30
0.0
 10
260.6715209392
 20
146.1206288468
 30
0.0
 10
260.7485029584
 20
146.1334960774
 30
0.0
 10
260.8575221626
 20
146.150998606
 30
0.0
 10
261.0029827079
 20
146.1729036262
 30
0.0
 10
261.1668819083
 20
146.1957142131
 30
0.0
 10
261.3476898651
 20
146.2185662658
 30
0.0
 10
261.5437349664
 20
146.2405897228
 30
0.0
 10
261.7532059518
 20
146.2609381297
 30
0.0
 10
262.0533856668
 20
146.2852349158
 30
0.0
 10
262.4465812446
 20
146.3068310614
 30
0.0
 10
262.7661985844
 20
146.3127690052
 30
0.0
 10
262.9291205799
 20
146.3127690052
 30
0.0
  0
SPLINE
  5
724
100
AcDbEntity
  8
30350709_CL
100
AcDbSpline
 62
7
  6
CONTINUOUS
 70
0
 71
3
 72
32
 73
28
 74
0
 42
0.0000001
 43
0.0000001
 44
0.0000000001
 40
0.0
 40
0.0
 40
0.0
 40
0.0
 40
0.0000765125
 40
0.0003059995
 40
0.0006883855
 40
0.0012235949
 40
0.0027521725
 40
0.0048906551
 40
0.0076372922
 40
0.0109902107
 40
0.014946844
 40
0.0195042318
 40
0.0304077782
 40
0.0436691035
 40
0.0592501444
 40
0.0771069254
 40
0.0971898999
 40
0.1194442383
 40
0.170223998
 40
0.2289185466
 40
0.2949390295
 40
0.3676434121
 40
0.4463405967
 40
0.5302931212
 40
0.618717809
 40
0.8056264397
 40
1.0
 40
1.0
 40
1.0
 40
1.0
 10
265.4291205799
 20
172.8774946005
 30
0.0
 10
265.4291745507
 20
172.8775292424
 30
0.0
 10
265.4286375306
 20
172.8773691731
 30
0.0
 10
265.4283453587
 20
172.8773724396
 30
0.0
 10
265.4272444745
 20
172.877134423
 30
0.0
 10
265.4253235225
 20
172.87679633
 30
0.0
 10
265.4217903151
 20
172.8761235866
 30
0.0
 10
265.4165389257
 20
172.87515448
 30
0.0
 10
265.4097363997
 20
172.8738902794
 30
0.0
 10
265.4014526934
 20
172.8723594855
 30
0.0
 10
265.3916689814
 20
172.8705564207
 30
0.0
 10
265.375661321
 20
172.8676193271
 30
0.0
 10
265.3519757585
 20
172.8633055962
 30
0.0
 10
265.3191879531
 20
172.8574052423
 30
0.0
 10
265.2806466681
 20
172.85056902
 30
0.0
 10
265.2364528623
 20
172.8428628104
 30
0.0
 10
265.1867202205
 20
172.8343603542
 30
0.0
 10
265.1097382015
 20
172.8214931236
 30
0.0
 10
265.0007189974
 20
172.803990595
 30
0.0
 10
264.8552584523
 20
172.7820855748
 30
0.0
 10
264.6913592517
 20
172.7592749879
 30
0.0
 10
264.5105512949
 20
172.7364229352
 30
0.0
 10
264.3145061936
 20
172.7143994782
 30
0.0
 10
264.1050352081
 20
172.6940510713
 30
0.0
 10
263.8048554931
 20
172.6697542852
 30
0.0
 10
263.4116599152
 20
172.6481581396
 30
0.0
 10
263.0920425753
 20
172.6422201958
 30
0.0
 10
262.9291205799
 20
172.6422201958
 30
0.0
  0
SPLINE
  5
725
100
AcDbEntity
  8
30350709_CL
100
AcDbSpline
 62
7
  6
CONTINUOUS
 70
0
 71
3
 72
31
 73
27
 74
0
 42
0.0000001
 43
0.0000001
 44
0.0000000001
 40
0.0
 40
0.0
 40
0.0
 40
0.0
 40
0.0003235857
 40
0.0007278917
 40
0.0012937167
 40
0.002909446
 40
0.0051691799
 40
0.0080702321
 40
0.0116097496
 40
0.015783938
 40
0.0205882665
 40
0.0320673459
 40
0.0459998145
 40
0.0623298863
 40
0.0809940199
 40
0.1019215699
 40
0.1250358016
 40
0.1774933824
 40
0.2376672897
 40
0.3048147722
 40
0.3781685908
 40
0.4569504167
 40
0.5403788715
 40
0.6276737206
 40
0.8107530161
 40
1.0
 40
1.0
 40
1.0
 40
1.0
 10
111.7304805503
 20
127.9774946005
 30
0.0
 10
111.73091348
 20
127.9776310469
 30
0.0
 10
111.7319557706
 20
127.9776188175
 30
0.0
 10
111.7337435865
 20
127.9778987145
 30
0.0
 10
111.7373545436
 20
127.9782831813
 30
0.0
 10
111.7435360817
 20
127.9790382581
 30
0.0
 10
111.7529805001
 20
127.9801306085
 30
0.0
 10
111.765101565
 20
127.9815524622
 30
0.0
 10
111.7798922339
 20
127.9832735262
 30
0.0
 10
111.7973351842
 20
127.9852985816
 30
0.0
 10
111.825843317
 20
127.9885919815
 30
0.0
 10
111.8679541129
 20
127.9934187752
 30
0.0
 10
111.9261375252
 20
128.0000028006
 30
0.0
 10
111.9943492177
 20
128.0076037348
 30
0.0
 10
112.0723302386
 20
128.0161370893
 30
0.0
 10
112.159792815
 20
128.0255094627
 30
0.0
 10
112.2944263603
 20
128.0395958201
 30
0.0
 10
112.4839000345
 20
128.0585959213
 30
0.0
 10
112.7349927237
 20
128.0821399535
 30
0.0
 10
113.0154565261
 20
128.1063638445
 30
0.0
 10
113.3221328391
 20
128.1303370021
 30
0.0
 10
113.6517948915
 20
128.1531658197
 30
0.0
 10
114.0011821082
 20
128.1740217618
 30
0.0
 10
114.4968909662
 20
128.1986065332
 30
0.0
 10
115.1413329447
 20
128.2202232675
 30
0.0
 10
115.6636468341
 20
128.226134639
 30
0.0
 10
115.9291205798
 20
128.226134639
 30
0.0
  0
SPLINE
  5
726
100
AcDbEntity
  8
30350709_CL
100
AcDbSpline
 62
7
  6
CONTINUOUS
 70
0
 71
3
 72
15
 73
11
 74
0
 42
0.0000001
 43
0.0000001
 44
0.0000000001
 40
0.0
 40
0.0
 40
0.0
 40
0.0
 40
0.041365825
 40
0.1543852447
 40
0.3154477639
 40
0.5000000006
 40
0.6845522376
 40
0.8456147564
 40
0.9586341756
 40
1.0
 40
1.0
 40
1.0
 40
1.0
 10
121.5291205799
 20
190.9774946005
 30
0.0
 10
121.375844955
 20
190.9543575527
 30
0.0
 10
120.8032806408
 20
190.8713185279
 30
0.0
 10
119.6297678066
 20
190.7273215591
 30
0.0
 10
117.9161357628
 20
190.587111514
 30
0.0
 10
115.9291205723
 20
190.5300690469
 30
0.0
 10
113.9421053829
 20
190.5871115148
 30
0.0
 10
112.2284733414
 20
190.7273215604
 30
0.0
 10
111.0549605125
 20
190.8713185287
 30
0.0
 10
110.4823962025
 20
190.954357553
 30
0.0
 10
110.3291205799
 20
190.9774946005
 30
0.0
  0
SPLINE
  5
727
100
AcDbEntity
  8
30350709_CL
100
AcDbSpline
 62
7
  6
CONTINUOUS
 70
0
 71
3
 72
11
 73
7
 74
0
 42
0.0000001
 43
0.0000001
 44
0.0000000001
 40
0.0
 40
0.0
 40
0.0
 40
0.0
 40
0.3812658238
 40
0.705038565
 40
0.9228842841
 40
1.0
 40
1.0
 40
1.0
 40
1.0
 10
262.9291205799
 20
172.6422201958
 30
0.0
 10
262.6095860803
 20
172.6422201958
 30
0.0
 10
262.0184652304
 20
172.6638139464
 30
0.0
 10
261.2486704367
 20
172.7433504849
 30
0.0
 10
260.7359673071
 20
172.8219157159
 30
0.0
 10
260.4926529929
 20
172.8656410141
 30
0.0
 10
260.4291205799
 20
172.8774946005
 30
0.0
  0
SPLINE
  5
728
100
AcDbEntity
  8
30350709_CL
100
AcDbSpline
 62
7
  6
CONTINUOUS
 70
0
 71
3
 72
34
 73
30
 74
0
 42
0.0000001
 43
0.0000001
 44
0.0000000001
 40
0.0
 40
0.0
 40
0.0
 40
0.0
 40
0.1943735362
 40
0.3812821434
 40
0.4697068197
 40
0.5536593334
 40
0.632356508
 40
0.7050608812
 40
0.7710813558
 40
0.8297758957
 40
0.8561897064
 40
0.8805557781
 40
0.9028101138
 40
0.9228930855
 40
0.9407498642
 40
0.956330903
 40
0.9695922264
 40
0.9804957713
 40
0.9850531585
 40
0.9890097911
 40
0.9923627092
 40
0.9951093458
 40
0.997247828
 40
0.9980884483
 40
0.9987764054
 40
0.9993116147
 40
0.9996940006
 40
0.9999234876
 40
1.0
 40
1.0
 40
1.0
 40
1.0
 10
262.9291205799
 20
146.3127690052
 30
0.0
 10
263.0920425759
 20
146.3127690052
 30
0.0
 10
263.4116599166
 20
146.3068310613
 30
0.0
 10
263.8048554956
 20
146.2852349156
 30
0.0
 10
264.1050352099
 20
146.2609381295
 30
0.0
 10
264.3145061974
 20
146.2405897224
 30
0.0
 10
264.5105512912
 20
146.2185662663
 30
0.0
 10
264.6913592723
 20
146.1957142103
 30
0.0
 10
264.8552583937
 20
146.172903634
 30
0.0
 10
264.9805232
 20
146.1540399097
 30
0.0
 10
265.0711549304
 20
146.1396904372
 30
0.0
 10
265.1315749816
 20
146.12984615
 30
0.0
 10
265.1867202302
 20
146.1206288447
 30
0.0
 10
265.2364528579
 20
146.112126392
 30
0.0
 10
265.2806466896
 20
146.1044201754
 30
0.0
 10
265.3191878983
 20
146.0975839737
 30
0.0
 10
265.3519759254
 20
146.0916835598
 30
0.0
 10
265.3756609445
 20
146.0873699758
 30
0.0
 10
265.3916694949
 20
146.0844326416
 30
0.0
 10
265.4014511247
 20
146.0826301395
 30
0.0
 10
265.4097409345
 20
146.0810976963
 30
0.0
 10
265.4165265504
 20
146.0798380647
 30
0.0
 10
265.4212534176
 20
146.0789624351
 30
0.0
 10
265.4242622919
 20
146.0783975534
 30
0.0
 10
265.4259899518
 20
146.0780856975
 30
0.0
 10
265.4272430506
 20
146.0778264663
 30
0.0
 10
265.4283463512
 20
146.0776788694
 30
0.0
 10
265.4286361868
 20
146.077522769
 30
0.0
 10
265.4291754807
 20
146.0775277487
 30
0.0
 10
265.4291205799
 20
146.0774946005
 30
0.0
  0
SPLINE
  5
729
100
AcDbEntity
  8
30350709_CL
100
AcDbSpline
 62
7
  6
CONTINUOUS
 70
0
 71
3
 72
9
 73
5
 74
0
 42
0.0000001
 43
0.0000001
 44
0.0000000001
 40
0.0
 40
0.0
 40
0.0
 40
0.0
 40
0.7497560392
 40
1.0
 40
1.0
 40
1.0
 40
1.0
 10
78.0291205799
 20
168.5702738711
 30
0.0
 10
78.0627167669
 20
168.5838708749
 30
0.0
 10
78.109307998
 20
168.5982099754
 30
0.0
 10
78.1570693302
 20
168.605847788
 30
0.0
 10
78.1690756494
 20
168.60732497
 30
0.0
  0
SPLINE
  5
72A
100
AcDbEntity
  8
30350709_CL
100
AcDbSpline
 62
7
  6
CONTINUOUS
 70
0
 71
3
 72
17
 73
13
 74
0
 42
0.0000001
 43
0.0000001
 44
0.0000000001
 40
0.0
 40
0.0
 40
0.0
 40
0.0
 40
0.1250509093
 40
0.2500997825
 40
0.3751448249
 40
0.5001812055
 40
0.6251946291
 40
0.7501381638
 40
0.8126521836
 40
0.8751440342
 40
0.9375937337
 40
1.0
 40
1.0
 40
1.0
 40
1.0
 10
128.5429871571
 20
151.4774946005
 30
0.0
 10
128.5316155078
 20
151.5113139742
 30
0.0
 10
128.5077543769
 20
151.5785843709
 30
0.0
 10
128.4680303875
 20
151.678013373
 30
0.0
 10
128.4235448637
 20
151.7754187394
 30
0.0
 10
128.3730690496
 20
151.8699056053
 30
0.0
 10
128.3147416785
 20
151.9597691493
 30
0.0
 10
128.2569421659
 20
152.0282620658
 30
0.0
 10
128.2028872325
 20
152.0750375992
 30
0.0
 10
128.1576941682
 20
152.1040959102
 30
0.0
 10
128.1077059314
 20
152.1241360416
 30
0.0
 10
128.0719265869
 20
152.1290253721
 30
0.0
 10
128.0541205799
 20
152.1290253721
 30
0.0
  0
SPLINE
  5
72B
100
AcDbEntity
  8
30350709_CL
100
AcDbSpline
 62
7
  6
CONTINUOUS
 70
0
 71
3
 72
17
 73
13
 74
0
 42
0.0000001
 43
0.0000001
 44
0.0000000001
 40
0.0
 40
0.0
 40
0.0
 40
0.0
 40
0.0624063166
 40
0.1248560489
 40
0.1873479255
 40
0.2498619781
 40
0.3748055357
 40
0.4998189312
 40
0.6248552878
 40
0.7499002895
 40
0.8749491252
 40
1.0
 40
1.0
 40
1.0
 40
1.0
 10
128.0541205799
 20
166.8259638288
 30
0.0
 10
128.0719266012
 20
166.8259638288
 30
0.0
 10
128.1077059689
 20
166.8308531721
 30
0.0
 10
128.157694232
 20
166.8508933204
 30
0.0
 10
128.2028873139
 20
166.8799516537
 30
0.0
 10
128.2569422495
 20
166.9267272211
 30
0.0
 10
128.314741746
 20
166.9952201589
 30
0.0
 10
128.3730691273
 20
167.0850836871
 30
0.0
 10
128.4235448876
 20
167.1795705521
 30
0.0
 10
128.4680304162
 20
167.2769758833
 30
0.0
 10
128.5077543878
 20
167.3764048585
 30
0.0
 10
128.5316155109
 20
167.4436752361
 30
0.0
 10
128.5429871571
 20
167.4774946005
 30
0.0
  0
SPLINE
  5
72C
100
AcDbEntity
  8
30350709_CL
100
AcDbSpline
 62
7
  6
CONTINUOUS
 70
0
 71
3
 72
16
 73
12
 74
0
 42
0.0000001
 43
0.0000001
 44
0.0000000001
 40
0.0
 40
0.0
 40
0.0
 40
0.0
 40
0.0640762649
 40
0.1252314861
 40
0.1849256615
 40
0.2442309358
 40
0.3636640305
 40
0.485454454
 40
0.6100242674
 40
0.7373897431
 40
1.0
 40
1.0
 40
1.0
 40
1.0
 10
77.5001566719
 20
169.6948426508
 30
0.0
 10
77.5000742697
 20
169.6681083285
 30
0.0
 10
77.5043657856
 20
169.6157303017
 30
0.0
 10
77.5227857363
 20
169.5405884601
 30
0.0
 10
77.5482321756
 20
169.4697772009
 30
0.0
 10
77.58771204
 20
169.3784266635
 30
0.0
 10
77.6437748169
 20
169.2661999694
 30
0.0
 10
77.7158153426
 20
169.1316554973
 30
0.0
 10
77.7912015426
 20
168.9951558559
 30
0.0
 10
77.8959956893
 20
168.8077880931
 30
0.0
 10
77.9757000715
 20
168.665937379
 30
0.0
 10
78.0291205799
 20
168.5702738711
 30
0.0
  0
SPLINE
  5
72D
100
AcDbEntity
  8
30350709_CL
100
AcDbSpline
 62
7
  6
CONTINUOUS
 70
0
 71
3
 72
40
 73
36
 74
0
 42
0.0000001
 43
0.0000001
 44
0.0000000001
 40
0.0
 40
0.0
 40
0.0
 40
0.0
 40
0.0637055856
 40
0.1279278657
 40
0.1926978598
 40
0.258087182
 40
0.3242323816
 40
0.3913979963
 40
0.4255266446
 40
0.4601770978
 40
0.4777582219
 40
0.4955149296
 40
0.5132089531
 40
0.5216098181
 40
0.5289440528
 40
0.5350034549
 40
0.5406151325
 40
0.5463385167
 40
0.552286329
 40
0.5584431629
 40
0.5647749272
 40
0.5778439668
 40
0.5913245201
 40
0.605109709
 40
0.6191319401
 40
0.6333461123
 40
0.6622303867
 40
0.6915969636
 40
0.7213461217
 40
0.7514136669
 40
0.7817556101
 40
0.8123406281
 40
0.8741523541
 40
0.9367279803
 40
1.0
 40
1.0
 40
1.0
 40
1.0
 10
77.2759095187
 20
169.5930365737
 30
0.0
 10
77.275832114
 20
169.6254674914
 30
0.0
 10
77.2762572689
 20
169.6905951665
 30
0.0
 10
77.2786503475
 20
169.7886691951
 30
0.0
 10
77.2829559068
 20
169.8875370216
 30
0.0
 10
77.2894838848
 20
169.9872682081
 30
0.0
 10
77.2988389201
 20
170.0880001078
 30
0.0
 10
77.3098657937
 20
170.1725643252
 30
0.0
 10
77.3220566806
 20
170.240702188
 30
0.0
 10
77.331844486
 20
170.2835934999
 30
0.0
 10
77.3419685757
 20
170.3177821909
 30
0.0
 10
77.3513615038
 20
170.3430886682
 30
0.0
 10
77.3615045084
 20
170.363181814
 30
0.0
 10
77.3723188304
 20
170.3764140033
 30
0.0
 10
77.3816625346
 20
170.3829728251
 30
0.0
 10
77.3917578601
 20
170.384019364
 30
0.0
 10
77.4001139108
 20
170.3803974779
 30
0.0
 10
77.4068685572
 20
170.3746713852
 30
0.0
 10
77.4126947444
 20
170.3676729384
 30
0.0
 10
77.4178571507
 20
170.3598198611
 30
0.0
 10
77.4241343161
 20
170.3484127217
 30
0.0
 10
77.4309236231
 20
170.3330834026
 30
0.0
 10
77.437922194
 20
170.313770313
 30
0.0
 10
77.4441111675
 20
170.2936764289
 30
0.0
 10
77.4496600966
 20
170.27301282
 30
0.0
 10
77.4563895682
 20
170.2447202405
 30
0.0
 10
77.4636606026
 20
170.2085423115
 30
0.0
 10
77.4710032376
 20
170.164343549
 30
0.0
 10
77.4772504072
 20
170.1193697416
 30
0.0
 10
77.4825655207
 20
170.0737778301
 30
0.0
 10
77.487061578
 20
170.0276708978
 30
0.0
 10
77.4920884208
 20
169.9653877741
 30
0.0
 10
77.4966589391
 20
169.8866160296
 30
0.0
 10
77.4997239123
 20
169.7911235419
 30
0.0
 10
77.5002559519
 20
169.7270527897
 30
0.0
 10
77.5001566719
 20
169.6948426508
 30
0.0
  0
SPLINE
  5
72E
100
AcDbEntity
  8
30350709_CL
100
AcDbSpline
 62
7
  6
CONTINUOUS
 70
0
 71
3
 72
40
 73
36
 74
0
 42
0.0000001
 43
0.0000001
 44
0.0000000001
 40
0.0
 40
0.0
 40
0.0
 40
0.0
 40
0.0632719483
 40
0.1258474972
 40
0.1876591509
 40
0.2182441314
 40
0.2485860332
 40
0.2786535445
 40
0.3084026755
 40
0.3377692217
 40
0.3666534715
 40
0.3808676404
 40
0.3948898608
 40
0.4086750174
 40
0.4221556411
 40
0.4352245996
 40
0.4415563434
 40
0.4477131829
 40
0.4536609596
 40
0.4593845576
 40
0.4649966383
 40
0.4710557281
 40
0.4783916602
 40
0.4867926204
 40
0.5044864104
 40
0.5222430783
 40
0.5398242853
 40
0.5744747496
 40
0.6086030829
 40
0.6757682656
 40
0.7419132839
 40
0.8073024833
 40
0.8720723654
 40
0.9362945334
 40
1.0
 40
1.0
 40
1.0
 40
1.0
 10
77.5001566719
 20
149.2601465502
 30
0.0
 10
77.5002559518
 20
149.2279364462
 30
0.0
 10
77.4997239154
 20
149.163865767
 30
0.0
 10
77.4966589458
 20
149.0683733878
 30
0.0
 10
77.4920884468
 20
148.9896017343
 30
0.0
 10
77.4870616199
 20
148.9273186838
 30
0.0
 10
77.4825655574
 20
148.8812118077
 30
0.0
 10
77.4772504619
 20
148.8356199449
 30
0.0
 10
77.4710033321
 20
148.790646177
 30
0.0
 10
77.463660713
 20
148.7464474525
 30
0.0
 10
77.4563897
 20
148.7102695477
 30
0.0
 10
77.4496602682
 20
148.6819769795
 30
0.0
 10
77.4441114001
 20
148.6613133735
 30
0.0
 10
77.4379222555
 20
148.6412195339
 30
0.0
 10
77.430924068
 20
148.6219063224
 30
0.0
 10
77.4241344795
 20
148.6065771359
 30
0.0
 10
77.4178573185
 20
148.5951700587
 30
0.0
 10
77.4126950168
 20
148.587316938
 30
0.0
 10
77.4068686359
 20
148.5803185185
 30
0.0
 10
77.400114008
 20
148.5745920676
 30
0.0
 10
77.3917581412
 20
148.5709692173
 30
0.0
 10
77.3816616466
 20
148.5720159671
 30
0.0
 10
77.3723184269
 20
148.5785769167
 30
0.0
 10
77.3615026886
 20
148.5918086749
 30
0.0
 10
77.3513610192
 20
148.6119027441
 30
0.0
 10
77.3419679738
 20
148.6372089048
 30
0.0
 10
77.331843738
 20
148.6713976444
 30
0.0
 10
77.3220564233
 20
148.7142889331
 30
0.0
 10
77.3098655041
 20
148.7824264128
 30
0.0
 10
77.2988388519
 20
148.8669901887
 30
0.0
 10
77.28948382
 20
148.9677217141
 30
0.0
 10
77.2829558812
 20
149.067452696
 30
0.0
 10
77.2786503313
 20
149.1663203501
 30
0.0
 10
77.2762572704
 20
149.2643942086
 30
0.0
 10
77.2758321141
 20
149.3295217688
 30
0.0
 10
77.2759095187
 20
149.3619526273
 30
0.0
  0
SPLINE
  5
72F
100
AcDbEntity
  8
30350709_CL
100
AcDbSpline
 62
7
  6
CONTINUOUS
 70
0
 71
3
 72
16
 73
12
 74
0
 42
0.0000001
 43
0.0000001
 44
0.0000000001
 40
0.0
 40
0.0
 40
0.0
 40
0.0
 40
0.2626124719
 40
0.3899788842
 40
0.5145498291
 40
0.636341096
 40
0.7557749642
 40
0.8150803778
 40
0.8747733232
 40
0.9359251566
 40
1.0
 40
1.0
 40
1.0
 40
1.0
 10
78.0291205799
 20
150.3847153299
 30
0.0
 10
77.9756996093
 20
150.2890509944
 30
0.0
 10
77.8959946489
 20
150.1471990592
 30
0.0
 10
77.7911992523
 20
149.9598298881
 30
0.0
 10
77.715813656
 20
149.8233284976
 30
0.0
 10
77.6437712631
 20
149.688783676
 30
0.0
 10
77.587707805
 20
149.5765565162
 30
0.0
 10
77.5482276303
 20
149.4852061278
 30
0.0
 10
77.5227852693
 20
149.4143954537
 30
0.0
 10
77.5043641341
 20
149.3392565105
 30
0.0
 10
77.5000742715
 20
149.2868802852
 30
0.0
 10
77.5001566719
 20
149.2601465502
 30
0.0
  0
SPLINE
  5
730
100
AcDbEntity
  8
30350709_CL
100
AcDbSpline
 62
7
  6
CONTINUOUS
 70
0
 71
3
 72
9
 73
5
 74
0
 42
0.0000001
 43
0.0000001
 44
0.0000000001
 40
0.0
 40
0.0
 40
0.0
 40
0.0
 40
0.2502442154
 40
1.0
 40
1.0
 40
1.0
 40
1.0
 10
78.1690756494
 20
150.347664231
 30
0.0
 10
78.1570693181
 20
150.3491414144
 30
0.0
 10
78.1093079884
 20
150.3567792425
 30
0.0
 10
78.0627167554
 20
150.3711183307
 30
0.0
 10
78.0291205799
 20
150.3847153299
 30
0.0
  0
SPLINE
  5
731
100
AcDbEntity
  8
30350709_CL
100
AcDbSpline
 62
7
  6
CONTINUOUS
 70
0
 71
3
 72
11
 73
7
 74
0
 42
0.0000001
 43
0.0000001
 44
0.0000000001
 40
0.0
 40
0.0
 40
0.0
 40
0.0
 40
0.2500281574
 40
0.5000499697
 40
0.7500513787
 40
1.0
 40
1.0
 40
1.0
 40
1.0
 10
78.1690756494
 20
150.347664231
 30
0.0
 10
78.4501100671
 20
150.3130875239
 30
0.0
 10
79.0118774639
 20
150.2415088887
 30
0.0
 10
79.8533044824
 20
150.1250702307
 30
0.0
 10
80.6929300799
 20
149.9968363243
 30
0.0
 10
81.2509332545
 20
149.9005119488
 30
0.0
 10
81.5291205799
 20
149.8481984382
 30
0.0
  0
SPLINE
  5
732
100
AcDbEntity
  8
30350709_CL
100
AcDbSpline
 62
7
  6
CONTINUOUS
 70
0
 71
3
 72
22
 73
18
 74
0
 42
0.0000001
 43
0.0000001
 44
0.0000000001
 40
0.0
 40
0.0
 40
0.0
 40
0.0
 40
0.1252608019
 40
0.2497438156
 40
0.3736799211
 40
0.4972967244
 40
0.5590815351
 40
0.6208846178
 40
0.6827576082
 40
0.7447806311
 40
0.8070981545
 40
0.838466804
 40
0.8700499327
 40
0.9019415099
 40
0.9342457638
 40
0.9669933662
 40
1.0
 40
1.0
 40
1.0
 40
1.0
 10
83.0291205799
 20
152.3299597745
 30
0.0
 10
83.0291205799
 20
152.1995609952
 30
0.0
 10
83.010127323
 20
151.9392618153
 30
0.0
 10
82.9308214063
 20
151.5574474231
 30
0.0
 10
82.8071504572
 20
151.1895426202
 30
0.0
 10
82.671453545
 20
150.8967770819
 30
0.0
 10
82.5451344866
 20
150.6724567151
 30
0.0
 10
82.4414887626
 20
150.5094506512
 30
0.0
 10
82.3286268801
 20
150.3523545088
 30
0.0
 10
82.205518168
 20
150.202433019
 30
0.0
 10
82.0926422371
 20
150.0856747604
 30
0.0
 10
81.9938731893
 20
150.0003764567
 30
0.0
 10
81.914171109
 20
149.9418716238
 30
0.0
 10
81.8277312406
 20
149.8916671485
 30
0.0
 10
81.7333877372
 20
149.8543697342
 30
0.0
 10
81.6319374604
 20
149.8368157836
 30
0.0
 10
81.5628891899
 20
149.8418482045
 30
0.0
 10
81.5291205799
 20
149.8481984382
 30
0.0
  0
SPLINE
  5
733
100
AcDbEntity
  8
30350709_CL
100
AcDbSpline
 62
7
  6
CONTINUOUS
 70
0
 71
3
 72
21
 73
17
 74
0
 42
0.0000001
 43
0.0000001
 44
0.0000000001
 40
0.0
 40
0.0
 40
0.0
 40
0.0
 40
0.1249508325
 40
0.249944579
 40
0.3124864115
 40
0.3750095608
 40
0.4375121371
 40
0.4999964866
 40
0.5624683546
 40
0.6249360634
 40
0.6874085493
 40
0.7498935345
 40
0.8123961638
 40
0.8749174323
 40
0.9374539316
 40
1.0
 40
1.0
 40
1.0
 40
1.0
 10
99.9291205799
 20
155.2274946005
 30
0.0
 10
99.6479411817
 20
155.2396170449
 30
0.0
 10
99.0864381603
 20
155.3112350451
 30
0.0
 10
98.4099692747
 20
155.5184708506
 30
0.0
 10
97.8970005596
 20
155.7525737651
 30
0.0
 10
97.5292104212
 20
155.9616538939
 30
0.0
 10
97.1819406595
 20
156.203059513
 30
0.0
 10
96.8585053346
 20
156.475442721
 30
0.0
 10
96.5622771019
 20
156.7771193513
 30
0.0
 10
96.2966082923
 20
157.1060337412
 30
0.0
 10
96.0647892299
 20
157.4596961073
 30
0.0
 10
95.8699582914
 20
157.8351332687
 30
0.0
 10
95.714993714
 20
158.228851409
 30
0.0
 10
95.6023607308
 20
158.6368623915
 30
0.0
 10
95.5339716559
 20
159.0546402887
 30
0.0
 10
95.5186815567
 20
159.3366151662
 30
0.0
 10
95.5186815567
 20
159.4774946005
 30
0.0
  0
SPLINE
  5
734
100
AcDbEntity
  8
30350709_CL
100
AcDbSpline
 62
7
  6
CONTINUOUS
 70
0
 71
3
 72
21
 73
17
 74
0
 42
0.0000001
 43
0.0000001
 44
0.0000000001
 40
0.0
 40
0.0
 40
0.0
 40
0.0
 40
0.0627710938
 40
0.1255058605
 40
0.188175608
 40
0.2507622175
 40
0.3132613376
 40
0.3756814035
 40
0.4380409772
 40
0.5003651512
 40
0.6248738353
 40
0.7495561122
 40
0.8120634359
 40
0.8746436607
 40
0.9372922237
 40
1.0
 40
1.0
 40
1.0
 40
1.0
 10
104.8047957869
 20
159.4774946005
 30
0.0
 10
104.8047957869
 20
159.3265926711
 30
0.0
 10
104.7870150447
 20
159.0245767455
 30
0.0
 10
104.7076396096
 20
158.5782294928
 30
0.0
 10
104.5774192038
 20
158.1444173437
 30
0.0
 10
104.3992005957
 20
157.7287025447
 30
0.0
 10
104.176534441
 20
157.3357434843
 30
0.0
 10
103.9133914659
 20
156.9694057595
 30
0.0
 10
103.613858782
 20
156.6327533904
 30
0.0
 10
103.1719143116
 20
156.2270726507
 30
0.0
 10
102.5477794097
 20
155.8043182811
 30
0.0
 10
101.8557200073
 20
155.5055218493
 30
0.0
 10
101.2766013362
 20
155.3443764817
 30
0.0
 10
100.8320430807
 20
155.262899414
 30
0.0
 10
100.3815676756
 20
155.2215578291
 30
0.0
 10
100.0797303882
 20
155.2210013829
 30
0.0
 10
99.9291205799
 20
155.2274946005
 30
0.0
  0
SPLINE
  5
735
100
AcDbEntity
  8
30350709_CL
100
AcDbSpline
 62
7
  6
CONTINUOUS
 70
0
 71
3
 72
16
 73
12
 74
0
 42
0.0000001
 43
0.0000001
 44
0.0000000001
 40
0.0
 40
0.0
 40
0.0
 40
0.0
 40
0.2465192083
 40
0.3717687171
 40
0.4980529312
 40
0.6250781892
 40
0.7524320654
 40
0.8159881962
 40
0.8791169268
 40
0.9410456946
 40
1.0
 40
1.0
 40
1.0
 40
1.0
 10
77.0291205799
 20
168.0852531256
 30
0.0
 10
77.0291205799
 20
168.2111124657
 30
0.0
 10
77.0427600501
 20
168.4010644389
 30
0.0
 10
77.0808129429
 20
168.6525057445
 30
0.0
 10
77.1180291
 20
168.8422243466
 30
0.0
 10
77.1618457771
 20
169.0315883286
 30
0.0
 10
77.2017822783
 20
169.1889224905
 30
0.0
 10
77.2330882605
 20
169.3147856545
 30
0.0
 10
77.2545428473
 20
169.4086775353
 30
0.0
 10
77.2711553674
 20
169.501197214
 30
0.0
 10
77.2759813572
 20
169.5629377879
 30
0.0
 10
77.2759095187
 20
169.5930365737
 30
0.0
  0
SPLINE
  5
736
100
AcDbEntity
  8
30350709_CL
100
AcDbSpline
 62
7
  6
CONTINUOUS
 70
0
 71
3
 72
21
 73
17
 74
0
 42
0.0000001
 43
0.0000001
 44
0.0000000001
 40
0.0
 40
0.0
 40
0.0
 40
0.0
 40
0.0627077769
 40
0.1253563398
 40
0.1879365642
 40
0.2504438882
 40
0.3751261638
 40
0.4996348478
 40
0.5619590218
 40
0.6243185952
 40
0.6867386609
 40
0.7492377812
 40
0.8118243901
 40
0.8744941376
 40
0.9372289048
 40
1.0
 40
1.0
 40
1.0
 40
1.0
 10
99.9291205799
 20
163.7274946005
 30
0.0
 10
100.0797303896
 20
163.7339878182
 30
0.0
 10
100.3815676782
 20
163.7334313717
 30
0.0
 10
100.8320430836
 20
163.6920897866
 30
0.0
 10
101.2766013384
 20
163.6106127187
 30
0.0
 10
101.8557200061
 20
163.4494673519
 30
0.0
 10
102.5477794061
 20
163.1506709214
 30
0.0
 10
103.1719143059
 20
162.7279165548
 30
0.0
 10
103.6138587762
 20
162.3222358163
 30
0.0
 10
103.9133914599
 20
161.9855834485
 30
0.0
 10
104.1765344358
 20
161.6192457252
 30
0.0
 10
104.3992005905
 20
161.2262866662
 30
0.0
 10
104.5774191995
 20
160.8105718689
 30
0.0
 10
104.7076396071
 20
160.3767597204
 30
0.0
 10
104.7870150438
 20
159.9304124633
 30
0.0
 10
104.8047957869
 20
159.6283965333
 30
0.0
 10
104.8047957869
 20
159.4774946005
 30
0.0
  0
SPLINE
  5
737
100
AcDbEntity
  8
30350709_CL
100
AcDbSpline
 62
7
  6
CONTINUOUS
 70
0
 71
3
 72
21
 73
17
 74
0
 42
0.0000001
 43
0.0000001
 44
0.0000000001
 40
0.0
 40
0.0
 40
0.0
 40
0.0
 40
0.0625460668
 40
0.125082566
 40
0.1876038345
 40
0.2501064639
 40
0.3125914489
 40
0.3750639347
 40
0.4375316437
 40
0.5000035122
 40
0.5624878625
 40
0.6249904382
 40
0.687513588
 40
0.7500554211
 40
0.8750491672
 40
1.0
 40
1.0
 40
1.0
 40
1.0
 10
95.5186815567
 20
159.4774946005
 30
0.0
 10
95.5186815567
 20
159.6183740312
 30
0.0
 10
95.533971655
 20
159.9003489048
 30
0.0
 10
95.6023607284
 20
160.3181267982
 30
0.0
 10
95.7149937104
 20
160.7261377811
 30
0.0
 10
95.8699582865
 20
161.1198559219
 30
0.0
 10
96.0647892243
 20
161.4952930833
 30
0.0
 10
96.2966082849
 20
161.8489554501
 30
0.0
 10
96.5622770947
 20
162.1778698417
 30
0.0
 10
96.8585053293
 20
162.4795464751
 30
0.0
 10
97.1819406552
 20
162.7519296848
 30
0.0
 10
97.5292104178
 20
162.993335305
 30
0.0
 10
97.8970005569
 20
163.2024154344
 30
0.0
 10
98.4099692733
 20
163.4365183499
 30
0.0
 10
99.0864381598
 20
163.6437541556
 30
0.0
 10
99.6479411811
 20
163.7153721561
 30
0.0
 10
99.9291205799
 20
163.7274946005
 30
0.0
  0
SPLINE
  5
738
100
AcDbEntity
  8
30350709_CL
100
AcDbSpline
 62
7
  6
CONTINUOUS
 70
0
 71
3
 72
22
 73
18
 74
0
 42
0.0000001
 43
0.0000001
 44
0.0000000001
 40
0.0
 40
0.0
 40
0.0
 40
0.0
 40
0.033005072
 40
0.0657529327
 40
0.0980576226
 40
0.1299491723
 40
0.161532279
 40
0.1929009501
 40
0.2552184981
 40
0.3172415163
 40
0.3791144923
 40
0.4409175763
 40
0.5027024068
 40
0.6263192874
 40
0.7502556021
 40
0.8747388659
 40
1.0
 40
1.0
 40
1.0
 40
1.0
 10
81.5291205799
 20
169.1067907627
 30
0.0
 10
81.5628875924
 20
169.1131406961
 30
0.0
 10
81.6319343779
 20
169.1181730568
 30
0.0
 10
81.7333840669
 20
169.1006208361
 30
0.0
 10
81.8277282979
 20
169.0633232483
 30
0.0
 10
81.9141689431
 20
169.0131193547
 30
0.0
 10
81.9938711114
 20
168.9546146449
 30
0.0
 10
82.0926403232
 20
168.8693165079
 30
0.0
 10
82.2055165349
 20
168.7525584303
 30
0.0
 10
82.3286249737
 20
168.6026367114
 30
0.0
 10
82.4414872878
 20
168.4455409113
 30
0.0
 10
82.5451331592
 20
168.2825349206
 30
0.0
 10
82.671452424
 20
168.0582145493
 30
0.0
 10
82.8071495123
 20
167.7654487387
 30
0.0
 10
82.9308209924
 20
167.3975435239
 30
0.0
 10
83.0101272439
 20
167.0157283433
 30
0.0
 10
83.0291205799
 20
166.755428553
 30
0.0
 10
83.0291205799
 20
166.6250294265
 30
0.0
  0
SPLINE
  5
739
100
AcDbEntity
  8
30350709_CL
100
AcDbSpline
 62
7
  6
CONTINUOUS
 70
0
 71
3
 72
11
 73
7
 74
0
 42
0.0000001
 43
0.0000001
 44
0.0000000001
 40
0.0
 40
0.0
 40
0.0
 40
0.0
 40
0.2500281574
 40
0.5000499697
 40
0.7500513787
 40
1.0
 40
1.0
 40
1.0
 40
1.0
 10
78.1690756494
 20
168.60732497
 30
0.0
 10
78.4501100671
 20
168.641901677
 30
0.0
 10
79.0118774639
 20
168.7134803123
 30
0.0
 10
79.8533044824
 20
168.8299189703
 30
0.0
 10
80.6929300799
 20
168.9581528767
 30
0.0
 10
81.2509332545
 20
169.0544772521
 30
0.0
 10
81.5291205799
 20
169.1067907627
 30
0.0
  0
SPLINE
  5
73A
100
AcDbEntity
  8
30350709_CL
100
AcDbSpline
 62
7
  6
CONTINUOUS
 70
0
 71
3
 72
16
 73
12
 74
0
 42
0.0000001
 43
0.0000001
 44
0.0000000001
 40
0.0
 40
0.0
 40
0.0
 40
0.0
 40
0.0589538769
 40
0.1208822345
 40
0.184010769
 40
0.2475668013
 40
0.374920502
 40
0.5019456004
 40
0.6282295968
 40
0.7534791672
 40
1.0
 40
1.0
 40
1.0
 40
1.0
 10
77.2759095187
 20
149.3619526273
 30
0.0
 10
77.2759813567
 20
149.3920511944
 30
0.0
 10
77.2711554738
 20
149.4537913415
 30
0.0
 10
77.2545431821
 20
149.5463105269
 30
0.0
 10
77.2330887095
 20
149.6402020663
 30
0.0
 10
77.2017826915
 20
149.7660649749
 30
0.0
 10
77.1618463586
 20
149.9233989503
 30
0.0
 10
77.1180295138
 20
150.1127626054
 30
0.0
 10
77.0808134418
 20
150.3024810605
 30
0.0
 10
77.0427601152
 20
150.5539230573
 30
0.0
 10
77.0291205799
 20
150.7438759053
 30
0.0
 10
77.0291205799
 20
150.8697360754
 30
0.0
  0
SPLINE
  5
73B
100
AcDbEntity
  8
30350709_CL
100
AcDbSpline
 62
7
  6
CONTINUOUS
 70
0
 71
3
 72
17
 73
13
 74
0
 42
0.0000001
 43
0.0000001
 44
0.0000000001
 40
0.0
 40
0.0
 40
0.0
 40
0.0
 40
0.1250508644
 40
0.2500996897
 40
0.3751446807
 40
0.5001810315
 40
0.6251944193
 40
0.7501379882
 40
0.8126520564
 40
0.8751439365
 40
0.9375936643
 40
1.0
 40
1.0
 40
1.0
 40
1.0
 10
125.3152540026
 20
167.4774946005
 30
0.0
 10
125.3266256478
 20
167.4436752389
 30
0.0
 10
125.3504867685
 20
167.3764048667
 30
0.0
 10
125.3902107351
 20
167.276975899
 30
0.0
 10
125.4346962658
 20
167.1795705774
 30
0.0
 10
125.485172011
 20
167.0850837119
 30
0.0
 10
125.5434993962
 20
166.9952201868
 30
0.0
 10
125.6012988904
 20
166.9267272403
 30
0.0
 10
125.6553538299
 20
166.8799516639
 30
0.0
 10
125.7005469144
 20
166.850893327
 30
0.0
 10
125.750535181
 20
166.8308531734
 30
0.0
 10
125.786314553
 20
166.8259638288
 30
0.0
 10
125.8041205799
 20
166.8259638288
 30
0.0
  0
SPLINE
  5
73C
100
AcDbEntity
  8
30350709_CL
100
AcDbSpline
 62
7
  6
CONTINUOUS
 70
0
 71
3
 72
17
 73
13
 74
0
 42
0.0000001
 43
0.0000001
 44
0.0000000001
 40
0.0
 40
0.0
 40
0.0
 40
0.0
 40
0.0624062854
 40
0.1248559801
 40
0.187347834
 40
0.2498618695
 40
0.3748054156
 40
0.4998188314
 40
0.6248552065
 40
0.7499002383
 40
0.8749491011
 40
1.0
 40
1.0
 40
1.0
 40
1.0
 10
125.8041205799
 20
152.1290253721
 30
0.0
 10
125.7863145674
 20
152.1290253721
 30
0.0
 10
125.7505352185
 20
152.1241360403
 30
0.0
 10
125.7005469784
 20
152.1040959037
 30
0.0
 10
125.6553539116
 20
152.0750375891
 30
0.0
 10
125.6012989742
 20
152.0282620467
 30
0.0
 10
125.543499464
 20
151.9597691214
 30
0.0
 10
125.4851720886
 20
151.8699055806
 30
0.0
 10
125.4346962897
 20
151.7754187142
 30
0.0
 10
125.3902107638
 20
151.6780133574
 30
0.0
 10
125.3504867795
 20
151.5785843627
 30
0.0
 10
125.326625651
 20
151.5113139714
 30
0.0
 10
125.3152540026
 20
151.4774946005
 30
0.0
  0
ENDSEC
  0
SECTION
  2
OBJECTS
  0
DICTIONARY
  5
C
100
AcDbDictionary
280
0
281
1
  3
ACAD_GROUP
350
D
  3
ACAD_MLINESTYLE
350
17
  3
ACAD_LAYOUT
350
1A
  3
ACAD_PLOTSETTINGS
350
19
  3
ACAD_PLOTSTYLENAME
350
E
  0
DICTIONARY
  5
D
102
{ACAD_REACTORS
330
C
102
}
100
AcDbDictionary
280
0
281
1
  0
ACDBDICTIONARYWDFLT
  5
E
102
{ACAD_REACTORS
330
C
102
}
100
AcDbDictionary
281
1
  3
Normal
350
F
100
AcDbDictionaryWithDefault
340
F
  0
DICTIONARY
  5
17
102
{ACAD_REACTORS
330
C
102
}
100
AcDbDictionary
280
0
281
1
  3
Standard
350
18
  0
DICTIONARY
  5
19
102
{ACAD_REACTORS
330
C
102
}
100
AcDbDictionary
281
1
  0
DICTIONARY
  5
1A
102
{ACAD_REACTORS
330
C
102
}
100
AcDbDictionary
281
1
  3
Model
350
73D
  3
Layout1
350
73E
  0
ACDBPLACEHOLDER
  5
F
102
{ACAD_REACTORS
330
E
102
}
  0
MLINESTYLE
  5
18
102
{ACAD_REACTORS
330
17
102
}
100
AcDbMlineStyle
  2
STANDARD
 70
0
  3

 62
256
 51
90.0
 52
90.0
 71
2
 49
0.5
 62
256
  6
BYLAYER
 49
-0.5
 62
256
  6
BYLAYER
  0
LAYOUT
  5
73D
102
{ACAD_REACTORS
330
1A
102
}
100
AcDbPlotSettings
  1

  2
none_device
  4
ISO_A3_(420.00_x_297.00_MM)
  6

 40
0.0
 41
0.0
 42
0.0
 43
0.0
 44
420.0
 45
297.0
 46
0.0
 47
0.0
 48
0.0
 49
0.0
140
0.0
141
0.0
142
1.0
143
1.0
 70
1024
 72
1
 73
0
 74
0
  7

 75
0
147
1.0
148
0.0
149
0.0
100
AcDbLayout
  1
Model
 70
0
 71
0
 10
0.0
 20
0.0
 11
420.0
 21
297.0
 12
0.0
 22
0.0
 32
0.0
 14
0.0
 24
0.0
 34
0.0
 15
0.0
 25
0.0
 35
0.0
146
0.0
 13
0.0
 23
0.0
 33
0.0
 16
1.0
 26
0.0
 36
0.0
 17
0.0
 27
1.0
 37
0.0
 76
0
330
218
345
0
346
0
  0
LAYOUT
  5
73E
102
{ACAD_REACTORS
330
1A
102
}
100
AcDbPlotSettings
  1

  2
none_device
  4
ISO_A3_(420.00_x_297.00_MM)
  6

 40
0.0
 41
0.0
 42
0.0
 43
0.0
 44
420.0
 45
297.0
 46
0.0
 47
0.0
 48
0.0
 49
0.0
140
0.0
141
0.0
142
1.0
143
1.0
 70
0
 72
1
 73
0
 74
0
  7

 75
0
147
1.0
148
0.0
149
0.0
100
AcDbLayout
  1
Layout1
 70
0
 71
1
 10
0.0
 20
0.0
 11
420.0
 21
297.0
 12
0.0
 22
0.0
 32
0.0
 14
0.0
 24
0.0
 34
0.0
 15
0.0
 25
0.0
 35
0.0
146
0.0
 13
0.0
 23
0.0
 33
0.0
 16
1.0
 26
0.0
 36
0.0
 17
0.0
 27
1.0
 37
0.0
 76
0
330
219
345
0
346
0
  0
ENDSEC
  0
EOF
