999
DXF file: 606355349-000-00-ed1.dxf
999
Pro/ENGINEER 2011220 by Parametric Technology Corporation
  0
SECTION
  2
HEADER
  9
$ACADVER
  1
AC1015
  9
$DWGCODEPAGE
  3
ANSI_1252
  9
$EXTMAX
 10
420.0
 20
297.0
 30
0.0
  9
$EXTMIN
 10
0.0
 20
0.0
 30
0.0
  9
$LIMMIN
 10
0.0
 20
0.0
  9
$LIMMAX
 10
420.0
 20
297.0
  9
$VIEWCTR
 10
210.0
 20
148.5
  9
$VIEWSIZE
 40
297.0
  9
$CLAYER
  8
0
  9
$LTSCALE
 40
23.1
  9
$CELTYPE
  6
BYLAYER
  9
$DIMSCALE
 40
1.0
  9
$DIMASZ
 40
3.5
  9
$DIMEXO
 40
2.625
  9
$DIMDLI
 40
15.96
  9
$DIMEXE
 40
7.56
  9
$DIMCEN
 40
3.78
  9
$DIMLFAC
 40
1.0
  9
$DIMBLK
  1
_FILLED
  9
$DIMTXT
 40
3.5
  9
$DIMTOL
 70
1
  9
$DIMLIM
 70
0
  9
$DIMTFAC
 40
1.0
  9
$DIMTP
 40
0.005
  9
$DIMTM
 40
0.005
  9
$PDMODE
 70
3
  9
$PDSIZE
 40
0.3125
  9
$HANDSEED
  5
80F
  9
$TILEMODE
 70
1
  9
$MEASUREMENT
 70
1
  9
$INSUNITS
 70
4
  0
ENDSEC
  0
SECTION
  2
CLASSES
  0
CLASS
  1
ACDBDICTIONARYWDFLT
  2
AcDbDictionaryWithDefault
  3
AutoCAD 2000
 90
0
280
0
281
0
  0
CLASS
  1
ACDBPLACEHOLDER
  2
AcDbPlaceHolder
  3
AutoCAD 2000
 90
0
280
0
281
0
  0
CLASS
  1
LAYOUT
  2
AcDbLayout
  3
AutoCAD 2000
 90
0
280
0
281
0
  0
ENDSEC
  0
SECTION
  2
TABLES
  0
TABLE
  2
VPORT
  5
8
100
AcDbSymbolTable
 70
2
  0
VPORT
  5
1F4
100
AcDbSymbolTableRecord
100
AcDbViewportTableRecord
  2
*ACTIVE
 70
0
 10
0.0
 20
0.0
 11
1.0
 21
1.0
 12
210.0
 22
148.5
 13
0.0
 23
0.0
 14
1.0
 24
1.0
 15
0.0
 25
0.0
 16
0.0
 26
0.0
 36
1.0
 17
0.0
 27
0.0
 37
0.0
 40
297.0
 41
1.4141414141
 42
50.0
 43
0.0
 44
0.0
 50
0.0
 51
0.0
 71
0
 72
100
 73
1
 74
1
 75
0
 76
0
 77
0
 78
0
  0
ENDTAB
  0
TABLE
  2
LTYPE
  5
5
100
AcDbSymbolTable
 70
6
  0
LTYPE
  5
14
100
AcDbSymbolTableRecord
100
AcDbLinetypeTableRecord
  2
BYBLOCK
 70
0
  3

 72
65
 73
0
 40
0.0
  0
LTYPE
  5
15
100
AcDbSymbolTableRecord
100
AcDbLinetypeTableRecord
  2
BYLAYER
 70
0
  3

 72
65
 73
0
 40
0.0
  0
LTYPE
  5
16
100
AcDbSymbolTableRecord
100
AcDbLinetypeTableRecord
  2
CONTINUOUS
 70
64
  3
Solid line
 72
65
 73
0
 40
0.0
  0
LTYPE
  5
1F5
100
AcDbSymbolTableRecord
100
AcDbLinetypeTableRecord
  2
CENTER
 70
64
  3
____ _ ____ _ ____ _ ____ _ ____ _ ____ _ ____
 72
65
 73
4
 40
0.6
 49
0.375
 74
0
 49
-0.075
 74
0
 49
0.075
 74
0
 49
-0.075
 74
0
  0
LTYPE
  5
1F6
100
AcDbSymbolTableRecord
100
AcDbLinetypeTableRecord
  2
HIDDEN
 70
64
  3
- - - - - - - - - - - - - - - - - - - -
 72
65
 73
2
 40
0.2
 49
0.1
 74
0
 49
-0.1
 74
0
  0
LTYPE
  5
1F7
100
AcDbSymbolTableRecord
100
AcDbLinetypeTableRecord
  2
PHANTOM
 70
64
  3
_____ _ _ _____ _ _ _____ _ _ _____
 72
65
 73
6
 40
0.8
 49
0.45
 74
0
 49
-0.05
 74
0
 49
0.1
 74
0
 49
-0.05
 74
0
 49
0.1
 74
0
 49
-0.05
 74
0
  0
LTYPE
  5
1F8
100
AcDbSymbolTableRecord
100
AcDbLinetypeTableRecord
  2
DOT
 70
64
  3
. . . . . . . . . . . . . . . . . . . .
 72
65
 73
2
 40
0.2
 49
0.1
 74
0
 49
-0.1
 74
0
  0
LTYPE
  5
1F9
100
AcDbSymbolTableRecord
100
AcDbLinetypeTableRecord
  2
DASHED
 70
64
  3
- - - - - - - - - - - - - - - - - - - -
 72
65
 73
2
 40
0.2
 49
0.1
 74
0
 49
-0.1
 74
0
  0
ENDTAB
  0
TABLE
  2
LAYER
  5
2
100
AcDbSymbolTable
 70
36
  0
LAYER
  5
10
100
AcDbSymbolTableRecord
100
AcDbLayerTableRecord
  2
0
 70
0
 62
7
  6
CONTINUOUS
370
-3
390
F
  0
LAYER
  5
1FA
100
AcDbSymbolTableRecord
100
AcDbLayerTableRecord
  2
DEFAULT_1
 70
0
 62
7
  6
CENTER
370
-3
390
F
  0
LAYER
  5
1FB
100
AcDbSymbolTableRecord
100
AcDbLayerTableRecord
  2
DEFAULT_2
 70
0
 62
6
  6
HIDDEN
370
-3
390
F
  0
LAYER
  5
1FC
100
AcDbSymbolTableRecord
100
AcDbLayerTableRecord
  2
DEFAULT_3
 70
0
 62
7
  6
PHANTOM
370
-3
390
F
  0
LAYER
  5
1FD
100
AcDbSymbolTableRecord
100
AcDbLayerTableRecord
  2
COLLECTION01
 70
0
 62
7
  6
CONTINUOUS
370
-3
390
F
  0
LAYER
  5
1FE
100
AcDbSymbolTableRecord
100
AcDbLayerTableRecord
  2
COLLECTION02
 70
0
 62
7
  6
CONTINUOUS
370
-3
390
F
  0
LAYER
  5
1FF
100
AcDbSymbolTableRecord
100
AcDbLayerTableRecord
  2
COLLECTION03
 70
0
 62
7
  6
CONTINUOUS
370
-3
390
F
  0
LAYER
  5
200
100
AcDbSymbolTableRecord
100
AcDbLayerTableRecord
  2
COLLECTION12
 70
0
 62
7
  6
CONTINUOUS
370
-3
390
F
  0
LAYER
  5
201
100
AcDbSymbolTableRecord
100
AcDbLayerTableRecord
  2
COLLECTION04
 70
0
 62
7
  6
CONTINUOUS
370
-3
390
F
  0
LAYER
  5
202
100
AcDbSymbolTableRecord
100
AcDbLayerTableRecord
  2
COLLECTION06
 70
0
 62
7
  6
CONTINUOUS
370
-3
390
F
  0
LAYER
  5
203
100
AcDbSymbolTableRecord
100
AcDbLayerTableRecord
  2
COLLECTION07
 70
0
 62
7
  6
CONTINUOUS
370
-3
390
F
  0
LAYER
  5
204
100
AcDbSymbolTableRecord
100
AcDbLayerTableRecord
  2
COLLECTION09
 70
0
 62
7
  6
CONTINUOUS
370
-3
390
F
  0
LAYER
  5
205
100
AcDbSymbolTableRecord
100
AcDbLayerTableRecord
  2
COLLECTION10
 70
0
 62
7
  6
CONTINUOUS
370
-3
390
F
  0
LAYER
  5
206
100
AcDbSymbolTableRecord
100
AcDbLayerTableRecord
  2
COLLECTION13
 70
0
 62
7
  6
CONTINUOUS
370
-3
390
F
  0
LAYER
  5
207
100
AcDbSymbolTableRecord
100
AcDbLayerTableRecord
  2
COLLECTION15
 70
0
 62
7
  6
CONTINUOUS
370
-3
390
F
  0
LAYER
  5
208
100
AcDbSymbolTableRecord
100
AcDbLayerTableRecord
  2
COLLECTION16
 70
0
 62
7
  6
CONTINUOUS
370
-3
390
F
  0
LAYER
  5
209
100
AcDbSymbolTableRecord
100
AcDbLayerTableRecord
  2
606355349-000-00-ED1_FORMAT
 70
0
 62
7
  6
CONTINUOUS
370
-3
390
F
  0
LAYER
  5
20A
100
AcDbSymbolTableRecord
100
AcDbLayerTableRecord
  2
606355349-000-00-ED1_DIM
 70
0
 62
7
  6
CONTINUOUS
370
-3
390
F
  0
LAYER
  5
20B
100
AcDbSymbolTableRecord
100
AcDbLayerTableRecord
  2
30419210_DIM
 70
0
 62
7
  6
CONTINUOUS
370
-3
390
F
  0
LAYER
  5
20C
100
AcDbSymbolTableRecord
100
AcDbLayerTableRecord
  2
30350716_DIM
 70
0
 62
7
  6
CONTINUOUS
370
-3
390
F
  0
LAYER
  5
20D
100
AcDbSymbolTableRecord
100
AcDbLayerTableRecord
  2
606355349-000-00-ED1_CL
 70
0
 62
7
  6
CONTINUOUS
370
-3
390
F
  0
LAYER
  5
20E
100
AcDbSymbolTableRecord
100
AcDbLayerTableRecord
  2
30350716_CL
 70
0
 62
7
  6
CONTINUOUS
370
-3
390
F
  0
LAYER
  5
20F
100
AcDbSymbolTableRecord
100
AcDbLayerTableRecord
  2
30350716_HL
 70
0
 62
7
  6
CONTINUOUS
370
-3
390
F
  0
LAYER
  5
210
100
AcDbSymbolTableRecord
100
AcDbLayerTableRecord
  2
30350716_AXIS
 70
0
 62
7
  6
CONTINUOUS
370
-3
390
F
  0
LAYER
  5
211
100
AcDbSymbolTableRecord
100
AcDbLayerTableRecord
  2
30252541_HP_HL
 70
0
 62
7
  6
CONTINUOUS
370
-3
390
F
  0
LAYER
  5
212
100
AcDbSymbolTableRecord
100
AcDbLayerTableRecord
  2
30252541_HP_CL
 70
0
 62
7
  6
CONTINUOUS
370
-3
390
F
  0
ENDTAB
  0
TABLE
  2
STYLE
  5
3
100
AcDbSymbolTable
 70
1
  0
STYLE
  5
11
100
AcDbSymbolTableRecord
100
AcDbTextStyleTableRecord
  2
STANDARD
 70
0
 40
0.0
 41
0.7
 50
0.0
 71
0
 42
0.2
  3
TXT.SHX
  4

  0
STYLE
  5
213
100
AcDbSymbolTableRecord
100
AcDbTextStyleTableRecord
  2
TEXTSTYLE_1
 70
0
 40
0.0
 41
0.8
 50
0.0
 71
0
 42
0.2
  3
gdt
  4

  0
STYLE
  5
214
100
AcDbSymbolTableRecord
100
AcDbTextStyleTableRecord
  2
TEXTSTYLE_2
 70
0
 40
0.0
 41
0.675
 50
0.0
 71
0
 42
0.2
  3
TXT.SHX
  4

  0
STYLE
  5
215
100
AcDbSymbolTableRecord
100
AcDbTextStyleTableRecord
  2
TEXTSTYLE_3
 70
0
 40
0.0
 41
0.7
 50
0.0
 71
0
 42
0.2
  3
gdt
  4

  0
ENDTAB
  0
TABLE
  2
VIEW
  5
6
100
AcDbSymbolTable
 70
0
  0
ENDTAB
  0
TABLE
  2
UCS
  5
7
100
AcDbSymbolTable
 70
0
  0
ENDTAB
  0
TABLE
  2
APPID
  5
9
100
AcDbSymbolTable
 70
1
  0
APPID
  5
216
100
AcDbSymbolTableRecord
100
AcDbRegAppTableRecord
  2
ACAD
 70
0
  0
ENDTAB
  0
TABLE
  2
BLOCK_RECORD
  5
1
100
AcDbSymbolTable
 70
0
  0
BLOCK_RECORD
  5
217
100
AcDbSymbolTableRecord
100
AcDbBlockTableRecord
  2
*Model_Space
  0
BLOCK_RECORD
  5
218
100
AcDbSymbolTableRecord
100
AcDbBlockTableRecord
  2
*Paper_Space
  0
BLOCK_RECORD
  5
219
100
AcDbSymbolTableRecord
100
AcDbBlockTableRecord
  2
_FILLED
  0
BLOCK_RECORD
  5
21A
100
AcDbSymbolTableRecord
100
AcDbBlockTableRecord
  2
_DOT
  0
BLOCK_RECORD
  5
21B
100
AcDbSymbolTableRecord
100
AcDbBlockTableRecord
  2
*D0
  0
BLOCK_RECORD
  5
21C
100
AcDbSymbolTableRecord
100
AcDbBlockTableRecord
  2
*D1
  0
BLOCK_RECORD
  5
21D
100
AcDbSymbolTableRecord
100
AcDbBlockTableRecord
  2
*D2
  0
BLOCK_RECORD
  5
21E
100
AcDbSymbolTableRecord
100
AcDbBlockTableRecord
  2
*D3
  0
BLOCK_RECORD
  5
21F
100
AcDbSymbolTableRecord
100
AcDbBlockTableRecord
  2
*D4
  0
BLOCK_RECORD
  5
220
100
AcDbSymbolTableRecord
100
AcDbBlockTableRecord
  2
*D5
  0
BLOCK_RECORD
  5
221
100
AcDbSymbolTableRecord
100
AcDbBlockTableRecord
  2
*D6
  0
BLOCK_RECORD
  5
222
100
AcDbSymbolTableRecord
100
AcDbBlockTableRecord
  2
*D7
  0
BLOCK_RECORD
  5
223
100
AcDbSymbolTableRecord
100
AcDbBlockTableRecord
  2
*D8
  0
BLOCK_RECORD
  5
224
100
AcDbSymbolTableRecord
100
AcDbBlockTableRecord
  2
*D9
  0
BLOCK_RECORD
  5
225
100
AcDbSymbolTableRecord
100
AcDbBlockTableRecord
  2
*D10
  0
BLOCK_RECORD
  5
226
100
AcDbSymbolTableRecord
100
AcDbBlockTableRecord
  2
*D11
  0
BLOCK_RECORD
  5
227
100
AcDbSymbolTableRecord
100
AcDbBlockTableRecord
  2
BOMBALLOON_BL5
  0
BLOCK_RECORD
  5
228
100
AcDbSymbolTableRecord
100
AcDbBlockTableRecord
  2
NOTE_HSK_BL4
  0
BLOCK_RECORD
  5
229
100
AcDbSymbolTableRecord
100
AcDbBlockTableRecord
  2
GEOM_TOLERANCE_SYMBOLS_BL3
  0
BLOCK_RECORD
  5
22A
100
AcDbSymbolTableRecord
100
AcDbBlockTableRecord
  2
GEOM_TOLERANCE_SYMBOLS_BL2
  0
BLOCK_RECORD
  5
22B
100
AcDbSymbolTableRecord
100
AcDbBlockTableRecord
  2
GEOM_TOLERANCE_SYMBOLS_BL1
  0
BLOCK_RECORD
  5
22C
100
AcDbSymbolTableRecord
100
AcDbBlockTableRecord
  2
BARCODEBOX_BL0
  0
ENDTAB
  0
TABLE
  2
DIMSTYLE
  5
A
100
AcDbSymbolTable
 70
1
100
AcDbDimStyleTable
 71
0
  0
DIMSTYLE
105
22D
100
AcDbSymbolTableRecord
100
AcDbDimStyleTableRecord
  2
STANDARD
 70
0
  3

  4

 40
1.0
 41
3.5
 42
0.0625
 43
0.38
 44
0.18
 45
0.0
 46
0.0
 47
0.005
 48
0.005
140
3.5
141
0.09
142
0.0
143
25.4
144
1.0
145
0.0
146
1.0
147
0.09
 71
1.0
 72
0.0
 73
0
 74
0
 75
0
 76
0
 77
1
 78
8
170
0
171
2
172
0
173
0
174
0
175
0
176
0
177
0
178
2
270
2
271
3
272
3
273
2
274
2
275
0
280
0
281
0
282
0
283
1
284
8
285
0
286
0
287
3
288
0
340
11
341
219
342
219
343
219
344
219
  0
DIMSTYLE
105
22E
100
AcDbSymbolTableRecord
100
AcDbDimStyleTableRecord
  2
DIMSTYLE_1
 70
0
  3

  4

 40
1.0
 41
3.5
 42
0.0625
 43
0.38
 44
0.18
 45
0.0
 46
0.0
 47
0.05
 48
0.05
140
3.5
141
0.09
142
0.0
143
25.4
144
1.0
145
0.0
146
1.0
147
0.09
 71
0.0
 72
0.0
 73
0
 74
0
 75
0
 76
0
 77
1
 78
8
170
0
171
2
172
0
173
0
174
0
175
0
176
0
177
0
178
2
270
2
271
3
272
3
273
2
274
2
275
0
280
0
281
0
282
0
283
1
284
8
285
0
286
0
287
3
288
0
340
11
341
219
342
219
343
219
344
219
  0
DIMSTYLE
105
22F
100
AcDbSymbolTableRecord
100
AcDbDimStyleTableRecord
  2
DIMSTYLE_2
 70
0
  3

  4

 40
1.0
 41
3.5
 42
0.0625
 43
0.38
 44
0.18
 45
0.0
 46
0.0
 47
0.25
 48
0.25
140
3.5
141
0.09
142
0.0
143
25.4
144
1.0
145
0.0
146
1.0
147
0.09
 71
1.0
 72
0.0
 73
0
 74
0
 75
0
 76
0
 77
1
 78
8
170
0
171
2
172
0
173
0
174
0
175
0
176
0
177
0
178
2
270
2
271
2
272
2
273
2
274
2
275
0
280
0
281
0
282
0
283
1
284
8
285
0
286
0
287
3
288
0
340
11
341
219
342
219
343
219
344
219
  0
DIMSTYLE
105
230
100
AcDbSymbolTableRecord
100
AcDbDimStyleTableRecord
  2
DIMSTYLE_3
 70
0
  3

  4

 40
1.0
 41
3.5
 42
0.0625
 43
0.38
 44
0.18
 45
0.0
 46
0.0
 47
0.1
 48
0.1
140
3.5
141
0.09
142
0.0
143
25.4
144
1.0
145
0.0
146
1.0
147
0.09
 71
0.0
 72
0.0
 73
0
 74
0
 75
0
 76
0
 77
1
 78
8
170
0
171
2
172
0
173
0
174
0
175
0
176
0
177
0
178
2
270
2
271
3
272
3
273
2
274
2
275
0
280
0
281
0
282
0
283
1
284
8
285
0
286
0
287
3
288
0
340
11
341
219
342
219
343
219
344
219
  0
DIMSTYLE
105
231
100
AcDbSymbolTableRecord
100
AcDbDimStyleTableRecord
  2
DIMSTYLE_4
 70
0
  3

  4

 40
1.0
 41
3.5
 42
0.0625
 43
0.38
 44
0.18
 45
0.0
 46
0.0
 47
0.05
 48
0.05
140
3.5
141
0.09
142
0.0
143
25.4
144
1.0
145
0.0
146
1.0
147
0.09
 71
0.0
 72
0.0
 73
0
 74
0
 75
0
 76
0
 77
1
 78
8
170
0
171
2
172
0
173
0
174
0
175
0
176
0
177
0
178
2
270
2
271
3
272
3
273
2
274
2
275
0
280
0
281
0
282
0
283
1
284
8
285
0
286
0
287
3
288
0
340
11
341
219
342
219
343
219
344
219
  0
DIMSTYLE
105
232
100
AcDbSymbolTableRecord
100
AcDbDimStyleTableRecord
  2
DIMSTYLE_5
 70
0
  3

  4

 40
1.0
 41
3.5
 42
0.0625
 43
0.38
 44
0.18
 45
0.0
 46
0.0
 47
0.15
 48
0.15
140
3.5
141
0.09
142
0.0
143
25.4
144
1.0
145
0.0
146
1.0
147
0.09
 71
0.0
 72
0.0
 73
0
 74
0
 75
0
 76
0
 77
1
 78
8
170
0
171
2
172
0
173
0
174
0
175
0
176
0
177
0
178
2
270
2
271
3
272
3
273
2
274
2
275
0
280
0
281
0
282
0
283
1
284
8
285
0
286
0
287
3
288
0
340
11
341
219
342
219
343
219
344
219
  0
DIMSTYLE
105
233
100
AcDbSymbolTableRecord
100
AcDbDimStyleTableRecord
  2
DIMSTYLE_6
 70
0
  3

  4

 40
1.0
 41
3.5
 42
0.0625
 43
0.38
 44
0.18
 45
0.0
 46
0.0
 47
0.2
 48
0.2
140
3.5
141
0.09
142
0.0
143
25.4
144
1.0
145
0.0
146
1.0
147
0.09
 71
0.0
 72
0.0
 73
0
 74
0
 75
0
 76
0
 77
1
 78
8
170
0
171
2
172
0
173
0
174
0
175
0
176
0
177
0
178
2
270
2
271
3
272
3
273
2
274
2
275
0
280
0
281
0
282
0
283
1
284
8
285
0
286
0
287
3
288
0
340
11
341
219
342
219
343
219
344
219
  0
DIMSTYLE
105
234
100
AcDbSymbolTableRecord
100
AcDbDimStyleTableRecord
  2
DIMSTYLE_7
 70
0
  3

  4

 40
1.0
 41
3.5
 42
0.0625
 43
0.38
 44
0.18
 45
0.0
 46
0.0
 47
0.15
 48
0.15
140
3.5
141
0.09
142
0.0
143
25.4
144
1.0
145
0.0
146
1.0
147
0.09
 71
0.0
 72
0.0
 73
0
 74
0
 75
0
 76
0
 77
1
 78
8
170
0
171
2
172
0
173
0
174
0
175
0
176
0
177
0
178
2
270
2
271
2
272
2
273
2
274
2
275
0
280
0
281
0
282
0
283
1
284
8
285
0
286
0
287
3
288
0
340
11
341
219
342
219
343
219
344
219
  0
ENDTAB
  0
ENDSEC
  0
SECTION
  2
BLOCKS
  0
BLOCK
  5
20
100
AcDbEntity
  8
0
100
AcDbBlockBegin
  2
*Model_Space
 70
0
 10
0.0
 20
0.0
 30
0.0
  3
*Model_Space
  1

  0
ENDBLK
  5
21
100
AcDbEntity
  8
0
100
AcDbBlockEnd
  0
BLOCK
  5
1C
100
AcDbEntity
  8
0
100
AcDbBlockBegin
  2
*Paper_Space
 70
0
 10
0.0
 20
0.0
 30
0.0
  3
*Paper_Space
  1

  0
ENDBLK
  5
1D
100
AcDbEntity
  8
0
100
AcDbBlockEnd
  0
BLOCK
  5
235
100
AcDbEntity
  8
606355349-000-00-ED1_CL
100
AcDbBlockBegin
 62
3
  6
CONTINUOUS
  2
BOMBALLOON_BL5
 70
64
 10
258.3035593563
 20
188.7277288594
  3
BOMBALLOON_BL5
  1

  0
CIRCLE
  5
236
100
AcDbEntity
  8
606355349-000-00-ED1_CL
100
AcDbCircle
 62
3
  6
CONTINUOUS
 10
258.3035593563
 20
188.7277288594
 40
6.125
  0
LINE
  5
237
100
AcDbEntity
  8
606355349-000-00-ED1_CL
100
AcDbLine
 62
3
  6
CONTINUOUS
 10
252.1785593563
 20
188.7277288594
 11
264.4285593563
 21
188.7277288594
  0
TEXT
  5
238
100
AcDbEntity
  8
606355349-000-00-ED1_CL
100
AcDbText
 62
2
  6
CONTINUOUS
 10
257.1987416479
 20
189.6665309427
  7
STANDARD
 40
3.5
  1
1
 41
0.5714285714
 72
0
100
AcDbText
  0
TEXT
  5
239
100
AcDbEntity
  8
606355349-000-00-ED1_CL
100
AcDbText
 62
2
  6
CONTINUOUS
 10
257.2990020646
 20
184.5532496927
  7
STANDARD
 40
3.5
  1
1
 41
0.5714285714
 72
0
100
AcDbText
  0
ENDBLK
  5
23A
100
AcDbEntity
  8
0
  6
BYBLOCK
 62
0
100
AcDbBlockEnd
  0
BLOCK
  5
23B
100
AcDbEntity
  8
606355349-000-00-ED1_CL
100
AcDbBlockBegin
 62
3
  6
CONTINUOUS
  2
NOTE_HSK_BL4
 70
64
 10
204.5676914736
 20
253.0774508765
  3
NOTE_HSK_BL4
  1

  0
TEXT
  5
23C
100
AcDbEntity
  8
606355349-000-00-ED1_CL
100
AcDbText
 62
2
  6
CONTINUOUS
 10
162.8415009974
 20
258.0774508765
  7
STANDARD
 40
5.0
  1
TRENNSTELLE HSK-A63
 41
0.7631578947
 72
0
100
AcDbText
  0
TEXT
  5
23D
100
AcDbEntity
  8
606355349-000-00-ED1_CL
100
AcDbText
 62
2
  6
CONTINUOUS
 10
162.8415009974
 20
250.5774508765
  7
STANDARD
 40
5.0
  1
(AEHNLICH DIN 69893-1)
 41
0.7251082251
 72
0
100
AcDbText
  0
TEXT
  5
23E
100
AcDbEntity
  8
606355349-000-00-ED1_CL
100
AcDbText
 62
2
  6
CONTINUOUS
 10
162.8415009974
 20
243.0774508765
  7
STANDARD
 40
5.0
  1
NACH  MN609 BLATT 2-4
 41
0.7947845805
 72
0
100
AcDbText
  0
ENDBLK
  5
23F
100
AcDbEntity
  8
0
  6
BYBLOCK
 62
0
100
AcDbBlockEnd
  0
BLOCK
  5
240
100
AcDbEntity
  8
606355349-000-00-ED1_CL
100
AcDbBlockBegin
 62
3
  6
CONTINUOUS
  2
GEOM_TOLERANCE_SYMBOLS_BL3
 70
64
 10
70.5683316493
 20
183.271435155
  3
GEOM_TOLERANCE_SYMBOLS_BL3
  1

  0
LINE
  5
241
100
AcDbEntity
  8
606355349-000-00-ED1_CL
100
AcDbLine
 62
3
  6
CONTINUOUS
 10
72.5195749926
 20
177.0544923046
 11
69.5233329648
 21
176.9043799785
  0
LINE
  5
242
100
AcDbEntity
  8
606355349-000-00-ED1_CL
100
AcDbLine
 62
3
  6
CONTINUOUS
 10
66.8975849031
 20
189.2885073306
 11
73.8888163015
 21
189.6387694247
  0
LINE
  5
243
100
AcDbEntity
  8
606355349-000-00-ED1_CL
100
AcDbLine
 62
3
  6
CONTINUOUS
 10
73.8888163015
 20
189.6387694247
 11
74.2390783956
 21
182.6475380264
  0
LINE
  5
244
100
AcDbEntity
  8
606355349-000-00-ED1_CL
100
AcDbLine
 62
3
  6
CONTINUOUS
 10
74.2390783956
 20
182.6475380264
 11
67.2478469972
 21
182.2972759322
  0
LINE
  5
245
100
AcDbEntity
  8
606355349-000-00-ED1_CL
100
AcDbLine
 62
3
  6
CONTINUOUS
 10
67.2478469972
 20
182.2972759322
 11
66.8975849031
 21
189.2885073306
  0
LINE
  5
246
100
AcDbEntity
  8
606355349-000-00-ED1_CL
100
AcDbLine
 62
3
  6
CONTINUOUS
 10
69.5177622624
 20
176.9041008852
 11
70.8935750225
 21
179.4761649514
  0
LINE
  5
247
100
AcDbEntity
  8
606355349-000-00-ED1_CL
100
AcDbLine
 62
3
  6
CONTINUOUS
 10
70.8935750225
 20
179.4761649514
 11
72.5140042903
 21
177.0542132113
  0
LINE
  5
248
100
AcDbEntity
  8
606355349-000-00-ED1_CL
100
AcDbLine
 62
3
  6
CONTINUOUS
 10
70.8935750225
 20
179.4761649514
 11
70.7434626964
 21
182.4724069793
  0
LINE
  5
249
100
AcDbEntity
  8
606355349-000-00-ED1_CL
100
AcDbLine
 62
3
  6
CONTINUOUS
 10
69.6204223479
 20
176.9092441761
 11
69.6118661045
 21
177.0800267943
  0
LINE
  5
24A
100
AcDbEntity
  8
606355349-000-00-ED1_CL
100
AcDbLine
 62
3
  6
CONTINUOUS
 10
69.7202970821
 20
176.9142479203
 11
69.7034167415
 21
177.2511795198
  0
LINE
  5
24B
100
AcDbEntity
  8
606355349-000-00-ED1_CL
100
AcDbLine
 62
3
  6
CONTINUOUS
 10
69.8201718164
 20
176.9192516645
 11
69.7949673785
 21
177.4223322453
  0
LINE
  5
24C
100
AcDbEntity
  8
606355349-000-00-ED1_CL
100
AcDbLine
 62
3
  6
CONTINUOUS
 10
69.9200465506
 20
176.9242554087
 11
69.8865180155
 21
177.5934849708
  0
LINE
  5
24D
100
AcDbEntity
  8
606355349-000-00-ED1_CL
100
AcDbLine
 62
3
  6
CONTINUOUS
 10
70.0199212849
 20
176.9292591529
 11
69.9780686525
 21
177.7646376963
  0
LINE
  5
24E
100
AcDbEntity
  8
606355349-000-00-ED1_CL
100
AcDbLine
 62
3
  6
CONTINUOUS
 10
70.1197960192
 20
176.9342628971
 11
70.0696192895
 21
177.9357904218
  0
LINE
  5
24F
100
AcDbEntity
  8
606355349-000-00-ED1_CL
100
AcDbLine
 62
3
  6
CONTINUOUS
 10
70.2196707534
 20
176.9392666413
 11
70.1611699265
 21
178.1069431474
  0
LINE
  5
250
100
AcDbEntity
  8
606355349-000-00-ED1_CL
100
AcDbLine
 62
3
  6
CONTINUOUS
 10
70.3195454877
 20
176.9442703855
 11
70.2527205635
 21
178.2780958729
  0
LINE
  5
251
100
AcDbEntity
  8
606355349-000-00-ED1_CL
100
AcDbLine
 62
3
  6
CONTINUOUS
 10
70.419420222
 20
176.9492741297
 11
70.3442712005
 21
178.4492485984
  0
LINE
  5
252
100
AcDbEntity
  8
606355349-000-00-ED1_CL
100
AcDbLine
 62
3
  6
CONTINUOUS
 10
70.5192949562
 20
176.9542778739
 11
70.4358218375
 21
178.6204013239
  0
LINE
  5
253
100
AcDbEntity
  8
606355349-000-00-ED1_CL
100
AcDbLine
 62
3
  6
CONTINUOUS
 10
70.6191696905
 20
176.9592816181
 11
70.5273724745
 21
178.7915540494
  0
LINE
  5
254
100
AcDbEntity
  8
606355349-000-00-ED1_CL
100
AcDbLine
 62
3
  6
CONTINUOUS
 10
70.7190444247
 20
176.9642853623
 11
70.6189231115
 21
178.9627067749
  0
LINE
  5
255
100
AcDbEntity
  8
606355349-000-00-ED1_CL
100
AcDbLine
 62
3
  6
CONTINUOUS
 10
70.818919159
 20
176.9692891065
 11
70.7104737485
 21
179.1338595004
  0
LINE
  5
256
100
AcDbEntity
  8
606355349-000-00-ED1_CL
100
AcDbLine
 62
3
  6
CONTINUOUS
 10
70.9187938933
 20
176.9742928507
 11
70.8020243855
 21
179.3050122259
  0
LINE
  5
257
100
AcDbEntity
  8
606355349-000-00-ED1_CL
100
AcDbLine
 62
3
  6
CONTINUOUS
 10
71.0186686275
 20
176.9792965949
 11
70.8935750225
 21
179.4761649514
  0
LINE
  5
258
100
AcDbEntity
  8
606355349-000-00-ED1_CL
100
AcDbLine
 62
3
  6
CONTINUOUS
 10
71.1185433618
 20
176.9843003391
 11
71.0018048645
 21
179.3144007453
  0
LINE
  5
259
100
AcDbEntity
  8
606355349-000-00-ED1_CL
100
AcDbLine
 62
3
  6
CONTINUOUS
 10
71.2184180961
 20
176.9893040833
 11
71.1100347065
 21
179.1526365391
  0
LINE
  5
25A
100
AcDbEntity
  8
606355349-000-00-ED1_CL
100
AcDbLine
 62
3
  6
CONTINUOUS
 10
71.3182928303
 20
176.9943078275
 11
71.2182645485
 21
178.9908723329
  0
LINE
  5
25B
100
AcDbEntity
  8
606355349-000-00-ED1_CL
100
AcDbLine
 62
3
  6
CONTINUOUS
 10
71.4181675646
 20
176.9993115717
 11
71.3264943905
 21
178.8291081268
  0
LINE
  5
25C
100
AcDbEntity
  8
606355349-000-00-ED1_CL
100
AcDbLine
 62
3
  6
CONTINUOUS
 10
71.5180422988
 20
177.0043153159
 11
71.4347242325
 21
178.6673439206
  0
LINE
  5
25D
100
AcDbEntity
  8
606355349-000-00-ED1_CL
100
AcDbLine
 62
3
  6
CONTINUOUS
 10
71.6179170331
 20
177.0093190601
 11
71.5429540745
 21
178.5055797144
  0
LINE
  5
25E
100
AcDbEntity
  8
606355349-000-00-ED1_CL
100
AcDbLine
 62
3
  6
CONTINUOUS
 10
71.7177917674
 20
177.0143228043
 11
71.6511839165
 21
178.3438155083
  0
LINE
  5
25F
100
AcDbEntity
  8
606355349-000-00-ED1_CL
100
AcDbLine
 62
3
  6
CONTINUOUS
 10
71.8176665016
 20
177.0193265485
 11
71.7594137585
 21
178.1820513021
  0
LINE
  5
260
100
AcDbEntity
  8
606355349-000-00-ED1_CL
100
AcDbLine
 62
3
  6
CONTINUOUS
 10
71.9175412359
 20
177.0243302927
 11
71.8676436005
 21
178.0202870959
  0
LINE
  5
261
100
AcDbEntity
  8
606355349-000-00-ED1_CL
100
AcDbLine
 62
3
  6
CONTINUOUS
 10
72.0174159702
 20
177.0293340369
 11
71.9758734425
 21
177.8585228897
  0
LINE
  5
262
100
AcDbEntity
  8
606355349-000-00-ED1_CL
100
AcDbLine
 62
3
  6
CONTINUOUS
 10
72.1172907044
 20
177.0343377811
 11
72.0841032844
 21
177.6967586836
  0
LINE
  5
263
100
AcDbEntity
  8
606355349-000-00-ED1_CL
100
AcDbLine
 62
3
  6
CONTINUOUS
 10
72.2171654387
 20
177.0393415253
 11
72.1923331264
 21
177.5349944774
  0
LINE
  5
264
100
AcDbEntity
  8
606355349-000-00-ED1_CL
100
AcDbLine
 62
3
  6
CONTINUOUS
 10
72.3170401729
 20
177.0443452695
 11
72.3005629684
 21
177.3732302712
  0
LINE
  5
265
100
AcDbEntity
  8
606355349-000-00-ED1_CL
100
AcDbLine
 62
3
  6
CONTINUOUS
 10
72.4169149072
 20
177.0493490137
 11
72.4087928104
 21
177.2114660651
  0
TEXT
  5
266
100
AcDbEntity
  8
606355349-000-00-ED1_CL
100
AcDbText
 62
2
  6
CONTINUOUS
 10
69.5606134267
 20
184.1624988618
  7
STANDARD
 40
3.5
  1
A
 50
2.868131941
 41
0.8571428571
 72
0
100
AcDbText
  0
ENDBLK
  5
267
100
AcDbEntity
  8
0
  6
BYBLOCK
 62
0
100
AcDbBlockEnd
  0
BLOCK
  5
268
100
AcDbEntity
  8
606355349-000-00-ED1_CL
100
AcDbBlockBegin
 62
3
  6
CONTINUOUS
  2
GEOM_TOLERANCE_SYMBOLS_BL2
 70
64
 10
327.8756360627
 20
118.7279899467
  3
GEOM_TOLERANCE_SYMBOLS_BL2
  1

  0
LINE
  5
269
100
AcDbEntity
  8
606355349-000-00-ED1_CL
100
AcDbLine
 62
3
  6
CONTINUOUS
 10
312.3572186677
 20
122.2277290834
 11
312.3572186677
 21
115.2277288594
  0
LINE
  5
26A
100
AcDbEntity
  8
606355349-000-00-ED1_CL
100
AcDbLine
 62
3
  6
CONTINUOUS
 10
312.3572186677
 20
115.2277288594
 11
334.3572193717
 21
115.2277288594
  0
LINE
  5
26B
100
AcDbEntity
  8
606355349-000-00-ED1_CL
100
AcDbLine
 62
3
  6
CONTINUOUS
 10
341.3572195957
 20
115.2277288594
 11
341.3572195957
 21
122.2277290834
  0
LINE
  5
26C
100
AcDbEntity
  8
606355349-000-00-ED1_CL
100
AcDbLine
 62
3
  6
CONTINUOUS
 10
334.3572193717
 20
122.2277290834
 11
312.3572186677
 21
122.2277290834
  0
LINE
  5
26D
100
AcDbEntity
  8
606355349-000-00-ED1_CL
100
AcDbLine
 62
3
  6
CONTINUOUS
 10
319.3572188917
 20
122.2277290834
 11
319.3572188917
 21
115.2277288594
  0
LINE
  5
26E
100
AcDbEntity
  8
606355349-000-00-ED1_CL
100
AcDbLine
 62
3
  6
CONTINUOUS
 10
334.3572193717
 20
122.2277290834
 11
334.3572193717
 21
115.2277288594
  0
LINE
  5
26F
100
AcDbEntity
  8
606355349-000-00-ED1_CL
100
AcDbLine
 62
3
  6
CONTINUOUS
 10
334.3572193717
 20
122.2277290834
 11
341.3572195957
 21
122.2277290834
  0
LINE
  5
270
100
AcDbEntity
  8
606355349-000-00-ED1_CL
100
AcDbLine
 62
3
  6
CONTINUOUS
 10
334.3572193717
 20
115.2277288594
 11
341.3572195957
 21
115.2277288594
  0
LINE
  5
271
100
AcDbEntity
  8
606355349-000-00-ED1_CL
100
AcDbLine
 62
3
  6
CONTINUOUS
 10
307.3572186677
 20
118.7277288594
 11
312.3572186677
 21
118.7277288594
  0
LINE
  5
272
100
AcDbEntity
  8
606355349-000-00-ED1_CL
100
AcDbLine
 62
3
  6
CONTINUOUS
 10
341.3940532337
 20
122.228251034
 11
348.3940534577
 21
122.228251034
  0
LINE
  5
273
100
AcDbEntity
  8
606355349-000-00-ED1_CL
100
AcDbLine
 62
3
  6
CONTINUOUS
 10
348.3940532337
 20
122.228251034
 11
348.3940532337
 21
115.22825081
  0
LINE
  5
274
100
AcDbEntity
  8
606355349-000-00-ED1_CL
100
AcDbLine
 62
3
  6
CONTINUOUS
 10
341.3940532337
 20
115.228251034
 11
348.3940534577
 21
115.228251034
  0
TEXT
  5
275
100
AcDbEntity
  8
606355349-000-00-ED1_CL
100
AcDbText
 62
2
  6
CONTINUOUS
 10
312.5072186725
 20
117.527728933
  7
TEXTSTYLE_3
 40
2.4000000768
  1
t
 41
1.0
 72
0
100
AcDbText
  0
TEXT
  5
276
100
AcDbEntity
  8
606355349-000-00-ED1_CL
100
AcDbText
 62
2
  6
CONTINUOUS
 10
320.4822189277
 20
116.9777289154
  7
STANDARD
 40
3.500000112
  1
0.003
 41
0.7285714286
 72
0
100
AcDbText
  0
TEXT
  5
277
100
AcDbEntity
  8
606355349-000-00-ED1_CL
100
AcDbText
 62
2
  6
CONTINUOUS
 10
336.3572194357
 20
116.9777289154
  7
STANDARD
 40
3.500000112
  1
A
 41
0.8571428571
 72
0
100
AcDbText
  0
TEXT
  5
278
100
AcDbEntity
  8
606355349-000-00-ED1_CL
100
AcDbText
 62
2
  6
CONTINUOUS
 10
343.5190533457
 20
116.9782509544
  7
STANDARD
 40
3.5
  1
B
 41
0.7857142857
 72
0
100
AcDbText
  0
ENDBLK
  5
279
100
AcDbEntity
  8
0
  6
BYBLOCK
 62
0
100
AcDbBlockEnd
  0
BLOCK
  5
27A
100
AcDbEntity
  8
606355349-000-00-ED1_CL
100
AcDbBlockBegin
 62
3
  6
CONTINUOUS
  2
GEOM_TOLERANCE_SYMBOLS_BL1
 70
64
 10
86.1071766257
 20
210.0744885109
  3
GEOM_TOLERANCE_SYMBOLS_BL1
  1

  0
LINE
  5
27B
100
AcDbEntity
  8
606355349-000-00-ED1_CL
100
AcDbLine
 62
3
  6
CONTINUOUS
 10
92.3571766257
 20
208.5744885109
 11
89.8571766257
 21
210.0744885109
  0
LINE
  5
27C
100
AcDbEntity
  8
606355349-000-00-ED1_CL
100
AcDbLine
 62
3
  6
CONTINUOUS
 10
89.8571766257
 20
210.0744885109
 11
92.3571766257
 21
211.5744885109
  0
LINE
  5
27D
100
AcDbEntity
  8
606355349-000-00-ED1_CL
100
AcDbLine
 62
3
  6
CONTINUOUS
 10
92.3571766257
 20
211.5744885109
 11
92.3571766257
 21
208.5744885109
  0
LINE
  5
27E
100
AcDbEntity
  8
606355349-000-00-ED1_CL
100
AcDbLine
 62
3
  6
CONTINUOUS
 10
89.8571766257
 20
210.0744885109
 11
86.8571766257
 21
210.0744885109
  0
LINE
  5
27F
100
AcDbEntity
  8
606355349-000-00-ED1_CL
100
AcDbLine
 62
3
  6
CONTINUOUS
 10
86.8571766257
 20
206.5744885109
 11
86.8571766257
 21
213.5744885109
  0
LINE
  5
280
100
AcDbEntity
  8
606355349-000-00-ED1_CL
100
AcDbLine
 62
3
  6
CONTINUOUS
 10
86.8571766257
 20
213.5744885109
 11
79.8571766257
 21
213.5744885109
  0
LINE
  5
281
100
AcDbEntity
  8
606355349-000-00-ED1_CL
100
AcDbLine
 62
3
  6
CONTINUOUS
 10
79.8571766257
 20
213.5744885109
 11
79.8571766257
 21
206.5744885109
  0
LINE
  5
282
100
AcDbEntity
  8
606355349-000-00-ED1_CL
100
AcDbLine
 62
3
  6
CONTINUOUS
 10
79.8571766257
 20
206.5744885109
 11
86.8571766257
 21
206.5744885109
  0
LINE
  5
283
100
AcDbEntity
  8
606355349-000-00-ED1_CL
100
AcDbLine
 62
3
  6
CONTINUOUS
 10
92.3571766257
 20
211.4716996663
 11
92.1858618847
 21
211.4716996663
  0
LINE
  5
284
100
AcDbEntity
  8
606355349-000-00-ED1_CL
100
AcDbLine
 62
3
  6
CONTINUOUS
 10
92.3571766257
 20
211.3716996663
 11
92.019195218
 21
211.3716996663
  0
LINE
  5
285
100
AcDbEntity
  8
606355349-000-00-ED1_CL
100
AcDbLine
 62
3
  6
CONTINUOUS
 10
92.3571766257
 20
211.2716996663
 11
91.8525285514
 21
211.2716996663
  0
LINE
  5
286
100
AcDbEntity
  8
606355349-000-00-ED1_CL
100
AcDbLine
 62
3
  6
CONTINUOUS
 10
92.3571766257
 20
211.1716996663
 11
91.6858618847
 21
211.1716996663
  0
LINE
  5
287
100
AcDbEntity
  8
606355349-000-00-ED1_CL
100
AcDbLine
 62
3
  6
CONTINUOUS
 10
92.3571766257
 20
211.0716996663
 11
91.519195218
 21
211.0716996663
  0
LINE
  5
288
100
AcDbEntity
  8
606355349-000-00-ED1_CL
100
AcDbLine
 62
3
  6
CONTINUOUS
 10
92.3571766257
 20
210.9716996663
 11
91.3525285514
 21
210.9716996663
  0
LINE
  5
289
100
AcDbEntity
  8
606355349-000-00-ED1_CL
100
AcDbLine
 62
3
  6
CONTINUOUS
 10
92.3571766257
 20
210.8716996663
 11
91.1858618847
 21
210.8716996663
  0
LINE
  5
28A
100
AcDbEntity
  8
606355349-000-00-ED1_CL
100
AcDbLine
 62
3
  6
CONTINUOUS
 10
92.3571766257
 20
210.7716996663
 11
91.019195218
 21
210.7716996663
  0
LINE
  5
28B
100
AcDbEntity
  8
606355349-000-00-ED1_CL
100
AcDbLine
 62
3
  6
CONTINUOUS
 10
92.3571766257
 20
210.6716996663
 11
90.8525285514
 21
210.6716996663
  0
LINE
  5
28C
100
AcDbEntity
  8
606355349-000-00-ED1_CL
100
AcDbLine
 62
3
  6
CONTINUOUS
 10
92.3571766257
 20
210.5716996663
 11
90.6858618847
 21
210.5716996663
  0
LINE
  5
28D
100
AcDbEntity
  8
606355349-000-00-ED1_CL
100
AcDbLine
 62
3
  6
CONTINUOUS
 10
92.3571766257
 20
210.4716996663
 11
90.519195218
 21
210.4716996663
  0
LINE
  5
28E
100
AcDbEntity
  8
606355349-000-00-ED1_CL
100
AcDbLine
 62
3
  6
CONTINUOUS
 10
92.3571766257
 20
210.3716996663
 11
90.3525285514
 21
210.3716996663
  0
LINE
  5
28F
100
AcDbEntity
  8
606355349-000-00-ED1_CL
100
AcDbLine
 62
3
  6
CONTINUOUS
 10
92.3571766257
 20
210.2716996663
 11
90.1858618847
 21
210.2716996663
  0
LINE
  5
290
100
AcDbEntity
  8
606355349-000-00-ED1_CL
100
AcDbLine
 62
3
  6
CONTINUOUS
 10
92.3571766257
 20
210.1716996663
 11
90.019195218
 21
210.1716996663
  0
LINE
  5
291
100
AcDbEntity
  8
606355349-000-00-ED1_CL
100
AcDbLine
 62
3
  6
CONTINUOUS
 10
92.3571766257
 20
210.0716996663
 11
89.8618247001
 21
210.0716996663
  0
LINE
  5
292
100
AcDbEntity
  8
606355349-000-00-ED1_CL
100
AcDbLine
 62
3
  6
CONTINUOUS
 10
92.3571766257
 20
209.9716996663
 11
90.0284913668
 21
209.9716996663
  0
LINE
  5
293
100
AcDbEntity
  8
606355349-000-00-ED1_CL
100
AcDbLine
 62
3
  6
CONTINUOUS
 10
92.3571766257
 20
209.8716996663
 11
90.1951580334
 21
209.8716996663
  0
LINE
  5
294
100
AcDbEntity
  8
606355349-000-00-ED1_CL
100
AcDbLine
 62
3
  6
CONTINUOUS
 10
92.3571766257
 20
209.7716996663
 11
90.3618247001
 21
209.7716996663
  0
LINE
  5
295
100
AcDbEntity
  8
606355349-000-00-ED1_CL
100
AcDbLine
 62
3
  6
CONTINUOUS
 10
92.3571766257
 20
209.6716996663
 11
90.5284913668
 21
209.6716996663
  0
LINE
  5
296
100
AcDbEntity
  8
606355349-000-00-ED1_CL
100
AcDbLine
 62
3
  6
CONTINUOUS
 10
92.3571766257
 20
209.5716996663
 11
90.6951580334
 21
209.5716996663
  0
LINE
  5
297
100
AcDbEntity
  8
606355349-000-00-ED1_CL
100
AcDbLine
 62
3
  6
CONTINUOUS
 10
92.3571766257
 20
209.4716996663
 11
90.8618247001
 21
209.4716996663
  0
LINE
  5
298
100
AcDbEntity
  8
606355349-000-00-ED1_CL
100
AcDbLine
 62
3
  6
CONTINUOUS
 10
92.3571766257
 20
209.3716996663
 11
91.0284913668
 21
209.3716996663
  0
LINE
  5
299
100
AcDbEntity
  8
606355349-000-00-ED1_CL
100
AcDbLine
 62
3
  6
CONTINUOUS
 10
92.3571766257
 20
209.2716996663
 11
91.1951580334
 21
209.2716996663
  0
LINE
  5
29A
100
AcDbEntity
  8
606355349-000-00-ED1_CL
100
AcDbLine
 62
3
  6
CONTINUOUS
 10
92.3571766257
 20
209.1716996663
 11
91.3618247001
 21
209.1716996663
  0
LINE
  5
29B
100
AcDbEntity
  8
606355349-000-00-ED1_CL
100
AcDbLine
 62
3
  6
CONTINUOUS
 10
92.3571766257
 20
209.0716996663
 11
91.5284913668
 21
209.0716996663
  0
LINE
  5
29C
100
AcDbEntity
  8
606355349-000-00-ED1_CL
100
AcDbLine
 62
3
  6
CONTINUOUS
 10
92.3571766257
 20
208.9716996663
 11
91.6951580334
 21
208.9716996663
  0
LINE
  5
29D
100
AcDbEntity
  8
606355349-000-00-ED1_CL
100
AcDbLine
 62
3
  6
CONTINUOUS
 10
92.3571766257
 20
208.8716996663
 11
91.8618247001
 21
208.8716996663
  0
LINE
  5
29E
100
AcDbEntity
  8
606355349-000-00-ED1_CL
100
AcDbLine
 62
3
  6
CONTINUOUS
 10
92.3571766257
 20
208.7716996663
 11
92.0284913668
 21
208.7716996663
  0
LINE
  5
29F
100
AcDbEntity
  8
606355349-000-00-ED1_CL
100
AcDbLine
 62
3
  6
CONTINUOUS
 10
92.3571766257
 20
208.6716996663
 11
92.1951580334
 21
208.6716996663
  0
TEXT
  5
2A0
100
AcDbEntity
  8
606355349-000-00-ED1_CL
100
AcDbText
 62
2
  6
CONTINUOUS
 10
82.3821766257
 20
208.3244885109
  7
STANDARD
 40
3.5
  1
B
 41
0.7857142857
 72
0
100
AcDbText
  0
ENDBLK
  5
2A1
100
AcDbEntity
  8
0
  6
BYBLOCK
 62
0
100
AcDbBlockEnd
  0
BLOCK
  5
2A2
100
AcDbEntity
  8
606355349-000-00-ED1_FORMAT
100
AcDbBlockBegin
 62
3
  6
CONTINUOUS
  2
BARCODEBOX_BL0
 70
64
 10
87.5
 20
46.5
  3
BARCODEBOX_BL0
  1

  0
LINE
  5
2A3
100
AcDbEntity
  8
606355349-000-00-ED1_FORMAT
100
AcDbLine
 62
3
  6
CONTINUOUS
 10
48.0
 20
83.0
 11
53.0
 21
83.0
  0
LINE
  5
2A4
100
AcDbEntity
  8
606355349-000-00-ED1_FORMAT
100
AcDbLine
 62
3
  6
CONTINUOUS
 10
53.0
 20
83.0
 11
53.0
 21
78.0
  0
LINE
  5
2A5
100
AcDbEntity
  8
606355349-000-00-ED1_FORMAT
100
AcDbLine
 62
3
  6
CONTINUOUS
 10
135.0
 20
65.0
 11
140.0
 21
65.0
  0
LINE
  5
2A6
100
AcDbEntity
  8
606355349-000-00-ED1_FORMAT
100
AcDbLine
 62
3
  6
CONTINUOUS
 10
140.0
 20
65.0
 11
140.0
 21
60.0
  0
LINE
  5
2A7
100
AcDbEntity
  8
606355349-000-00-ED1_FORMAT
100
AcDbLine
 62
3
  6
CONTINUOUS
 10
91.5
 20
65.0
 11
101.5
 21
65.0
  0
LINE
  5
2A8
100
AcDbEntity
  8
606355349-000-00-ED1_FORMAT
100
AcDbLine
 62
3
  6
CONTINUOUS
 10
140.0
 20
42.5
 11
140.0
 21
32.5
  0
LINE
  5
2A9
100
AcDbEntity
  8
606355349-000-00-ED1_FORMAT
100
AcDbLine
 62
3
  6
CONTINUOUS
 10
140.0
 20
10.0
 11
140.0
 21
15.0
  0
LINE
  5
2AA
100
AcDbEntity
  8
606355349-000-00-ED1_FORMAT
100
AcDbLine
 62
3
  6
CONTINUOUS
 10
40.0
 20
83.0
 11
35.0
 21
83.0
  0
LINE
  5
2AB
100
AcDbEntity
  8
606355349-000-00-ED1_FORMAT
100
AcDbLine
 62
3
  6
CONTINUOUS
 10
58.0
 20
65.0
 11
48.0
 21
65.0
  0
LINE
  5
2AC
100
AcDbEntity
  8
606355349-000-00-ED1_FORMAT
100
AcDbLine
 62
3
  6
CONTINUOUS
 10
53.0
 20
65.0
 11
53.0
 21
70.0
  0
LINE
  5
2AD
100
AcDbEntity
  8
606355349-000-00-ED1_FORMAT
100
AcDbLine
 62
3
  6
CONTINUOUS
 10
35.0
 20
65.0
 11
40.0
 21
65.0
  0
TEXT
  5
2AE
100
AcDbEntity
  8
606355349-000-00-ED1_FORMAT
100
AcDbText
 62
2
  6
CONTINUOUS
 10
139.0
 20
11.0
  7
STANDARD
 40
2.0
  1
BARCODE-ZONE
 50
90.0
 41
0.7876984127
 72
0
100
AcDbText
  0
ENDBLK
  5
2AF
100
AcDbEntity
  8
0
  6
BYBLOCK
 62
0
100
AcDbBlockEnd
  0
BLOCK
  5
2B0
100
AcDbEntity
  8
0
100
AcDbBlockBegin
  2
_FILLED
 70
64
 10
0.0
 20
0.0
  3
_FILLED
  1

  0
SOLID
  5
2B1
100
AcDbEntity
  8
0
  6
BYBLOCK
 62
0
100
AcDbTrace
 10
0.0
 20
0.0
 11
-1.0
 21
0.125
 12
-1.0
 22
-0.125
 13
-1.0
 23
-0.125
  0
ENDBLK
  5
2B2
100
AcDbEntity
  8
0
  6
BYBLOCK
 62
0
100
AcDbBlockEnd
  0
BLOCK
  5
2B3
100
AcDbEntity
  8
0
100
AcDbBlockBegin
  2
_DOT
 70
64
 10
0.0
 20
0.0
  3
_DOT
  1

  0
LWPOLYLINE
  5
2B4
100
AcDbEntity
  8
0
  6
BYBLOCK
 62
0
100
AcDbPolyline
 90
2
 70
1
 43
0.125
 10
-0.0625
 20
0.0
 42
1.0
 10
0.0625
 20
0.0
 42
1.0
  0
LINE
  5
2B5
100
AcDbEntity
  8
0
  6
BYBLOCK
 62
0
100
AcDbLine
 10
-0.125
 20
0.0
 11
-1.0
 21
0.0
  0
ENDBLK
  5
2B6
100
AcDbEntity
  8
0
  6
BYBLOCK
 62
0
100
AcDbBlockEnd
  0
BLOCK
  5
2B7
100
AcDbEntity
  8
606355349-000-00-ED1_DIM
100
AcDbBlockBegin
 62
3
  6
CONTINUOUS
  2
*D0
 70
65
 10
0.0
 20
0.0
  3
*D0
  1

  0
TEXT
  5
2B8
100
AcDbEntity
  8
606355349-000-00-ED1_DIM
100
AcDbText
 62
2
  6
CONTINUOUS
 10
129.3905049231
 20
127.7899259424
  7
STANDARD
 40
3.5
  1
R
 50
-45.4780349389
 41
0.7857142857
 72
0
100
AcDbText
  0
TEXT
  5
2B9
100
AcDbEntity
  8
606355349-000-00-ED1_DIM
100
AcDbText
 62
2
  6
CONTINUOUS
 10
131.3187572006
 20
125.829226283
  7
STANDARD
 40
3.5
  1
5
 50
-45.4780349389
 41
0.7142857143
 72
0
100
AcDbText
  0
LINE
  5
2BA
100
AcDbEntity
  8
606355349-000-00-ED1_DIM
100
AcDbLine
 62
3
  6
CONTINUOUS
 10
119.8012633939
 20
136.292637331
 11
132.447854834
 21
123.4332372316
  0
INSERT
  5
2BB
100
AcDbEntity
  8
606355349-000-00-ED1_DIM
100
AcDbBlockReference
 62
3
  6
CONTINUOUS
  2
_FILLED
 10
119.8012633939
 20
136.292637331
 41
3.5
 42
3.5
 43
3.5
 50
134.5219650611
  0
ENDBLK
  5
2BC
100
AcDbEntity
  8
0
  6
BYBLOCK
 62
0
100
AcDbBlockEnd
  0
BLOCK
  5
2BD
100
AcDbEntity
  8
606355349-000-00-ED1_DIM
100
AcDbBlockBegin
 62
3
  6
CONTINUOUS
  2
*D1
 70
65
 10
0.0
 20
0.0
  3
*D1
  1

  0
TEXT
  5
2BE
100
AcDbEntity
  8
606355349-000-00-ED1_DIM
100
AcDbText
 62
2
  6
CONTINUOUS
 10
273.9196295082
 20
190.4854325491
  7
STANDARD
 40
3.5
  1
4.5
 50
-73.2413401826
 41
0.6904761905
 72
1
 11
274.964865613
 21
187.014394306
100
AcDbText
  0
TEXT
  5
2BF
100
AcDbEntity
  8
606355349-000-00-ED1_DIM
100
AcDbText
 62
2
  6
CONTINUOUS
 10
276.0101017177
 20
183.5433560628
  7
TEXTSTYLE_3
 40
3.5
  1
~
 50
-73.2413401826
 41
1.0
 72
1
 11
276.3464995445
 21
182.4262403064
100
AcDbText
  0
TEXT
  5
2C0
100
AcDbEntity
  8
606355349-000-00-ED1_DIM
100
AcDbText
 62
2
  6
CONTINUOUS
 10
277.1855994617
 20
181.4605035721
  7
TEXTSTYLE_3
 40
2.45
  1
`
 50
-73.2413401826
 41
1.0
 72
1
 11
277.5976867995
 21
180.0920367705
100
AcDbText
  0
TEXT
  5
2C1
100
AcDbEntity
  8
606355349-000-00-ED1_DIM
100
AcDbText
 62
2
  6
CONTINUOUS
 10
278.0097741373
 20
178.7235699689
  7
STANDARD
 40
2.45
  1
0.25
 50
-73.2413401826
 41
0.7142857143
 72
1
 11
279.0189676178
 21
175.3722226996
100
AcDbText
  0
TEXT
  5
2C2
100
AcDbEntity
  8
606355349-000-00-ED1_DIM
100
AcDbText
 62
2
  6
CONTINUOUS
 10
280.0281610982
 20
172.0208754304
  7
TEXTSTYLE_3
 40
2.45
  1
~
 50
-73.2413401826
 41
1.0
 72
1
 11
280.2636395769
 21
171.2388944009
100
AcDbText
  0
LINE
  5
2C3
100
AcDbEntity
  8
606355349-000-00-ED1_DIM
100
AcDbLine
 62
3
  6
CONTINUOUS
 10
260.150985477
 20
168.2624110731
 11
276.4214833591
 21
166.9818951189
  0
LINE
  5
2C4
100
AcDbEntity
  8
606355349-000-00-ED1_DIM
100
AcDbLine
 62
3
  6
CONTINUOUS
 10
259.885784657
 20
169.7277288594
 11
276.5293674606
 21
169.7277288594
  0
ARC
  5
2C5
100
AcDbEntity
  8
606355349-000-00-ED1_DIM
100
AcDbCircle
 62
3
  6
CONTINUOUS
 10
241.532357681
 20
169.7277288594
 40
33.4970097796
100
AcDbArc
 50
345.2371532761
 51
355.5
  0
ARC
  5
2C6
100
AcDbEntity
  8
606355349-000-00-ED1_DIM
100
AcDbCircle
 62
3
  6
CONTINUOUS
 10
241.532357681
 20
169.7277288594
 40
33.4970097796
100
AcDbArc
 50
0.0
 51
16.7586598174
  0
ARC
  5
2C7
100
AcDbEntity
  8
606355349-000-00-ED1_DIM
100
AcDbCircle
 62
3
  6
CONTINUOUS
 10
241.532357681
 20
169.7277288594
 40
33.4970097796
100
AcDbArc
 50
355.5
 51
360.0
  0
SOLID
  5
2C8
100
AcDbEntity
  8
606355349-000-00-ED1_DIM
100
AcDbTrace
 62
3
  6
CONTINUOUS
 10
274.9034334038
 20
163.5724188753
 11
274.9261073585
 21
167.0995837625
 12
274.0359058609
 22
163.6865283068
 13
274.0359058609
 23
163.6865283068
  0
SOLID
  5
2C9
100
AcDbEntity
  8
606355349-000-00-ED1_DIM
100
AcDbTrace
 62
3
  6
CONTINUOUS
 10
274.4096954019
 20
173.2001074087
 11
275.0293674606
 21
169.7277288594
 12
275.2835015697
 22
173.2457996524
 13
275.2835015697
 23
173.2457996524
  0
ENDBLK
  5
2CA
100
AcDbEntity
  8
0
  6
BYBLOCK
 62
0
100
AcDbBlockEnd
  0
BLOCK
  5
2CB
100
AcDbEntity
  8
30419210_DIM
100
AcDbBlockBegin
 62
3
  6
CONTINUOUS
  2
*D2
 70
65
 10
0.0
 20
0.0
  3
*D2
  1

  0
TEXT
  5
2CC
100
AcDbEntity
  8
30419210_DIM
100
AcDbText
 62
2
  6
CONTINUOUS
 10
227.022156798
 20
109.6027288594
  7
STANDARD
 40
3.5
  1
10
 41
0.6785714286
 72
2
 11
231.772156798
 21
109.6027288594
100
AcDbText
  0
TEXT
  5
2CD
100
AcDbEntity
  8
30419210_DIM
100
AcDbText
 62
2
  6
CONTINUOUS
 10
200.8554901313
 20
103.4777288594
  7
STANDARD
 40
3.5
  1
VERSTELLWEG
 41
0.803030303
 72
2
 11
231.772156798
 21
103.4777288594
100
AcDbText
  0
LINE
  5
2CE
100
AcDbEntity
  8
30419210_DIM
100
AcDbLine
 62
3
  6
CONTINUOUS
 10
251.3571766257
 20
153.7546750544
 11
251.3571766257
 21
107.2277288594
  0
LINE
  5
2CF
100
AcDbEntity
  8
30419210_DIM
100
AcDbLine
 62
3
  6
CONTINUOUS
 10
261.3571766257
 20
153.7091357987
 11
261.3571766257
 21
107.2277288594
  0
LINE
  5
2D0
100
AcDbEntity
  8
30419210_DIM
100
AcDbLine
 62
3
  6
CONTINUOUS
 10
251.3571766257
 20
108.7277288594
 11
256.3571766257
 21
108.7277288594
  0
LINE
  5
2D1
100
AcDbEntity
  8
30419210_DIM
100
AcDbLine
 62
3
  6
CONTINUOUS
 10
256.3571766257
 20
108.7277288594
 11
200.8554901313
 21
108.7277288594
  0
LINE
  5
2D2
100
AcDbEntity
  8
30419210_DIM
100
AcDbLine
 62
3
  6
CONTINUOUS
 10
261.3571766257
 20
108.7277288594
 11
256.3571766257
 21
108.7277288594
  0
INSERT
  5
2D3
100
AcDbEntity
  8
30419210_DIM
100
AcDbBlockReference
 62
3
  6
CONTINUOUS
  2
_FILLED
 10
251.3571766257
 20
108.7277288594
 41
3.5
 42
3.5
 43
3.5
 50
180.0
  0
INSERT
  5
2D4
100
AcDbEntity
  8
30419210_DIM
100
AcDbBlockReference
 62
3
  6
CONTINUOUS
  2
_FILLED
 10
261.3571766257
 20
108.7277288594
 41
3.5
 42
3.5
 43
3.5
  0
ENDBLK
  5
2D5
100
AcDbEntity
  8
0
  6
BYBLOCK
 62
0
100
AcDbBlockEnd
  0
BLOCK
  5
2D6
100
AcDbEntity
  8
30350716_DIM
100
AcDbBlockBegin
 62
3
  6
CONTINUOUS
  2
*D3
 70
65
 10
0.0
 20
0.0
  3
*D3
  1

  0
TEXT
  5
2D7
100
AcDbEntity
  8
30350716_DIM
100
AcDbText
 62
2
  6
CONTINUOUS
 10
210.0198037956
 20
199.6027288594
  7
STANDARD
 40
3.5
  1
M
 41
0.8571428571
 72
2
 11
213.0198037956
 21
199.6027288594
100
AcDbText
  0
TEXT
  5
2D8
100
AcDbEntity
  8
30350716_DIM
100
AcDbText
 62
2
  6
CONTINUOUS
 10
213.0198037956
 20
199.6027288594
  7
STANDARD
 40
3.5
  1
6
 41
0.7857142857
 72
2
 11
215.7698037956
 21
199.6027288594
100
AcDbText
  0
TEXT
  5
2D9
100
AcDbEntity
  8
30350716_DIM
100
AcDbText
 62
2
  6
CONTINUOUS
 10
215.7698037956
 20
199.6027288594
  7
STANDARD
 40
3.5
  1
(
 41
0.4285714286
 72
2
 11
217.2698037956
 21
199.6027288594
100
AcDbText
  0
TEXT
  5
2DA
100
AcDbEntity
  8
30350716_DIM
100
AcDbText
 62
2
  6
CONTINUOUS
 10
217.2698037956
 20
199.6027288594
  7
STANDARD
 40
3.5
  1
4
 41
0.7857142857
 72
2
 11
220.0198037956
 21
199.6027288594
100
AcDbText
  0
TEXT
  5
2DB
100
AcDbEntity
  8
30350716_DIM
100
AcDbText
 62
2
  6
CONTINUOUS
 10
220.0198037956
 20
199.6027288594
  7
STANDARD
 40
3.5
  1
x)
 41
0.5714285714
 72
2
 11
224.0198037956
 21
199.6027288594
100
AcDbText
  0
LINE
  5
2DC
100
AcDbEntity
  8
30350716_DIM
100
AcDbLine
 62
3
  6
CONTINUOUS
 10
231.3571766257
 20
169.5777288594
 11
231.3571766257
 21
200.2277288594
  0
LINE
  5
2DD
100
AcDbEntity
  8
30350716_DIM
100
AcDbLine
 62
3
  6
CONTINUOUS
 10
237.3571766257
 20
169.5777288594
 11
237.3571766257
 21
200.2277288594
  0
LINE
  5
2DE
100
AcDbEntity
  8
30350716_DIM
100
AcDbLine
 62
3
  6
CONTINUOUS
 10
231.3571766257
 20
198.7277288594
 11
210.0198037956
 21
198.7277288594
  0
LINE
  5
2DF
100
AcDbEntity
  8
30350716_DIM
100
AcDbLine
 62
3
  6
CONTINUOUS
 10
210.0198037956
 20
198.7277288594
 11
234.3571766257
 21
198.7277288594
  0
LINE
  5
2E0
100
AcDbEntity
  8
30350716_DIM
100
AcDbLine
 62
3
  6
CONTINUOUS
 10
237.3571766257
 20
198.7277288594
 11
243.3571766257
 21
198.7277288594
  0
LINE
  5
2E1
100
AcDbEntity
  8
30350716_DIM
100
AcDbLine
 62
3
  6
CONTINUOUS
 10
243.3571766257
 20
198.7277288594
 11
234.3571766257
 21
198.7277288594
  0
INSERT
  5
2E2
100
AcDbEntity
  8
30350716_DIM
100
AcDbBlockReference
 62
3
  6
CONTINUOUS
  2
_FILLED
 10
231.3571766257
 20
198.7277288594
 41
3.5
 42
3.5
 43
3.5
  0
INSERT
  5
2E3
100
AcDbEntity
  8
30350716_DIM
100
AcDbBlockReference
 62
3
  6
CONTINUOUS
  2
_FILLED
 10
237.3571766257
 20
198.7277288594
 41
3.5
 42
3.5
 43
3.5
 50
180.0
  0
ENDBLK
  5
2E4
100
AcDbEntity
  8
0
  6
BYBLOCK
 62
0
100
AcDbBlockEnd
  0
BLOCK
  5
2E5
100
AcDbEntity
  8
30350716_DIM
100
AcDbBlockBegin
 62
3
  6
CONTINUOUS
  2
*D4
 70
65
 10
0.0
 20
0.0
  3
*D4
  1

  0
TEXT
  5
2E6
100
AcDbEntity
  8
30350716_DIM
100
AcDbText
 62
2
  6
CONTINUOUS
 10
260.7321766257
 20
89.6027288594
  7
STANDARD
 40
3.5
  1
58
 41
0.75
 72
1
 11
263.3571766257
 21
89.6027288594
100
AcDbText
  0
LINE
  5
2E7
100
AcDbEntity
  8
30350716_DIM
100
AcDbLine
 62
3
  6
CONTINUOUS
 10
234.3571766257
 20
135.6737839764
 11
234.3571766257
 21
87.2277288594
  0
LINE
  5
2E8
100
AcDbEntity
  8
30350716_DIM
100
AcDbLine
 62
3
  6
CONTINUOUS
 10
292.3571766257
 20
141.4382901168
 11
292.3571766257
 21
87.2277288594
  0
LINE
  5
2E9
100
AcDbEntity
  8
30350716_DIM
100
AcDbLine
 62
3
  6
CONTINUOUS
 10
234.3571766257
 20
88.7277288594
 11
263.3571766257
 21
88.7277288594
  0
LINE
  5
2EA
100
AcDbEntity
  8
30350716_DIM
100
AcDbLine
 62
3
  6
CONTINUOUS
 10
292.3571766257
 20
88.7277288594
 11
263.3571766257
 21
88.7277288594
  0
INSERT
  5
2EB
100
AcDbEntity
  8
30350716_DIM
100
AcDbBlockReference
 62
3
  6
CONTINUOUS
  2
_FILLED
 10
234.3571766257
 20
88.7277288594
 41
3.5
 42
3.5
 43
3.5
 50
180.0
  0
INSERT
  5
2EC
100
AcDbEntity
  8
30350716_DIM
100
AcDbBlockReference
 62
3
  6
CONTINUOUS
  2
_FILLED
 10
292.3571766257
 20
88.7277288594
 41
3.5
 42
3.5
 43
3.5
  0
ENDBLK
  5
2ED
100
AcDbEntity
  8
0
  6
BYBLOCK
 62
0
100
AcDbBlockEnd
  0
BLOCK
  5
2EE
100
AcDbEntity
  8
30350716_DIM
100
AcDbBlockBegin
 62
3
  6
CONTINUOUS
  2
*D5
 70
65
 10
0.0
 20
0.0
  3
*D5
  1

  0
TEXT
  5
2EF
100
AcDbEntity
  8
30350716_DIM
100
AcDbText
 62
2
  6
CONTINUOUS
 10
269.4821766257
 20
99.6027288594
  7
STANDARD
 40
3.5
  1
41
 41
0.6785714286
 72
1
 11
271.8571766257
 21
99.6027288594
100
AcDbText
  0
LINE
  5
2F0
100
AcDbEntity
  8
30350716_DIM
100
AcDbLine
 62
3
  6
CONTINUOUS
 10
251.3571766257
 20
142.6521193511
 11
251.3571766257
 21
97.2277288594
  0
LINE
  5
2F1
100
AcDbEntity
  8
30350716_DIM
100
AcDbLine
 62
3
  6
CONTINUOUS
 10
292.3571766257
 20
142.8536246418
 11
292.3571766257
 21
97.2277288594
  0
LINE
  5
2F2
100
AcDbEntity
  8
30350716_DIM
100
AcDbLine
 62
3
  6
CONTINUOUS
 10
251.3571766257
 20
98.7277288594
 11
271.8571766257
 21
98.7277288594
  0
LINE
  5
2F3
100
AcDbEntity
  8
30350716_DIM
100
AcDbLine
 62
3
  6
CONTINUOUS
 10
292.3571766257
 20
98.7277288594
 11
271.8571766257
 21
98.7277288594
  0
INSERT
  5
2F4
100
AcDbEntity
  8
30350716_DIM
100
AcDbBlockReference
 62
3
  6
CONTINUOUS
  2
_FILLED
 10
251.3571766257
 20
98.7277288594
 41
3.5
 42
3.5
 43
3.5
 50
180.0
  0
INSERT
  5
2F5
100
AcDbEntity
  8
30350716_DIM
100
AcDbBlockReference
 62
3
  6
CONTINUOUS
  2
_FILLED
 10
292.3571766257
 20
98.7277288594
 41
3.5
 42
3.5
 43
3.5
  0
ENDBLK
  5
2F6
100
AcDbEntity
  8
0
  6
BYBLOCK
 62
0
100
AcDbBlockEnd
  0
BLOCK
  5
2F7
100
AcDbEntity
  8
30350716_DIM
100
AcDbBlockBegin
 62
3
  6
CONTINUOUS
  2
*D6
 70
65
 10
0.0
 20
0.0
  3
*D6
  1

  0
TEXT
  5
2F8
100
AcDbEntity
  8
30350716_DIM
100
AcDbText
 62
2
  6
CONTINUOUS
 10
188.2321766257
 20
219.6027288594
  7
STANDARD
 40
3.5
  1
200
 41
0.7857142857
 72
1
 11
192.3571766257
 21
219.6027288594
100
AcDbText
  0
LINE
  5
2F9
100
AcDbEntity
  8
30350716_DIM
100
AcDbLine
 62
3
  6
CONTINUOUS
 10
292.3571766257
 20
164.6790457902
 11
292.3571766257
 21
220.2277288594
  0
LINE
  5
2FA
100
AcDbEntity
  8
30350716_DIM
100
AcDbLine
 62
3
  6
CONTINUOUS
 10
92.3571766257
 20
185.0130093213
 11
92.3571766257
 21
220.2277288594
  0
LINE
  5
2FB
100
AcDbEntity
  8
30350716_DIM
100
AcDbLine
 62
3
  6
CONTINUOUS
 10
292.3571766257
 20
218.7277288594
 11
192.3571766257
 21
218.7277288594
  0
LINE
  5
2FC
100
AcDbEntity
  8
30350716_DIM
100
AcDbLine
 62
3
  6
CONTINUOUS
 10
92.3571766257
 20
218.7277288594
 11
192.3571766257
 21
218.7277288594
  0
INSERT
  5
2FD
100
AcDbEntity
  8
30350716_DIM
100
AcDbBlockReference
 62
3
  6
CONTINUOUS
  2
_FILLED
 10
292.3571766257
 20
218.7277288594
 41
3.5
 42
3.5
 43
3.5
  0
INSERT
  5
2FE
100
AcDbEntity
  8
30350716_DIM
100
AcDbBlockReference
 62
3
  6
CONTINUOUS
  2
_FILLED
 10
92.3571766257
 20
218.7277288594
 41
3.5
 42
3.5
 43
3.5
 50
180.0
  0
ENDBLK
  5
2FF
100
AcDbEntity
  8
0
  6
BYBLOCK
 62
0
100
AcDbBlockEnd
  0
BLOCK
  5
300
100
AcDbEntity
  8
30350716_DIM
100
AcDbBlockBegin
 62
3
  6
CONTINUOUS
  2
*D7
 70
65
 10
0.0
 20
0.0
  3
*D7
  1

  0
TEXT
  5
301
100
AcDbEntity
  8
30350716_DIM
100
AcDbText
 62
2
  6
CONTINUOUS
 10
49.5821766257
 20
137.0311449211
  7
STANDARD
 40
3.5
  1
M
 50
90.0
 41
0.8571428571
 72
2
 11
49.5821766257
 21
140.0311449211
100
AcDbText
  0
TEXT
  5
302
100
AcDbEntity
  8
30350716_DIM
100
AcDbText
 62
2
  6
CONTINUOUS
 10
49.5821766257
 20
140.0311449211
  7
STANDARD
 40
3.5
  1
8
 50
90.0
 41
0.7857142857
 72
2
 11
49.5821766257
 21
142.7811449211
100
AcDbText
  0
TEXT
  5
303
100
AcDbEntity
  8
30350716_DIM
100
AcDbText
 62
2
  6
CONTINUOUS
 10
49.5821766257
 20
142.7811449211
  7
STANDARD
 40
3.5
  1
x1
 50
90.0
 41
0.6428571429
 72
2
 11
49.5821766257
 21
147.2811449211
100
AcDbText
  0
LINE
  5
304
100
AcDbEntity
  8
30350716_DIM
100
AcDbLine
 62
3
  6
CONTINUOUS
 10
235.3250813314
 20
149.7277288594
 11
48.9571766257
 21
149.7277288594
  0
LINE
  5
305
100
AcDbEntity
  8
30350716_DIM
100
AcDbLine
 62
3
  6
CONTINUOUS
 10
235.2154882269
 20
157.7277288594
 11
48.9571766257
 21
157.7277288594
  0
LINE
  5
306
100
AcDbEntity
  8
30350716_DIM
100
AcDbLine
 62
3
  6
CONTINUOUS
 10
50.4571766257
 20
149.7277288594
 11
50.4571766257
 21
137.0311449211
  0
LINE
  5
307
100
AcDbEntity
  8
30350716_DIM
100
AcDbLine
 62
3
  6
CONTINUOUS
 10
50.4571766257
 20
137.0311449211
 11
50.4571766257
 21
153.7277288594
  0
LINE
  5
308
100
AcDbEntity
  8
30350716_DIM
100
AcDbLine
 62
3
  6
CONTINUOUS
 10
50.4571766257
 20
157.7277288594
 11
50.4571766257
 21
163.7277288594
  0
LINE
  5
309
100
AcDbEntity
  8
30350716_DIM
100
AcDbLine
 62
3
  6
CONTINUOUS
 10
50.4571766257
 20
163.7277288594
 11
50.4571766257
 21
153.7277288594
  0
INSERT
  5
30A
100
AcDbEntity
  8
30350716_DIM
100
AcDbBlockReference
 62
3
  6
CONTINUOUS
  2
_FILLED
 10
50.4571766257
 20
149.7277288594
 41
3.5
 42
3.5
 43
3.5
 50
90.0
  0
INSERT
  5
30B
100
AcDbEntity
  8
30350716_DIM
100
AcDbBlockReference
 62
3
  6
CONTINUOUS
  2
_FILLED
 10
50.4571766257
 20
157.7277288594
 41
3.5
 42
3.5
 43
3.5
 50
270.0
  0
ENDBLK
  5
30C
100
AcDbEntity
  8
0
  6
BYBLOCK
 62
0
100
AcDbBlockEnd
  0
BLOCK
  5
30D
100
AcDbEntity
  8
30350716_DIM
100
AcDbBlockBegin
 62
3
  6
CONTINUOUS
  2
*D8
 70
65
 10
0.0
 20
0.0
  3
*D8
  1

  0
TEXT
  5
30E
100
AcDbEntity
  8
30350716_DIM
100
AcDbText
 62
2
  6
CONTINUOUS
 10
306.4821766257
 20
124.5989781599
  7
TEXTSTYLE_3
 40
3.5
  1
n
 50
90.0
 41
1.0
 72
2
 11
306.4821766257
 21
129.2656448266
100
AcDbText
  0
TEXT
  5
30F
100
AcDbEntity
  8
30350716_DIM
100
AcDbText
 62
2
  6
CONTINUOUS
 10
306.4821766257
 20
129.2656448266
  7
STANDARD
 40
3.5
  1
10
 50
90.0
 41
0.6785714286
 72
2
 11
306.4821766257
 21
134.0156448266
100
AcDbText
  0
LINE
  5
310
100
AcDbEntity
  8
30350716_DIM
100
AcDbLine
 62
3
  6
CONTINUOUS
 10
290.3571300066
 20
148.7277288594
 11
308.8571766257
 21
148.7277288594
  0
LINE
  5
311
100
AcDbEntity
  8
30350716_DIM
100
AcDbLine
 62
3
  6
CONTINUOUS
 10
290.3571110164
 20
158.7277288594
 11
308.8571766257
 21
158.7277288594
  0
LINE
  5
312
100
AcDbEntity
  8
30350716_DIM
100
AcDbLine
 62
3
  6
CONTINUOUS
 10
307.3571766257
 20
148.7277288594
 11
307.3571766257
 21
124.5989781599
  0
LINE
  5
313
100
AcDbEntity
  8
30350716_DIM
100
AcDbLine
 62
3
  6
CONTINUOUS
 10
307.3571766257
 20
124.5989781599
 11
307.3571766257
 21
153.7277288594
  0
LINE
  5
314
100
AcDbEntity
  8
30350716_DIM
100
AcDbLine
 62
3
  6
CONTINUOUS
 10
307.3571766257
 20
158.7277288594
 11
307.3571766257
 21
164.7277288594
  0
LINE
  5
315
100
AcDbEntity
  8
30350716_DIM
100
AcDbLine
 62
3
  6
CONTINUOUS
 10
307.3571766257
 20
164.7277288594
 11
307.3571766257
 21
153.7277288594
  0
INSERT
  5
316
100
AcDbEntity
  8
30350716_DIM
100
AcDbBlockReference
 62
3
  6
CONTINUOUS
  2
_FILLED
 10
307.3571766257
 20
148.7277288594
 41
3.5
 42
3.5
 43
3.5
 50
90.0
  0
INSERT
  5
317
100
AcDbEntity
  8
30350716_DIM
100
AcDbBlockReference
 62
3
  6
CONTINUOUS
  2
_FILLED
 10
307.3571766257
 20
158.7277288594
 41
3.5
 42
3.5
 43
3.5
 50
270.0
  0
ENDBLK
  5
318
100
AcDbEntity
  8
0
  6
BYBLOCK
 62
0
100
AcDbBlockEnd
  0
BLOCK
  5
319
100
AcDbEntity
  8
30350716_DIM
100
AcDbBlockBegin
 62
3
  6
CONTINUOUS
  2
*D9
 70
65
 10
0.0
 20
0.0
  3
*D9
  1

  0
TEXT
  5
31A
100
AcDbEntity
  8
30350716_DIM
100
AcDbText
 62
2
  6
CONTINUOUS
 10
259.0697671534
 20
209.6027288594
  7
STANDARD
 40
3.5
  1
(
 41
0.4285714286
 72
1
 11
259.8197671534
 21
209.6027288594
100
AcDbText
  0
TEXT
  5
31B
100
AcDbEntity
  8
30350716_DIM
100
AcDbText
 62
2
  6
CONTINUOUS
 10
260.5697671534
 20
209.6027288594
  7
STANDARD
 40
3.5
  1
50.82
 41
0.7285714286
 72
1
 11
266.9447671534
 21
209.6027288594
100
AcDbText
  0
TEXT
  5
31C
100
AcDbEntity
  8
30350716_DIM
100
AcDbText
 62
2
  6
CONTINUOUS
 10
273.3197671534
 20
209.6027288594
  7
STANDARD
 40
3.5
  1
)
 41
0.4285714286
 72
1
 11
274.0697671534
 21
209.6027288594
100
AcDbText
  0
LINE
  5
31D
100
AcDbEntity
  8
30350716_DIM
100
AcDbLine
 62
3
  6
CONTINUOUS
 10
292.3571766257
 20
164.7503207181
 11
292.3571766257
 21
210.2277288594
  0
LINE
  5
31E
100
AcDbEntity
  8
30350716_DIM
100
AcDbLine
 62
3
  6
CONTINUOUS
 10
241.532357681
 20
169.7277288594
 11
241.532357681
 21
210.2277288594
  0
LINE
  5
31F
100
AcDbEntity
  8
30350716_DIM
100
AcDbLine
 62
3
  6
CONTINUOUS
 10
292.3571766257
 20
208.7277288594
 11
266.9447671534
 21
208.7277288594
  0
LINE
  5
320
100
AcDbEntity
  8
30350716_DIM
100
AcDbLine
 62
3
  6
CONTINUOUS
 10
241.532357681
 20
208.7277288594
 11
266.9447671534
 21
208.7277288594
  0
INSERT
  5
321
100
AcDbEntity
  8
30350716_DIM
100
AcDbBlockReference
 62
3
  6
CONTINUOUS
  2
_FILLED
 10
292.3571766257
 20
208.7277288594
 41
3.5
 42
3.5
 43
3.5
  0
INSERT
  5
322
100
AcDbEntity
  8
30350716_DIM
100
AcDbBlockReference
 62
3
  6
CONTINUOUS
  2
_FILLED
 10
241.532357681
 20
208.7277288594
 41
3.5
 42
3.5
 43
3.5
 50
180.0
  0
ENDBLK
  5
323
100
AcDbEntity
  8
0
  6
BYBLOCK
 62
0
100
AcDbBlockEnd
  0
BLOCK
  5
324
100
AcDbEntity
  8
30350716_DIM
100
AcDbBlockBegin
 62
3
  6
CONTINUOUS
  2
*D10
 70
65
 10
0.0
 20
0.0
  3
*D10
  1

  0
TEXT
  5
325
100
AcDbEntity
  8
30350716_DIM
100
AcDbText
 62
2
  6
CONTINUOUS
 10
326.4821766257
 20
148.7693955261
  7
TEXTSTYLE_3
 40
3.5
  1
n
 50
90.0
 41
1.0
 72
1
 11
326.4821766257
 21
151.1027288594
100
AcDbText
  0
TEXT
  5
326
100
AcDbEntity
  8
30350716_DIM
100
AcDbText
 62
2
  6
CONTINUOUS
 10
326.4821766257
 20
153.4360621927
  7
STANDARD
 40
3.5
  1
32
 50
90.0
 41
0.75
 72
1
 11
326.4821766257
 21
156.0610621927
100
AcDbText
  0
LINE
  5
327
100
AcDbEntity
  8
30350716_DIM
100
AcDbLine
 62
3
  6
CONTINUOUS
 10
241.5139149602
 20
137.7277288594
 11
328.8571766257
 21
137.7277288594
  0
LINE
  5
328
100
AcDbEntity
  8
30350716_DIM
100
AcDbLine
 62
3
  6
CONTINUOUS
 10
241.5735458021
 20
169.7277288594
 11
328.8571766257
 21
169.7277288594
  0
LINE
  5
329
100
AcDbEntity
  8
30350716_DIM
100
AcDbLine
 62
3
  6
CONTINUOUS
 10
327.3571766257
 20
137.7277288594
 11
327.3571766257
 21
153.7277288594
  0
LINE
  5
32A
100
AcDbEntity
  8
30350716_DIM
100
AcDbLine
 62
3
  6
CONTINUOUS
 10
327.3571766257
 20
169.7277288594
 11
327.3571766257
 21
153.7277288594
  0
INSERT
  5
32B
100
AcDbEntity
  8
30350716_DIM
100
AcDbBlockReference
 62
3
  6
CONTINUOUS
  2
_FILLED
 10
327.3571766257
 20
137.7277288594
 41
3.5
 42
3.5
 43
3.5
 50
270.0
  0
INSERT
  5
32C
100
AcDbEntity
  8
30350716_DIM
100
AcDbBlockReference
 62
3
  6
CONTINUOUS
  2
_FILLED
 10
327.3571766257
 20
169.7277288594
 41
3.5
 42
3.5
 43
3.5
 50
90.0
  0
ENDBLK
  5
32D
100
AcDbEntity
  8
0
  6
BYBLOCK
 62
0
100
AcDbBlockEnd
  0
BLOCK
  5
32E
100
AcDbEntity
  8
30350716_DIM
100
AcDbBlockBegin
 62
3
  6
CONTINUOUS
  2
*D11
 70
65
 10
0.0
 20
0.0
  3
*D11
  1

  0
TEXT
  5
32F
100
AcDbEntity
  8
30350716_DIM
100
AcDbText
 62
2
  6
CONTINUOUS
 10
316.4821766257
 20
148.6443955261
  7
TEXTSTYLE_3
 40
3.5
  1
n
 50
90.0
 41
1.0
 72
1
 11
316.4821766257
 21
150.9777288594
100
AcDbText
  0
TEXT
  5
330
100
AcDbEntity
  8
30350716_DIM
100
AcDbText
 62
2
  6
CONTINUOUS
 10
316.4821766257
 20
153.3110621927
  7
STANDARD
 40
3.5
  1
24
 50
90.0
 41
0.7857142857
 72
1
 11
316.4821766257
 21
156.0610621927
100
AcDbText
  0
LINE
  5
331
100
AcDbEntity
  8
30350716_DIM
100
AcDbLine
 62
3
  6
CONTINUOUS
 10
292.3571766257
 20
141.7277288594
 11
318.8571766257
 21
141.7277288594
  0
LINE
  5
332
100
AcDbEntity
  8
30350716_DIM
100
AcDbLine
 62
3
  6
CONTINUOUS
 10
292.3571766257
 20
165.7277288594
 11
318.8571766257
 21
165.7277288594
  0
LINE
  5
333
100
AcDbEntity
  8
30350716_DIM
100
AcDbLine
 62
3
  6
CONTINUOUS
 10
317.3571766257
 20
141.7277288594
 11
317.3571766257
 21
153.7277288594
  0
LINE
  5
334
100
AcDbEntity
  8
30350716_DIM
100
AcDbLine
 62
3
  6
CONTINUOUS
 10
317.3571766257
 20
165.7277288594
 11
317.3571766257
 21
153.7277288594
  0
INSERT
  5
335
100
AcDbEntity
  8
30350716_DIM
100
AcDbBlockReference
 62
3
  6
CONTINUOUS
  2
_FILLED
 10
317.3571766257
 20
141.7277288594
 41
3.5
 42
3.5
 43
3.5
 50
270.0
  0
INSERT
  5
336
100
AcDbEntity
  8
30350716_DIM
100
AcDbBlockReference
 62
3
  6
CONTINUOUS
  2
_FILLED
 10
317.3571766257
 20
165.7277288594
 41
3.5
 42
3.5
 43
3.5
 50
90.0
  0
ENDBLK
  5
337
100
AcDbEntity
  8
0
  6
BYBLOCK
 62
0
100
AcDbBlockEnd
  0
ENDSEC
  0
SECTION
  2
ENTITIES
  0
TEXT
  5
338
100
AcDbEntity
  8
606355349-000-00-ED1_FORMAT
100
AcDbText
 62
90
  6
CONTINUOUS
 10
34.0
 20
287.75
  7
TEXTSTYLE_2
 40
3.5
  1
1
 41
0.5714285714
 72
1
 11
35.0
 21
287.75
100
AcDbText
  0
TEXT
  5
339
100
AcDbEntity
  8
606355349-000-00-ED1_FORMAT
100
AcDbText
 62
90
  6
CONTINUOUS
 10
83.625
 20
287.75
  7
TEXTSTYLE_2
 40
3.5
  1
2
 41
0.7857142857
 72
1
 11
85.0
 21
287.75
100
AcDbText
  0
TEXT
  5
33A
100
AcDbEntity
  8
606355349-000-00-ED1_FORMAT
100
AcDbText
 62
90
  6
CONTINUOUS
 10
133.75
 20
287.75
  7
TEXTSTYLE_2
 40
3.5
  1
3
 41
0.7142857143
 72
1
 11
135.0
 21
287.75
100
AcDbText
  0
TEXT
  5
33B
100
AcDbEntity
  8
606355349-000-00-ED1_FORMAT
100
AcDbText
 62
90
  6
CONTINUOUS
 10
183.625
 20
287.75
  7
TEXTSTYLE_2
 40
3.5
  1
4
 41
0.7857142857
 72
1
 11
185.0
 21
287.75
100
AcDbText
  0
TEXT
  5
33C
100
AcDbEntity
  8
606355349-000-00-ED1_FORMAT
100
AcDbText
 62
90
  6
CONTINUOUS
 10
233.75
 20
287.75
  7
TEXTSTYLE_2
 40
3.5
  1
5
 41
0.7142857143
 72
1
 11
235.0
 21
287.75
100
AcDbText
  0
TEXT
  5
33D
100
AcDbEntity
  8
606355349-000-00-ED1_FORMAT
100
AcDbText
 62
90
  6
CONTINUOUS
 10
283.625
 20
287.75
  7
TEXTSTYLE_2
 40
3.5
  1
6
 41
0.7857142857
 72
1
 11
285.0
 21
287.75
100
AcDbText
  0
TEXT
  5
33E
100
AcDbEntity
  8
606355349-000-00-ED1_FORMAT
100
AcDbText
 62
90
  6
CONTINUOUS
 10
333.625
 20
287.75
  7
TEXTSTYLE_2
 40
3.5
  1
7
 41
0.7857142857
 72
1
 11
335.0
 21
287.75
100
AcDbText
  0
TEXT
  5
33F
100
AcDbEntity
  8
606355349-000-00-ED1_FORMAT
100
AcDbText
 62
90
  6
CONTINUOUS
 10
383.625
 20
287.75
  7
TEXTSTYLE_2
 40
3.5
  1
8
 41
0.7857142857
 72
1
 11
385.0
 21
287.75
100
AcDbText
  0
TEXT
  5
340
100
AcDbEntity
  8
606355349-000-00-ED1_FORMAT
100
AcDbText
 62
90
  6
CONTINUOUS
 10
133.75
 20
5.75
  7
TEXTSTYLE_2
 40
3.5
  1
3
 41
0.7142857143
 72
1
 11
135.0
 21
5.75
100
AcDbText
  0
TEXT
  5
341
100
AcDbEntity
  8
606355349-000-00-ED1_FORMAT
100
AcDbText
 62
90
  6
CONTINUOUS
 10
83.625
 20
5.75
  7
TEXTSTYLE_2
 40
3.5
  1
2
 41
0.7857142857
 72
1
 11
85.0
 21
5.75
100
AcDbText
  0
TEXT
  5
342
100
AcDbEntity
  8
606355349-000-00-ED1_FORMAT
100
AcDbText
 62
90
  6
CONTINUOUS
 10
34.0
 20
5.75
  7
TEXTSTYLE_2
 40
3.5
  1
1
 41
0.5714285714
 72
1
 11
35.0
 21
5.75
100
AcDbText
  0
TEXT
  5
343
100
AcDbEntity
  8
606355349-000-00-ED1_FORMAT
100
AcDbText
 62
90
  6
CONTINUOUS
 10
19.0
 20
262.75
  7
TEXTSTYLE_2
 40
3.5
  1
A
 41
0.8571428571
 72
1
 11
20.5
 21
262.75
100
AcDbText
  0
TEXT
  5
344
100
AcDbEntity
  8
606355349-000-00-ED1_FORMAT
100
AcDbText
 62
90
  6
CONTINUOUS
 10
411.0
 20
262.75
  7
TEXTSTYLE_2
 40
3.5
  1
A
 41
0.8571428571
 72
1
 11
412.5
 21
262.75
100
AcDbText
  0
TEXT
  5
345
100
AcDbEntity
  8
606355349-000-00-ED1_FORMAT
100
AcDbText
 62
90
  6
CONTINUOUS
 10
411.125
 20
221.75
  7
TEXTSTYLE_2
 40
3.5
  1
B
 41
0.7857142857
 72
1
 11
412.5
 21
221.75
100
AcDbText
  0
TEXT
  5
346
100
AcDbEntity
  8
606355349-000-00-ED1_FORMAT
100
AcDbText
 62
90
  6
CONTINUOUS
 10
19.125
 20
221.75
  7
TEXTSTYLE_2
 40
3.5
  1
B
 41
0.7857142857
 72
1
 11
20.5
 21
221.75
100
AcDbText
  0
TEXT
  5
347
100
AcDbEntity
  8
606355349-000-00-ED1_FORMAT
100
AcDbText
 62
90
  6
CONTINUOUS
 10
19.0416666667
 20
171.75
  7
TEXTSTYLE_2
 40
3.5
  1
C
 41
0.8333333333
 72
1
 11
20.5
 21
171.75
100
AcDbText
  0
TEXT
  5
348
100
AcDbEntity
  8
606355349-000-00-ED1_FORMAT
100
AcDbText
 62
90
  6
CONTINUOUS
 10
411.0416666667
 20
171.75
  7
TEXTSTYLE_2
 40
3.5
  1
C
 41
0.8333333333
 72
1
 11
412.5
 21
171.75
100
AcDbText
  0
TEXT
  5
349
100
AcDbEntity
  8
606355349-000-00-ED1_FORMAT
100
AcDbText
 62
90
  6
CONTINUOUS
 10
410.9166666667
 20
121.75
  7
TEXTSTYLE_2
 40
3.5
  1
D
 41
0.9047619048
 72
1
 11
412.5
 21
121.75
100
AcDbText
  0
TEXT
  5
34A
100
AcDbEntity
  8
606355349-000-00-ED1_FORMAT
100
AcDbText
 62
90
  6
CONTINUOUS
 10
18.9166666667
 20
121.75
  7
TEXTSTYLE_2
 40
3.5
  1
D
 41
0.9047619048
 72
1
 11
20.5
 21
121.75
100
AcDbText
  0
TEXT
  5
34B
100
AcDbEntity
  8
606355349-000-00-ED1_FORMAT
100
AcDbText
 62
90
  6
CONTINUOUS
 10
19.25
 20
71.75
  7
TEXTSTYLE_2
 40
3.5
  1
E
 41
0.7142857143
 72
1
 11
20.5
 21
71.75
100
AcDbText
  0
TEXT
  5
34C
100
AcDbEntity
  8
606355349-000-00-ED1_FORMAT
100
AcDbText
 62
90
  6
CONTINUOUS
 10
411.25
 20
71.75
  7
TEXTSTYLE_2
 40
3.5
  1
E
 41
0.7142857143
 72
1
 11
412.5
 21
71.75
100
AcDbText
  0
TEXT
  5
34D
100
AcDbEntity
  8
606355349-000-00-ED1_FORMAT
100
AcDbText
 62
90
  6
CONTINUOUS
 10
411.25
 20
21.75
  7
TEXTSTYLE_2
 40
3.5
  1
F
 41
0.7142857143
 72
1
 11
412.5
 21
21.75
100
AcDbText
  0
TEXT
  5
34E
100
AcDbEntity
  8
606355349-000-00-ED1_FORMAT
100
AcDbText
 62
90
  6
CONTINUOUS
 10
19.25
 20
21.75
  7
TEXTSTYLE_2
 40
3.5
  1
F
 41
0.7142857143
 72
1
 11
20.5
 21
21.75
100
AcDbText
  0
TEXT
  5
34F
100
AcDbEntity
  8
606355349-000-00-ED1_FORMAT
100
AcDbText
 62
2
  6
CONTINUOUS
 10
266.0792011722
 20
283.4479128464
  7
STANDARD
 40
1.9999997015
  1
INDEX
 41
0.780952381
 72
0
100
AcDbText
  0
TEXT
  5
350
100
AcDbEntity
  8
606355349-000-00-ED1_FORMAT
100
AcDbText
 62
2
  6
CONTINUOUS
 10
267.8411056711
 20
280.4479132942
  7
STANDARD
 40
1.9999997015
  1
NR.
 41
0.7142857143
 72
0
100
AcDbText
  0
TEXT
  5
351
100
AcDbEntity
  8
606355349-000-00-ED1_FORMAT
100
AcDbText
 62
2
  6
CONTINUOUS
 10
310.3389765087
 20
281.9588201847
  7
STANDARD
 40
1.9999997015
  1
ART DER AENDERUNG
 41
0.799719888
 72
0
100
AcDbText
  0
TEXT
  5
352
100
AcDbEntity
  8
606355349-000-00-ED1_FORMAT
100
AcDbText
 62
2
  6
CONTINUOUS
 10
379.9980938591
 20
282.0962316584
  7
STANDARD
 40
1.9999997015
  1
DATUM
 41
0.8523809524
 72
0
100
AcDbText
  0
TEXT
  5
353
100
AcDbEntity
  8
606355349-000-00-ED1_FORMAT
100
AcDbText
 62
2
  6
CONTINUOUS
 10
397.8615854447
 20
282.0962316584
  7
STANDARD
 40
1.9999997015
  1
NAME
 41
0.8035714286
 72
0
100
AcDbText
  0
TEXT
  5
354
100
AcDbEntity
  8
606355349-000-00-ED1_FORMAT
100
AcDbText
 62
2
  6
CONTINUOUS
 10
27.6553587823
 20
149.7733961004
  7
STANDARD
 40
3.0
  1
VORGANGS-NR.:
 50
90.0
 41
0.7399267399
 72
0
100
AcDbText
  0
TEXT
  5
355
100
AcDbEntity
  8
606355349-000-00-ED1_FORMAT
100
AcDbText
 62
2
  6
CONTINUOUS
 10
27.9024680453
 20
94.666552576
  7
STANDARD
 40
3.0
  1
PROJEKT-NR.:
 50
90.0
 41
0.7142857143
 72
0
100
AcDbText
  0
TEXT
  5
356
100
AcDbEntity
  8
606355349-000-00-ED1_FORMAT
100
AcDbText
 62
2
  6
CONTINUOUS
 10
27.9024680453
 20
11.0873145846
  7
STANDARD
 40
3.0
  1
KUNDE:
 50
90.0
 41
0.7222222222
 72
0
100
AcDbText
  0
TEXT
  5
357
100
AcDbEntity
  8
606355349-000-00-ED1_FORMAT
100
AcDbText
 62
2
  6
CONTINUOUS
 10
225.0528335394
 20
61.7772757079
  7
STANDARD
 40
1.4000001944
  1
DIE ZEICHNUNGEN,  MODELLE  ETC. BLEIBEN  UNSER  AUSSCHLIESSLICHES
 41
0.7549450549
 72
0
100
AcDbText
  0
TEXT
  5
358
100
AcDbEntity
  8
606355349-000-00-ED1_FORMAT
100
AcDbText
 62
2
  6
CONTINUOUS
 10
225.0528335394
 20
58.9772753192
  7
STANDARD
 40
1.4000001944
  1
EIGENTUM. SIE WERDEN NUR ZU DEM VEREINBARTEN  ZWECK ANVERTRAUT
 41
0.7976190476
 72
0
100
AcDbText
  0
TEXT
  5
359
100
AcDbEntity
  8
606355349-000-00-ED1_FORMAT
100
AcDbText
 62
2
  6
CONTINUOUS
 10
225.0528335394
 20
56.1772749305
  7
STANDARD
 40
1.4000001944
  1
UND DUERFEN ZU KEINEM ANDEREN  ZWECK VERWENDET WERDEN. KOPIEN
 41
0.8040593286
 72
0
100
AcDbText
  0
TEXT
  5
35A
100
AcDbEntity
  8
606355349-000-00-ED1_FORMAT
100
AcDbText
 62
2
  6
CONTINUOUS
 10
225.0528335394
 20
53.3772745417
  7
STANDARD
 40
1.4000001944
  1
ODER  SONSTIGE  VERVIELFAELTIGUNGEN  DUERFEN  NUR ZU DEM VEREIN-
 41
0.7689732143
 72
0
100
AcDbText
  0
TEXT
  5
35B
100
AcDbEntity
  8
606355349-000-00-ED1_FORMAT
100
AcDbText
 62
2
  6
CONTINUOUS
 10
225.0528335394
 20
50.577274153
  7
STANDARD
 40
1.4000001944
  1
BARTEN ZWECK ANGEFERTIGT WERDEN. WEDER ORIGINALE NOCH VERVIEL-
 41
0.7949308756
 72
0
100
AcDbText
  0
TEXT
  5
35C
100
AcDbEntity
  8
606355349-000-00-ED1_FORMAT
100
AcDbText
 62
2
  6
CONTINUOUS
 10
225.0528335394
 20
47.7772737643
  7
STANDARD
 40
1.4000001944
  1
FAELTIGUNGEN  DUERFEN  DRITTEN  AUSGEHAENDIGT ODER IN SONSTIGER
 41
0.776266062
 72
0
100
AcDbText
  0
TEXT
  5
35D
100
AcDbEntity
  8
606355349-000-00-ED1_FORMAT
100
AcDbText
 62
2
  6
CONTINUOUS
 10
225.0528335394
 20
44.9772733756
  7
STANDARD
 40
1.4000001944
  1
WEISE ZUGAENGLICH GEMACHT WERDEN.
 41
0.803030303
 72
0
100
AcDbText
  0
TEXT
  5
35E
100
AcDbEntity
  8
606355349-000-00-ED1_FORMAT
100
AcDbText
 62
2
  6
CONTINUOUS
 10
225.1601630615
 20
39.378272574
  7
STANDARD
 40
1.8000002499
  1
MASSE OHNE TOLERANZANGABE
 41
0.7857142857
 72
0
100
AcDbText
  0
TEXT
  5
35F
100
AcDbEntity
  8
606355349-000-00-ED1_FORMAT
100
AcDbText
 62
2
  6
CONTINUOUS
 10
236.0244502841
 20
36.6782721992
  7
STANDARD
 40
1.8000002499
  1
ISO 2768-F
 41
0.7571428571
 72
0
100
AcDbText
  0
TEXT
  5
360
100
AcDbEntity
  8
606355349-000-00-ED1_FORMAT
100
AcDbText
 62
2
  6
CONTINUOUS
 10
262.1543713235
 20
39.5917730329
  7
STANDARD
 40
1.8000002499
  1
UNBEMASSTE EINZELHEITEN
 41
0.7608695652
 72
0
100
AcDbText
  0
TEXT
  5
361
100
AcDbEntity
  8
606355349-000-00-ED1_FORMAT
100
AcDbText
 62
2
  6
CONTINUOUS
 10
267.382943478
 20
36.8917726581
  7
STANDARD
 40
1.8000002499
  1
NACH WERKSNORM
 41
0.8350340136
 72
0
100
AcDbText
  0
TEXT
  5
362
100
AcDbEntity
  8
606355349-000-00-ED1_FORMAT
100
AcDbText
 62
2
  6
CONTINUOUS
 10
150.063304016
 20
38.7910868059
  7
STANDARD
 40
2.0
  1
ZUSAETZLICH ZU VA-NR. 07.05.01 BESCHRIFTET MIT:
 41
0.7507598784
 72
1
 11
185.3490183017
 21
38.7910868059
100
AcDbText
  0
TEXT
  5
363
100
AcDbEntity
  8
606355349-000-00-ED1_FORMAT
100
AcDbText
 62
2
  6
CONTINUOUS
 10
224.7601228044
 20
20.7999897947
  7
STANDARD
 40
2.5
  1
TECHNISCHE SPEZIFIKATION:
 41
0.7466666667
 72
0
100
AcDbText
  0
TEXT
  5
364
100
AcDbEntity
  8
606355349-000-00-ED1_FORMAT
100
AcDbText
 62
2
  6
CONTINUOUS
 10
224.8199471988
 20
31.7602174681
  7
STANDARD
 40
2.5
  1
BENENNUNG:
 41
0.7285714286
 72
0
100
AcDbText
  0
TEXT
  5
365
100
AcDbEntity
  8
606355349-000-00-ED1_FORMAT
100
AcDbText
 62
2
  6
CONTINUOUS
 10
224.5262063004
 20
11.0903924223
  7
STANDARD
 40
1.6000002221
  1
ERSATZ F. ZCHNR.:
 41
0.7380952381
 72
0
100
AcDbText
  0
TEXT
  5
366
100
AcDbEntity
  8
606355349-000-00-ED1_FORMAT
100
AcDbText
 62
2
  6
CONTINUOUS
 10
300.4889576042
 20
10.8414910836
  7
STANDARD
 40
1.6000002221
  1
ERSETZT D. ZCHNR.:
 41
0.7473544974
 72
0
100
AcDbText
  0
TEXT
  5
367
100
AcDbEntity
  8
606355349-000-00-ED1_FORMAT
100
AcDbText
 62
2
  6
CONTINUOUS
 10
379.498513208
 20
60.814916182
  7
STANDARD
 40
2.0000002777
  1
DATUM
 41
0.8523809524
 72
0
100
AcDbText
  0
TEXT
  5
368
100
AcDbEntity
  8
606355349-000-00-ED1_FORMAT
100
AcDbText
 62
2
  6
CONTINUOUS
 10
398.0389134502
 20
60.814916182
  7
STANDARD
 40
2.0000002777
  1
NAME
 41
0.8035714286
 72
0
100
AcDbText
  0
TEXT
  5
369
100
AcDbEntity
  8
606355349-000-00-ED1_FORMAT
100
AcDbText
 62
2
  6
CONTINUOUS
 10
366.6248819325
 20
54.9911796252
  7
STANDARD
 40
2.0000002777
  1
GEZ.
 41
0.7142857143
 72
0
100
AcDbText
  0
TEXT
  5
36A
100
AcDbEntity
  8
606355349-000-00-ED1_FORMAT
100
AcDbText
 62
2
  6
CONTINUOUS
 10
366.6248819325
 20
48.9031554343
  7
STANDARD
 40
2.0
  1
GEPR.
 41
0.7285714286
 72
0
100
AcDbText
  0
TEXT
  5
36B
100
AcDbEntity
  8
606355349-000-00-ED1_FORMAT
100
AcDbText
 62
2
  6
CONTINUOUS
 10
366.6248819325
 20
42.8151311047
  7
STANDARD
 40
2.0
  1
FREIG.
 41
0.7023809524
 72
0
100
AcDbText
  0
TEXT
  5
36C
100
AcDbEntity
  8
606355349-000-00-ED1_FORMAT
100
AcDbText
 62
2
  6
CONTINUOUS
 10
300.5448732723
 20
20.8921153842
  7
STANDARD
 40
2.5
  1
MATERIALNUMMER:
 41
0.7571428571
 72
0
100
AcDbText
  0
TEXT
  5
36D
100
AcDbEntity
  8
606355349-000-00-ED1_FORMAT
100
AcDbText
 62
2
  6
CONTINUOUS
 10
345.5006276188
 20
20.8921153842
  7
STANDARD
 40
2.5
  1
ZEICHNUNGSNUMMER:
 41
0.7549019608
 72
0
100
AcDbText
  0
TEXT
  5
36E
100
AcDbEntity
  8
606355349-000-00-ED1_FORMAT
100
AcDbText
 62
2
  6
CONTINUOUS
 10
400.7764463981
 20
32.1524019301
  7
STANDARD
 40
2.0
  1
ORIGIN
 41
0.7380952381
 72
0
100
AcDbText
  0
TEXT
  5
36F
100
AcDbEntity
  8
606355349-000-00-ED1_FORMAT
100
AcDbText
 62
2
  6
CONTINUOUS
 10
400.4059589228
 20
21.1649440759
  7
STANDARD
 40
2.5
  1
INDEX
 41
0.780952381
 72
0
100
AcDbText
  0
TEXT
  5
370
100
AcDbEntity
  8
606355349-000-00-ED1_FORMAT
100
AcDbText
 62
2
  6
CONTINUOUS
 10
366.825457919
 20
36.6922441013
  7
STANDARD
 40
2.0000002777
  1
MASSSTAB: 
 41
0.7714285714
 72
0
100
AcDbText
  0
TEXT
  5
371
100
AcDbEntity
  8
606355349-000-00-ED1_FORMAT
100
AcDbText
 62
2
  6
CONTINUOUS
 10
382.2540314895
 20
36.6922441013
  7
STANDARD
 40
2.0000002777
  1
1:1
 41
0.5
 72
0
100
AcDbText
  0
TEXT
  5
372
100
AcDbEntity
  8
606355349-000-00-ED1_FORMAT
100
AcDbText
 62
2
  6
CONTINUOUS
 10
148.8802806988
 20
67.4938922276
  7
STANDARD
 40
2.0000002777
  1
POS
 41
0.7857142857
 72
0
100
AcDbText
  0
TEXT
  5
373
100
AcDbEntity
  8
606355349-000-00-ED1_FORMAT
100
AcDbText
 62
2
  6
CONTINUOUS
 10
156.2800350516
 20
67.4938922276
  7
STANDARD
 40
2.0000002777
  1
TYP
 41
0.8333333333
 72
0
100
AcDbText
  0
TEXT
  5
374
100
AcDbEntity
  8
606355349-000-00-ED1_FORMAT
100
AcDbText
 62
2
  6
CONTINUOUS
 10
163.3396899162
 20
67.5421772957
  7
STANDARD
 40
2.0000002777
  1
MENGE
 41
0.7714285714
 72
0
100
AcDbText
  0
TEXT
  5
375
100
AcDbEntity
  8
606355349-000-00-ED1_FORMAT
100
AcDbText
 62
2
  6
CONTINUOUS
 10
172.6578100909
 20
67.5585023576
  7
STANDARD
 40
2.0000002777
  1
ME
 41
0.7857142857
 72
0
100
AcDbText
  0
TEXT
  5
376
100
AcDbEntity
  8
606355349-000-00-ED1_FORMAT
100
AcDbText
 62
2
  6
CONTINUOUS
 10
181.2151302056
 20
67.5585023576
  7
STANDARD
 40
2.0000002777
  1
MATERIALNUMMER
 41
0.7857142857
 72
0
100
AcDbText
  0
TEXT
  5
377
100
AcDbEntity
  8
606355349-000-00-ED1_FORMAT
100
AcDbText
 62
2
  6
CONTINUOUS
 10
257.4508902212
 20
67.6477439033
  7
STANDARD
 40
2.0000002777
  1
BENENNUNG
 41
0.7698412698
 72
0
100
AcDbText
  0
TEXT
  5
378
100
AcDbEntity
  8
606355349-000-00-ED1_FORMAT
100
AcDbText
 62
2
  6
CONTINUOUS
 10
321.8093099266
 20
67.455938924
  7
STANDARD
 40
2.0000002777
  1
TECHNISCHE SPEZIFIKATION
 41
0.7628968254
 72
0
100
AcDbText
  0
TEXT
  5
379
100
AcDbEntity
  8
606355349-000-00-ED1_FORMAT
100
AcDbText
 62
2
  6
CONTINUOUS
 10
378.8634420866
 20
67.8395488825
  7
STANDARD
 40
2.0000002777
  1
KUNDENNUMMER
 41
0.7956349206
 72
0
100
AcDbText
  0
TEXT
  5
37A
100
AcDbEntity
  8
606355349-000-00-ED1_FORMAT
100
AcDbText
 62
2
  6
CONTINUOUS
 10
378.2047936993
 20
10.9096736719
  7
STANDARD
 40
1.6
  1
BLATT   V.   BLAETTERN
 41
0.7781385281
 72
0
100
AcDbText
  0
TEXT
  5
37B
100
AcDbEntity
  8
606355349-000-00-ED1_FORMAT
100
AcDbText
 62
2
  6
CONTINUOUS
 10
385.137224502
 20
10.8641703019
  7
STANDARD
 40
1.6
  1
1
 41
0.5714285714
 72
0
100
AcDbText
  0
TEXT
  5
37C
100
AcDbEntity
  8
606355349-000-00-ED1_FORMAT
100
AcDbText
 62
2
  6
CONTINUOUS
 10
391.2747609807
 20
10.9140689725
  7
STANDARD
 40
1.6
  1
1
 41
0.5714285714
 72
0
100
AcDbText
  0
TEXT
  5
37D
100
AcDbEntity
  8
606355349-000-00-ED1_FORMAT
100
AcDbText
 62
2
  6
CONTINUOUS
 10
398.7751202552
 20
36.7556960436
  7
STANDARD
 40
2.0
  1
A3
 41
0.7857142857
 72
0
100
AcDbText
  0
TEXT
  5
37E
100
AcDbEntity
  8
606355349-000-00-ED1_FORMAT
100
AcDbText
 62
2
  6
CONTINUOUS
 10
23.9272382303
 20
282.7195210512
  7
STANDARD
 40
1.9999995576
  1
MASCH.-NR.:
 41
0.7186147186
 72
0
100
AcDbText
  0
TEXT
  5
37F
100
AcDbEntity
  8
606355349-000-00-ED1_FORMAT
100
AcDbText
 62
2
  6
CONTINUOUS
 10
61.221262923
 20
282.7441697896
  7
STANDARD
 40
1.9999995184
  1
STATION:
 41
0.7410714286
 72
0
100
AcDbText
  0
TEXT
  5
380
100
AcDbEntity
  8
606355349-000-00-ED1_FORMAT
100
AcDbText
 62
2
  6
CONTINUOUS
 10
99.2119750426
 20
282.7441697896
  7
STANDARD
 40
1.9999995184
  1
SPINDEL:
 41
0.7023809524
 72
0
100
AcDbText
  0
TEXT
  5
381
100
AcDbEntity
  8
606355349-000-00-ED1_FORMAT
100
AcDbText
 62
2
  6
CONTINUOUS
 10
23.5637846434
 20
277.4328879656
  7
STANDARD
 40
1.9999995576
  1
WERKST.-BEN.:
 41
0.7527472527
 72
0
100
AcDbText
  0
TEXT
  5
382
100
AcDbEntity
  8
606355349-000-00-ED1_FORMAT
100
AcDbText
 62
2
  6
CONTINUOUS
 10
23.7506774
 20
266.657832536
  7
STANDARD
 40
1.9999995184
  1
WERKSTOFF:
 41
0.7857142857
 72
0
100
AcDbText
  0
TEXT
  5
383
100
AcDbEntity
  8
606355349-000-00-ED1_FORMAT
100
AcDbText
 62
2
  6
CONTINUOUS
 10
99.2058269153
 20
260.6643446337
  7
STANDARD
 40
1.9999995184
  1
BOHRUNGS-NR.:
 41
0.7307692308
 72
0
100
AcDbText
  0
TEXT
  5
384
100
AcDbEntity
  8
606355349-000-00-ED1_FORMAT
100
AcDbText
 62
2
  6
CONTINUOUS
 10
23.8681648642
 20
272.062255871
  7
STANDARD
 40
1.9999995576
  1
WERKST.-NR.:
 41
0.755952381
 72
0
100
AcDbText
  0
TEXT
  5
385
100
AcDbEntity
  8
606355349-000-00-ED1_FORMAT
100
AcDbText
 62
2
  6
CONTINUOUS
 10
61.140009526
 20
260.6643443929
  7
STANDARD
 40
2.0
  1
OP-NR.:
 41
0.6836734694
 72
0
100
AcDbText
  0
TEXT
  5
386
100
AcDbEntity
  8
606355349-000-00-ED1_FORMAT
100
AcDbText
 62
2
  6
CONTINUOUS
 10
23.9309790234
 20
260.9091406462
  7
STANDARD
 40
2.0
  1
TOOL-NR.:
 41
0.6984126984
 72
0
100
AcDbText
  0
TEXT
  5
387
100
AcDbEntity
  8
606355349-000-00-ED1_FORMAT
100
AcDbText
 62
2
  6
CONTINUOUS
 10
326.44999432
 20
53.0000824065
  7
STANDARD
 40
2.5
  1
Präzisionswerkzeuge
 41
0.7147869674
 72
0
100
AcDbText
  0
TEXT
  5
388
100
AcDbEntity
  8
606355349-000-00-ED1_FORMAT
100
AcDbText
 62
2
  6
CONTINUOUS
 10
326.44999432
 20
48.4000824065
  7
STANDARD
 40
2.5
  1
Dr. Kress KG
 41
0.751984127
 72
0
100
AcDbText
  0
TEXT
  5
389
100
AcDbEntity
  8
606355349-000-00-ED1_FORMAT
100
AcDbText
 62
2
  6
CONTINUOUS
 10
326.44999432
 20
57.6000824065
  7
STANDARD
 40
2.5
  1
MAPAL
 41
0.8380952381
 72
0
100
AcDbText
  0
INSERT
  5
38A
100
AcDbEntity
  8
606355349-000-00-ED1_FORMAT
100
AcDbBlockReference
 62
3
  6
CONTINUOUS
  2
BARCODEBOX_BL0
 10
87.5
 20
46.5
  0
DIMENSION
  5
38B
100
AcDbEntity
  8
606355349-000-00-ED1_DIM
100
AcDbDimension
 62
3
  6
CONTINUOUS
  2
*D0
 10
123.3071766257
 20
132.7277288594
 11
132.4788273349
 21
127.1454186259
 70
164
 71
1
 42
5.0
  1
<>
  3
DIMSTYLE_1
100
AcDbRadialDimension
 15
119.8012633939
 25
136.292637331
  0
DIMENSION
  5
38C
100
AcDbEntity
  8
606355349-000-00-ED1_DIM
100
AcDbDimension
 62
3
  6
CONTINUOUS
  2
*D1
 10
276.5293674606
 20
169.7277288594
 11
280.1173050066
 21
178.7897918841
 70
162
 71
2
 42
0.0785398163
  3
DIMSTYLE_2
100
AcDb2LineAngularDimension
 13
276.4214833591
 23
166.9818951189
 14
260.150985477
 24
168.2624110731
 15
259.885784657
 25
169.7277288594
 16
275.00354248
 26
168.412642427
  0
DIMENSION
  5
38D
100
AcDbEntity
  8
30419210_DIM
100
AcDbDimension
 62
3
  6
CONTINUOUS
  2
*D2
 10
261.3571766257
 20
108.7277288594
 11
198.4804901313
 21
108.2902288594
 70
160
 71
3
 42
10.0
  1
<>\PVERSTELLWEG
  3
DIMSTYLE_3
100
AcDbAlignedDimension
 13
251.3571766257
 23
153.7546750544
 14
261.3571766257
 24
153.7091357987
100
AcDbRotatedDimension
  0
DIMENSION
  5
38E
100
AcDbEntity
  8
30350716_DIM
100
AcDbDimension
 62
3
  6
CONTINUOUS
  2
*D3
 10
237.3571766257
 20
198.7277288594
 11
213.5198037956
 21
201.3527288594
 70
160
 71
3
 42
6.0
  1
M<>(4x)
  3
DIMSTYLE_4
100
AcDbAlignedDimension
 13
231.3571766257
 23
169.5777288594
 14
237.3571766257
 24
169.5777288594
100
AcDbRotatedDimension
  0
DIMENSION
  5
38F
100
AcDbEntity
  8
30350716_DIM
100
AcDbDimension
 62
3
  6
CONTINUOUS
  2
*D4
 10
292.3571766257
 20
88.7277288594
 11
260.7321766257
 21
91.3527288594
 70
160
 71
2
 42
58.0
  3
DIMSTYLE_5
100
AcDbAlignedDimension
 13
234.3571766257
 23
135.6737839764
 14
292.3571766257
 24
141.4382901168
100
AcDbRotatedDimension
  0
DIMENSION
  5
390
100
AcDbEntity
  8
30350716_DIM
100
AcDbDimension
 62
3
  6
CONTINUOUS
  2
*D5
 10
292.3571766257
 20
98.7277288594
 11
269.4821766257
 21
101.3527288594
 70
160
 71
2
 42
41.0
  3
DIMSTYLE_5
100
AcDbAlignedDimension
 13
251.3571766257
 23
142.6521193511
 14
292.3571766257
 24
142.8536246418
100
AcDbRotatedDimension
  0
DIMENSION
  5
391
100
AcDbEntity
  8
30350716_DIM
100
AcDbDimension
 62
3
  6
CONTINUOUS
  2
*D6
 10
92.3571766257
 20
218.7277288594
 11
188.2321766257
 21
221.3527288594
 70
160
 71
2
 42
200.0
  3
DIMSTYLE_6
100
AcDbAlignedDimension
 13
292.3571766257
 23
164.6790457902
 14
92.3571766257
 24
185.0130093213
 50
180.0
100
AcDbRotatedDimension
  0
INSERT
  5
392
100
AcDbEntity
  8
606355349-000-00-ED1_CL
100
AcDbBlockReference
 62
3
  6
CONTINUOUS
  2
GEOM_TOLERANCE_SYMBOLS_BL1
 10
86.1071766257
 20
210.0744885109
  0
DIMENSION
  5
393
100
AcDbEntity
  8
30350716_DIM
100
AcDbDimension
 62
3
  6
CONTINUOUS
  2
*D7
 10
50.4571766257
 20
157.7277288594
 11
49.4564434842
 21
138.8036574326
 70
160
 71
3
 42
8.0
  1
M<>x1
  3
DIMSTYLE_3
100
AcDbAlignedDimension
 13
235.3250813314
 23
149.7277288594
 14
235.2154882269
 24
157.7277288594
 50
90.0
100
AcDbRotatedDimension
  0
DIMENSION
  5
394
100
AcDbEntity
  8
30350716_DIM
100
AcDbDimension
 62
3
  6
CONTINUOUS
  2
*D8
 10
307.3571766257
 20
158.7277288594
 11
306.8418565683
 21
125.0980772021
 70
160
 71
3
 42
10.0
  1
%%c<>
  3
DIMSTYLE_3
100
AcDbAlignedDimension
 13
290.3571300066
 23
148.7277288594
 14
290.3571110164
 24
158.7277288594
 50
90.0
100
AcDbRotatedDimension
  0
LEADER
  5
395
100
AcDbEntity
  8
606355349-000-00-ED1_CL
100
AcDbLeader
 62
3
  6
CONTINUOUS
  3
STANDARD
 71
1
 72
0
 73
2
 75
0
 76
3
 10
307.3571766257
 20
148.7277288594
 30
0.0
 10
307.3571766257
 20
118.7277288594
 30
0.0
 10
307.3572186677
 20
118.7277288594
 30
0.0
340
396
1001
ACAD
1000
DSTYLE
1002
{
1070
77
1070
0
1002
}
  0
INSERT
  5
396
102
{ACAD_REACTORS
330
395
102
}
100
AcDbEntity
  8
606355349-000-00-ED1_CL
100
AcDbBlockReference
 62
3
  6
CONTINUOUS
  2
GEOM_TOLERANCE_SYMBOLS_BL2
 10
327.8756360627
 20
118.7279899467
  0
TEXT
  5
397
100
AcDbEntity
  8
0
100
AcDbText
 62
2
  6
CONTINUOUS
 10
312.3571766257
 20
106.9777288594
  7
STANDARD
 40
3.5
  1
FUER SCHAEFTE MIT
 41
0.7759103641
 72
0
100
AcDbText
  0
TEXT
  5
398
100
AcDbEntity
  8
0
100
AcDbText
 62
2
  6
CONTINUOUS
 10
312.3571766257
 20
101.7277288594
  7
STANDARD
 40
3.5
  1
TOLERANZFELD h6
 41
0.7650793651
 72
0
100
AcDbText
  0
LEADER
  5
399
100
AcDbEntity
  8
0
100
AcDbLeader
 62
3
  6
CONTINUOUS
  3
STANDARD
 71
1
 72
0
 73
3
 75
0
 76
3
 10
307.3571766257
 20
148.7277288594
 30
0.0
 10
307.3571766257
 20
108.7277288594
 30
0.0
 10
312.3571766257
 20
108.7277288594
 30
0.0
1001
ACAD
1000
DSTYLE
1002
{
1070
77
1070
0
1002
}
  0
DIMENSION
  5
39A
100
AcDbEntity
  8
30350716_DIM
100
AcDbDimension
 62
3
  6
CONTINUOUS
  2
*D9
 10
241.532357681
 20
208.7277288594
 11
264.1322671534
 21
211.3527288594
 70
160
 71
2
 42
50.8248189447
  1
(<>)
  3
DIMSTYLE_7
100
AcDbAlignedDimension
 13
292.3571766257
 23
164.7503207181
 14
241.532357681
 24
169.7277288594
 50
180.0
100
AcDbRotatedDimension
  0
DIMENSION
  5
39B
100
AcDbEntity
  8
30350716_DIM
100
AcDbDimension
 62
3
  6
CONTINUOUS
  2
*D10
 10
327.3571766257
 20
169.7277288594
 11
325.8430257991
 21
151.5113621309
 70
160
 71
2
 42
32.0
  1
%%c<>
  3
DIMSTYLE_5
100
AcDbAlignedDimension
 13
241.5139149602
 23
137.7277288594
 14
241.5735458021
 24
169.7277288594
 50
90.0
100
AcDbRotatedDimension
  0
DIMENSION
  5
39C
100
AcDbEntity
  8
30350716_DIM
100
AcDbDimension
 62
3
  6
CONTINUOUS
  2
*D11
 10
317.3571766257
 20
165.7277288594
 11
315.8710304001
 21
151.4554873394
 70
160
 71
2
 42
24.0
  1
%%c<>
  3
DIMSTYLE_3
100
AcDbAlignedDimension
 13
292.3571766257
 23
141.7277288594
 14
292.3571766257
 24
165.7277288594
 50
90.0
100
AcDbRotatedDimension
  0
LINE
  5
39D
100
AcDbEntity
  8
606355349-000-00-ED1_FORMAT
100
AcDbLine
 62
3
  6
CONTINUOUS
 10
264.9
 20
287.0000007463
 11
410.0
 21
287.0000007463
  0
LINE
  5
39E
100
AcDbEntity
  8
606355349-000-00-ED1_FORMAT
100
AcDbLine
 62
3
  6
CONTINUOUS
 10
264.9
 20
287.0000007463
 11
264.9
 21
225.0000007463
  0
LINE
  5
39F
100
AcDbEntity
  8
606355349-000-00-ED1_FORMAT
100
AcDbLine
 62
3
  6
CONTINUOUS
 10
264.9
 20
225.0000007463
 11
410.0
 21
225.0000007463
  0
LINE
  5
3A0
100
AcDbEntity
  8
606355349-000-00-ED1_FORMAT
100
AcDbLine
 62
3
  6
CONTINUOUS
 10
410.0
 20
287.0000007463
 11
410.0
 21
225.0000007463
  0
LINE
  5
3A1
100
AcDbEntity
  8
606355349-000-00-ED1_FORMAT
100
AcDbLine
 62
3
  6
CONTINUOUS
 10
23.0
 20
10.0
 11
23.0
 21
210.0
  0
LINE
  5
3A2
100
AcDbEntity
  8
606355349-000-00-ED1_FORMAT
100
AcDbLine
 62
3
  6
CONTINUOUS
 10
23.0
 20
10.0
 11
29.0
 21
10.0
  0
LINE
  5
3A3
100
AcDbEntity
  8
606355349-000-00-ED1_FORMAT
100
AcDbLine
 62
3
  6
CONTINUOUS
 10
29.0
 20
10.0
 11
29.0
 21
210.0
  0
LINE
  5
3A4
100
AcDbEntity
  8
606355349-000-00-ED1_FORMAT
100
AcDbLine
 62
3
  6
CONTINUOUS
 10
23.0
 20
210.0
 11
29.0
 21
210.0
  0
LINE
  5
3A5
100
AcDbEntity
  8
606355349-000-00-ED1_FORMAT
100
AcDbLine
 62
3
  6
CONTINUOUS
 10
146.999991584
 20
65.00000176
 11
410.000001584
 21
65.00000176
  0
LINE
  5
3A6
100
AcDbEntity
  8
606355349-000-00-ED1_FORMAT
100
AcDbLine
 62
3
  6
CONTINUOUS
 10
146.999991584
 20
65.00000176
 11
146.999991584
 21
78.50000176
  0
LINE
  5
3A7
100
AcDbEntity
  8
606355349-000-00-ED1_FORMAT
100
AcDbLine
 62
3
  6
CONTINUOUS
 10
146.999991584
 20
72.50000176
 11
410.000001584
 21
72.50000176
  0
LINE
  5
3A8
100
AcDbEntity
  8
606355349-000-00-ED1_FORMAT
100
AcDbLine
 62
3
  6
CONTINUOUS
 10
146.999991584
 20
78.50000176
 11
410.000001584
 21
78.50000176
  0
LINE
  5
3A9
100
AcDbEntity
  8
606355349-000-00-ED1_FORMAT
100
AcDbLine
 62
3
  6
CONTINUOUS
 10
154.499991584
 20
65.00000176
 11
154.499991584
 21
78.50000176
  0
LINE
  5
3AA
100
AcDbEntity
  8
606355349-000-00-ED1_FORMAT
100
AcDbLine
 62
3
  6
CONTINUOUS
 10
161.999991584
 20
65.00000176
 11
161.999991584
 21
78.50000176
  0
LINE
  5
3AB
100
AcDbEntity
  8
606355349-000-00-ED1_FORMAT
100
AcDbLine
 62
3
  6
CONTINUOUS
 10
171.398801584
 20
65.00000176
 11
171.398801584
 21
78.50000176
  0
LINE
  5
3AC
100
AcDbEntity
  8
606355349-000-00-ED1_FORMAT
100
AcDbLine
 62
3
  6
CONTINUOUS
 10
176.398801584
 20
65.00000176
 11
176.398801584
 21
78.50000176
  0
LINE
  5
3AD
100
AcDbEntity
  8
606355349-000-00-ED1_FORMAT
100
AcDbLine
 62
3
  6
CONTINUOUS
 10
208.000001584
 20
65.00000176
 11
208.000001584
 21
78.50000176
  0
LINE
  5
3AE
100
AcDbEntity
  8
606355349-000-00-ED1_FORMAT
100
AcDbLine
 62
3
  6
CONTINUOUS
 10
314.000001584
 20
65.00000176
 11
314.000001584
 21
78.50000176
  0
LINE
  5
3AF
100
AcDbEntity
  8
606355349-000-00-ED1_FORMAT
100
AcDbLine
 62
3
  6
CONTINUOUS
 10
366.000001584
 20
65.00000176
 11
366.000001584
 21
78.50000176
  0
LINE
  5
3B0
100
AcDbEntity
  8
606355349-000-00-ED1_FORMAT
100
AcDbLine
 62
3
  6
CONTINUOUS
 10
410.000001584
 20
65.00000176
 11
410.000001584
 21
78.50000176
  0
TEXT
  5
3B1
100
AcDbEntity
  8
606355349-000-00-ED1_FORMAT
100
AcDbText
 62
2
  6
CONTINUOUS
 10
148.224991584
 20
74.25000176
  7
STANDARD
 40
2.0
  1
1
 41
0.5714285714
 72
0
100
AcDbText
  0
TEXT
  5
3B2
100
AcDbEntity
  8
606355349-000-00-ED1_FORMAT
100
AcDbText
 62
2
  6
CONTINUOUS
 10
163.224991584
 20
74.25000176
  7
STANDARD
 40
2.0
  1
1
 41
0.5714285714
 72
0
100
AcDbText
  0
TEXT
  5
3B3
100
AcDbEntity
  8
606355349-000-00-ED1_FORMAT
100
AcDbText
 62
2
  6
CONTINUOUS
 10
177.623801584
 20
74.25000176
  7
STANDARD
 40
2.0
  1
30252541
 41
0.7321428571
 72
0
100
AcDbText
  0
TEXT
  5
3B4
100
AcDbEntity
  8
606355349-000-00-ED1_FORMAT
100
AcDbText
 62
2
  6
CONTINUOUS
 10
209.225001584
 20
74.25000176
  7
STANDARD
 40
2.0
  1
ANSCHLAGSCHRAUBE
 41
0.7916666667
 72
0
100
AcDbText
  0
TEXT
  5
3B5
100
AcDbEntity
  8
606355349-000-00-ED1_FORMAT
100
AcDbText
 62
2
  6
CONTINUOUS
 10
315.225001584
 20
74.25000176
  7
STANDARD
 40
2.0
  1
M8X1 SW3
 41
0.8392857143
 72
0
100
AcDbText
  0
TEXT
  5
3B6
100
AcDbEntity
  8
606355349-000-00-ED1_FORMAT
100
AcDbText
 62
2
  6
CONTINUOUS
 10
406.5285730126
 20
76.72000176
  7
STANDARD
 40
0.03
  1
30252541_HP
 41
0.7467532468
 72
2
 11
406.775001584
 21
76.72000176
100
AcDbText
  0
TEXT
  5
3B7
100
AcDbEntity
  8
606355349-000-00-ED1_FORMAT
100
AcDbText
 62
2
  6
CONTINUOUS
 10
407.7257158697
 20
76.72000176
  7
STANDARD
 40
0.03
  1
KA
 41
0.8214285714
 72
2
 11
407.775001584
 21
76.72000176
100
AcDbText
  0
TEXT
  5
3B8
100
AcDbEntity
  8
606355349-000-00-ED1_FORMAT
100
AcDbText
 62
2
  6
CONTINUOUS
 10
408.7278587269
 20
76.72000176
  7
STANDARD
 40
0.03
  1
HP
 41
0.7857142857
 72
2
 11
408.775001584
 21
76.72000176
100
AcDbText
  0
LINE
  5
3B9
100
AcDbEntity
  8
606355349-000-00-ED1_FORMAT
100
AcDbLine
 62
3
  6
CONTINUOUS
 10
23.0
 20
287.0
 11
135.0
 21
287.0
  0
LINE
  5
3BA
100
AcDbEntity
  8
606355349-000-00-ED1_FORMAT
100
AcDbLine
 62
3
  6
CONTINUOUS
 10
23.0
 20
287.0
 11
23.0
 21
259.00001
  0
LINE
  5
3BB
100
AcDbEntity
  8
606355349-000-00-ED1_FORMAT
100
AcDbLine
 62
3
  6
CONTINUOUS
 10
23.0
 20
259.00001
 11
135.0
 21
259.00001
  0
LINE
  5
3BC
100
AcDbEntity
  8
606355349-000-00-ED1_FORMAT
100
AcDbLine
 62
3
  6
CONTINUOUS
 10
135.0
 20
287.0
 11
135.0
 21
259.00001
  0
LINE
  5
3BD
100
AcDbEntity
  8
606355349-000-00-ED1_FORMAT
100
AcDbLine
 62
3
  6
CONTINUOUS
 10
146.999991584
 20
65.00000176
 11
409.999961584
 21
65.00000176
  0
LINE
  5
3BE
100
AcDbEntity
  8
606355349-000-00-ED1_FORMAT
100
AcDbLine
 62
3
  6
CONTINUOUS
 10
146.999991584
 20
65.00000176
 11
146.999991584
 21
10.00000176
  0
LINE
  5
3BF
100
AcDbEntity
  8
606355349-000-00-ED1_FORMAT
100
AcDbLine
 62
3
  6
CONTINUOUS
 10
146.999991584
 20
10.00000176
 11
409.999961584
 21
10.00000176
  0
LINE
  5
3C0
100
AcDbEntity
  8
606355349-000-00-ED1_FORMAT
100
AcDbLine
 62
3
  6
CONTINUOUS
 10
409.999961584
 20
65.00000176
 11
409.999961584
 21
10.00000176
  0
TEXT
  5
3C1
100
AcDbEntity
  8
606355349-000-00-ED1_FORMAT
100
AcDbText
 62
2
  6
CONTINUOUS
 10
184.5178487269
 20
60.75000176
  7
STANDARD
 40
2.5
  1
 
 41
0.7857142857
 72
1
 11
185.499991584
 21
60.75000176
100
AcDbText
  0
TEXT
  5
3C2
100
AcDbEntity
  8
606355349-000-00-ED1_FORMAT
100
AcDbText
 62
2
  6
CONTINUOUS
 10
154.130943965
 20
58.24975176
  7
STANDARD
 40
2.5
  1
AUSWUCHTGUETE DIN ISO 1940-G 
 41
0.7939244663
 72
1
 11
182.9107058697
 21
58.24975176
100
AcDbText
  0
TEXT
  5
3C3
100
AcDbEntity
  8
606355349-000-00-ED1_FORMAT
100
AcDbText
 62
2
  6
CONTINUOUS
 10
211.6904677745
 20
58.24975176
  7
STANDARD
 40
2.5
  1
2.5
 41
0.6904761905
 72
1
 11
214.2797534888
 21
58.24975176
100
AcDbText
  0
TEXT
  5
3C4
100
AcDbEntity
  8
606355349-000-00-ED1_FORMAT
100
AcDbText
 62
2
  6
CONTINUOUS
 10
184.5178487269
 20
56.57968176
  7
STANDARD
 40
2.5
  1
 
 41
0.7857142857
 72
1
 11
185.499991584
 21
56.57968176
100
AcDbText
  0
TEXT
  5
3C5
100
AcDbEntity
  8
606355349-000-00-ED1_FORMAT
100
AcDbText
 62
2
  6
CONTINUOUS
 10
167.7321344411
 20
52.82968176
  7
STANDARD
 40
2.5
  1
(KOMPLETT MONTIERT)
 41
0.7481203008
 72
1
 11
185.499991584
 21
52.82968176
100
AcDbText
  0
TEXT
  5
3C6
100
AcDbEntity
  8
606355349-000-00-ED1_FORMAT
100
AcDbText
 62
2
  6
CONTINUOUS
 10
378.122491584
 20
54.95468176
  7
STANDARD
 40
2.0
  1
01.10.14
 41
0.6517857143
 72
0
100
AcDbText
  0
TEXT
  5
3C7
100
AcDbEntity
  8
606355349-000-00-ED1_FORMAT
100
AcDbText
 62
2
  6
CONTINUOUS
 10
398.5201551554
 20
54.95468176
  7
STANDARD
 40
2.0
  1
MUS
 41
0.8095238095
 72
1
 11
400.948726584
 21
54.95468176
100
AcDbText
  0
TEXT
  5
3C8
100
AcDbEntity
  8
606355349-000-00-ED1_FORMAT
100
AcDbText
 62
2
  6
CONTINUOUS
 10
157.8511820602
 20
46.82968176
  7
STANDARD
 40
2.5
  1
FUER NENNDREHZAHL 
 41
0.7724867725
 72
1
 11
175.2321344411
 21
46.82968176
100
AcDbText
  0
TEXT
  5
3C9
100
AcDbEntity
  8
606355349-000-00-ED1_FORMAT
100
AcDbText
 62
2
  6
CONTINUOUS
 10
192.6130868221
 20
46.82968176
  7
STANDARD
 40
2.5
  1
25000
 41
0.7714285714
 72
1
 11
197.4345153935
 21
46.82968176
100
AcDbText
  0
TEXT
  5
3CA
100
AcDbEntity
  8
606355349-000-00-ED1_FORMAT
100
AcDbText
 62
2
  6
CONTINUOUS
 10
202.255943965
 20
46.82968176
  7
STANDARD
 40
2.5
  1
 MIN
 41
0.7678571429
 72
1
 11
206.0952296792
 21
46.82968176
100
AcDbText
  0
TEXT
  5
3CB
100
AcDbEntity
  8
606355349-000-00-ED1_FORMAT
100
AcDbText
 62
2
  6
CONTINUOUS
 10
209.9345153935
 20
48.70468176
  7
STANDARD
 40
2.5
  1
-1
 41
0.6428571429
 72
1
 11
211.5416582507
 21
48.70468176
100
AcDbText
  0
TEXT
  5
3CC
100
AcDbEntity
  8
606355349-000-00-ED1_FORMAT
100
AcDbText
 62
7
  6
CONTINUOUS
 10
225.224991584
 20
26.00000176
  7
STANDARD
 40
2.5
  1
SCHRUMPFFUTTER, HSK, STANDARDAUSFUEHRUNG
 41
0.7857142857
 72
0
100
AcDbText
  0
TEXT
  5
3CD
100
AcDbEntity
  8
606355349-000-00-ED1_FORMAT
100
AcDbText
 62
2
  6
CONTINUOUS
 10
402.5951996792
 20
26.00000176
  7
STANDARD
 40
2.0
  1
EHD
 41
0.8015873016
 72
1
 11
404.999961584
 21
26.00000176
100
AcDbText
  0
TEXT
  5
3CE
100
AcDbEntity
  8
606355349-000-00-ED1_FORMAT
100
AcDbText
 62
7
  6
CONTINUOUS
 10
225.224991584
 20
15.25000176
  7
STANDARD
 40
2.5
  1
MTC-HSK-A063-10-200-1-0-A
 41
0.759047619
 72
0
100
AcDbText
  0
TEXT
  5
3CF
100
AcDbEntity
  8
606355349-000-00-ED1_FORMAT
100
AcDbText
 62
7
  6
CONTINUOUS
 10
301.224991584
 20
15.25000176
  7
STANDARD
 40
2.5
  1
30529032
 41
0.7589285714
 72
0
100
AcDbText
  0
TEXT
  5
3D0
100
AcDbEntity
  8
606355349-000-00-ED1_FORMAT
100
AcDbText
 62
7
  6
CONTINUOUS
 10
346.224991584
 20
15.25000176
  7
STANDARD
 40
2.5
  1
606355349-000-00-ED1
 41
0.7523809524
 72
0
100
AcDbText
  0
TEXT
  5
3D1
100
AcDbEntity
  8
606355349-000-00-ED1_FORMAT
100
AcDbText
 62
2
  6
CONTINUOUS
 10
403.0356758697
 20
15.25000176
  7
STANDARD
 40
2.5
  1
00
 41
0.7857142857
 72
1
 11
404.999961584
 21
15.25000176
100
AcDbText
  0
LINE
  5
3D2
100
AcDbEntity
  8
606355349-000-00-ED1_FORMAT
100
AcDbLine
 62
3
  6
CONTINUOUS
 10
29.0
 20
10.0
 11
29.0
 21
145.0
  0
LINE
  5
3D3
100
AcDbEntity
  8
606355349-000-00-ED1_FORMAT
100
AcDbLine
 62
3
  6
CONTINUOUS
 10
29.0
 20
10.0
 11
35.0
 21
10.0
  0
LINE
  5
3D4
100
AcDbEntity
  8
606355349-000-00-ED1_FORMAT
100
AcDbLine
 62
3
  6
CONTINUOUS
 10
35.0
 20
10.0
 11
35.0
 21
145.0
  0
LINE
  5
3D5
100
AcDbEntity
  8
606355349-000-00-ED1_FORMAT
100
AcDbLine
 62
3
  6
CONTINUOUS
 10
29.0
 20
80.0
 11
35.0
 21
80.0
  0
LINE
  5
3D6
100
AcDbEntity
  8
606355349-000-00-ED1_FORMAT
100
AcDbLine
 62
3
  6
CONTINUOUS
 10
29.0
 20
145.0
 11
35.0
 21
145.0
  0
TEXT
  5
3D7
100
AcDbEntity
  8
606355349-000-00-ED1_FORMAT
100
AcDbText
 62
2
  6
CONTINUOUS
 10
34.0
 20
11.225
  7
STANDARD
 40
3.0
  1
AEHNLICH:
 50
90.0
 41
0.7116402116
 72
0
100
AcDbText
  0
TEXT
  5
3D8
100
AcDbEntity
  8
606355349-000-00-ED1_FORMAT
100
AcDbText
 62
2
  6
CONTINUOUS
 10
34.0
 20
81.225
  7
STANDARD
 40
3.0
  1
SKIZZE:
 50
90.0
 41
0.693877551
 72
0
100
AcDbText
  0
LINE
  5
3D9
100
AcDbEntity
  8
606355349-000-00-ED1_FORMAT
100
AcDbLine
 62
3
  6
CONTINUOUS
 10
365.999998592
 20
35.0000008
 11
294.999998592
 21
35.0000008
  0
LINE
  5
3DA
100
AcDbEntity
  8
606355349-000-00-ED1_FORMAT
100
AcDbLine
 62
3
  6
CONTINUOUS
 10
365.999998592
 20
35.0000008
 11
365.999998592
 21
43.5000008
  0
LINE
  5
3DB
100
AcDbEntity
  8
606355349-000-00-ED1_FORMAT
100
AcDbLine
 62
3
  6
CONTINUOUS
 10
365.999998592
 20
43.5000008
 11
294.999998592
 21
43.5000008
  0
LINE
  5
3DC
100
AcDbEntity
  8
606355349-000-00-ED1_FORMAT
100
AcDbLine
 62
3
  6
CONTINUOUS
 10
294.999998592
 20
35.0000008
 11
294.999998592
 21
43.5000008
  0
TEXT
  5
3DD
100
AcDbEntity
  8
606355349-000-00-ED1_FORMAT
100
AcDbText
 62
2
  6
CONTINUOUS
 10
304.9642843063
 20
38.0000008
  7
STANDARD
 40
2.5
  1
PATENTRECHTLICH GESCHUETZT
 41
0.7857142857
 72
1
 11
330.499998592
 21
38.0000008
100
AcDbText
  0
INSERT
  5
3DE
100
AcDbEntity
  8
606355349-000-00-ED1_CL
100
AcDbBlockReference
 62
3
  6
CONTINUOUS
  2
GEOM_TOLERANCE_SYMBOLS_BL3
 10
70.5683316493
 20
183.271435155
  0
INSERT
  5
3DF
100
AcDbEntity
  8
606355349-000-00-ED1_CL
100
AcDbBlockReference
 62
3
  6
CONTINUOUS
  2
NOTE_HSK_BL4
 10
204.5676914736
 20
253.0774508765
  0
LEADER
  5
3E0
100
AcDbEntity
  8
606355349-000-00-ED1_CL
100
AcDbLeader
 62
3
  6
CONTINUOUS
  3
STANDARD
 71
1
 72
0
 73
2
 75
0
 76
2
 10
243.5801411606
 20
152.2277288594
 30
0.0
 10
256.0122435003
 20
183.0474562737
 30
0.0
340
3E1
1001
ACAD
1000
DSTYLE
1002
{
1070
77
1070
0
1070
341
1005
21A
1002
}
  0
INSERT
  5
3E1
102
{ACAD_REACTORS
330
3E0
102
}
100
AcDbEntity
  8
606355349-000-00-ED1_CL
100
AcDbBlockReference
 62
3
  6
CONTINUOUS
  2
BOMBALLOON_BL5
 10
258.3035593563
 20
188.7277288594
  0
LINE
  5
3E2
100
AcDbEntity
  8
606355349-000-00-ED1_FORMAT
100
AcDbLine
 62
6
  6
HIDDEN
 10
0.0
 20
297.0
 11
0.0
 21
0.0
  0
LINE
  5
3E3
100
AcDbEntity
  8
606355349-000-00-ED1_FORMAT
100
AcDbLine
 62
7
  6
CONTINUOUS
 10
18.0
 20
292.0
 11
18.0
 21
5.0
  0
LINE
  5
3E4
100
AcDbEntity
  8
606355349-000-00-ED1_FORMAT
100
AcDbLine
 62
3
  6
CONTINUOUS
 10
23.0
 20
259.0000097341
 11
23.0
 21
10.0
  0
LINE
  5
3E5
100
AcDbEntity
  8
606355349-000-00-ED1_FORMAT
100
AcDbLine
 62
7
  6
CONTINUOUS
 10
23.0
 20
259.0000097341
 11
23.0
 21
287.0
  0
LINE
  5
3E6
100
AcDbEntity
  8
606355349-000-00-ED1_FORMAT
100
AcDbLine
 62
3
  6
CONTINUOUS
 10
28.9999998068
 20
9.9999999122
 11
28.9999998068
 21
209.9999964
  0
LINE
  5
3E7
100
AcDbEntity
  8
606355349-000-00-ED1_FORMAT
100
AcDbLine
 62
3
  6
CONTINUOUS
 10
60.0
 20
10.0
 11
60.0
 21
5.0
  0
LINE
  5
3E8
100
AcDbEntity
  8
606355349-000-00-ED1_FORMAT
100
AcDbLine
 62
3
  6
CONTINUOUS
 10
60.0
 20
287.0
 11
60.0
 21
292.0
  0
LINE
  5
3E9
100
AcDbEntity
  8
606355349-000-00-ED1_FORMAT
100
AcDbLine
 62
7
  6
CONTINUOUS
 10
60.4999978194
 20
259.0000097341
 11
60.4999978194
 21
265.0000076482
  0
LINE
  5
3EA
100
AcDbEntity
  8
606355349-000-00-ED1_FORMAT
100
AcDbLine
 62
7
  6
CONTINUOUS
 10
60.500027184
 20
281.0047710842
 11
60.500027184
 21
287.0
  0
LINE
  5
3EB
100
AcDbEntity
  8
606355349-000-00-ED1_FORMAT
100
AcDbLine
 62
6
  6
HIDDEN
 10
0.0
 20
0.0
 11
420.0
 21
0.0
  0
LINE
  5
3EC
100
AcDbEntity
  8
606355349-000-00-ED1_FORMAT
100
AcDbLine
 62
7
  6
CONTINUOUS
 10
18.0
 20
5.0
 11
415.0
 21
5.0
  0
LINE
  5
3ED
100
AcDbEntity
  8
606355349-000-00-ED1_FORMAT
100
AcDbLine
 62
3
  6
CONTINUOUS
 10
23.0
 20
10.0
 11
146.999991584
 21
10.0
  0
LINE
  5
3EE
100
AcDbEntity
  8
606355349-000-00-ED1_FORMAT
100
AcDbLine
 62
7
  6
CONTINUOUS
 10
146.999991584
 20
10.0
 11
410.0
 21
10.0
  0
LINE
  5
3EF
100
AcDbEntity
  8
606355349-000-00-ED1_FORMAT
100
AcDbLine
 62
7
  6
CONTINUOUS
 10
410.0
 20
13.500000112
 11
223.999992048
 21
13.500000112
  0
LINE
  5
3F0
100
AcDbEntity
  8
606355349-000-00-ED1_FORMAT
100
AcDbLine
 62
2
  6
CONTINUOUS
 10
308.1737564759
 20
52.0267386374
 11
309.1516114228
 21
52.2473767493
  0
LINE
  5
3F1
100
AcDbEntity
  8
606355349-000-00-ED1_FORMAT
100
AcDbLine
 62
7
  6
CONTINUOUS
 10
410.0
 20
24.250000456
 11
223.999992048
 21
24.250000456
  0
LINE
  5
3F2
100
AcDbEntity
  8
606355349-000-00-ED1_FORMAT
100
AcDbLine
 62
7
  6
CONTINUOUS
 10
98.4999894133
 20
259.0000097341
 11
98.4999894133
 21
265.0000076482
  0
LINE
  5
3F3
100
AcDbEntity
  8
606355349-000-00-ED1_FORMAT
100
AcDbLine
 62
7
  6
CONTINUOUS
 10
98.5000134045
 20
281.0047710842
 11
98.5000134045
 21
287.0
  0
LINE
  5
3F4
100
AcDbEntity
  8
606355349-000-00-ED1_FORMAT
100
AcDbLine
 62
2
  6
CONTINUOUS
 10
316.811390075
 20
56.3655426444
 11
315.6581835473
 21
56.1055812919
  0
LINE
  5
3F5
100
AcDbEntity
  8
606355349-000-00-ED1_FORMAT
100
AcDbLine
 62
2
  6
CONTINUOUS
 10
313.8970140824
 20
54.0619609694
 11
313.770971016
 21
54.0347884704
  0
LINE
  5
3F6
100
AcDbEntity
  8
606355349-000-00-ED1_FORMAT
100
AcDbLine
 62
2
  6
CONTINUOUS
 10
314.0150648347
 20
53.2748724898
 11
314.125727646
 21
53.2985664359
  0
LINE
  5
3F7
100
AcDbEntity
  8
606355349-000-00-ED1_FORMAT
100
AcDbLine
 62
2
  6
CONTINUOUS
 10
309.4726377778
 20
52.3088992873
 11
309.7481381608
 21
52.3575829001
  0
LINE
  5
3F8
100
AcDbEntity
  8
606355349-000-00-ED1_FORMAT
100
AcDbLine
 62
2
  6
CONTINUOUS
 10
309.7481381608
 20
52.3575829001
 11
310.0106653611
 21
52.3954383742
  0
LINE
  5
3F9
100
AcDbEntity
  8
606355349-000-00-ED1_FORMAT
100
AcDbLine
 62
2
  6
CONTINUOUS
 10
310.0106653611
 20
52.3954383742
 11
310.2676594209
 21
52.4242614386
  0
LINE
  5
3FA
100
AcDbEntity
  8
606355349-000-00-ED1_FORMAT
100
AcDbLine
 62
2
  6
CONTINUOUS
 10
313.7760873475
 20
53.2488129126
 11
314.0150648347
 21
53.2748724898
  0
LINE
  5
3FB
100
AcDbEntity
  8
606355349-000-00-ED1_FORMAT
100
AcDbLine
 62
2
  6
CONTINUOUS
 10
310.2676594209
 20
52.4242614386
 11
310.5265291215
 21
52.4458639518
  0
LINE
  5
3FC
100
AcDbEntity
  8
606355349-000-00-ED1_FORMAT
100
AcDbLine
 62
2
  6
CONTINUOUS
 10
313.770971016
 20
54.0347884704
 11
313.62612986
 21
54.0232237601
  0
LINE
  5
3FD
100
AcDbEntity
  8
606355349-000-00-ED1_FORMAT
100
AcDbLine
 62
2
  6
CONTINUOUS
 10
310.6816029405
 20
53.1572307303
 11
311.3784660447
 21
53.2094789191
  0
LINE
  5
3FE
100
AcDbEntity
  8
606355349-000-00-ED1_FORMAT
100
AcDbLine
 62
2
  6
CONTINUOUS
 10
311.5221922364
 20
52.5294029883
 11
311.8167824754
 21
52.5503549529
  0
LINE
  5
3FF
100
AcDbEntity
  8
606355349-000-00-ED1_FORMAT
100
AcDbLine
 62
7
  6
CONTINUOUS
 10
223.999992048
 20
35.0000008
 11
410.0
 21
35.0000008
  0
LINE
  5
400
100
AcDbEntity
  8
606355349-000-00-ED1_FORMAT
100
AcDbLine
 62
7
  6
CONTINUOUS
 10
410.0
 20
40.9546819905
 11
365.999998592
 21
40.9546819905
  0
LINE
  5
401
100
AcDbEntity
  8
606355349-000-00-ED1_FORMAT
100
AcDbLine
 62
7
  6
CONTINUOUS
 10
365.999998592
 20
43.500001072
 11
146.999991584
 21
43.500001072
  0
LINE
  5
402
100
AcDbEntity
  8
606355349-000-00-ED1_FORMAT
100
AcDbLine
 62
7
  6
CONTINUOUS
 10
410.0
 20
46.9546821825
 11
365.999998592
 21
46.9546821825
  0
LINE
  5
403
100
AcDbEntity
  8
606355349-000-00-ED1_FORMAT
100
AcDbLine
 62
3
  6
CONTINUOUS
 10
110.0
 20
10.0
 11
110.0
 21
5.0
  0
LINE
  5
404
100
AcDbEntity
  8
606355349-000-00-ED1_FORMAT
100
AcDbLine
 62
3
  6
CONTINUOUS
 10
110.0
 20
287.0
 11
110.0
 21
292.0
  0
LINE
  5
405
100
AcDbEntity
  8
606355349-000-00-ED1_FORMAT
100
AcDbLine
 62
2
  6
CONTINUOUS
 10
311.2880080537
 20
53.9326200889
 11
310.7557428559
 21
53.9038776709
  0
LINE
  5
406
100
AcDbEntity
  8
606355349-000-00-ED1_FORMAT
100
AcDbLine
 62
2
  6
CONTINUOUS
 10
313.0830380463
 20
55.9298901709
 11
312.7687535783
 21
55.9176103949
  0
LINE
  5
407
100
AcDbEntity
  8
606355349-000-00-ED1_FORMAT
100
AcDbLine
 62
2
  6
CONTINUOUS
 10
311.8167824754
 20
52.5503549529
 11
311.9618945573
 21
52.5553174018
  0
LINE
  5
408
100
AcDbEntity
  8
606355349-000-00-ED1_FORMAT
100
AcDbLine
 62
2
  6
CONTINUOUS
 10
313.6478560334
 20
53.2465010459
 11
313.7760873475
 21
53.2488129126
  0
LINE
  5
409
100
AcDbEntity
  8
606355349-000-00-ED1_FORMAT
100
AcDbLine
 62
2
  6
CONTINUOUS
 10
311.9618945573
 20
52.5553174018
 11
312.2501805589
 21
52.5601884513
  0
LINE
  5
40A
100
AcDbEntity
  8
606355349-000-00-ED1_FORMAT
100
AcDbLine
 62
2
  6
CONTINUOUS
 10
311.9618945573
 20
52.5553174018
 11
312.3943235597
 21
52.5618121345
  0
LINE
  5
40B
100
AcDbEntity
  8
606355349-000-00-ED1_FORMAT
100
AcDbLine
 62
2
  6
CONTINUOUS
 10
312.2501805589
 20
52.5601884513
 11
312.3943235597
 21
52.5618121345
  0
LINE
  5
40C
100
AcDbEntity
  8
606355349-000-00-ED1_FORMAT
100
AcDbLine
 62
2
  6
CONTINUOUS
 10
313.8726828523
 20
55.9364870559
 11
313.0830380463
 21
55.9298901709
  0
LINE
  5
40D
100
AcDbEntity
  8
606355349-000-00-ED1_FORMAT
100
AcDbLine
 62
3
  6
CONTINUOUS
 10
23.0
 20
48.5
 11
18.0
 21
48.5
  0
LINE
  5
40E
100
AcDbEntity
  8
606355349-000-00-ED1_FORMAT
100
AcDbLine
 62
3
  6
CONTINUOUS
 10
410.0
 20
48.5
 11
415.0
 21
48.5
  0
LINE
  5
40F
100
AcDbEntity
  8
606355349-000-00-ED1_FORMAT
100
AcDbLine
 62
2
  6
CONTINUOUS
 10
312.5957904147
 20
49.4612169223
 11
312.6308094674
 21
49.4612169223
  0
LINE
  5
410
100
AcDbEntity
  8
606355349-000-00-ED1_FORMAT
100
AcDbLine
 62
2
  6
CONTINUOUS
 10
312.3970603564
 20
49.5612169223
 11
312.8368994729
 21
49.5612169223
  0
LINE
  5
411
100
AcDbEntity
  8
606355349-000-00-ED1_FORMAT
100
AcDbLine
 62
2
  6
CONTINUOUS
 10
312.1983302981
 20
49.6612169223
 11
313.0429894784
 21
49.6612169223
  0
LINE
  5
412
100
AcDbEntity
  8
606355349-000-00-ED1_FORMAT
100
AcDbLine
 62
2
  6
CONTINUOUS
 10
311.9996002398
 20
49.7612169223
 11
313.249079484
 21
49.7612169223
  0
LINE
  5
413
100
AcDbEntity
  8
606355349-000-00-ED1_FORMAT
100
AcDbLine
 62
2
  6
CONTINUOUS
 10
311.8008701816
 20
49.8612169223
 11
313.4551694895
 21
49.8612169223
  0
LINE
  5
414
100
AcDbEntity
  8
606355349-000-00-ED1_FORMAT
100
AcDbLine
 62
2
  6
CONTINUOUS
 10
311.6021401233
 20
49.9612169223
 11
313.661259495
 21
49.9612169223
  0
LINE
  5
415
100
AcDbEntity
  8
606355349-000-00-ED1_FORMAT
100
AcDbLine
 62
2
  6
CONTINUOUS
 10
311.403410065
 20
50.0612169223
 11
313.8673495005
 21
50.0612169223
  0
LINE
  5
416
100
AcDbEntity
  8
606355349-000-00-ED1_FORMAT
100
AcDbLine
 62
2
  6
CONTINUOUS
 10
311.2046800067
 20
50.1612169223
 11
314.073439506
 21
50.1612169223
  0
LINE
  5
417
100
AcDbEntity
  8
606355349-000-00-ED1_FORMAT
100
AcDbLine
 62
2
  6
CONTINUOUS
 10
311.0059499484
 20
50.2612169223
 11
314.2795295116
 21
50.2612169223
  0
LINE
  5
418
100
AcDbEntity
  8
606355349-000-00-ED1_FORMAT
100
AcDbLine
 62
2
  6
CONTINUOUS
 10
310.8072198901
 20
50.3612169223
 11
314.4856195171
 21
50.3612169223
  0
LINE
  5
419
100
AcDbEntity
  8
606355349-000-00-ED1_FORMAT
100
AcDbLine
 62
2
  6
CONTINUOUS
 10
310.6084898318
 20
50.4612169223
 11
314.6917095226
 21
50.4612169223
  0
LINE
  5
41A
100
AcDbEntity
  8
606355349-000-00-ED1_FORMAT
100
AcDbLine
 62
2
  6
CONTINUOUS
 10
310.4097597735
 20
50.5612169223
 11
314.8977995281
 21
50.5612169223
  0
LINE
  5
41B
100
AcDbEntity
  8
606355349-000-00-ED1_FORMAT
100
AcDbLine
 62
2
  6
CONTINUOUS
 10
320.1049530975
 20
50.5612169223
 11
320.2033331149
 21
50.5612169223
  0
LINE
  5
41C
100
AcDbEntity
  8
606355349-000-00-ED1_FORMAT
100
AcDbLine
 62
2
  6
CONTINUOUS
 10
310.2110297152
 20
50.6612169223
 11
315.1038895337
 21
50.6612169223
  0
LINE
  5
41D
100
AcDbEntity
  8
606355349-000-00-ED1_FORMAT
100
AcDbLine
 62
2
  6
CONTINUOUS
 10
319.9145646092
 20
50.6612169223
 11
320.3313136725
 21
50.6612169223
  0
LINE
  5
41E
100
AcDbEntity
  8
606355349-000-00-ED1_FORMAT
100
AcDbLine
 62
2
  6
CONTINUOUS
 10
305.3807768328
 20
50.7612169223
 11
305.5908168656
 21
50.7612169223
  0
LINE
  5
41F
100
AcDbEntity
  8
606355349-000-00-ED1_FORMAT
100
AcDbLine
 62
2
  6
CONTINUOUS
 10
310.012299657
 20
50.7612169223
 11
315.3099795392
 21
50.7612169223
  0
LINE
  5
420
100
AcDbEntity
  8
606355349-000-00-ED1_FORMAT
100
AcDbLine
 62
2
  6
CONTINUOUS
 10
319.724176121
 20
50.7612169223
 11
320.119060279
 21
50.7612169223
  0
LINE
  5
421
100
AcDbEntity
  8
606355349-000-00-ED1_FORMAT
100
AcDbLine
 62
2
  6
CONTINUOUS
 10
320.1383810082
 20
50.7612169223
 11
320.4592942301
 21
50.7612169223
  0
LINE
  5
422
100
AcDbEntity
  8
606355349-000-00-ED1_FORMAT
100
AcDbLine
 62
2
  6
CONTINUOUS
 10
305.1884579939
 20
50.8612169223
 11
305.7636453527
 21
50.8612169223
  0
LINE
  5
423
100
AcDbEntity
  8
606355349-000-00-ED1_FORMAT
100
AcDbLine
 62
2
  6
CONTINUOUS
 10
309.8135695987
 20
50.8612169223
 11
315.5160695447
 21
50.8612169223
  0
LINE
  5
424
100
AcDbEntity
  8
606355349-000-00-ED1_FORMAT
100
AcDbLine
 62
2
  6
CONTINUOUS
 10
319.5337876327
 20
50.8612169223
 11
319.9269830626
 21
50.8612169223
  0
LINE
  5
425
100
AcDbEntity
  8
606355349-000-00-ED1_FORMAT
100
AcDbLine
 62
2
  6
CONTINUOUS
 10
320.1383810082
 20
50.8612169223
 11
320.5409560601
 21
50.8612169223
  0
LINE
  5
426
100
AcDbEntity
  8
606355349-000-00-ED1_FORMAT
100
AcDbLine
 62
2
  6
CONTINUOUS
 10
305.0850031937
 20
50.9612169223
 11
305.4976754456
 21
50.9612169223
  0
LINE
  5
427
100
AcDbEntity
  8
606355349-000-00-ED1_FORMAT
100
AcDbLine
 62
2
  6
CONTINUOUS
 10
305.5651294594
 20
50.9612169223
 11
305.9364738399
 21
50.9612169223
  0
LINE
  5
428
100
AcDbEntity
  8
606355349-000-00-ED1_FORMAT
100
AcDbLine
 62
2
  6
CONTINUOUS
 10
309.6148395404
 20
50.9612169223
 11
315.7221595502
 21
50.9612169223
  0
LINE
  5
429
100
AcDbEntity
  8
606355349-000-00-ED1_FORMAT
100
AcDbLine
 62
2
  6
CONTINUOUS
 10
319.3433991445
 20
50.9612169223
 11
319.7349058461
 21
50.9612169223
  0
LINE
  5
42A
100
AcDbEntity
  8
606355349-000-00-ED1_FORMAT
100
AcDbLine
 62
2
  6
CONTINUOUS
 10
320.1383810082
 20
50.9612169223
 11
320.5409560601
 21
50.9612169223
  0
LINE
  5
42B
100
AcDbEntity
  8
606355349-000-00-ED1_FORMAT
100
AcDbLine
 62
2
  6
CONTINUOUS
 10
305.0850031937
 20
51.0612169223
 11
305.4976754456
 21
51.0612169223
  0
LINE
  5
42C
100
AcDbEntity
  8
606355349-000-00-ED1_FORMAT
100
AcDbLine
 62
2
  6
CONTINUOUS
 10
305.7425043521
 20
51.0612169223
 11
306.109302327
 21
51.0612169223
  0
LINE
  5
42D
100
AcDbEntity
  8
606355349-000-00-ED1_FORMAT
100
AcDbLine
 62
2
  6
CONTINUOUS
 10
309.4161094821
 20
51.0612169223
 11
315.9282495557
 21
51.0612169223
  0
LINE
  5
42E
100
AcDbEntity
  8
606355349-000-00-ED1_FORMAT
100
AcDbLine
 62
2
  6
CONTINUOUS
 10
319.1530106562
 20
51.0612169223
 11
319.5428286297
 21
51.0612169223
  0
LINE
  5
42F
100
AcDbEntity
  8
606355349-000-00-ED1_FORMAT
100
AcDbLine
 62
2
  6
CONTINUOUS
 10
320.1383810082
 20
51.0612169223
 11
320.5409560601
 21
51.0612169223
  0
LINE
  5
430
100
AcDbEntity
  8
606355349-000-00-ED1_FORMAT
100
AcDbLine
 62
2
  6
CONTINUOUS
 10
305.0850031937
 20
51.1612169223
 11
305.4976754456
 21
51.1612169223
  0
LINE
  5
431
100
AcDbEntity
  8
606355349-000-00-ED1_FORMAT
100
AcDbLine
 62
2
  6
CONTINUOUS
 10
305.9198792448
 20
51.1612169223
 11
306.2821308142
 21
51.1612169223
  0
LINE
  5
432
100
AcDbEntity
  8
606355349-000-00-ED1_FORMAT
100
AcDbLine
 62
2
  6
CONTINUOUS
 10
309.2173794238
 20
51.1612169223
 11
316.1343395613
 21
51.1612169223
  0
LINE
  5
433
100
AcDbEntity
  8
606355349-000-00-ED1_FORMAT
100
AcDbLine
 62
2
  6
CONTINUOUS
 10
318.9626221679
 20
51.1612169223
 11
319.3507514132
 21
51.1612169223
  0
LINE
  5
434
100
AcDbEntity
  8
606355349-000-00-ED1_FORMAT
100
AcDbLine
 62
2
  6
CONTINUOUS
 10
320.1383810082
 20
51.1612169223
 11
320.5409560601
 21
51.1612169223
  0
LINE
  5
435
100
AcDbEntity
  8
606355349-000-00-ED1_FORMAT
100
AcDbLine
 62
2
  6
CONTINUOUS
 10
305.0850031937
 20
51.2612169223
 11
305.4976754456
 21
51.2612169223
  0
LINE
  5
436
100
AcDbEntity
  8
606355349-000-00-ED1_FORMAT
100
AcDbLine
 62
2
  6
CONTINUOUS
 10
306.0972541374
 20
51.2612169223
 11
306.4549593013
 21
51.2612169223
  0
LINE
  5
437
100
AcDbEntity
  8
606355349-000-00-ED1_FORMAT
100
AcDbLine
 62
2
  6
CONTINUOUS
 10
309.0186493655
 20
51.2612169223
 11
316.3404295668
 21
51.2612169223
  0
LINE
  5
438
100
AcDbEntity
  8
606355349-000-00-ED1_FORMAT
100
AcDbLine
 62
2
  6
CONTINUOUS
 10
318.7722336797
 20
51.2612169223
 11
319.1586741968
 21
51.2612169223
  0
LINE
  5
439
100
AcDbEntity
  8
606355349-000-00-ED1_FORMAT
100
AcDbLine
 62
2
  6
CONTINUOUS
 10
320.1383810082
 20
51.2612169223
 11
320.5409560601
 21
51.2612169223
  0
LINE
  5
43A
100
AcDbEntity
  8
606355349-000-00-ED1_FORMAT
100
AcDbLine
 62
2
  6
CONTINUOUS
 10
305.0850031937
 20
51.3612169223
 11
305.4976754456
 21
51.3612169223
  0
LINE
  5
43B
100
AcDbEntity
  8
606355349-000-00-ED1_FORMAT
100
AcDbLine
 62
2
  6
CONTINUOUS
 10
306.2746290301
 20
51.3612169223
 11
306.6277877884
 21
51.3612169223
  0
LINE
  5
43C
100
AcDbEntity
  8
606355349-000-00-ED1_FORMAT
100
AcDbLine
 62
2
  6
CONTINUOUS
 10
308.8199193072
 20
51.3612169223
 11
316.5465195723
 21
51.3612169223
  0
LINE
  5
43D
100
AcDbEntity
  8
606355349-000-00-ED1_FORMAT
100
AcDbLine
 62
2
  6
CONTINUOUS
 10
318.5818451914
 20
51.3612169223
 11
318.9665969803
 21
51.3612169223
  0
LINE
  5
43E
100
AcDbEntity
  8
606355349-000-00-ED1_FORMAT
100
AcDbLine
 62
2
  6
CONTINUOUS
 10
320.1383810082
 20
51.3612169223
 11
320.5409560601
 21
51.3612169223
  0
LINE
  5
43F
100
AcDbEntity
  8
606355349-000-00-ED1_FORMAT
100
AcDbLine
 62
2
  6
CONTINUOUS
 10
305.0850031937
 20
51.4612169223
 11
305.4976754456
 21
51.4612169223
  0
LINE
  5
440
100
AcDbEntity
  8
606355349-000-00-ED1_FORMAT
100
AcDbLine
 62
2
  6
CONTINUOUS
 10
306.4520039228
 20
51.4612169223
 11
306.7262247592
 21
51.4612169223
  0
LINE
  5
441
100
AcDbEntity
  8
606355349-000-00-ED1_FORMAT
100
AcDbLine
 62
2
  6
CONTINUOUS
 10
308.6211892489
 20
51.4612169223
 11
316.7526095778
 21
51.4612169223
  0
LINE
  5
442
100
AcDbEntity
  8
606355349-000-00-ED1_FORMAT
100
AcDbLine
 62
2
  6
CONTINUOUS
 10
318.3914567032
 20
51.4612169223
 11
318.7745197639
 21
51.4612169223
  0
LINE
  5
443
100
AcDbEntity
  8
606355349-000-00-ED1_FORMAT
100
AcDbLine
 62
2
  6
CONTINUOUS
 10
320.1383810082
 20
51.4612169223
 11
320.5409560601
 21
51.4612169223
  0
LINE
  5
444
100
AcDbEntity
  8
606355349-000-00-ED1_FORMAT
100
AcDbLine
 62
2
  6
CONTINUOUS
 10
305.0850031937
 20
51.5612169223
 11
305.4976754456
 21
51.5612169223
  0
LINE
  5
445
100
AcDbEntity
  8
606355349-000-00-ED1_FORMAT
100
AcDbLine
 62
2
  6
CONTINUOUS
 10
306.5876624558
 20
51.5612169223
 11
306.72608996
 21
51.5612169223
  0
LINE
  5
446
100
AcDbEntity
  8
606355349-000-00-ED1_FORMAT
100
AcDbLine
 62
2
  6
CONTINUOUS
 10
308.4224591907
 20
51.5612169223
 11
316.9586995833
 21
51.5612169223
  0
LINE
  5
447
100
AcDbEntity
  8
606355349-000-00-ED1_FORMAT
100
AcDbLine
 62
2
  6
CONTINUOUS
 10
318.2010682149
 20
51.5612169223
 11
318.5824425474
 21
51.5612169223
  0
LINE
  5
448
100
AcDbEntity
  8
606355349-000-00-ED1_FORMAT
100
AcDbLine
 62
2
  6
CONTINUOUS
 10
320.1383810082
 20
51.5612169223
 11
320.5409560601
 21
51.5612169223
  0
LINE
  5
449
100
AcDbEntity
  8
606355349-000-00-ED1_FORMAT
100
AcDbLine
 62
2
  6
CONTINUOUS
 10
305.0850031937
 20
51.6612169223
 11
305.4976754456
 21
51.6612169223
  0
LINE
  5
44A
100
AcDbEntity
  8
606355349-000-00-ED1_FORMAT
100
AcDbLine
 62
2
  6
CONTINUOUS
 10
306.5876624558
 20
51.6612169223
 11
306.7259551609
 21
51.6612169223
  0
LINE
  5
44B
100
AcDbEntity
  8
606355349-000-00-ED1_FORMAT
100
AcDbLine
 62
2
  6
CONTINUOUS
 10
308.2237291324
 20
51.6612169223
 11
317.1647895889
 21
51.6612169223
  0
LINE
  5
44C
100
AcDbEntity
  8
606355349-000-00-ED1_FORMAT
100
AcDbLine
 62
2
  6
CONTINUOUS
 10
318.0106797267
 20
51.6612169223
 11
318.390365331
 21
51.6612169223
  0
LINE
  5
44D
100
AcDbEntity
  8
606355349-000-00-ED1_FORMAT
100
AcDbLine
 62
2
  6
CONTINUOUS
 10
320.1383810082
 20
51.6612169223
 11
320.5409560601
 21
51.6612169223
  0
LINE
  5
44E
100
AcDbEntity
  8
606355349-000-00-ED1_FORMAT
100
AcDbLine
 62
2
  6
CONTINUOUS
 10
305.0850031937
 20
51.7612169223
 11
305.4976754456
 21
51.7612169223
  0
LINE
  5
44F
100
AcDbEntity
  8
606355349-000-00-ED1_FORMAT
100
AcDbLine
 62
2
  6
CONTINUOUS
 10
306.5876624558
 20
51.7612169223
 11
306.7258203617
 21
51.7612169223
  0
LINE
  5
450
100
AcDbEntity
  8
606355349-000-00-ED1_FORMAT
100
AcDbLine
 62
2
  6
CONTINUOUS
 10
308.0249990741
 20
51.7612169223
 11
317.3708795944
 21
51.7612169223
  0
LINE
  5
451
100
AcDbEntity
  8
606355349-000-00-ED1_FORMAT
100
AcDbLine
 62
2
  6
CONTINUOUS
 10
317.9768299493
 20
51.7612169223
 11
318.1982881145
 21
51.7612169223
  0
LINE
  5
452
100
AcDbEntity
  8
606355349-000-00-ED1_FORMAT
100
AcDbLine
 62
2
  6
CONTINUOUS
 10
320.1383810082
 20
51.7612169223
 11
320.5409560601
 21
51.7612169223
  0
LINE
  5
453
100
AcDbEntity
  8
606355349-000-00-ED1_FORMAT
100
AcDbLine
 62
2
  6
CONTINUOUS
 10
305.0850031937
 20
51.8612169223
 11
305.4976754456
 21
51.8612169223
  0
LINE
  5
454
100
AcDbEntity
  8
606355349-000-00-ED1_FORMAT
100
AcDbLine
 62
2
  6
CONTINUOUS
 10
306.5876624558
 20
51.8612169223
 11
306.7256855626
 21
51.8612169223
  0
LINE
  5
455
100
AcDbEntity
  8
606355349-000-00-ED1_FORMAT
100
AcDbLine
 62
2
  6
CONTINUOUS
 10
307.8262690158
 20
51.8612169223
 11
317.5769695999
 21
51.8612169223
  0
LINE
  5
456
100
AcDbEntity
  8
606355349-000-00-ED1_FORMAT
100
AcDbLine
 62
2
  6
CONTINUOUS
 10
317.9768299493
 20
51.8612169223
 11
318.1654360589
 21
51.8612169223
  0
LINE
  5
457
100
AcDbEntity
  8
606355349-000-00-ED1_FORMAT
100
AcDbLine
 62
2
  6
CONTINUOUS
 10
320.1383810082
 20
51.8612169223
 11
320.5409560601
 21
51.8612169223
  0
LINE
  5
458
100
AcDbEntity
  8
606355349-000-00-ED1_FORMAT
100
AcDbLine
 62
2
  6
CONTINUOUS
 10
305.0850031937
 20
51.9612169223
 11
305.4976754456
 21
51.9612169223
  0
LINE
  5
459
100
AcDbEntity
  8
606355349-000-00-ED1_FORMAT
100
AcDbLine
 62
2
  6
CONTINUOUS
 10
306.5876624558
 20
51.9612169223
 11
306.7255507634
 21
51.9612169223
  0
LINE
  5
45A
100
AcDbEntity
  8
606355349-000-00-ED1_FORMAT
100
AcDbLine
 62
2
  6
CONTINUOUS
 10
307.6275389575
 20
51.9612169223
 11
317.4415652387
 21
51.9612169223
  0
LINE
  5
45B
100
AcDbEntity
  8
606355349-000-00-ED1_FORMAT
100
AcDbLine
 62
2
  6
CONTINUOUS
 10
317.6038131628
 20
51.9612169223
 11
317.7830596054
 21
51.9612169223
  0
LINE
  5
45C
100
AcDbEntity
  8
606355349-000-00-ED1_FORMAT
100
AcDbLine
 62
2
  6
CONTINUOUS
 10
317.9768299493
 20
51.9612169223
 11
318.1654360589
 21
51.9612169223
  0
LINE
  5
45D
100
AcDbEntity
  8
606355349-000-00-ED1_FORMAT
100
AcDbLine
 62
2
  6
CONTINUOUS
 10
320.1117998511
 20
51.9612169223
 11
320.5409560601
 21
51.9612169223
  0
LINE
  5
45E
100
AcDbEntity
  8
606355349-000-00-ED1_FORMAT
100
AcDbLine
 62
2
  6
CONTINUOUS
 10
305.0850031937
 20
52.0612169223
 11
305.4976754456
 21
52.0612169223
  0
LINE
  5
45F
100
AcDbEntity
  8
606355349-000-00-ED1_FORMAT
100
AcDbLine
 62
2
  6
CONTINUOUS
 10
306.5876624558
 20
52.0612169223
 11
306.7254159642
 21
52.0612169223
  0
LINE
  5
460
100
AcDbEntity
  8
606355349-000-00-ED1_FORMAT
100
AcDbLine
 62
2
  6
CONTINUOUS
 10
307.4288088992
 20
52.0612169223
 11
308.1737564759
 21
52.0612169223
  0
LINE
  5
461
100
AcDbEntity
  8
606355349-000-00-ED1_FORMAT
100
AcDbLine
 62
2
  6
CONTINUOUS
 10
308.326562177
 20
52.0612169223
 11
316.9400481234
 21
52.0612169223
  0
LINE
  5
462
100
AcDbEntity
  8
606355349-000-00-ED1_FORMAT
100
AcDbLine
 62
2
  6
CONTINUOUS
 10
317.5858212353
 20
52.0612169223
 11
318.1654360589
 21
52.0612169223
  0
LINE
  5
463
100
AcDbEntity
  8
606355349-000-00-ED1_FORMAT
100
AcDbLine
 62
2
  6
CONTINUOUS
 10
319.8719349704
 20
52.0612169223
 11
320.5409560601
 21
52.0612169223
  0
LINE
  5
464
100
AcDbEntity
  8
606355349-000-00-ED1_FORMAT
100
AcDbLine
 62
2
  6
CONTINUOUS
 10
305.0850031937
 20
52.1612169223
 11
305.4976754456
 21
52.1612169223
  0
LINE
  5
465
100
AcDbEntity
  8
606355349-000-00-ED1_FORMAT
100
AcDbLine
 62
2
  6
CONTINUOUS
 10
306.5876624558
 20
52.1612169223
 11
306.7252811651
 21
52.1612169223
  0
LINE
  5
466
100
AcDbEntity
  8
606355349-000-00-ED1_FORMAT
100
AcDbLine
 62
2
  6
CONTINUOUS
 10
307.2343142672
 20
52.1612169223
 11
307.3763373641
 21
52.1612169223
  0
LINE
  5
467
100
AcDbEntity
  8
606355349-000-00-ED1_FORMAT
100
AcDbLine
 62
2
  6
CONTINUOUS
 10
307.4487604473
 20
52.1612169223
 11
308.1737564759
 21
52.1612169223
  0
LINE
  5
468
100
AcDbEntity
  8
606355349-000-00-ED1_FORMAT
100
AcDbLine
 62
2
  6
CONTINUOUS
 10
308.7697562103
 20
52.1612169223
 11
316.510623604
 21
52.1612169223
  0
LINE
  5
469
100
AcDbEntity
  8
606355349-000-00-ED1_FORMAT
100
AcDbLine
 62
2
  6
CONTINUOUS
 10
317.5678293079
 20
52.1612169223
 11
318.1654360589
 21
52.1612169223
  0
LINE
  5
46A
100
AcDbEntity
  8
606355349-000-00-ED1_FORMAT
100
AcDbLine
 62
2
  6
CONTINUOUS
 10
319.6320700897
 20
52.1612169223
 11
320.2983439148
 21
52.1612169223
  0
LINE
  5
46B
100
AcDbEntity
  8
606355349-000-00-ED1_FORMAT
100
AcDbLine
 62
2
  6
CONTINUOUS
 10
305.0850031937
 20
52.2612169223
 11
305.4976754456
 21
52.2612169223
  0
LINE
  5
46C
100
AcDbEntity
  8
606355349-000-00-ED1_FORMAT
100
AcDbLine
 62
2
  6
CONTINUOUS
 10
306.5876624558
 20
52.2612169223
 11
306.7251463659
 21
52.2612169223
  0
LINE
  5
46D
100
AcDbEntity
  8
606355349-000-00-ED1_FORMAT
100
AcDbLine
 62
2
  6
CONTINUOUS
 10
307.0339179266
 20
52.2612169223
 11
307.3358574011
 21
52.2612169223
  0
LINE
  5
46E
100
AcDbEntity
  8
606355349-000-00-ED1_FORMAT
100
AcDbLine
 62
2
  6
CONTINUOUS
 10
307.4899857745
 20
52.2612169223
 11
308.1737564759
 21
52.2612169223
  0
LINE
  5
46F
100
AcDbEntity
  8
606355349-000-00-ED1_FORMAT
100
AcDbLine
 62
2
  6
CONTINUOUS
 10
309.1516114228
 20
52.2612169223
 11
316.5030757086
 21
52.2612169223
  0
LINE
  5
470
100
AcDbEntity
  8
606355349-000-00-ED1_FORMAT
100
AcDbLine
 62
2
  6
CONTINUOUS
 10
317.5498373805
 20
52.2612169223
 11
318.1654360589
 21
52.2612169223
  0
LINE
  5
471
100
AcDbEntity
  8
606355349-000-00-ED1_FORMAT
100
AcDbLine
 62
2
  6
CONTINUOUS
 10
319.392205209
 20
52.2612169223
 11
320.0495911282
 21
52.2612169223
  0
LINE
  5
472
100
AcDbEntity
  8
606355349-000-00-ED1_FORMAT
100
AcDbLine
 62
2
  6
CONTINUOUS
 10
305.0850031937
 20
52.3612169223
 11
305.4976754456
 21
52.3612169223
  0
LINE
  5
473
100
AcDbEntity
  8
606355349-000-00-ED1_FORMAT
100
AcDbLine
 62
2
  6
CONTINUOUS
 10
306.5876624558
 20
52.3612169223
 11
306.7250115668
 21
52.3612169223
  0
LINE
  5
474
100
AcDbEntity
  8
606355349-000-00-ED1_FORMAT
100
AcDbLine
 62
2
  6
CONTINUOUS
 10
306.833521586
 20
52.3612169223
 11
307.2953774381
 21
52.3612169223
  0
LINE
  5
475
100
AcDbEntity
  8
606355349-000-00-ED1_FORMAT
100
AcDbLine
 62
2
  6
CONTINUOUS
 10
307.5312111018
 20
52.3612169223
 11
308.1737564759
 21
52.3612169223
  0
LINE
  5
476
100
AcDbEntity
  8
606355349-000-00-ED1_FORMAT
100
AcDbLine
 62
2
  6
CONTINUOUS
 10
309.1516114228
 20
52.3612169223
 11
309.4866702568
 21
52.3612169223
  0
LINE
  5
477
100
AcDbEntity
  8
606355349-000-00-ED1_FORMAT
100
AcDbLine
 62
2
  6
CONTINUOUS
 10
309.7733400551
 20
52.3612169223
 11
315.1266453693
 21
52.3612169223
  0
LINE
  5
478
100
AcDbEntity
  8
606355349-000-00-ED1_FORMAT
100
AcDbLine
 62
2
  6
CONTINUOUS
 10
315.8559823799
 20
52.3612169223
 11
316.4955278133
 21
52.3612169223
  0
LINE
  5
479
100
AcDbEntity
  8
606355349-000-00-ED1_FORMAT
100
AcDbLine
 62
2
  6
CONTINUOUS
 10
317.5318454531
 20
52.3612169223
 11
318.1654360589
 21
52.3612169223
  0
LINE
  5
47A
100
AcDbEntity
  8
606355349-000-00-ED1_FORMAT
100
AcDbLine
 62
2
  6
CONTINUOUS
 10
319.2068127099
 20
52.3612169223
 11
319.8008383416
 21
52.3612169223
  0
LINE
  5
47B
100
AcDbEntity
  8
606355349-000-00-ED1_FORMAT
100
AcDbLine
 62
2
  6
CONTINUOUS
 10
305.0850031937
 20
52.4612169223
 11
305.4976754456
 21
52.4612169223
  0
LINE
  5
47C
100
AcDbEntity
  8
606355349-000-00-ED1_FORMAT
100
AcDbLine
 62
2
  6
CONTINUOUS
 10
306.5876624558
 20
52.4612169223
 11
307.2548974752
 21
52.4612169223
  0
LINE
  5
47D
100
AcDbEntity
  8
606355349-000-00-ED1_FORMAT
100
AcDbLine
 62
2
  6
CONTINUOUS
 10
307.5724364291
 20
52.4612169223
 11
308.1737564759
 21
52.4612169223
  0
LINE
  5
47E
100
AcDbEntity
  8
606355349-000-00-ED1_FORMAT
100
AcDbLine
 62
2
  6
CONTINUOUS
 10
309.1516114228
 20
52.4612169223
 11
309.5134919565
 21
52.4612169223
  0
LINE
  5
47F
100
AcDbEntity
  8
606355349-000-00-ED1_FORMAT
100
AcDbLine
 62
2
  6
CONTINUOUS
 10
310.5298759797
 20
52.4612169223
 11
314.8545938863
 21
52.4612169223
  0
LINE
  5
480
100
AcDbEntity
  8
606355349-000-00-ED1_FORMAT
100
AcDbLine
 62
2
  6
CONTINUOUS
 10
315.8741814988
 20
52.4612169223
 11
316.487979918
 21
52.4612169223
  0
LINE
  5
481
100
AcDbEntity
  8
606355349-000-00-ED1_FORMAT
100
AcDbLine
 62
2
  6
CONTINUOUS
 10
317.5138535256
 20
52.4612169223
 11
318.1654360589
 21
52.4612169223
  0
LINE
  5
482
100
AcDbEntity
  8
606355349-000-00-ED1_FORMAT
100
AcDbLine
 62
2
  6
CONTINUOUS
 10
319.2068127099
 20
52.4612169223
 11
319.559328991
 21
52.4612169223
  0
LINE
  5
483
100
AcDbEntity
  8
606355349-000-00-ED1_FORMAT
100
AcDbLine
 62
2
  6
CONTINUOUS
 10
305.0850031937
 20
52.5612169223
 11
305.4976754456
 21
52.5612169223
  0
LINE
  5
484
100
AcDbEntity
  8
606355349-000-00-ED1_FORMAT
100
AcDbLine
 62
2
  6
CONTINUOUS
 10
306.5876624558
 20
52.5612169223
 11
307.2144175122
 21
52.5612169223
  0
LINE
  5
485
100
AcDbEntity
  8
606355349-000-00-ED1_FORMAT
100
AcDbLine
 62
2
  6
CONTINUOUS
 10
307.6136617564
 20
52.5612169223
 11
308.1737564759
 21
52.5612169223
  0
LINE
  5
486
100
AcDbEntity
  8
606355349-000-00-ED1_FORMAT
100
AcDbLine
 62
2
  6
CONTINUOUS
 10
309.1516114228
 20
52.5612169223
 11
309.5403136563
 21
52.5612169223
  0
LINE
  5
487
100
AcDbEntity
  8
606355349-000-00-ED1_FORMAT
100
AcDbLine
 62
2
  6
CONTINUOUS
 10
310.5516753979
 20
52.5612169223
 11
311.515468729
 21
52.5612169223
  0
LINE
  5
488
100
AcDbEntity
  8
606355349-000-00-ED1_FORMAT
100
AcDbLine
 62
2
  6
CONTINUOUS
 10
312.3546934437
 20
52.5612169223
 11
312.7687535783
 21
52.5612169223
  0
LINE
  5
489
100
AcDbEntity
  8
606355349-000-00-ED1_FORMAT
100
AcDbLine
 62
2
  6
CONTINUOUS
 10
313.6490428391
 20
52.5612169223
 11
314.8766440871
 21
52.5612169223
  0
LINE
  5
48A
100
AcDbEntity
  8
606355349-000-00-ED1_FORMAT
100
AcDbLine
 62
2
  6
CONTINUOUS
 10
315.8923806178
 20
52.5612169223
 11
316.4804320227
 21
52.5612169223
  0
LINE
  5
48B
100
AcDbEntity
  8
606355349-000-00-ED1_FORMAT
100
AcDbLine
 62
2
  6
CONTINUOUS
 10
317.4958615982
 20
52.5612169223
 11
318.1654360589
 21
52.5612169223
  0
LINE
  5
48C
100
AcDbEntity
  8
606355349-000-00-ED1_FORMAT
100
AcDbLine
 62
2
  6
CONTINUOUS
 10
319.2068127099
 20
52.5612169223
 11
319.559328991
 21
52.5612169223
  0
LINE
  5
48D
100
AcDbEntity
  8
606355349-000-00-ED1_FORMAT
100
AcDbLine
 62
2
  6
CONTINUOUS
 10
312.3943235597
 20
52.5618121345
 11
312.5391021943
 21
52.5618121345
  0
LINE
  5
48E
100
AcDbEntity
  8
606355349-000-00-ED1_FORMAT
100
AcDbLine
 62
2
  6
CONTINUOUS
 10
305.0850031937
 20
52.6612169223
 11
305.4976754456
 21
52.6612169223
  0
LINE
  5
48F
100
AcDbEntity
  8
606355349-000-00-ED1_FORMAT
100
AcDbLine
 62
2
  6
CONTINUOUS
 10
306.5876624558
 20
52.6612169223
 11
307.1739375492
 21
52.6612169223
  0
LINE
  5
490
100
AcDbEntity
  8
606355349-000-00-ED1_FORMAT
100
AcDbLine
 62
2
  6
CONTINUOUS
 10
307.6548870837
 20
52.6612169223
 11
308.1737564759
 21
52.6612169223
  0
LINE
  5
491
100
AcDbEntity
  8
606355349-000-00-ED1_FORMAT
100
AcDbLine
 62
2
  6
CONTINUOUS
 10
309.1516114228
 20
52.6612169223
 11
309.567135356
 21
52.6612169223
  0
LINE
  5
492
100
AcDbEntity
  8
606355349-000-00-ED1_FORMAT
100
AcDbLine
 62
2
  6
CONTINUOUS
 10
310.5734748161
 20
52.6612169223
 11
311.4943348842
 21
52.6612169223
  0
LINE
  5
493
100
AcDbEntity
  8
606355349-000-00-ED1_FORMAT
100
AcDbLine
 62
2
  6
CONTINUOUS
 10
312.514745064
 20
52.6612169223
 11
312.7687535783
 21
52.6612169223
  0
LINE
  5
494
100
AcDbEntity
  8
606355349-000-00-ED1_FORMAT
100
AcDbLine
 62
2
  6
CONTINUOUS
 10
313.6488696546
 20
52.6612169223
 11
314.8986942879
 21
52.6612169223
  0
LINE
  5
495
100
AcDbEntity
  8
606355349-000-00-ED1_FORMAT
100
AcDbLine
 62
2
  6
CONTINUOUS
 10
315.9105797367
 20
52.6612169223
 11
316.0647338538
 21
52.6612169223
  0
LINE
  5
496
100
AcDbEntity
  8
606355349-000-00-ED1_FORMAT
100
AcDbLine
 62
2
  6
CONTINUOUS
 10
317.4778696708
 20
52.6612169223
 11
318.1654360589
 21
52.6612169223
  0
LINE
  5
497
100
AcDbEntity
  8
606355349-000-00-ED1_FORMAT
100
AcDbLine
 62
2
  6
CONTINUOUS
 10
319.2068127099
 20
52.6612169223
 11
319.559328991
 21
52.6612169223
  0
LINE
  5
498
100
AcDbEntity
  8
606355349-000-00-ED1_FORMAT
100
AcDbLine
 62
2
  6
CONTINUOUS
 10
305.0850031937
 20
52.7612169223
 11
305.4976754456
 21
52.7612169223
  0
LINE
  5
499
100
AcDbEntity
  8
606355349-000-00-ED1_FORMAT
100
AcDbLine
 62
2
  6
CONTINUOUS
 10
306.5876624558
 20
52.7612169223
 11
307.1334575862
 21
52.7612169223
  0
LINE
  5
49A
100
AcDbEntity
  8
606355349-000-00-ED1_FORMAT
100
AcDbLine
 62
2
  6
CONTINUOUS
 10
307.696112411
 20
52.7612169223
 11
308.1737564759
 21
52.7612169223
  0
LINE
  5
49B
100
AcDbEntity
  8
606355349-000-00-ED1_FORMAT
100
AcDbLine
 62
2
  6
CONTINUOUS
 10
309.1516114228
 20
52.7612169223
 11
309.5939570558
 21
52.7612169223
  0
LINE
  5
49C
100
AcDbEntity
  8
606355349-000-00-ED1_FORMAT
100
AcDbLine
 62
2
  6
CONTINUOUS
 10
310.5952742343
 20
52.7612169223
 11
311.4732010394
 21
52.7612169223
  0
LINE
  5
49D
100
AcDbEntity
  8
606355349-000-00-ED1_FORMAT
100
AcDbLine
 62
2
  6
CONTINUOUS
 10
312.490242089
 20
52.7612169223
 11
312.7687535783
 21
52.7612169223
  0
LINE
  5
49E
100
AcDbEntity
  8
606355349-000-00-ED1_FORMAT
100
AcDbLine
 62
2
  6
CONTINUOUS
 10
313.6486964701
 20
52.7612169223
 11
314.9207444887
 21
52.7612169223
  0
LINE
  5
49F
100
AcDbEntity
  8
606355349-000-00-ED1_FORMAT
100
AcDbLine
 62
2
  6
CONTINUOUS
 10
317.4598777433
 20
52.7612169223
 11
318.1654360589
 21
52.7612169223
  0
LINE
  5
4A0
100
AcDbEntity
  8
606355349-000-00-ED1_FORMAT
100
AcDbLine
 62
2
  6
CONTINUOUS
 10
319.2068127099
 20
52.7612169223
 11
319.559328991
 21
52.7612169223
  0
LINE
  5
4A1
100
AcDbEntity
  8
606355349-000-00-ED1_FORMAT
100
AcDbLine
 62
2
  6
CONTINUOUS
 10
305.0850031937
 20
52.8612169223
 11
305.4976754456
 21
52.8612169223
  0
LINE
  5
4A2
100
AcDbEntity
  8
606355349-000-00-ED1_FORMAT
100
AcDbLine
 62
2
  6
CONTINUOUS
 10
306.5876624558
 20
52.8612169223
 11
307.0929776233
 21
52.8612169223
  0
LINE
  5
4A3
100
AcDbEntity
  8
606355349-000-00-ED1_FORMAT
100
AcDbLine
 62
2
  6
CONTINUOUS
 10
307.7373377383
 20
52.8612169223
 11
308.1737564759
 21
52.8612169223
  0
LINE
  5
4A4
100
AcDbEntity
  8
606355349-000-00-ED1_FORMAT
100
AcDbLine
 62
2
  6
CONTINUOUS
 10
309.1516114228
 20
52.8612169223
 11
309.6207787556
 21
52.8612169223
  0
LINE
  5
4A5
100
AcDbEntity
  8
606355349-000-00-ED1_FORMAT
100
AcDbLine
 62
2
  6
CONTINUOUS
 10
310.6170736525
 20
52.8612169223
 11
311.4520671946
 21
52.8612169223
  0
LINE
  5
4A6
100
AcDbEntity
  8
606355349-000-00-ED1_FORMAT
100
AcDbLine
 62
2
  6
CONTINUOUS
 10
312.465739114
 20
52.8612169223
 11
312.7687535783
 21
52.8612169223
  0
LINE
  5
4A7
100
AcDbEntity
  8
606355349-000-00-ED1_FORMAT
100
AcDbLine
 62
2
  6
CONTINUOUS
 10
313.6485232857
 20
52.8612169223
 11
314.9427946895
 21
52.8612169223
  0
LINE
  5
4A8
100
AcDbEntity
  8
606355349-000-00-ED1_FORMAT
100
AcDbLine
 62
2
  6
CONTINUOUS
 10
317.4418858159
 20
52.8612169223
 11
318.1654360589
 21
52.8612169223
  0
LINE
  5
4A9
100
AcDbEntity
  8
606355349-000-00-ED1_FORMAT
100
AcDbLine
 62
2
  6
CONTINUOUS
 10
319.2068127099
 20
52.8612169223
 11
319.6369745096
 21
52.8612169223
  0
LINE
  5
4AA
100
AcDbEntity
  8
606355349-000-00-ED1_FORMAT
100
AcDbLine
 62
7
  6
CONTINUOUS
 10
410.0
 20
52.9546823745
 11
365.999998592
 21
52.9546823745
  0
LINE
  5
4AB
100
AcDbEntity
  8
606355349-000-00-ED1_FORMAT
100
AcDbLine
 62
2
  6
CONTINUOUS
 10
305.0850031937
 20
52.9612169223
 11
305.4976754456
 21
52.9612169223
  0
LINE
  5
4AC
100
AcDbEntity
  8
606355349-000-00-ED1_FORMAT
100
AcDbLine
 62
2
  6
CONTINUOUS
 10
306.5876624558
 20
52.9612169223
 11
307.0524976603
 21
52.9612169223
  0
LINE
  5
4AD
100
AcDbEntity
  8
606355349-000-00-ED1_FORMAT
100
AcDbLine
 62
2
  6
CONTINUOUS
 10
307.7785630656
 20
52.9612169223
 11
308.1737564759
 21
52.9612169223
  0
LINE
  5
4AE
100
AcDbEntity
  8
606355349-000-00-ED1_FORMAT
100
AcDbLine
 62
2
  6
CONTINUOUS
 10
309.1516114228
 20
52.9612169223
 11
309.6476004553
 21
52.9612169223
  0
LINE
  5
4AF
100
AcDbEntity
  8
606355349-000-00-ED1_FORMAT
100
AcDbLine
 62
2
  6
CONTINUOUS
 10
310.6388730707
 20
52.9612169223
 11
311.4309333498
 21
52.9612169223
  0
LINE
  5
4B0
100
AcDbEntity
  8
606355349-000-00-ED1_FORMAT
100
AcDbLine
 62
2
  6
CONTINUOUS
 10
312.441236139
 20
52.9612169223
 11
312.7687535783
 21
52.9612169223
  0
LINE
  5
4B1
100
AcDbEntity
  8
606355349-000-00-ED1_FORMAT
100
AcDbLine
 62
2
  6
CONTINUOUS
 10
313.6483501012
 20
52.9612169223
 11
314.9648448903
 21
52.9612169223
  0
LINE
  5
4B2
100
AcDbEntity
  8
606355349-000-00-ED1_FORMAT
100
AcDbLine
 62
2
  6
CONTINUOUS
 10
317.4238938885
 20
52.9612169223
 11
318.1654360589
 21
52.9612169223
  0
LINE
  5
4B3
100
AcDbEntity
  8
606355349-000-00-ED1_FORMAT
100
AcDbLine
 62
2
  6
CONTINUOUS
 10
319.2068127099
 20
52.9612169223
 11
319.8430403031
 21
52.9612169223
  0
LINE
  5
4B4
100
AcDbEntity
  8
606355349-000-00-ED1_FORMAT
100
AcDbLine
 62
2
  6
CONTINUOUS
 10
305.0850031937
 20
53.0612169223
 11
305.4976754456
 21
53.0612169223
  0
LINE
  5
4B5
100
AcDbEntity
  8
606355349-000-00-ED1_FORMAT
100
AcDbLine
 62
2
  6
CONTINUOUS
 10
306.5876624558
 20
53.0612169223
 11
307.0120176973
 21
53.0612169223
  0
LINE
  5
4B6
100
AcDbEntity
  8
606355349-000-00-ED1_FORMAT
100
AcDbLine
 62
2
  6
CONTINUOUS
 10
307.8197883929
 20
53.0612169223
 11
308.1737564759
 21
53.0612169223
  0
LINE
  5
4B7
100
AcDbEntity
  8
606355349-000-00-ED1_FORMAT
100
AcDbLine
 62
2
  6
CONTINUOUS
 10
309.1516114228
 20
53.0612169223
 11
309.6744221551
 21
53.0612169223
  0
LINE
  5
4B8
100
AcDbEntity
  8
606355349-000-00-ED1_FORMAT
100
AcDbLine
 62
2
  6
CONTINUOUS
 10
310.6606724889
 20
53.0612169223
 11
311.409799505
 21
53.0612169223
  0
LINE
  5
4B9
100
AcDbEntity
  8
606355349-000-00-ED1_FORMAT
100
AcDbLine
 62
2
  6
CONTINUOUS
 10
312.416733164
 20
53.0612169223
 11
312.7687535783
 21
53.0612169223
  0
LINE
  5
4BA
100
AcDbEntity
  8
606355349-000-00-ED1_FORMAT
100
AcDbLine
 62
2
  6
CONTINUOUS
 10
313.6481769167
 20
53.0612169223
 11
314.9868950911
 21
53.0612169223
  0
LINE
  5
4BB
100
AcDbEntity
  8
606355349-000-00-ED1_FORMAT
100
AcDbLine
 62
2
  6
CONTINUOUS
 10
317.405901961
 20
53.0612169223
 11
318.1654360589
 21
53.0612169223
  0
LINE
  5
4BC
100
AcDbEntity
  8
606355349-000-00-ED1_FORMAT
100
AcDbLine
 62
2
  6
CONTINUOUS
 10
319.2068127099
 20
53.0612169223
 11
320.0491060967
 21
53.0612169223
  0
LINE
  5
4BD
100
AcDbEntity
  8
606355349-000-00-ED1_FORMAT
100
AcDbLine
 62
2
  6
CONTINUOUS
 10
305.0850031937
 20
53.1612169223
 11
305.4976754456
 21
53.1612169223
  0
LINE
  5
4BE
100
AcDbEntity
  8
606355349-000-00-ED1_FORMAT
100
AcDbLine
 62
2
  6
CONTINUOUS
 10
306.5876624558
 20
53.1612169223
 11
306.9715377343
 21
53.1612169223
  0
LINE
  5
4BF
100
AcDbEntity
  8
606355349-000-00-ED1_FORMAT
100
AcDbLine
 62
2
  6
CONTINUOUS
 10
307.8610137202
 20
53.1612169223
 11
308.1737564759
 21
53.1612169223
  0
LINE
  5
4C0
100
AcDbEntity
  8
606355349-000-00-ED1_FORMAT
100
AcDbLine
 62
2
  6
CONTINUOUS
 10
309.1516114228
 20
53.1612169223
 11
309.7012438548
 21
53.1612169223
  0
LINE
  5
4C1
100
AcDbEntity
  8
606355349-000-00-ED1_FORMAT
100
AcDbLine
 62
2
  6
CONTINUOUS
 10
310.7347689956
 20
53.1612169223
 11
311.3886656602
 21
53.1612169223
  0
LINE
  5
4C2
100
AcDbEntity
  8
606355349-000-00-ED1_FORMAT
100
AcDbLine
 62
2
  6
CONTINUOUS
 10
312.3922301889
 20
53.1612169223
 11
312.7687535783
 21
53.1612169223
  0
LINE
  5
4C3
100
AcDbEntity
  8
606355349-000-00-ED1_FORMAT
100
AcDbLine
 62
2
  6
CONTINUOUS
 10
313.6480037323
 20
53.1612169223
 11
315.0089452919
 21
53.1612169223
  0
LINE
  5
4C4
100
AcDbEntity
  8
606355349-000-00-ED1_FORMAT
100
AcDbLine
 62
2
  6
CONTINUOUS
 10
317.3879100336
 20
53.1612169223
 11
318.1654360589
 21
53.1612169223
  0
LINE
  5
4C5
100
AcDbEntity
  8
606355349-000-00-ED1_FORMAT
100
AcDbLine
 62
2
  6
CONTINUOUS
 10
319.2068127099
 20
53.1612169223
 11
320.2551718903
 21
53.1612169223
  0
LINE
  5
4C6
100
AcDbEntity
  8
606355349-000-00-ED1_FORMAT
100
AcDbLine
 62
2
  6
CONTINUOUS
 10
305.0440585598
 20
53.2612169223
 11
305.4976754456
 21
53.2612169223
  0
LINE
  5
4C7
100
AcDbEntity
  8
606355349-000-00-ED1_FORMAT
100
AcDbLine
 62
2
  6
CONTINUOUS
 10
306.5876624558
 20
53.2612169223
 11
306.9310577713
 21
53.2612169223
  0
LINE
  5
4C8
100
AcDbEntity
  8
606355349-000-00-ED1_FORMAT
100
AcDbLine
 62
2
  6
CONTINUOUS
 10
307.9022390474
 20
53.2612169223
 11
308.1737564759
 21
53.2612169223
  0
LINE
  5
4C9
100
AcDbEntity
  8
606355349-000-00-ED1_FORMAT
100
AcDbLine
 62
2
  6
CONTINUOUS
 10
309.1516114228
 20
53.2612169223
 11
309.7280655546
 21
53.2612169223
  0
LINE
  5
4CA
100
AcDbEntity
  8
606355349-000-00-ED1_FORMAT
100
AcDbLine
 62
2
  6
CONTINUOUS
 10
312.3677272139
 20
53.2612169223
 11
312.7687535783
 21
53.2612169223
  0
LINE
  5
4CB
100
AcDbEntity
  8
606355349-000-00-ED1_FORMAT
100
AcDbLine
 62
2
  6
CONTINUOUS
 10
313.8898374299
 20
53.2612169223
 11
315.0309954927
 21
53.2612169223
  0
LINE
  5
4CC
100
AcDbEntity
  8
606355349-000-00-ED1_FORMAT
100
AcDbLine
 62
2
  6
CONTINUOUS
 10
317.3699181062
 20
53.2612169223
 11
318.1654360589
 21
53.2612169223
  0
LINE
  5
4CD
100
AcDbEntity
  8
606355349-000-00-ED1_FORMAT
100
AcDbLine
 62
2
  6
CONTINUOUS
 10
319.2068127099
 20
53.2612169223
 11
320.4612376839
 21
53.2612169223
  0
LINE
  5
4CE
100
AcDbEntity
  8
606355349-000-00-ED1_FORMAT
100
AcDbLine
 62
2
  6
CONTINUOUS
 10
304.8453278365
 20
53.3612169223
 11
305.4976754456
 21
53.3612169223
  0
LINE
  5
4CF
100
AcDbEntity
  8
606355349-000-00-ED1_FORMAT
100
AcDbLine
 62
2
  6
CONTINUOUS
 10
306.5876624558
 20
53.3612169223
 11
306.8905778084
 21
53.3612169223
  0
LINE
  5
4D0
100
AcDbEntity
  8
606355349-000-00-ED1_FORMAT
100
AcDbLine
 62
2
  6
CONTINUOUS
 10
307.9434643747
 20
53.3612169223
 11
308.1737564759
 21
53.3612169223
  0
LINE
  5
4D1
100
AcDbEntity
  8
606355349-000-00-ED1_FORMAT
100
AcDbLine
 62
2
  6
CONTINUOUS
 10
309.1516114228
 20
53.3612169223
 11
309.7548872544
 21
53.3612169223
  0
LINE
  5
4D2
100
AcDbEntity
  8
606355349-000-00-ED1_FORMAT
100
AcDbLine
 62
2
  6
CONTINUOUS
 10
312.3432242389
 20
53.3612169223
 11
312.7687535783
 21
53.3612169223
  0
LINE
  5
4D3
100
AcDbEntity
  8
606355349-000-00-ED1_FORMAT
100
AcDbLine
 62
2
  6
CONTINUOUS
 10
314.3042703099
 20
53.3612169223
 11
315.0530456934
 21
53.3612169223
  0
LINE
  5
4D4
100
AcDbEntity
  8
606355349-000-00-ED1_FORMAT
100
AcDbLine
 62
2
  6
CONTINUOUS
 10
317.3519261787
 20
53.3612169223
 11
318.1654360589
 21
53.3612169223
  0
LINE
  5
4D5
100
AcDbEntity
  8
606355349-000-00-ED1_FORMAT
100
AcDbLine
 62
2
  6
CONTINUOUS
 10
319.2068127099
 20
53.3612169223
 11
320.6673034775
 21
53.3612169223
  0
LINE
  5
4D6
100
AcDbEntity
  8
606355349-000-00-ED1_FORMAT
100
AcDbLine
 62
2
  6
CONTINUOUS
 10
304.6465971132
 20
53.4612169223
 11
305.4976754456
 21
53.4612169223
  0
LINE
  5
4D7
100
AcDbEntity
  8
606355349-000-00-ED1_FORMAT
100
AcDbLine
 62
2
  6
CONTINUOUS
 10
306.5876624558
 20
53.4612169223
 11
306.8500978454
 21
53.4612169223
  0
LINE
  5
4D8
100
AcDbEntity
  8
606355349-000-00-ED1_FORMAT
100
AcDbLine
 62
2
  6
CONTINUOUS
 10
307.984689702
 20
53.4612169223
 11
308.1737564759
 21
53.4612169223
  0
LINE
  5
4D9
100
AcDbEntity
  8
606355349-000-00-ED1_FORMAT
100
AcDbLine
 62
2
  6
CONTINUOUS
 10
309.1516114228
 20
53.4612169223
 11
309.7817089541
 21
53.4612169223
  0
LINE
  5
4DA
100
AcDbEntity
  8
606355349-000-00-ED1_FORMAT
100
AcDbLine
 62
2
  6
CONTINUOUS
 10
312.3187212639
 20
53.4612169223
 11
312.7687535783
 21
53.4612169223
  0
LINE
  5
4DB
100
AcDbEntity
  8
606355349-000-00-ED1_FORMAT
100
AcDbLine
 62
2
  6
CONTINUOUS
 10
314.4961822423
 20
53.4612169223
 11
315.0750958942
 21
53.4612169223
  0
LINE
  5
4DC
100
AcDbEntity
  8
606355349-000-00-ED1_FORMAT
100
AcDbLine
 62
2
  6
CONTINUOUS
 10
317.3339342513
 20
53.4612169223
 11
318.1654360589
 21
53.4612169223
  0
LINE
  5
4DD
100
AcDbEntity
  8
606355349-000-00-ED1_FORMAT
100
AcDbLine
 62
2
  6
CONTINUOUS
 10
319.2068127099
 20
53.4612169223
 11
320.873369271
 21
53.4612169223
  0
LINE
  5
4DE
100
AcDbEntity
  8
606355349-000-00-ED1_FORMAT
100
AcDbLine
 62
2
  6
CONTINUOUS
 10
304.4478663899
 20
53.5612169223
 11
305.4976754456
 21
53.5612169223
  0
LINE
  5
4DF
100
AcDbEntity
  8
606355349-000-00-ED1_FORMAT
100
AcDbLine
 62
2
  6
CONTINUOUS
 10
306.5876624558
 20
53.5612169223
 11
306.8096178824
 21
53.5612169223
  0
LINE
  5
4E0
100
AcDbEntity
  8
606355349-000-00-ED1_FORMAT
100
AcDbLine
 62
2
  6
CONTINUOUS
 10
308.0259150293
 20
53.5612169223
 11
308.1737564759
 21
53.5612169223
  0
LINE
  5
4E1
100
AcDbEntity
  8
606355349-000-00-ED1_FORMAT
100
AcDbLine
 62
2
  6
CONTINUOUS
 10
309.1516114228
 20
53.5612169223
 11
309.8085306539
 21
53.5612169223
  0
LINE
  5
4E2
100
AcDbEntity
  8
606355349-000-00-ED1_FORMAT
100
AcDbLine
 62
2
  6
CONTINUOUS
 10
312.2942182889
 20
53.5612169223
 11
312.7687535783
 21
53.5612169223
  0
LINE
  5
4E3
100
AcDbEntity
  8
606355349-000-00-ED1_FORMAT
100
AcDbLine
 62
2
  6
CONTINUOUS
 10
314.6285894584
 20
53.5612169223
 11
315.097146095
 21
53.5612169223
  0
LINE
  5
4E4
100
AcDbEntity
  8
606355349-000-00-ED1_FORMAT
100
AcDbLine
 62
2
  6
CONTINUOUS
 10
317.3159423239
 20
53.5612169223
 11
318.1654360589
 21
53.5612169223
  0
LINE
  5
4E5
100
AcDbEntity
  8
606355349-000-00-ED1_FORMAT
100
AcDbLine
 62
2
  6
CONTINUOUS
 10
319.2068127099
 20
53.5612169223
 11
321.0794350646
 21
53.5612169223
  0
LINE
  5
4E6
100
AcDbEntity
  8
606355349-000-00-ED1_FORMAT
100
AcDbLine
 62
2
  6
CONTINUOUS
 10
304.2491356666
 20
53.6612169223
 11
305.4976754456
 21
53.6612169223
  0
LINE
  5
4E7
100
AcDbEntity
  8
606355349-000-00-ED1_FORMAT
100
AcDbLine
 62
2
  6
CONTINUOUS
 10
306.5876624558
 20
53.6612169223
 11
306.7691379194
 21
53.6612169223
  0
LINE
  5
4E8
100
AcDbEntity
  8
606355349-000-00-ED1_FORMAT
100
AcDbLine
 62
2
  6
CONTINUOUS
 10
308.0671403566
 20
53.6612169223
 11
308.1737564759
 21
53.6612169223
  0
LINE
  5
4E9
100
AcDbEntity
  8
606355349-000-00-ED1_FORMAT
100
AcDbLine
 62
2
  6
CONTINUOUS
 10
309.1516114228
 20
53.6612169223
 11
309.8353523536
 21
53.6612169223
  0
LINE
  5
4EA
100
AcDbEntity
  8
606355349-000-00-ED1_FORMAT
100
AcDbLine
 62
2
  6
CONTINUOUS
 10
312.2697153139
 20
53.6612169223
 11
312.7687535783
 21
53.6612169223
  0
LINE
  5
4EB
100
AcDbEntity
  8
606355349-000-00-ED1_FORMAT
100
AcDbLine
 62
2
  6
CONTINUOUS
 10
314.7313458744
 20
53.6612169223
 11
315.1191962958
 21
53.6612169223
  0
LINE
  5
4EC
100
AcDbEntity
  8
606355349-000-00-ED1_FORMAT
100
AcDbLine
 62
2
  6
CONTINUOUS
 10
316.0266224027
 20
53.6612169223
 11
316.4071912766
 21
53.6612169223
  0
LINE
  5
4ED
100
AcDbEntity
  8
606355349-000-00-ED1_FORMAT
100
AcDbLine
 62
2
  6
CONTINUOUS
 10
317.2979503964
 20
53.6612169223
 11
318.1654360589
 21
53.6612169223
  0
LINE
  5
4EE
100
AcDbEntity
  8
606355349-000-00-ED1_FORMAT
100
AcDbLine
 62
2
  6
CONTINUOUS
 10
319.2068127099
 20
53.6612169223
 11
321.2855008582
 21
53.6612169223
  0
LINE
  5
4EF
100
AcDbEntity
  8
606355349-000-00-ED1_FORMAT
100
AcDbLine
 62
2
  6
CONTINUOUS
 10
304.0504049433
 20
53.7612169223
 11
305.4976754456
 21
53.7612169223
  0
LINE
  5
4F0
100
AcDbEntity
  8
606355349-000-00-ED1_FORMAT
100
AcDbLine
 62
2
  6
CONTINUOUS
 10
306.5876624558
 20
53.7612169223
 11
306.7286579565
 21
53.7612169223
  0
LINE
  5
4F1
100
AcDbEntity
  8
606355349-000-00-ED1_FORMAT
100
AcDbLine
 62
2
  6
CONTINUOUS
 10
308.1083656839
 20
53.7612169223
 11
308.1737564759
 21
53.7612169223
  0
LINE
  5
4F2
100
AcDbEntity
  8
606355349-000-00-ED1_FORMAT
100
AcDbLine
 62
2
  6
CONTINUOUS
 10
309.1516114228
 20
53.7612169223
 11
309.8621740534
 21
53.7612169223
  0
LINE
  5
4F3
100
AcDbEntity
  8
606355349-000-00-ED1_FORMAT
100
AcDbLine
 62
2
  6
CONTINUOUS
 10
312.2452123389
 20
53.7612169223
 11
312.7687535783
 21
53.7612169223
  0
LINE
  5
4F4
100
AcDbEntity
  8
606355349-000-00-ED1_FORMAT
100
AcDbLine
 62
2
  6
CONTINUOUS
 10
314.8062069384
 20
53.7612169223
 11
315.1412464966
 21
53.7612169223
  0
LINE
  5
4F5
100
AcDbEntity
  8
606355349-000-00-ED1_FORMAT
100
AcDbLine
 62
2
  6
CONTINUOUS
 10
316.0181043406
 20
53.7612169223
 11
316.3923233886
 21
53.7612169223
  0
LINE
  5
4F6
100
AcDbEntity
  8
606355349-000-00-ED1_FORMAT
100
AcDbLine
 62
2
  6
CONTINUOUS
 10
317.279958469
 20
53.7612169223
 11
318.1654360589
 21
53.7612169223
  0
LINE
  5
4F7
100
AcDbEntity
  8
606355349-000-00-ED1_FORMAT
100
AcDbLine
 62
2
  6
CONTINUOUS
 10
319.2068127099
 20
53.7612169223
 11
321.4915666518
 21
53.7612169223
  0
LINE
  5
4F8
100
AcDbEntity
  8
606355349-000-00-ED1_FORMAT
100
AcDbLine
 62
2
  6
CONTINUOUS
 10
303.85167422
 20
53.8612169223
 11
305.4976754456
 21
53.8612169223
  0
LINE
  5
4F9
100
AcDbEntity
  8
606355349-000-00-ED1_FORMAT
100
AcDbLine
 62
2
  6
CONTINUOUS
 10
306.5876624558
 20
53.8612169223
 11
306.6881779935
 21
53.8612169223
  0
LINE
  5
4FA
100
AcDbEntity
  8
606355349-000-00-ED1_FORMAT
100
AcDbLine
 62
2
  6
CONTINUOUS
 10
308.1495910112
 20
53.8612169223
 11
308.1737564759
 21
53.8612169223
  0
LINE
  5
4FB
100
AcDbEntity
  8
606355349-000-00-ED1_FORMAT
100
AcDbLine
 62
2
  6
CONTINUOUS
 10
309.1516114228
 20
53.8612169223
 11
309.8889957532
 21
53.8612169223
  0
LINE
  5
4FC
100
AcDbEntity
  8
606355349-000-00-ED1_FORMAT
100
AcDbLine
 62
2
  6
CONTINUOUS
 10
312.2207093639
 20
53.8612169223
 11
312.7687535783
 21
53.8612169223
  0
LINE
  5
4FD
100
AcDbEntity
  8
606355349-000-00-ED1_FORMAT
100
AcDbLine
 62
2
  6
CONTINUOUS
 10
314.8663911181
 20
53.8612169223
 11
315.1632966974
 21
53.8612169223
  0
LINE
  5
4FE
100
AcDbEntity
  8
606355349-000-00-ED1_FORMAT
100
AcDbLine
 62
2
  6
CONTINUOUS
 10
316.0320994653
 20
53.8612169223
 11
316.3774555006
 21
53.8612169223
  0
LINE
  5
4FF
100
AcDbEntity
  8
606355349-000-00-ED1_FORMAT
100
AcDbLine
 62
2
  6
CONTINUOUS
 10
317.2619665416
 20
53.8612169223
 11
318.1654360589
 21
53.8612169223
  0
LINE
  5
500
100
AcDbEntity
  8
606355349-000-00-ED1_FORMAT
100
AcDbLine
 62
2
  6
CONTINUOUS
 10
319.2068127099
 20
53.8612169223
 11
321.6976324454
 21
53.8612169223
  0
LINE
  5
501
100
AcDbEntity
  8
606355349-000-00-ED1_FORMAT
100
AcDbLine
 62
2
  6
CONTINUOUS
 10
303.6529434967
 20
53.9612169223
 11
305.4976754456
 21
53.9612169223
  0
LINE
  5
502
100
AcDbEntity
  8
606355349-000-00-ED1_FORMAT
100
AcDbLine
 62
2
  6
CONTINUOUS
 10
306.5876624558
 20
53.9612169223
 11
306.6476980305
 21
53.9612169223
  0
LINE
  5
503
100
AcDbEntity
  8
606355349-000-00-ED1_FORMAT
100
AcDbLine
 62
2
  6
CONTINUOUS
 10
309.1516114228
 20
53.9612169223
 11
309.9158174529
 21
53.9612169223
  0
LINE
  5
504
100
AcDbEntity
  8
606355349-000-00-ED1_FORMAT
100
AcDbLine
 62
2
  6
CONTINUOUS
 10
310.768326453
 20
53.9612169223
 11
311.2820181671
 21
53.9612169223
  0
LINE
  5
505
100
AcDbEntity
  8
606355349-000-00-ED1_FORMAT
100
AcDbLine
 62
2
  6
CONTINUOUS
 10
312.1962063889
 20
53.9612169223
 11
312.7687535783
 21
53.9612169223
  0
LINE
  5
506
100
AcDbEntity
  8
606355349-000-00-ED1_FORMAT
100
AcDbLine
 62
2
  6
CONTINUOUS
 10
314.9130254495
 20
53.9612169223
 11
315.1853468982
 21
53.9612169223
  0
LINE
  5
507
100
AcDbEntity
  8
606355349-000-00-ED1_FORMAT
100
AcDbLine
 62
2
  6
CONTINUOUS
 10
316.0460945899
 20
53.9612169223
 11
316.3625876126
 21
53.9612169223
  0
LINE
  5
508
100
AcDbEntity
  8
606355349-000-00-ED1_FORMAT
100
AcDbLine
 62
2
  6
CONTINUOUS
 10
317.2439746141
 20
53.9612169223
 11
318.1654360589
 21
53.9612169223
  0
LINE
  5
509
100
AcDbEntity
  8
606355349-000-00-ED1_FORMAT
100
AcDbLine
 62
2
  6
CONTINUOUS
 10
319.2068127099
 20
53.9612169223
 11
321.9036982389
 21
53.9612169223
  0
LINE
  5
50A
100
AcDbEntity
  8
606355349-000-00-ED1_FORMAT
100
AcDbLine
 62
2
  6
CONTINUOUS
 10
303.4542127734
 20
54.0612169223
 11
305.4976754456
 21
54.0612169223
  0
LINE
  5
50B
100
AcDbEntity
  8
606355349-000-00-ED1_FORMAT
100
AcDbLine
 62
2
  6
CONTINUOUS
 10
306.5876624558
 20
54.0612169223
 11
306.6072180675
 21
54.0612169223
  0
LINE
  5
50C
100
AcDbEntity
  8
606355349-000-00-ED1_FORMAT
100
AcDbLine
 62
2
  6
CONTINUOUS
 10
309.1516114228
 20
54.0612169223
 11
309.9426391527
 21
54.0612169223
  0
LINE
  5
50D
100
AcDbEntity
  8
606355349-000-00-ED1_FORMAT
100
AcDbLine
 62
2
  6
CONTINUOUS
 10
310.7902723221
 20
54.0612169223
 11
311.2610721888
 21
54.0612169223
  0
LINE
  5
50E
100
AcDbEntity
  8
606355349-000-00-ED1_FORMAT
100
AcDbLine
 62
2
  6
CONTINUOUS
 10
312.1717034139
 20
54.0612169223
 11
312.7687535783
 21
54.0612169223
  0
LINE
  5
50F
100
AcDbEntity
  8
606355349-000-00-ED1_FORMAT
100
AcDbLine
 62
2
  6
CONTINUOUS
 10
313.625958211
 20
54.0612169223
 11
313.8935627257
 21
54.0612169223
  0
LINE
  5
510
100
AcDbEntity
  8
606355349-000-00-ED1_FORMAT
100
AcDbLine
 62
2
  6
CONTINUOUS
 10
314.9511286237
 20
54.0612169223
 11
315.207397099
 21
54.0612169223
  0
LINE
  5
511
100
AcDbEntity
  8
606355349-000-00-ED1_FORMAT
100
AcDbLine
 62
2
  6
CONTINUOUS
 10
316.0600897146
 20
54.0612169223
 11
316.3477197245
 21
54.0612169223
  0
LINE
  5
512
100
AcDbEntity
  8
606355349-000-00-ED1_FORMAT
100
AcDbLine
 62
2
  6
CONTINUOUS
 10
317.2259826867
 20
54.0612169223
 11
318.1654360589
 21
54.0612169223
  0
LINE
  5
513
100
AcDbEntity
  8
606355349-000-00-ED1_FORMAT
100
AcDbLine
 62
2
  6
CONTINUOUS
 10
319.2068127099
 20
54.0612169223
 11
322.1097640325
 21
54.0612169223
  0
LINE
  5
514
100
AcDbEntity
  8
606355349-000-00-ED1_FORMAT
100
AcDbLine
 62
2
  6
CONTINUOUS
 10
303.2554820501
 20
54.1612169223
 11
305.4976754456
 21
54.1612169223
  0
LINE
  5
515
100
AcDbEntity
  8
606355349-000-00-ED1_FORMAT
100
AcDbLine
 62
2
  6
CONTINUOUS
 10
309.1516114228
 20
54.1612169223
 11
309.9694608525
 21
54.1612169223
  0
LINE
  5
516
100
AcDbEntity
  8
606355349-000-00-ED1_FORMAT
100
AcDbLine
 62
2
  6
CONTINUOUS
 10
310.8122181913
 20
54.1612169223
 11
311.2401262105
 21
54.1612169223
  0
LINE
  5
517
100
AcDbEntity
  8
606355349-000-00-ED1_FORMAT
100
AcDbLine
 62
2
  6
CONTINUOUS
 10
312.1472004389
 20
54.1612169223
 11
312.7687535783
 21
54.1612169223
  0
LINE
  5
518
100
AcDbEntity
  8
606355349-000-00-ED1_FORMAT
100
AcDbLine
 62
2
  6
CONTINUOUS
 10
313.6255064219
 20
54.1612169223
 11
314.0790479951
 21
54.1612169223
  0
LINE
  5
519
100
AcDbEntity
  8
606355349-000-00-ED1_FORMAT
100
AcDbLine
 62
2
  6
CONTINUOUS
 10
314.9838524179
 20
54.1612169223
 11
315.2294472997
 21
54.1612169223
  0
LINE
  5
51A
100
AcDbEntity
  8
606355349-000-00-ED1_FORMAT
100
AcDbLine
 62
2
  6
CONTINUOUS
 10
316.0740848392
 20
54.1612169223
 11
316.3328518365
 21
54.1612169223
  0
LINE
  5
51B
100
AcDbEntity
  8
606355349-000-00-ED1_FORMAT
100
AcDbLine
 62
2
  6
CONTINUOUS
 10
317.2079907593
 20
54.1612169223
 11
318.1654360589
 21
54.1612169223
  0
LINE
  5
51C
100
AcDbEntity
  8
606355349-000-00-ED1_FORMAT
100
AcDbLine
 62
2
  6
CONTINUOUS
 10
319.2068127099
 20
54.1612169223
 11
322.3158298261
 21
54.1612169223
  0
LINE
  5
51D
100
AcDbEntity
  8
606355349-000-00-ED1_FORMAT
100
AcDbLine
 62
2
  6
CONTINUOUS
 10
303.1527285403
 20
54.2612169223
 11
305.4976754456
 21
54.2612169223
  0
LINE
  5
51E
100
AcDbEntity
  8
606355349-000-00-ED1_FORMAT
100
AcDbLine
 62
2
  6
CONTINUOUS
 10
309.1516114228
 20
54.2612169223
 11
309.9962825522
 21
54.2612169223
  0
LINE
  5
51F
100
AcDbEntity
  8
606355349-000-00-ED1_FORMAT
100
AcDbLine
 62
2
  6
CONTINUOUS
 10
310.8341640604
 20
54.2612169223
 11
311.2191802322
 21
54.2612169223
  0
LINE
  5
520
100
AcDbEntity
  8
606355349-000-00-ED1_FORMAT
100
AcDbLine
 62
2
  6
CONTINUOUS
 10
312.1226974639
 20
54.2612169223
 11
312.7687535783
 21
54.2612169223
  0
LINE
  5
521
100
AcDbEntity
  8
606355349-000-00-ED1_FORMAT
100
AcDbLine
 62
2
  6
CONTINUOUS
 10
313.6250546327
 20
54.2612169223
 11
314.1633385198
 21
54.2612169223
  0
LINE
  5
522
100
AcDbEntity
  8
606355349-000-00-ED1_FORMAT
100
AcDbLine
 62
2
  6
CONTINUOUS
 10
315.0064005294
 20
54.2612169223
 11
315.2514975005
 21
54.2612169223
  0
LINE
  5
523
100
AcDbEntity
  8
606355349-000-00-ED1_FORMAT
100
AcDbLine
 62
2
  6
CONTINUOUS
 10
316.0880799638
 20
54.2612169223
 11
316.3179839485
 21
54.2612169223
  0
LINE
  5
524
100
AcDbEntity
  8
606355349-000-00-ED1_FORMAT
100
AcDbLine
 62
2
  6
CONTINUOUS
 10
317.1899988319
 20
54.2612169223
 11
318.1654360589
 21
54.2612169223
  0
LINE
  5
525
100
AcDbEntity
  8
606355349-000-00-ED1_FORMAT
100
AcDbLine
 62
2
  6
CONTINUOUS
 10
319.2068127099
 20
54.2612169223
 11
322.4223775784
 21
54.2612169223
  0
LINE
  5
526
100
AcDbEntity
  8
606355349-000-00-ED1_FORMAT
100
AcDbLine
 62
2
  6
CONTINUOUS
 10
303.3670363022
 20
54.3612169223
 11
305.4976754456
 21
54.3612169223
  0
LINE
  5
527
100
AcDbEntity
  8
606355349-000-00-ED1_FORMAT
100
AcDbLine
 62
2
  6
CONTINUOUS
 10
309.1516114228
 20
54.3612169223
 11
310.023104252
 21
54.3612169223
  0
LINE
  5
528
100
AcDbEntity
  8
606355349-000-00-ED1_FORMAT
100
AcDbLine
 62
2
  6
CONTINUOUS
 10
310.8561099295
 20
54.3612169223
 11
311.1982342538
 21
54.3612169223
  0
LINE
  5
529
100
AcDbEntity
  8
606355349-000-00-ED1_FORMAT
100
AcDbLine
 62
2
  6
CONTINUOUS
 10
312.0981944889
 20
54.3612169223
 11
312.7687535783
 21
54.3612169223
  0
LINE
  5
52A
100
AcDbEntity
  8
606355349-000-00-ED1_FORMAT
100
AcDbLine
 62
2
  6
CONTINUOUS
 10
313.6246028436
 20
54.3612169223
 11
314.2089542591
 21
54.3612169223
  0
LINE
  5
52B
100
AcDbEntity
  8
606355349-000-00-ED1_FORMAT
100
AcDbLine
 62
2
  6
CONTINUOUS
 10
315.0288327876
 20
54.3612169223
 11
315.2735477013
 21
54.3612169223
  0
LINE
  5
52C
100
AcDbEntity
  8
606355349-000-00-ED1_FORMAT
100
AcDbLine
 62
2
  6
CONTINUOUS
 10
316.1020750885
 20
54.3612169223
 11
316.3031160605
 21
54.3612169223
  0
LINE
  5
52D
100
AcDbEntity
  8
606355349-000-00-ED1_FORMAT
100
AcDbLine
 62
2
  6
CONTINUOUS
 10
317.1720069044
 20
54.3612169223
 11
318.1654360589
 21
54.3612169223
  0
LINE
  5
52E
100
AcDbEntity
  8
606355349-000-00-ED1_FORMAT
100
AcDbLine
 62
2
  6
CONTINUOUS
 10
319.2068127099
 20
54.3612169223
 11
322.2001669143
 21
54.3612169223
  0
LINE
  5
52F
100
AcDbEntity
  8
606355349-000-00-ED1_FORMAT
100
AcDbLine
 62
2
  6
CONTINUOUS
 10
303.581344064
 20
54.4612169223
 11
305.4976754456
 21
54.4612169223
  0
LINE
  5
530
100
AcDbEntity
  8
606355349-000-00-ED1_FORMAT
100
AcDbLine
 62
2
  6
CONTINUOUS
 10
309.1516114228
 20
54.4612169223
 11
310.0499259517
 21
54.4612169223
  0
LINE
  5
531
100
AcDbEntity
  8
606355349-000-00-ED1_FORMAT
100
AcDbLine
 62
2
  6
CONTINUOUS
 10
310.8780557987
 20
54.4612169223
 11
311.1772882755
 21
54.4612169223
  0
LINE
  5
532
100
AcDbEntity
  8
606355349-000-00-ED1_FORMAT
100
AcDbLine
 62
2
  6
CONTINUOUS
 10
312.0736915139
 20
54.4612169223
 11
312.7687535783
 21
54.4612169223
  0
LINE
  5
533
100
AcDbEntity
  8
606355349-000-00-ED1_FORMAT
100
AcDbLine
 62
2
  6
CONTINUOUS
 10
313.6241510544
 20
54.4612169223
 11
314.2323556081
 21
54.4612169223
  0
LINE
  5
534
100
AcDbEntity
  8
606355349-000-00-ED1_FORMAT
100
AcDbLine
 62
2
  6
CONTINUOUS
 10
315.0389016175
 20
54.4612169223
 11
315.2955979021
 21
54.4612169223
  0
LINE
  5
535
100
AcDbEntity
  8
606355349-000-00-ED1_FORMAT
100
AcDbLine
 62
2
  6
CONTINUOUS
 10
316.1160702131
 20
54.4612169223
 11
316.2882481725
 21
54.4612169223
  0
LINE
  5
536
100
AcDbEntity
  8
606355349-000-00-ED1_FORMAT
100
AcDbLine
 62
2
  6
CONTINUOUS
 10
317.154014977
 20
54.4612169223
 11
318.1654360589
 21
54.4612169223
  0
LINE
  5
537
100
AcDbEntity
  8
606355349-000-00-ED1_FORMAT
100
AcDbLine
 62
2
  6
CONTINUOUS
 10
319.2068127099
 20
54.4612169223
 11
321.9779562502
 21
54.4612169223
  0
LINE
  5
538
100
AcDbEntity
  8
606355349-000-00-ED1_FORMAT
100
AcDbLine
 62
2
  6
CONTINUOUS
 10
303.7956518259
 20
54.5612169223
 11
305.4976754456
 21
54.5612169223
  0
LINE
  5
539
100
AcDbEntity
  8
606355349-000-00-ED1_FORMAT
100
AcDbLine
 62
2
  6
CONTINUOUS
 10
309.1516114228
 20
54.5612169223
 11
310.0767476515
 21
54.5612169223
  0
LINE
  5
53A
100
AcDbEntity
  8
606355349-000-00-ED1_FORMAT
100
AcDbLine
 62
2
  6
CONTINUOUS
 10
310.9000016678
 20
54.5612169223
 11
311.1563422972
 21
54.5612169223
  0
LINE
  5
53B
100
AcDbEntity
  8
606355349-000-00-ED1_FORMAT
100
AcDbLine
 62
2
  6
CONTINUOUS
 10
312.0491885388
 20
54.5612169223
 11
312.7687535783
 21
54.5612169223
  0
LINE
  5
53C
100
AcDbEntity
  8
606355349-000-00-ED1_FORMAT
100
AcDbLine
 62
2
  6
CONTINUOUS
 10
313.6236992653
 20
54.5612169223
 11
314.2449481092
 21
54.5612169223
  0
LINE
  5
53D
100
AcDbEntity
  8
606355349-000-00-ED1_FORMAT
100
AcDbLine
 62
2
  6
CONTINUOUS
 10
315.0489704474
 20
54.5612169223
 11
315.3176481029
 21
54.5612169223
  0
LINE
  5
53E
100
AcDbEntity
  8
606355349-000-00-ED1_FORMAT
100
AcDbLine
 62
2
  6
CONTINUOUS
 10
316.1300653377
 20
54.5612169223
 11
316.2733802845
 21
54.5612169223
  0
LINE
  5
53F
100
AcDbEntity
  8
606355349-000-00-ED1_FORMAT
100
AcDbLine
 62
2
  6
CONTINUOUS
 10
317.1360230496
 20
54.5612169223
 11
318.1654360589
 21
54.5612169223
  0
LINE
  5
540
100
AcDbEntity
  8
606355349-000-00-ED1_FORMAT
100
AcDbLine
 62
2
  6
CONTINUOUS
 10
319.2068127099
 20
54.5612169223
 11
321.755745586
 21
54.5612169223
  0
LINE
  5
541
100
AcDbEntity
  8
606355349-000-00-ED1_FORMAT
100
AcDbLine
 62
2
  6
CONTINUOUS
 10
304.0099595877
 20
54.6612169223
 11
305.4976754456
 21
54.6612169223
  0
LINE
  5
542
100
AcDbEntity
  8
606355349-000-00-ED1_FORMAT
100
AcDbLine
 62
2
  6
CONTINUOUS
 10
309.1516114228
 20
54.6612169223
 11
310.1035693513
 21
54.6612169223
  0
LINE
  5
543
100
AcDbEntity
  8
606355349-000-00-ED1_FORMAT
100
AcDbLine
 62
2
  6
CONTINUOUS
 10
310.9219475369
 20
54.6612169223
 11
311.1353963189
 21
54.6612169223
  0
LINE
  5
544
100
AcDbEntity
  8
606355349-000-00-ED1_FORMAT
100
AcDbLine
 62
2
  6
CONTINUOUS
 10
312.0246855638
 20
54.6612169223
 11
312.7687535783
 21
54.6612169223
  0
LINE
  5
545
100
AcDbEntity
  8
606355349-000-00-ED1_FORMAT
100
AcDbLine
 62
2
  6
CONTINUOUS
 10
313.6232474762
 20
54.6612169223
 11
314.2513308978
 21
54.6612169223
  0
LINE
  5
546
100
AcDbEntity
  8
606355349-000-00-ED1_FORMAT
100
AcDbLine
 62
2
  6
CONTINUOUS
 10
315.0549566033
 20
54.6612169223
 11
315.3396983037
 21
54.6612169223
  0
LINE
  5
547
100
AcDbEntity
  8
606355349-000-00-ED1_FORMAT
100
AcDbLine
 62
2
  6
CONTINUOUS
 10
316.1440604624
 20
54.6612169223
 11
316.2585123965
 21
54.6612169223
  0
LINE
  5
548
100
AcDbEntity
  8
606355349-000-00-ED1_FORMAT
100
AcDbLine
 62
2
  6
CONTINUOUS
 10
317.1180311221
 20
54.6612169223
 11
318.1654360589
 21
54.6612169223
  0
LINE
  5
549
100
AcDbEntity
  8
606355349-000-00-ED1_FORMAT
100
AcDbLine
 62
2
  6
CONTINUOUS
 10
319.2068127099
 20
54.6612169223
 11
321.5335349219
 21
54.6612169223
  0
LINE
  5
54A
100
AcDbEntity
  8
606355349-000-00-ED1_FORMAT
100
AcDbLine
 62
2
  6
CONTINUOUS
 10
304.2242673496
 20
54.7612169223
 11
305.4976754456
 21
54.7612169223
  0
LINE
  5
54B
100
AcDbEntity
  8
606355349-000-00-ED1_FORMAT
100
AcDbLine
 62
2
  6
CONTINUOUS
 10
309.1516114228
 20
54.7612169223
 11
310.130391051
 21
54.7612169223
  0
LINE
  5
54C
100
AcDbEntity
  8
606355349-000-00-ED1_FORMAT
100
AcDbLine
 62
2
  6
CONTINUOUS
 10
310.9438934061
 20
54.7612169223
 11
311.1144503405
 21
54.7612169223
  0
LINE
  5
54D
100
AcDbEntity
  8
606355349-000-00-ED1_FORMAT
100
AcDbLine
 62
2
  6
CONTINUOUS
 10
312.0001825888
 20
54.7612169223
 11
312.7687535783
 21
54.7612169223
  0
LINE
  5
54E
100
AcDbEntity
  8
606355349-000-00-ED1_FORMAT
100
AcDbLine
 62
2
  6
CONTINUOUS
 10
313.622795687
 20
54.7612169223
 11
314.243276854
 21
54.7612169223
  0
LINE
  5
54F
100
AcDbEntity
  8
606355349-000-00-ED1_FORMAT
100
AcDbLine
 62
2
  6
CONTINUOUS
 10
315.0549566033
 20
54.7612169223
 11
315.3617485045
 21
54.7612169223
  0
LINE
  5
550
100
AcDbEntity
  8
606355349-000-00-ED1_FORMAT
100
AcDbLine
 62
2
  6
CONTINUOUS
 10
316.158055587
 20
54.7612169223
 11
316.2436445084
 21
54.7612169223
  0
LINE
  5
551
100
AcDbEntity
  8
606355349-000-00-ED1_FORMAT
100
AcDbLine
 62
2
  6
CONTINUOUS
 10
317.1000391947
 20
54.7612169223
 11
318.1654360589
 21
54.7612169223
  0
LINE
  5
552
100
AcDbEntity
  8
606355349-000-00-ED1_FORMAT
100
AcDbLine
 62
2
  6
CONTINUOUS
 10
319.2068127099
 20
54.7612169223
 11
321.3113242578
 21
54.7612169223
  0
LINE
  5
553
100
AcDbEntity
  8
606355349-000-00-ED1_FORMAT
100
AcDbLine
 62
2
  6
CONTINUOUS
 10
304.4385751114
 20
54.8612169223
 11
305.4976754456
 21
54.8612169223
  0
LINE
  5
554
100
AcDbEntity
  8
606355349-000-00-ED1_FORMAT
100
AcDbLine
 62
2
  6
CONTINUOUS
 10
307.3074853576
 20
54.8612169223
 11
307.3805938489
 21
54.8612169223
  0
LINE
  5
555
100
AcDbEntity
  8
606355349-000-00-ED1_FORMAT
100
AcDbLine
 62
2
  6
CONTINUOUS
 10
309.1516114228
 20
54.8612169223
 11
310.1572127508
 21
54.8612169223
  0
LINE
  5
556
100
AcDbEntity
  8
606355349-000-00-ED1_FORMAT
100
AcDbLine
 62
2
  6
CONTINUOUS
 10
310.9658392752
 20
54.8612169223
 11
311.0935043622
 21
54.8612169223
  0
LINE
  5
557
100
AcDbEntity
  8
606355349-000-00-ED1_FORMAT
100
AcDbLine
 62
2
  6
CONTINUOUS
 10
311.9756796138
 20
54.8612169223
 11
312.7687535783
 21
54.8612169223
  0
LINE
  5
558
100
AcDbEntity
  8
606355349-000-00-ED1_FORMAT
100
AcDbLine
 62
2
  6
CONTINUOUS
 10
313.6223438979
 20
54.8612169223
 11
314.2224299404
 21
54.8612169223
  0
LINE
  5
559
100
AcDbEntity
  8
606355349-000-00-ED1_FORMAT
100
AcDbLine
 62
2
  6
CONTINUOUS
 10
315.0544618239
 20
54.8612169223
 11
315.3837987053
 21
54.8612169223
  0
LINE
  5
55A
100
AcDbEntity
  8
606355349-000-00-ED1_FORMAT
100
AcDbLine
 62
2
  6
CONTINUOUS
 10
316.1720507117
 20
54.8612169223
 11
316.2287766204
 21
54.8612169223
  0
LINE
  5
55B
100
AcDbEntity
  8
606355349-000-00-ED1_FORMAT
100
AcDbLine
 62
2
  6
CONTINUOUS
 10
317.0820472673
 20
54.8612169223
 11
318.1654360589
 21
54.8612169223
  0
LINE
  5
55C
100
AcDbEntity
  8
606355349-000-00-ED1_FORMAT
100
AcDbLine
 62
2
  6
CONTINUOUS
 10
319.2068127099
 20
54.8612169223
 11
321.0891135937
 21
54.8612169223
  0
LINE
  5
55D
100
AcDbEntity
  8
606355349-000-00-ED1_FORMAT
100
AcDbLine
 62
2
  6
CONTINUOUS
 10
304.6528828733
 20
54.9612169223
 11
305.4976754456
 21
54.9612169223
  0
LINE
  5
55E
100
AcDbEntity
  8
606355349-000-00-ED1_FORMAT
100
AcDbLine
 62
2
  6
CONTINUOUS
 10
307.2747904084
 20
54.9612169223
 11
307.4465769883
 21
54.9612169223
  0
LINE
  5
55F
100
AcDbEntity
  8
606355349-000-00-ED1_FORMAT
100
AcDbLine
 62
2
  6
CONTINUOUS
 10
309.1516114228
 20
54.9612169223
 11
310.1840344505
 21
54.9612169223
  0
LINE
  5
560
100
AcDbEntity
  8
606355349-000-00-ED1_FORMAT
100
AcDbLine
 62
2
  6
CONTINUOUS
 10
310.9877851444
 20
54.9612169223
 11
311.0725583839
 21
54.9612169223
  0
LINE
  5
561
100
AcDbEntity
  8
606355349-000-00-ED1_FORMAT
100
AcDbLine
 62
2
  6
CONTINUOUS
 10
311.9511766388
 20
54.9612169223
 11
312.7687535783
 21
54.9612169223
  0
LINE
  5
562
100
AcDbEntity
  8
606355349-000-00-ED1_FORMAT
100
AcDbLine
 62
2
  6
CONTINUOUS
 10
313.6218921087
 20
54.9612169223
 11
314.1772743447
 21
54.9612169223
  0
LINE
  5
563
100
AcDbEntity
  8
606355349-000-00-ED1_FORMAT
100
AcDbLine
 62
2
  6
CONTINUOUS
 10
315.0419741551
 20
54.9612169223
 11
315.4058489061
 21
54.9612169223
  0
LINE
  5
564
100
AcDbEntity
  8
606355349-000-00-ED1_FORMAT
100
AcDbLine
 62
2
  6
CONTINUOUS
 10
316.1860458363
 20
54.9612169223
 11
316.2139087324
 21
54.9612169223
  0
LINE
  5
565
100
AcDbEntity
  8
606355349-000-00-ED1_FORMAT
100
AcDbLine
 62
2
  6
CONTINUOUS
 10
317.0640553398
 20
54.9612169223
 11
318.1654360589
 21
54.9612169223
  0
LINE
  5
566
100
AcDbEntity
  8
606355349-000-00-ED1_FORMAT
100
AcDbLine
 62
2
  6
CONTINUOUS
 10
319.2068127099
 20
54.9612169223
 11
320.8669029295
 21
54.9612169223
  0
LINE
  5
567
100
AcDbEntity
  8
606355349-000-00-ED1_FORMAT
100
AcDbLine
 62
2
  6
CONTINUOUS
 10
304.8671906351
 20
55.0612169223
 11
305.4976754456
 21
55.0612169223
  0
LINE
  5
568
100
AcDbEntity
  8
606355349-000-00-ED1_FORMAT
100
AcDbLine
 62
2
  6
CONTINUOUS
 10
307.2420954592
 20
55.0612169223
 11
307.5125601276
 21
55.0612169223
  0
LINE
  5
569
100
AcDbEntity
  8
606355349-000-00-ED1_FORMAT
100
AcDbLine
 62
2
  6
CONTINUOUS
 10
309.1516114228
 20
55.0612169223
 11
310.2108561503
 21
55.0612169223
  0
LINE
  5
56A
100
AcDbEntity
  8
606355349-000-00-ED1_FORMAT
100
AcDbLine
 62
2
  6
CONTINUOUS
 10
311.0097310135
 20
55.0612169223
 11
311.0516124055
 21
55.0612169223
  0
LINE
  5
56B
100
AcDbEntity
  8
606355349-000-00-ED1_FORMAT
100
AcDbLine
 62
2
  6
CONTINUOUS
 10
311.9266736638
 20
55.0612169223
 11
312.7687535783
 21
55.0612169223
  0
LINE
  5
56C
100
AcDbEntity
  8
606355349-000-00-ED1_FORMAT
100
AcDbLine
 62
2
  6
CONTINUOUS
 10
313.6214403196
 20
55.0612169223
 11
314.0823675722
 21
55.0612169223
  0
LINE
  5
56D
100
AcDbEntity
  8
606355349-000-00-ED1_FORMAT
100
AcDbLine
 62
2
  6
CONTINUOUS
 10
315.0186315978
 20
55.0612169223
 11
315.4278991068
 21
55.0612169223
  0
LINE
  5
56E
100
AcDbEntity
  8
606355349-000-00-ED1_FORMAT
100
AcDbLine
 62
2
  6
CONTINUOUS
 10
317.0460634124
 20
55.0612169223
 11
318.1654360589
 21
55.0612169223
  0
LINE
  5
56F
100
AcDbEntity
  8
606355349-000-00-ED1_FORMAT
100
AcDbLine
 62
2
  6
CONTINUOUS
 10
319.2068127099
 20
55.0612169223
 11
320.6446922654
 21
55.0612169223
  0
LINE
  5
570
100
AcDbEntity
  8
606355349-000-00-ED1_FORMAT
100
AcDbLine
 62
2
  6
CONTINUOUS
 10
305.081498397
 20
55.1612169223
 11
305.4976754456
 21
55.1612169223
  0
LINE
  5
571
100
AcDbEntity
  8
606355349-000-00-ED1_FORMAT
100
AcDbLine
 62
2
  6
CONTINUOUS
 10
307.20940051
 20
55.1612169223
 11
307.578543267
 21
55.1612169223
  0
LINE
  5
572
100
AcDbEntity
  8
606355349-000-00-ED1_FORMAT
100
AcDbLine
 62
2
  6
CONTINUOUS
 10
309.1516114228
 20
55.1612169223
 11
310.2376778501
 21
55.1612169223
  0
LINE
  5
573
100
AcDbEntity
  8
606355349-000-00-ED1_FORMAT
100
AcDbLine
 62
2
  6
CONTINUOUS
 10
311.9021706888
 20
55.1612169223
 11
312.7687535783
 21
55.1612169223
  0
LINE
  5
574
100
AcDbEntity
  8
606355349-000-00-ED1_FORMAT
100
AcDbLine
 62
2
  6
CONTINUOUS
 10
313.6209885304
 20
55.1612169223
 11
313.648597506
 21
55.1612169223
  0
LINE
  5
575
100
AcDbEntity
  8
606355349-000-00-ED1_FORMAT
100
AcDbLine
 62
2
  6
CONTINUOUS
 10
314.9929590246
 20
55.1612169223
 11
315.4499493076
 21
55.1612169223
  0
LINE
  5
576
100
AcDbEntity
  8
606355349-000-00-ED1_FORMAT
100
AcDbLine
 62
2
  6
CONTINUOUS
 10
317.028071485
 20
55.1612169223
 11
318.1654360589
 21
55.1612169223
  0
LINE
  5
577
100
AcDbEntity
  8
606355349-000-00-ED1_FORMAT
100
AcDbLine
 62
2
  6
CONTINUOUS
 10
319.2068127099
 20
55.1612169223
 11
320.4224816013
 21
55.1612169223
  0
LINE
  5
578
100
AcDbEntity
  8
606355349-000-00-ED1_FORMAT
100
AcDbLine
 62
2
  6
CONTINUOUS
 10
305.0855867265
 20
55.2612169223
 11
305.4976754456
 21
55.2612169223
  0
LINE
  5
579
100
AcDbEntity
  8
606355349-000-00-ED1_FORMAT
100
AcDbLine
 62
2
  6
CONTINUOUS
 10
307.1767055608
 20
55.2612169223
 11
307.6445264063
 21
55.2612169223
  0
LINE
  5
57A
100
AcDbEntity
  8
606355349-000-00-ED1_FORMAT
100
AcDbLine
 62
2
  6
CONTINUOUS
 10
309.1516114228
 20
55.2612169223
 11
310.2644995498
 21
55.2612169223
  0
LINE
  5
57B
100
AcDbEntity
  8
606355349-000-00-ED1_FORMAT
100
AcDbLine
 62
2
  6
CONTINUOUS
 10
311.8776677138
 20
55.2612169223
 11
312.7687535783
 21
55.2612169223
  0
LINE
  5
57C
100
AcDbEntity
  8
606355349-000-00-ED1_FORMAT
100
AcDbLine
 62
2
  6
CONTINUOUS
 10
314.952943952
 20
55.2612169223
 11
315.4719995084
 21
55.2612169223
  0
LINE
  5
57D
100
AcDbEntity
  8
606355349-000-00-ED1_FORMAT
100
AcDbLine
 62
2
  6
CONTINUOUS
 10
317.0100795575
 20
55.2612169223
 11
318.1654360589
 21
55.2612169223
  0
LINE
  5
57E
100
AcDbEntity
  8
606355349-000-00-ED1_FORMAT
100
AcDbLine
 62
2
  6
CONTINUOUS
 10
319.2068127099
 20
55.2612169223
 11
320.2002709371
 21
55.2612169223
  0
LINE
  5
57F
100
AcDbEntity
  8
606355349-000-00-ED1_FORMAT
100
AcDbLine
 62
2
  6
CONTINUOUS
 10
305.0855867265
 20
55.3612169223
 11
305.4976754456
 21
55.3612169223
  0
LINE
  5
580
100
AcDbEntity
  8
606355349-000-00-ED1_FORMAT
100
AcDbLine
 62
2
  6
CONTINUOUS
 10
307.1440106116
 20
55.3612169223
 11
307.7105095457
 21
55.3612169223
  0
LINE
  5
581
100
AcDbEntity
  8
606355349-000-00-ED1_FORMAT
100
AcDbLine
 62
2
  6
CONTINUOUS
 10
309.1516114228
 20
55.3612169223
 11
310.2913212496
 21
55.3612169223
  0
LINE
  5
582
100
AcDbEntity
  8
606355349-000-00-ED1_FORMAT
100
AcDbLine
 62
2
  6
CONTINUOUS
 10
311.8531647388
 20
55.3612169223
 11
312.7687535783
 21
55.3612169223
  0
LINE
  5
583
100
AcDbEntity
  8
606355349-000-00-ED1_FORMAT
100
AcDbLine
 62
2
  6
CONTINUOUS
 10
314.8979235488
 20
55.3612169223
 11
315.4940497092
 21
55.3612169223
  0
LINE
  5
584
100
AcDbEntity
  8
606355349-000-00-ED1_FORMAT
100
AcDbLine
 62
2
  6
CONTINUOUS
 10
316.9920876301
 20
55.3612169223
 11
318.1654360589
 21
55.3612169223
  0
LINE
  5
585
100
AcDbEntity
  8
606355349-000-00-ED1_FORMAT
100
AcDbLine
 62
2
  6
CONTINUOUS
 10
319.2068127099
 20
55.3612169223
 11
319.978060273
 21
55.3612169223
  0
LINE
  5
586
100
AcDbEntity
  8
606355349-000-00-ED1_FORMAT
100
AcDbLine
 62
2
  6
CONTINUOUS
 10
305.0855867265
 20
55.4612169223
 11
305.4976754456
 21
55.4612169223
  0
LINE
  5
587
100
AcDbEntity
  8
606355349-000-00-ED1_FORMAT
100
AcDbLine
 62
2
  6
CONTINUOUS
 10
307.1113156624
 20
55.4612169223
 11
307.776492685
 21
55.4612169223
  0
LINE
  5
588
100
AcDbEntity
  8
606355349-000-00-ED1_FORMAT
100
AcDbLine
 62
2
  6
CONTINUOUS
 10
309.1516114228
 20
55.4612169223
 11
310.3181429493
 21
55.4612169223
  0
LINE
  5
589
100
AcDbEntity
  8
606355349-000-00-ED1_FORMAT
100
AcDbLine
 62
2
  6
CONTINUOUS
 10
311.8286617638
 20
55.4612169223
 11
312.7687535783
 21
55.4612169223
  0
LINE
  5
58A
100
AcDbEntity
  8
606355349-000-00-ED1_FORMAT
100
AcDbLine
 62
2
  6
CONTINUOUS
 10
314.8293698291
 20
55.4612169223
 11
315.51609991
 21
55.4612169223
  0
LINE
  5
58B
100
AcDbEntity
  8
606355349-000-00-ED1_FORMAT
100
AcDbLine
 62
2
  6
CONTINUOUS
 10
316.9740957027
 20
55.4612169223
 11
318.1654360589
 21
55.4612169223
  0
LINE
  5
58C
100
AcDbEntity
  8
606355349-000-00-ED1_FORMAT
100
AcDbLine
 62
2
  6
CONTINUOUS
 10
319.2068127099
 20
55.4612169223
 11
319.7558496089
 21
55.4612169223
  0
LINE
  5
58D
100
AcDbEntity
  8
606355349-000-00-ED1_FORMAT
100
AcDbLine
 62
2
  6
CONTINUOUS
 10
305.0855867265
 20
55.5612169223
 11
305.4976754456
 21
55.5612169223
  0
LINE
  5
58E
100
AcDbEntity
  8
606355349-000-00-ED1_FORMAT
100
AcDbLine
 62
2
  6
CONTINUOUS
 10
307.0786207132
 20
55.5612169223
 11
307.8424758243
 21
55.5612169223
  0
LINE
  5
58F
100
AcDbEntity
  8
606355349-000-00-ED1_FORMAT
100
AcDbLine
 62
2
  6
CONTINUOUS
 10
309.1516114228
 20
55.5612169223
 11
310.3449646491
 21
55.5612169223
  0
LINE
  5
590
100
AcDbEntity
  8
606355349-000-00-ED1_FORMAT
100
AcDbLine
 62
2
  6
CONTINUOUS
 10
311.8041587888
 20
55.5612169223
 11
312.7687535783
 21
55.5612169223
  0
LINE
  5
591
100
AcDbEntity
  8
606355349-000-00-ED1_FORMAT
100
AcDbLine
 62
2
  6
CONTINUOUS
 10
314.7385066587
 20
55.5612169223
 11
315.5381501108
 21
55.5612169223
  0
LINE
  5
592
100
AcDbEntity
  8
606355349-000-00-ED1_FORMAT
100
AcDbLine
 62
2
  6
CONTINUOUS
 10
316.9561037752
 20
55.5612169223
 11
318.1654360589
 21
55.5612169223
  0
LINE
  5
593
100
AcDbEntity
  8
606355349-000-00-ED1_FORMAT
100
AcDbLine
 62
2
  6
CONTINUOUS
 10
319.2068127099
 20
55.5612169223
 11
319.6064909387
 21
55.5612169223
  0
LINE
  5
594
100
AcDbEntity
  8
606355349-000-00-ED1_FORMAT
100
AcDbLine
 62
2
  6
CONTINUOUS
 10
305.0855867265
 20
55.6612169223
 11
305.4976754456
 21
55.6612169223
  0
LINE
  5
595
100
AcDbEntity
  8
606355349-000-00-ED1_FORMAT
100
AcDbLine
 62
2
  6
CONTINUOUS
 10
307.045925764
 20
55.6612169223
 11
307.9084589637
 21
55.6612169223
  0
LINE
  5
596
100
AcDbEntity
  8
606355349-000-00-ED1_FORMAT
100
AcDbLine
 62
2
  6
CONTINUOUS
 10
309.1516114228
 20
55.6612169223
 11
310.3717863489
 21
55.6612169223
  0
LINE
  5
597
100
AcDbEntity
  8
606355349-000-00-ED1_FORMAT
100
AcDbLine
 62
2
  6
CONTINUOUS
 10
311.7796558138
 20
55.6612169223
 11
312.7687535783
 21
55.6612169223
  0
LINE
  5
598
100
AcDbEntity
  8
606355349-000-00-ED1_FORMAT
100
AcDbLine
 62
2
  6
CONTINUOUS
 10
314.6299847361
 20
55.6612169223
 11
315.5602003116
 21
55.6612169223
  0
LINE
  5
599
100
AcDbEntity
  8
606355349-000-00-ED1_FORMAT
100
AcDbLine
 62
2
  6
CONTINUOUS
 10
316.9381118478
 20
55.6612169223
 11
318.1654360589
 21
55.6612169223
  0
LINE
  5
59A
100
AcDbEntity
  8
606355349-000-00-ED1_FORMAT
100
AcDbLine
 62
2
  6
CONTINUOUS
 10
319.2068127099
 20
55.6612169223
 11
319.6064909387
 21
55.6612169223
  0
LINE
  5
59B
100
AcDbEntity
  8
606355349-000-00-ED1_FORMAT
100
AcDbLine
 62
2
  6
CONTINUOUS
 10
305.0855867265
 20
55.7612169223
 11
305.4976754456
 21
55.7612169223
  0
LINE
  5
59C
100
AcDbEntity
  8
606355349-000-00-ED1_FORMAT
100
AcDbLine
 62
2
  6
CONTINUOUS
 10
307.0132308148
 20
55.7612169223
 11
307.974442103
 21
55.7612169223
  0
LINE
  5
59D
100
AcDbEntity
  8
606355349-000-00-ED1_FORMAT
100
AcDbLine
 62
2
  6
CONTINUOUS
 10
309.1516114228
 20
55.7612169223
 11
310.3986080486
 21
55.7612169223
  0
LINE
  5
59E
100
AcDbEntity
  8
606355349-000-00-ED1_FORMAT
100
AcDbLine
 62
2
  6
CONTINUOUS
 10
311.7551528388
 20
55.7612169223
 11
312.7687535783
 21
55.7612169223
  0
LINE
  5
59F
100
AcDbEntity
  8
606355349-000-00-ED1_FORMAT
100
AcDbLine
 62
2
  6
CONTINUOUS
 10
314.4704308002
 20
55.7612169223
 11
315.5822505124
 21
55.7612169223
  0
LINE
  5
5A0
100
AcDbEntity
  8
606355349-000-00-ED1_FORMAT
100
AcDbLine
 62
2
  6
CONTINUOUS
 10
316.9201199204
 20
55.7612169223
 11
318.1654360589
 21
55.7612169223
  0
LINE
  5
5A1
100
AcDbEntity
  8
606355349-000-00-ED1_FORMAT
100
AcDbLine
 62
2
  6
CONTINUOUS
 10
319.2068127099
 20
55.7612169223
 11
319.6064909387
 21
55.7612169223
  0
LINE
  5
5A2
100
AcDbEntity
  8
606355349-000-00-ED1_FORMAT
100
AcDbLine
 62
2
  6
CONTINUOUS
 10
305.0855867265
 20
55.8612169223
 11
305.4976754456
 21
55.8612169223
  0
LINE
  5
5A3
100
AcDbEntity
  8
606355349-000-00-ED1_FORMAT
100
AcDbLine
 62
2
  6
CONTINUOUS
 10
306.9805358656
 20
55.8612169223
 11
308.0404252424
 21
55.8612169223
  0
LINE
  5
5A4
100
AcDbEntity
  8
606355349-000-00-ED1_FORMAT
100
AcDbLine
 62
2
  6
CONTINUOUS
 10
309.1516114228
 20
55.8612169223
 11
310.4254297484
 21
55.8612169223
  0
LINE
  5
5A5
100
AcDbEntity
  8
606355349-000-00-ED1_FORMAT
100
AcDbLine
 62
2
  6
CONTINUOUS
 10
311.7306498637
 20
55.8612169223
 11
312.7687535783
 21
55.8612169223
  0
LINE
  5
5A6
100
AcDbEntity
  8
606355349-000-00-ED1_FORMAT
100
AcDbLine
 62
2
  6
CONTINUOUS
 10
314.2272767393
 20
55.8612169223
 11
315.6043007131
 21
55.8612169223
  0
LINE
  5
5A7
100
AcDbEntity
  8
606355349-000-00-ED1_FORMAT
100
AcDbLine
 62
2
  6
CONTINUOUS
 10
316.9021279929
 20
55.8612169223
 11
318.1654360589
 21
55.8612169223
  0
LINE
  5
5A8
100
AcDbEntity
  8
606355349-000-00-ED1_FORMAT
100
AcDbLine
 62
2
  6
CONTINUOUS
 10
319.2068127099
 20
55.8612169223
 11
319.6064909387
 21
55.8612169223
  0
LINE
  5
5A9
100
AcDbEntity
  8
606355349-000-00-ED1_FORMAT
100
AcDbLine
 62
2
  6
CONTINUOUS
 10
305.0855867265
 20
55.9612169223
 11
305.4976754456
 21
55.9612169223
  0
LINE
  5
5AA
100
AcDbEntity
  8
606355349-000-00-ED1_FORMAT
100
AcDbLine
 62
2
  6
CONTINUOUS
 10
306.9478409164
 20
55.9612169223
 11
308.1064083817
 21
55.9612169223
  0
LINE
  5
5AB
100
AcDbEntity
  8
606355349-000-00-ED1_FORMAT
100
AcDbLine
 62
2
  6
CONTINUOUS
 10
309.1516114228
 20
55.9612169223
 11
310.4522514481
 21
55.9612169223
  0
LINE
  5
5AC
100
AcDbEntity
  8
606355349-000-00-ED1_FORMAT
100
AcDbLine
 62
2
  6
CONTINUOUS
 10
310.5444356071
 20
55.9612169223
 11
315.6263509139
 21
55.9612169223
  0
LINE
  5
5AD
100
AcDbEntity
  8
606355349-000-00-ED1_FORMAT
100
AcDbLine
 62
2
  6
CONTINUOUS
 10
316.8841360655
 20
55.9612169223
 11
318.1654360589
 21
55.9612169223
  0
LINE
  5
5AE
100
AcDbEntity
  8
606355349-000-00-ED1_FORMAT
100
AcDbLine
 62
2
  6
CONTINUOUS
 10
319.2068127099
 20
55.9612169223
 11
319.6064909387
 21
55.9612169223
  0
LINE
  5
5AF
100
AcDbEntity
  8
606355349-000-00-ED1_FORMAT
100
AcDbLine
 62
2
  6
CONTINUOUS
 10
305.0855867265
 20
56.0612169223
 11
305.4976754456
 21
56.0612169223
  0
LINE
  5
5B0
100
AcDbEntity
  8
606355349-000-00-ED1_FORMAT
100
AcDbLine
 62
2
  6
CONTINUOUS
 10
306.9151459672
 20
56.0612169223
 11
308.1723915211
 21
56.0612169223
  0
LINE
  5
5B1
100
AcDbEntity
  8
606355349-000-00-ED1_FORMAT
100
AcDbLine
 62
2
  6
CONTINUOUS
 10
309.1516114228
 20
56.0612169223
 11
315.6484011147
 21
56.0612169223
  0
LINE
  5
5B2
100
AcDbEntity
  8
606355349-000-00-ED1_FORMAT
100
AcDbLine
 62
2
  6
CONTINUOUS
 10
316.8661441381
 20
56.0612169223
 11
318.1654360589
 21
56.0612169223
  0
LINE
  5
5B3
100
AcDbEntity
  8
606355349-000-00-ED1_FORMAT
100
AcDbLine
 62
2
  6
CONTINUOUS
 10
319.2068127099
 20
56.0612169223
 11
319.6064909387
 21
56.0612169223
  0
LINE
  5
5B4
100
AcDbEntity
  8
606355349-000-00-ED1_FORMAT
100
AcDbLine
 62
2
  6
CONTINUOUS
 10
305.0855867265
 20
56.1612169223
 11
305.4976754456
 21
56.1612169223
  0
LINE
  5
5B5
100
AcDbEntity
  8
606355349-000-00-ED1_FORMAT
100
AcDbLine
 62
2
  6
CONTINUOUS
 10
306.882451018
 20
56.1612169223
 11
307.0650673072
 21
56.1612169223
  0
LINE
  5
5B6
100
AcDbEntity
  8
606355349-000-00-ED1_FORMAT
100
AcDbLine
 62
2
  6
CONTINUOUS
 10
307.2244391185
 20
56.1612169223
 11
308.2383746604
 21
56.1612169223
  0
LINE
  5
5B7
100
AcDbEntity
  8
606355349-000-00-ED1_FORMAT
100
AcDbLine
 62
2
  6
CONTINUOUS
 10
308.9936781125
 20
56.1612169223
 11
315.9049870492
 21
56.1612169223
  0
LINE
  5
5B8
100
AcDbEntity
  8
606355349-000-00-ED1_FORMAT
100
AcDbLine
 62
2
  6
CONTINUOUS
 10
316.8481522107
 20
56.1612169223
 11
318.1654360589
 21
56.1612169223
  0
LINE
  5
5B9
100
AcDbEntity
  8
606355349-000-00-ED1_FORMAT
100
AcDbLine
 62
2
  6
CONTINUOUS
 10
319.2068127099
 20
56.1612169223
 11
319.6064909387
 21
56.1612169223
  0
LINE
  5
5BA
100
AcDbEntity
  8
606355349-000-00-ED1_FORMAT
100
AcDbLine
 62
2
  6
CONTINUOUS
 10
305.0855867265
 20
56.2612169223
 11
305.4976754456
 21
56.2612169223
  0
LINE
  5
5BB
100
AcDbEntity
  8
606355349-000-00-ED1_FORMAT
100
AcDbLine
 62
2
  6
CONTINUOUS
 10
306.8497560688
 20
56.2612169223
 11
307.0311892349
 21
56.2612169223
  0
LINE
  5
5BC
100
AcDbEntity
  8
606355349-000-00-ED1_FORMAT
100
AcDbLine
 62
2
  6
CONTINUOUS
 10
307.4387402694
 20
56.2612169223
 11
308.3043577998
 21
56.2612169223
  0
LINE
  5
5BD
100
AcDbEntity
  8
606355349-000-00-ED1_FORMAT
100
AcDbLine
 62
2
  6
CONTINUOUS
 10
308.5068560725
 20
56.2612169223
 11
316.3485939609
 21
56.2612169223
  0
LINE
  5
5BE
100
AcDbEntity
  8
606355349-000-00-ED1_FORMAT
100
AcDbLine
 62
2
  6
CONTINUOUS
 10
316.8301602832
 20
56.2612169223
 11
318.1654360589
 21
56.2612169223
  0
LINE
  5
5BF
100
AcDbEntity
  8
606355349-000-00-ED1_FORMAT
100
AcDbLine
 62
2
  6
CONTINUOUS
 10
319.2068127099
 20
56.2612169223
 11
319.6064909387
 21
56.2612169223
  0
LINE
  5
5C0
100
AcDbEntity
  8
606355349-000-00-ED1_FORMAT
100
AcDbLine
 62
2
  6
CONTINUOUS
 10
305.0855867265
 20
56.3612169223
 11
305.4976754456
 21
56.3612169223
  0
LINE
  5
5C1
100
AcDbEntity
  8
606355349-000-00-ED1_FORMAT
100
AcDbLine
 62
2
  6
CONTINUOUS
 10
306.8170611196
 20
56.3612169223
 11
306.9973111626
 21
56.3612169223
  0
LINE
  5
5C2
100
AcDbEntity
  8
606355349-000-00-ED1_FORMAT
100
AcDbLine
 62
2
  6
CONTINUOUS
 10
307.6530414203
 20
56.3612169223
 11
316.7922008727
 21
56.3612169223
  0
LINE
  5
5C3
100
AcDbEntity
  8
606355349-000-00-ED1_FORMAT
100
AcDbLine
 62
2
  6
CONTINUOUS
 10
316.8121683558
 20
56.3612169223
 11
317.7559843721
 21
56.3612169223
  0
LINE
  5
5C4
100
AcDbEntity
  8
606355349-000-00-ED1_FORMAT
100
AcDbLine
 62
2
  6
CONTINUOUS
 10
317.9768299493
 20
56.3612169223
 11
318.1654360589
 21
56.3612169223
  0
LINE
  5
5C5
100
AcDbEntity
  8
606355349-000-00-ED1_FORMAT
100
AcDbLine
 62
2
  6
CONTINUOUS
 10
319.2068127099
 20
56.3612169223
 11
319.6064909387
 21
56.3612169223
  0
LINE
  5
5C6
100
AcDbEntity
  8
606355349-000-00-ED1_FORMAT
100
AcDbLine
 62
2
  6
CONTINUOUS
 10
305.0855867265
 20
56.4612169223
 11
305.4976754456
 21
56.4612169223
  0
LINE
  5
5C7
100
AcDbEntity
  8
606355349-000-00-ED1_FORMAT
100
AcDbLine
 62
2
  6
CONTINUOUS
 10
306.7843661705
 20
56.4612169223
 11
306.9634330903
 21
56.4612169223
  0
LINE
  5
5C8
100
AcDbEntity
  8
606355349-000-00-ED1_FORMAT
100
AcDbLine
 62
2
  6
CONTINUOUS
 10
307.8673425713
 20
56.4612169223
 11
317.5337737463
 21
56.4612169223
  0
LINE
  5
5C9
100
AcDbEntity
  8
606355349-000-00-ED1_FORMAT
100
AcDbLine
 62
2
  6
CONTINUOUS
 10
317.9768299493
 20
56.4612169223
 11
318.1654360589
 21
56.4612169223
  0
LINE
  5
5CA
100
AcDbEntity
  8
606355349-000-00-ED1_FORMAT
100
AcDbLine
 62
2
  6
CONTINUOUS
 10
319.2068127099
 20
56.4612169223
 11
319.6064909387
 21
56.4612169223
  0
LINE
  5
5CB
100
AcDbEntity
  8
606355349-000-00-ED1_FORMAT
100
AcDbLine
 62
2
  6
CONTINUOUS
 10
305.0855867265
 20
56.5612169223
 11
305.4976754456
 21
56.5612169223
  0
LINE
  5
5CC
100
AcDbEntity
  8
606355349-000-00-ED1_FORMAT
100
AcDbLine
 62
2
  6
CONTINUOUS
 10
306.7516712213
 20
56.5612169223
 11
306.929555018
 21
56.5612169223
  0
LINE
  5
5CD
100
AcDbEntity
  8
606355349-000-00-ED1_FORMAT
100
AcDbLine
 62
2
  6
CONTINUOUS
 10
308.0816437222
 20
56.5612169223
 11
317.3115631205
 21
56.5612169223
  0
LINE
  5
5CE
100
AcDbEntity
  8
606355349-000-00-ED1_FORMAT
100
AcDbLine
 62
2
  6
CONTINUOUS
 10
317.9768299493
 20
56.5612169223
 11
318.1654360589
 21
56.5612169223
  0
LINE
  5
5CF
100
AcDbEntity
  8
606355349-000-00-ED1_FORMAT
100
AcDbLine
 62
2
  6
CONTINUOUS
 10
319.2068127099
 20
56.5612169223
 11
319.6064909387
 21
56.5612169223
  0
LINE
  5
5D0
100
AcDbEntity
  8
606355349-000-00-ED1_FORMAT
100
AcDbLine
 62
2
  6
CONTINUOUS
 10
305.0855867265
 20
56.6612169223
 11
305.4976754456
 21
56.6612169223
  0
LINE
  5
5D1
100
AcDbEntity
  8
606355349-000-00-ED1_FORMAT
100
AcDbLine
 62
2
  6
CONTINUOUS
 10
306.7189762721
 20
56.6612169223
 11
306.8956769457
 21
56.6612169223
  0
LINE
  5
5D2
100
AcDbEntity
  8
606355349-000-00-ED1_FORMAT
100
AcDbLine
 62
2
  6
CONTINUOUS
 10
308.2959448731
 20
56.6612169223
 11
317.0893524946
 21
56.6612169223
  0
LINE
  5
5D3
100
AcDbEntity
  8
606355349-000-00-ED1_FORMAT
100
AcDbLine
 62
2
  6
CONTINUOUS
 10
317.9768299493
 20
56.6612169223
 11
318.1654360589
 21
56.6612169223
  0
LINE
  5
5D4
100
AcDbEntity
  8
606355349-000-00-ED1_FORMAT
100
AcDbLine
 62
2
  6
CONTINUOUS
 10
319.2068127099
 20
56.6612169223
 11
319.6064909387
 21
56.6612169223
  0
LINE
  5
5D5
100
AcDbEntity
  8
606355349-000-00-ED1_FORMAT
100
AcDbLine
 62
2
  6
CONTINUOUS
 10
305.0855867265
 20
56.7612169223
 11
305.4976754456
 21
56.7612169223
  0
LINE
  5
5D6
100
AcDbEntity
  8
606355349-000-00-ED1_FORMAT
100
AcDbLine
 62
2
  6
CONTINUOUS
 10
306.6862813229
 20
56.7612169223
 11
306.8617988734
 21
56.7612169223
  0
LINE
  5
5D7
100
AcDbEntity
  8
606355349-000-00-ED1_FORMAT
100
AcDbLine
 62
2
  6
CONTINUOUS
 10
308.510246024
 20
56.7612169223
 11
316.8671418688
 21
56.7612169223
  0
LINE
  5
5D8
100
AcDbEntity
  8
606355349-000-00-ED1_FORMAT
100
AcDbLine
 62
2
  6
CONTINUOUS
 10
317.9768299493
 20
56.7612169223
 11
318.1654360589
 21
56.7612169223
  0
LINE
  5
5D9
100
AcDbEntity
  8
606355349-000-00-ED1_FORMAT
100
AcDbLine
 62
2
  6
CONTINUOUS
 10
319.2068127099
 20
56.7612169223
 11
319.6064909387
 21
56.7612169223
  0
LINE
  5
5DA
100
AcDbEntity
  8
606355349-000-00-ED1_FORMAT
100
AcDbLine
 62
2
  6
CONTINUOUS
 10
305.0855867265
 20
56.8612169223
 11
305.4976754456
 21
56.8612169223
  0
LINE
  5
5DB
100
AcDbEntity
  8
606355349-000-00-ED1_FORMAT
100
AcDbLine
 62
2
  6
CONTINUOUS
 10
306.6535863737
 20
56.8612169223
 11
306.8279208011
 21
56.8612169223
  0
LINE
  5
5DC
100
AcDbEntity
  8
606355349-000-00-ED1_FORMAT
100
AcDbLine
 62
2
  6
CONTINUOUS
 10
308.7245471749
 20
56.8612169223
 11
316.6449312429
 21
56.8612169223
  0
LINE
  5
5DD
100
AcDbEntity
  8
606355349-000-00-ED1_FORMAT
100
AcDbLine
 62
2
  6
CONTINUOUS
 10
317.9768299493
 20
56.8612169223
 11
318.1654360589
 21
56.8612169223
  0
LINE
  5
5DE
100
AcDbEntity
  8
606355349-000-00-ED1_FORMAT
100
AcDbLine
 62
2
  6
CONTINUOUS
 10
319.2068127099
 20
56.8612169223
 11
319.6064909387
 21
56.8612169223
  0
LINE
  5
5DF
100
AcDbEntity
  8
606355349-000-00-ED1_FORMAT
100
AcDbLine
 62
2
  6
CONTINUOUS
 10
305.0855867265
 20
56.9612169223
 11
305.4976754456
 21
56.9612169223
  0
LINE
  5
5E0
100
AcDbEntity
  8
606355349-000-00-ED1_FORMAT
100
AcDbLine
 62
2
  6
CONTINUOUS
 10
306.6208914245
 20
56.9612169223
 11
306.7940427288
 21
56.9612169223
  0
LINE
  5
5E1
100
AcDbEntity
  8
606355349-000-00-ED1_FORMAT
100
AcDbLine
 62
2
  6
CONTINUOUS
 10
308.9388483258
 20
56.9612169223
 11
316.4227206171
 21
56.9612169223
  0
LINE
  5
5E2
100
AcDbEntity
  8
606355349-000-00-ED1_FORMAT
100
AcDbLine
 62
2
  6
CONTINUOUS
 10
317.9768299493
 20
56.9612169223
 11
318.1654360589
 21
56.9612169223
  0
LINE
  5
5E3
100
AcDbEntity
  8
606355349-000-00-ED1_FORMAT
100
AcDbLine
 62
2
  6
CONTINUOUS
 10
319.2068127099
 20
56.9612169223
 11
319.6064909387
 21
56.9612169223
  0
LINE
  5
5E4
100
AcDbEntity
  8
606355349-000-00-ED1_FORMAT
100
AcDbLine
 62
2
  6
CONTINUOUS
 10
305.0855867265
 20
57.0612169223
 11
305.4976754456
 21
57.0612169223
  0
LINE
  5
5E5
100
AcDbEntity
  8
606355349-000-00-ED1_FORMAT
100
AcDbLine
 62
2
  6
CONTINUOUS
 10
306.5881964753
 20
57.0612169223
 11
306.7601646565
 21
57.0612169223
  0
LINE
  5
5E6
100
AcDbEntity
  8
606355349-000-00-ED1_FORMAT
100
AcDbLine
 62
2
  6
CONTINUOUS
 10
309.1531494768
 20
57.0612169223
 11
316.2005099913
 21
57.0612169223
  0
LINE
  5
5E7
100
AcDbEntity
  8
606355349-000-00-ED1_FORMAT
100
AcDbLine
 62
2
  6
CONTINUOUS
 10
317.9768299493
 20
57.0612169223
 11
318.3455606316
 21
57.0612169223
  0
LINE
  5
5E8
100
AcDbEntity
  8
606355349-000-00-ED1_FORMAT
100
AcDbLine
 62
2
  6
CONTINUOUS
 10
319.2068127099
 20
57.0612169223
 11
319.6064909387
 21
57.0612169223
  0
LINE
  5
5E9
100
AcDbEntity
  8
606355349-000-00-ED1_FORMAT
100
AcDbLine
 62
2
  6
CONTINUOUS
 10
305.0855867265
 20
57.1612169223
 11
305.4976754456
 21
57.1612169223
  0
LINE
  5
5EA
100
AcDbEntity
  8
606355349-000-00-ED1_FORMAT
100
AcDbLine
 62
2
  6
CONTINUOUS
 10
306.4555411246
 20
57.1612169223
 11
306.7262865842
 21
57.1612169223
  0
LINE
  5
5EB
100
AcDbEntity
  8
606355349-000-00-ED1_FORMAT
100
AcDbLine
 62
2
  6
CONTINUOUS
 10
309.3674506277
 20
57.1612169223
 11
315.9782993654
 21
57.1612169223
  0
LINE
  5
5EC
100
AcDbEntity
  8
606355349-000-00-ED1_FORMAT
100
AcDbLine
 62
2
  6
CONTINUOUS
 10
318.1329117395
 20
57.1612169223
 11
318.5860115167
 21
57.1612169223
  0
LINE
  5
5ED
100
AcDbEntity
  8
606355349-000-00-ED1_FORMAT
100
AcDbLine
 62
2
  6
CONTINUOUS
 10
319.2068127099
 20
57.1612169223
 11
319.5794487609
 21
57.1612169223
  0
LINE
  5
5EE
100
AcDbEntity
  8
606355349-000-00-ED1_FORMAT
100
AcDbLine
 62
2
  6
CONTINUOUS
 10
305.0855867265
 20
57.2612169223
 11
305.4976754456
 21
57.2612169223
  0
LINE
  5
5EF
100
AcDbEntity
  8
606355349-000-00-ED1_FORMAT
100
AcDbLine
 62
2
  6
CONTINUOUS
 10
306.2508372927
 20
57.2612169223
 11
306.6290258773
 21
57.2612169223
  0
LINE
  5
5F0
100
AcDbEntity
  8
606355349-000-00-ED1_FORMAT
100
AcDbLine
 62
2
  6
CONTINUOUS
 10
309.5817517786
 20
57.2612169223
 11
315.7560887396
 21
57.2612169223
  0
LINE
  5
5F1
100
AcDbEntity
  8
606355349-000-00-ED1_FORMAT
100
AcDbLine
 62
2
  6
CONTINUOUS
 10
318.3681701388
 20
57.2612169223
 11
318.8264624019
 21
57.2612169223
  0
LINE
  5
5F2
100
AcDbEntity
  8
606355349-000-00-ED1_FORMAT
100
AcDbLine
 62
2
  6
CONTINUOUS
 10
319.2068127099
 20
57.2612169223
 11
319.511321886
 21
57.2612169223
  0
LINE
  5
5F3
100
AcDbEntity
  8
606355349-000-00-ED1_FORMAT
100
AcDbLine
 62
2
  6
CONTINUOUS
 10
305.0855867265
 20
57.3612169223
 11
305.4976754456
 21
57.3612169223
  0
LINE
  5
5F4
100
AcDbEntity
  8
606355349-000-00-ED1_FORMAT
100
AcDbLine
 62
2
  6
CONTINUOUS
 10
306.0461334607
 20
57.3612169223
 11
306.4241101874
 21
57.3612169223
  0
LINE
  5
5F5
100
AcDbEntity
  8
606355349-000-00-ED1_FORMAT
100
AcDbLine
 62
2
  6
CONTINUOUS
 10
309.7960529295
 20
57.3612169223
 11
315.5338781138
 21
57.3612169223
  0
LINE
  5
5F6
100
AcDbEntity
  8
606355349-000-00-ED1_FORMAT
100
AcDbLine
 62
2
  6
CONTINUOUS
 10
318.603428538
 20
57.3612169223
 11
319.066913287
 21
57.3612169223
  0
LINE
  5
5F7
100
AcDbEntity
  8
606355349-000-00-ED1_FORMAT
100
AcDbLine
 62
2
  6
CONTINUOUS
 10
319.2068127099
 20
57.3612169223
 11
319.443195011
 21
57.3612169223
  0
LINE
  5
5F8
100
AcDbEntity
  8
606355349-000-00-ED1_FORMAT
100
AcDbLine
 62
2
  6
CONTINUOUS
 10
305.0855867265
 20
57.4612169223
 11
305.4976754456
 21
57.4612169223
  0
LINE
  5
5F9
100
AcDbEntity
  8
606355349-000-00-ED1_FORMAT
100
AcDbLine
 62
2
  6
CONTINUOUS
 10
305.8414296288
 20
57.4612169223
 11
306.2191944974
 21
57.4612169223
  0
LINE
  5
5FA
100
AcDbEntity
  8
606355349-000-00-ED1_FORMAT
100
AcDbLine
 62
2
  6
CONTINUOUS
 10
310.0103540804
 20
57.4612169223
 11
315.3116674879
 21
57.4612169223
  0
LINE
  5
5FB
100
AcDbEntity
  8
606355349-000-00-ED1_FORMAT
100
AcDbLine
 62
2
  6
CONTINUOUS
 10
318.8386869373
 20
57.4612169223
 11
319.375068136
 21
57.4612169223
  0
LINE
  5
5FC
100
AcDbEntity
  8
606355349-000-00-ED1_FORMAT
100
AcDbLine
 62
2
  6
CONTINUOUS
 10
305.0855867265
 20
57.5612169223
 11
305.4976754456
 21
57.5612169223
  0
LINE
  5
5FD
100
AcDbEntity
  8
606355349-000-00-ED1_FORMAT
100
AcDbLine
 62
2
  6
CONTINUOUS
 10
305.6367257968
 20
57.5612169223
 11
306.0142788074
 21
57.5612169223
  0
LINE
  5
5FE
100
AcDbEntity
  8
606355349-000-00-ED1_FORMAT
100
AcDbLine
 62
2
  6
CONTINUOUS
 10
310.2246552313
 20
57.5612169223
 11
315.0894568621
 21
57.5612169223
  0
LINE
  5
5FF
100
AcDbEntity
  8
606355349-000-00-ED1_FORMAT
100
AcDbLine
 62
2
  6
CONTINUOUS
 10
319.0739453365
 20
57.5612169223
 11
319.306941261
 21
57.5612169223
  0
LINE
  5
600
100
AcDbEntity
  8
606355349-000-00-ED1_FORMAT
100
AcDbLine
 62
2
  6
CONTINUOUS
 10
305.154016136
 20
57.6612169223
 11
305.8093631174
 21
57.6612169223
  0
LINE
  5
601
100
AcDbEntity
  8
606355349-000-00-ED1_FORMAT
100
AcDbLine
 62
2
  6
CONTINUOUS
 10
310.4389563822
 20
57.6612169223
 11
314.8672462362
 21
57.6612169223
  0
LINE
  5
602
100
AcDbEntity
  8
606355349-000-00-ED1_FORMAT
100
AcDbLine
 62
2
  6
CONTINUOUS
 10
305.3624826996
 20
57.7612169223
 11
305.6044474274
 21
57.7612169223
  0
LINE
  5
603
100
AcDbEntity
  8
606355349-000-00-ED1_FORMAT
100
AcDbLine
 62
2
  6
CONTINUOUS
 10
310.6532575332
 20
57.7612169223
 11
314.6450356104
 21
57.7612169223
  0
LINE
  5
604
100
AcDbEntity
  8
606355349-000-00-ED1_FORMAT
100
AcDbLine
 62
2
  6
CONTINUOUS
 10
310.8675586841
 20
57.8612169223
 11
314.4228249846
 21
57.8612169223
  0
LINE
  5
605
100
AcDbEntity
  8
606355349-000-00-ED1_FORMAT
100
AcDbLine
 62
2
  6
CONTINUOUS
 10
311.081859835
 20
57.9612169223
 11
314.2006143587
 21
57.9612169223
  0
LINE
  5
606
100
AcDbEntity
  8
606355349-000-00-ED1_FORMAT
100
AcDbLine
 62
2
  6
CONTINUOUS
 10
311.2961609859
 20
58.0612169223
 11
313.9784037329
 21
58.0612169223
  0
LINE
  5
607
100
AcDbEntity
  8
606355349-000-00-ED1_FORMAT
100
AcDbLine
 62
2
  6
CONTINUOUS
 10
311.5104621368
 20
58.1612169223
 11
313.756193107
 21
58.1612169223
  0
LINE
  5
608
100
AcDbEntity
  8
606355349-000-00-ED1_FORMAT
100
AcDbLine
 62
2
  6
CONTINUOUS
 10
311.7247632877
 20
58.2612169223
 11
313.5339824812
 21
58.2612169223
  0
LINE
  5
609
100
AcDbEntity
  8
606355349-000-00-ED1_FORMAT
100
AcDbLine
 62
2
  6
CONTINUOUS
 10
311.9390644386
 20
58.3612169223
 11
313.3117718554
 21
58.3612169223
  0
LINE
  5
60A
100
AcDbEntity
  8
606355349-000-00-ED1_FORMAT
100
AcDbLine
 62
2
  6
CONTINUOUS
 10
312.1533655896
 20
58.4612169223
 11
313.0895612295
 21
58.4612169223
  0
LINE
  5
60B
100
AcDbEntity
  8
606355349-000-00-ED1_FORMAT
100
AcDbLine
 62
2
  6
CONTINUOUS
 10
312.3676667405
 20
58.5612169223
 11
312.8673506037
 21
58.5612169223
  0
LINE
  5
60C
100
AcDbEntity
  8
606355349-000-00-ED1_FORMAT
100
AcDbLine
 62
2
  6
CONTINUOUS
 10
312.5819678914
 20
58.6612169223
 11
312.6451399778
 21
58.6612169223
  0
LINE
  5
60D
100
AcDbEntity
  8
606355349-000-00-ED1_FORMAT
100
AcDbLine
 62
7
  6
CONTINUOUS
 10
410.0
 20
58.9546825665
 11
365.999998592
 21
58.9546825665
  0
LINE
  5
60E
100
AcDbEntity
  8
606355349-000-00-ED1_FORMAT
100
AcDbLine
 62
2
  6
CONTINUOUS
 10
311.7224794206
 20
55.894561621
 11
311.4496882966
 21
55.9014380805
  0
LINE
  5
60F
100
AcDbEntity
  8
606355349-000-00-ED1_FORMAT
100
AcDbLine
 62
2
  6
CONTINUOUS
 10
311.7224794206
 20
55.894561621
 11
311.1712806703
 21
55.9102124213
  0
LINE
  5
610
100
AcDbEntity
  8
606355349-000-00-ED1_FORMAT
100
AcDbLine
 62
2
  6
CONTINUOUS
 10
311.4496882966
 20
55.9014380805
 11
311.1712806703
 21
55.9102124213
  0
LINE
  5
611
100
AcDbEntity
  8
606355349-000-00-ED1_FORMAT
100
AcDbLine
 62
2
  6
CONTINUOUS
 10
312.7687535783
 20
52.5591239173
 11
312.9504198167
 21
52.5526130553
  0
LINE
  5
612
100
AcDbEntity
  8
606355349-000-00-ED1_FORMAT
100
AcDbLine
 62
2
  6
CONTINUOUS
 10
313.7515477128
 20
55.1560492255
 11
313.6209822678
 21
55.162603099
  0
LINE
  5
613
100
AcDbEntity
  8
606355349-000-00-ED1_FORMAT
100
AcDbLine
 62
2
  6
CONTINUOUS
 10
311.1712806703
 20
55.9102124213
 11
310.8879963776
 21
55.9259116095
  0
LINE
  5
614
100
AcDbEntity
  8
606355349-000-00-ED1_FORMAT
100
AcDbLine
 62
2
  6
CONTINUOUS
 10
312.9504198167
 20
52.5526130553
 11
313.2565348267
 21
52.5334030555
  0
LINE
  5
615
100
AcDbEntity
  8
606355349-000-00-ED1_FORMAT
100
AcDbLine
 62
2
  6
CONTINUOUS
 10
313.5203541352
 20
52.5109618186
 11
313.6491481416
 21
52.5004132544
  0
LINE
  5
616
100
AcDbEntity
  8
606355349-000-00-ED1_FORMAT
100
AcDbLine
 62
2
  6
CONTINUOUS
 10
313.2565348267
 20
52.5334030555
 11
313.3911850007
 21
52.5222093192
  0
LINE
  5
617
100
AcDbEntity
  8
606355349-000-00-ED1_FORMAT
100
AcDbLine
 62
2
  6
CONTINUOUS
 10
313.2565348267
 20
52.5334030555
 11
313.6491481416
 21
52.5004132544
  0
LINE
  5
618
100
AcDbEntity
  8
606355349-000-00-ED1_FORMAT
100
AcDbLine
 62
2
  6
CONTINUOUS
 10
313.3911850007
 20
52.5222093192
 11
313.5203541352
 21
52.5109618186
  0
LINE
  5
619
100
AcDbEntity
  8
606355349-000-00-ED1_FORMAT
100
AcDbLine
 62
7
  6
CONTINUOUS
 10
135.000019298
 20
287.0000045341
 11
135.000019298
 21
259.0000098321
  0
LINE
  5
61A
100
AcDbEntity
  8
606355349-000-00-ED1_FORMAT
100
AcDbLine
 62
7
  6
CONTINUOUS
 10
146.999991584
 20
65.00000176
 11
410.0
 21
65.00000176
  0
LINE
  5
61B
100
AcDbEntity
  8
606355349-000-00-ED1_FORMAT
100
AcDbLine
 62
7
  6
CONTINUOUS
 10
146.999993584
 20
72.500002
 11
410.0
 21
72.500002
  0
LINE
  5
61C
100
AcDbEntity
  8
606355349-000-00-ED1_FORMAT
100
AcDbLine
 62
2
  6
CONTINUOUS
 10
310.8879963776
 20
55.9259116095
 11
310.6005648347
 21
55.9535357291
  0
LINE
  5
61D
100
AcDbEntity
  8
606355349-000-00-ED1_FORMAT
100
AcDbLine
 62
2
  6
CONTINUOUS
 10
316.4130664758
 20
53.6217008918
 11
316.0044268517
 21
53.6634865394
  0
LINE
  5
61E
100
AcDbEntity
  8
606355349-000-00-ED1_FORMAT
100
AcDbLine
 62
2
  6
CONTINUOUS
 10
314.8399247979
 20
52.3946910499
 11
315.8408084466
 21
52.2778396262
  0
LINE
  5
61F
100
AcDbEntity
  8
606355349-000-00-ED1_FORMAT
100
AcDbLine
 62
2
  6
CONTINUOUS
 10
313.8717033509
 20
55.14090381
 11
313.7515477128
 21
55.1560492255
  0
LINE
  5
620
100
AcDbEntity
  8
606355349-000-00-ED1_FORMAT
100
AcDbLine
 62
2
  6
CONTINUOUS
 10
310.6005648347
 20
55.9535357291
 11
310.4555152741
 21
55.9733855246
  0
LINE
  5
621
100
AcDbEntity
  8
606355349-000-00-ED1_FORMAT
100
AcDbLine
 62
2
  6
CONTINUOUS
 10
314.0345193986
 20
55.9111586738
 11
313.8726828523
 21
55.9364870559
  0
LINE
  5
622
100
AcDbEntity
  8
606355349-000-00-ED1_FORMAT
100
AcDbLine
 62
2
  6
CONTINUOUS
 10
315.9152088677
 20
52.6866529395
 11
316.4781928948
 21
52.5908825149
  0
LINE
  5
623
100
AcDbEntity
  8
606355349-000-00-ED1_FORMAT
100
AcDbLine
 62
2
  6
CONTINUOUS
 10
316.5117251855
 20
52.14662237
 11
317.609850393
 21
51.9276617057
  0
LINE
  5
624
100
AcDbEntity
  8
606355349-000-00-ED1_FORMAT
100
AcDbLine
 62
7
  6
CONTINUOUS
 10
146.999991584
 20
10.0
 11
146.999993584
 21
72.500002
  0
LINE
  5
625
100
AcDbEntity
  8
606355349-000-00-ED1_FORMAT
100
AcDbLine
 62
2
  6
CONTINUOUS
 10
309.1516114228
 20
56.1287752295
 11
308.3285281083
 21
56.2978479598
  0
LINE
  5
626
100
AcDbEntity
  8
606355349-000-00-ED1_FORMAT
100
AcDbLine
 62
2
  6
CONTINUOUS
 10
314.1823667901
 20
55.8760075461
 11
314.0345193986
 21
55.9111586738
  0
LINE
  5
627
100
AcDbEntity
  8
606355349-000-00-ED1_FORMAT
100
AcDbLine
 62
2
  6
CONTINUOUS
 10
313.9792609345
 20
55.1134248542
 11
313.8717033509
 21
55.14090381
  0
LINE
  5
628
100
AcDbEntity
  8
606355349-000-00-ED1_FORMAT
100
AcDbLine
 62
7
  6
CONTINUOUS
 10
154.499993824
 20
65.00000176
 11
154.499993824
 21
72.500002
  0
LINE
  5
629
100
AcDbEntity
  8
606355349-000-00-ED1_FORMAT
100
AcDbLine
 62
3
  6
CONTINUOUS
 10
160.0
 20
10.0
 11
160.0
 21
5.0
  0
LINE
  5
62A
100
AcDbEntity
  8
606355349-000-00-ED1_FORMAT
100
AcDbLine
 62
3
  6
CONTINUOUS
 10
160.0
 20
287.0
 11
160.0
 21
292.0
  0
LINE
  5
62B
100
AcDbEntity
  8
606355349-000-00-ED1_FORMAT
100
AcDbLine
 62
7
  6
CONTINUOUS
 10
161.999994064
 20
65.00000176
 11
161.999994064
 21
72.500002
  0
LINE
  5
62C
100
AcDbEntity
  8
606355349-000-00-ED1_FORMAT
100
AcDbLine
 62
3
  6
CONTINUOUS
 10
22.9999999122
 20
93.4999984459
 11
28.9999998068
 21
93.4999984459
  0
LINE
  5
62D
100
AcDbEntity
  8
606355349-000-00-ED1_FORMAT
100
AcDbLine
 62
3
  6
CONTINUOUS
 10
23.0
 20
98.5
 11
18.0
 21
98.5
  0
LINE
  5
62E
100
AcDbEntity
  8
606355349-000-00-ED1_FORMAT
100
AcDbLine
 62
3
  6
CONTINUOUS
 10
410.0
 20
98.5
 11
415.0
 21
98.5
  0
LINE
  5
62F
100
AcDbEntity
  8
606355349-000-00-ED1_FORMAT
100
AcDbLine
 62
2
  6
CONTINUOUS
 10
314.3167043572
 20
55.8317648681
 11
314.1823667901
 21
55.8760075461
  0
LINE
  5
630
100
AcDbEntity
  8
606355349-000-00-ED1_FORMAT
100
AcDbLine
 62
2
  6
CONTINUOUS
 10
319.559328991
 20
52.4583050208
 11
320.5409560601
 21
52.0636854941
  0
LINE
  5
631
100
AcDbEntity
  8
606355349-000-00-ED1_FORMAT
100
AcDbLine
 62
2
  6
CONTINUOUS
 10
320.1383810082
 20
51.9501352012
 11
319.2068127099
 21
52.3385073111
  0
LINE
  5
632
100
AcDbEntity
  8
606355349-000-00-ED1_FORMAT
100
AcDbLine
 62
2
  6
CONTINUOUS
 10
314.4380166406
 20
55.7791618346
 11
314.3167043572
 21
55.8317648681
  0
LINE
  5
633
100
AcDbEntity
  8
606355349-000-00-ED1_FORMAT
100
AcDbLine
 62
2
  6
CONTINUOUS
 10
307.412287964
 20
52.0724060706
 11
306.724938527
 21
52.4154010749
  0
LINE
  5
634
100
AcDbEntity
  8
606355349-000-00-ED1_FORMAT
100
AcDbLine
 62
2
  6
CONTINUOUS
 10
302.29999432
 20
54.25000176
 11
305.0850031937
 21
52.8486018943
  0
LINE
  5
635
100
AcDbEntity
  8
606355349-000-00-ED1_FORMAT
100
AcDbLine
 62
2
  6
CONTINUOUS
 10
306.7254647485
 20
52.0231256736
 11
312.6103036057
 21
49.0619039283
  0
LINE
  5
636
100
AcDbEntity
  8
606355349-000-00-ED1_FORMAT
100
AcDbLine
 62
2
  6
CONTINUOUS
 10
305.0850031937
 20
53.2406138503
 11
303.1029301255
 21
54.2379800528
  0
LINE
  5
637
100
AcDbEntity
  8
606355349-000-00-ED1_FORMAT
100
AcDbLine
 62
2
  6
CONTINUOUS
 10
312.6129816041
 20
49.4525663993
 11
306.724938527
 21
52.4154010749
  0
LINE
  5
638
100
AcDbEntity
  8
606355349-000-00-ED1_FORMAT
100
AcDbLine
 62
2
  6
CONTINUOUS
 10
305.491402469
 20
50.7036949256
 11
305.0850031937
 21
50.9150103003
  0
LINE
  5
639
100
AcDbEntity
  8
606355349-000-00-ED1_FORMAT
100
AcDbLine
 62
7
  6
CONTINUOUS
 10
171.3988033648
 20
65.00000176
 11
171.3988033648
 21
72.500002
  0
LINE
  5
63A
100
AcDbEntity
  8
606355349-000-00-ED1_FORMAT
100
AcDbLine
 62
7
  6
CONTINUOUS
 10
176.3988035248
 20
65.00000176
 11
176.3988035248
 21
72.500002
  0
LINE
  5
63B
100
AcDbEntity
  8
606355349-000-00-ED1_FORMAT
100
AcDbLine
 62
2
  6
CONTINUOUS
 10
319.6064909387
 20
55.5284318198
 11
322.4740123803
 21
54.2379800528
  0
LINE
  5
63C
100
AcDbEntity
  8
606355349-000-00-ED1_FORMAT
100
AcDbLine
 62
2
  6
CONTINUOUS
 10
312.6129816041
 20
58.6756889457
 11
317.9768299493
 21
56.2618312262
  0
LINE
  5
63D
100
AcDbEntity
  8
606355349-000-00-ED1_FORMAT
100
AcDbLine
 62
2
  6
CONTINUOUS
 10
323.3012846261
 20
54.2500824065
 11
319.6064909387
 21
55.9128307448
  0
LINE
  5
63E
100
AcDbEntity
  8
606355349-000-00-ED1_FORMAT
100
AcDbLine
 62
2
  6
CONTINUOUS
 10
317.9768299493
 20
56.6462193984
 11
312.6104703294
 21
59.0612169219
  0
LINE
  5
63F
100
AcDbEntity
  8
606355349-000-00-ED1_FORMAT
100
AcDbLine
 62
2
  6
CONTINUOUS
 10
314.0720426362
 20
55.0698542304
 11
313.9792609345
 21
55.1134248542
  0
LINE
  5
640
100
AcDbEntity
  8
606355349-000-00-ED1_FORMAT
100
AcDbLine
 62
2
  6
CONTINUOUS
 10
305.4845042786
 20
57.8197498481
 11
306.7049629517
 21
57.2241592063
  0
LINE
  5
641
100
AcDbEntity
  8
606355349-000-00-ED1_FORMAT
100
AcDbLine
 62
2
  6
CONTINUOUS
 10
306.5745017091
 20
57.103103411
 11
305.4976754456
 21
57.6291444983
  0
LINE
  5
642
100
AcDbEntity
  8
606355349-000-00-ED1_FORMAT
100
AcDbLine
 62
2
  6
CONTINUOUS
 10
318.1654360589
 20
51.7783204894
 11
320.1383810082
 21
50.7511580878
  0
LINE
  5
643
100
AcDbEntity
  8
606355349-000-00-ED1_FORMAT
100
AcDbLine
 62
2
  6
CONTINUOUS
 10
320.1637855218
 20
50.5303156714
 11
317.9768299493
 21
51.6789962417
  0
LINE
  5
644
100
AcDbEntity
  8
606355349-000-00-ED1_FORMAT
100
AcDbLine
 62
2
  6
CONTINUOUS
 10
314.5468246514
 20
55.7189242644
 11
314.4380166406
 21
55.7791618346
  0
LINE
  5
645
100
AcDbEntity
  8
606355349-000-00-ED1_FORMAT
100
AcDbLine
 62
2
  6
CONTINUOUS
 10
314.6435868798
 20
55.6517779761
 11
314.5468246514
 21
55.7189242644
  0
LINE
  5
646
100
AcDbEntity
  8
606355349-000-00-ED1_FORMAT
100
AcDbLine
 62
7
  6
CONTINUOUS
 10
207.999993536
 20
65.00000176
 11
207.999993536
 21
72.500002
  0
LINE
  5
647
100
AcDbEntity
  8
606355349-000-00-ED1_FORMAT
100
AcDbLine
 62
7
  6
CONTINUOUS
 10
210.0
 20
292.0
 11
210.0
 21
277.0
  0
LINE
  5
648
100
AcDbEntity
  8
606355349-000-00-ED1_FORMAT
100
AcDbLine
 62
3
  6
CONTINUOUS
 10
210.0
 20
10.0
 11
210.0
 21
5.0
  0
LINE
  5
649
100
AcDbEntity
  8
606355349-000-00-ED1_FORMAT
100
AcDbLine
 62
7
  6
CONTINUOUS
 10
415.0
 20
148.5
 11
400.0
 21
148.5
  0
LINE
  5
64A
100
AcDbEntity
  8
606355349-000-00-ED1_FORMAT
100
AcDbLine
 62
7
  6
CONTINUOUS
 10
18.0
 20
148.5
 11
33.0
 21
148.5
  0
LINE
  5
64B
100
AcDbEntity
  8
606355349-000-00-ED1_FORMAT
100
AcDbLine
 62
3
  6
CONTINUOUS
 10
23.0
 20
148.515014696
 11
29.000000192
 21
148.515014696
  0
LINE
  5
64C
100
AcDbEntity
  8
606355349-000-00-ED1_FORMAT
100
AcDbLine
 62
2
  6
CONTINUOUS
 10
314.1478289475
 20
55.0064553168
 11
314.0720426362
 21
55.0698542304
  0
LINE
  5
64D
100
AcDbEntity
  8
606355349-000-00-ED1_FORMAT
100
AcDbLine
 62
7
  6
CONTINUOUS
 10
223.999992048
 20
10.0
 11
223.999992048
 21
65.00000176
  0
LINE
  5
64E
100
AcDbEntity
  8
606355349-000-00-ED1_FORMAT
100
AcDbLine
 62
2
  6
CONTINUOUS
 10
314.8029955132
 20
55.4996894019
 11
314.6435868798
 21
55.6517779761
  0
LINE
  5
64F
100
AcDbEntity
  8
606355349-000-00-ED1_FORMAT
100
AcDbLine
 62
2
  6
CONTINUOUS
 10
314.9202022271
 20
55.3287187903
 11
314.8029955132
 21
55.4996894019
  0
LINE
  5
650
100
AcDbEntity
  8
606355349-000-00-ED1_FORMAT
100
AcDbLine
 62
2
  6
CONTINUOUS
 10
319.2546207116
 20
57.638015615
 11
319.6064909387
 21
57.121523075
  0
LINE
  5
651
100
AcDbEntity
  8
606355349-000-00-ED1_FORMAT
100
AcDbLine
 62
2
  6
CONTINUOUS
 10
314.2044576714
 20
54.9194538566
 11
314.1478289475
 21
55.0064553168
  0
LINE
  5
652
100
AcDbEntity
  8
606355349-000-00-ED1_FORMAT
100
AcDbLine
 62
3
  6
CONTINUOUS
 10
260.0
 20
10.0
 11
260.0
 21
5.0
  0
LINE
  5
653
100
AcDbEntity
  8
606355349-000-00-ED1_FORMAT
100
AcDbLine
 62
3
  6
CONTINUOUS
 10
260.0
 20
287.0
 11
260.0
 21
292.0
  0
LINE
  5
654
100
AcDbEntity
  8
606355349-000-00-ED1_FORMAT
100
AcDbLine
 62
7
  6
CONTINUOUS
 10
260.999993232
 20
43.500001072
 11
260.999993232
 21
35.0000008
  0
LINE
  5
655
100
AcDbEntity
  8
606355349-000-00-ED1_FORMAT
100
AcDbLine
 62
7
  6
CONTINUOUS
 10
264.9013593819
 20
287.0
 11
264.9013593819
 21
225.000007
  0
LINE
  5
656
100
AcDbEntity
  8
606355349-000-00-ED1_FORMAT
100
AcDbLine
 62
3
  6
CONTINUOUS
 10
23.0
 20
198.5
 11
18.0
 21
198.5
  0
LINE
  5
657
100
AcDbEntity
  8
606355349-000-00-ED1_FORMAT
100
AcDbLine
 62
3
  6
CONTINUOUS
 10
410.0
 20
198.5
 11
415.0
 21
198.5
  0
LINE
  5
658
100
AcDbEntity
  8
606355349-000-00-ED1_FORMAT
100
AcDbLine
 62
2
  6
CONTINUOUS
 10
314.9642172662
 20
55.2379753318
 11
314.9202022271
 21
55.3287187903
  0
LINE
  5
659
100
AcDbEntity
  8
606355349-000-00-ED1_FORMAT
100
AcDbLine
 62
2
  6
CONTINUOUS
 10
306.5876624558
 20
54.1095262839
 11
307.412287964
 21
52.0724060706
  0
LINE
  5
65A
100
AcDbEntity
  8
606355349-000-00-ED1_FORMAT
100
AcDbLine
 62
7
  6
CONTINUOUS
 10
274.9014193732
 20
225.000007
 11
274.9014193732
 21
287.0000007463
  0
LINE
  5
65B
100
AcDbEntity
  8
606355349-000-00-ED1_FORMAT
100
AcDbLine
 62
3
  6
CONTINUOUS
 10
28.9999998068
 20
209.9999964
 11
22.9999999122
 21
209.9999964
  0
LINE
  5
65C
100
AcDbEntity
  8
606355349-000-00-ED1_FORMAT
100
AcDbLine
 62
2
  6
CONTINUOUS
 10
314.9991458672
 20
55.1446941962
 11
314.9642172662
 21
55.2379753318
  0
LINE
  5
65D
100
AcDbEntity
  8
606355349-000-00-ED1_FORMAT
100
AcDbLine
 62
2
  6
CONTINUOUS
 10
306.7049629517
 20
57.2241592063
 11
307.0868225922
 21
56.0970005027
  0
LINE
  5
65E
100
AcDbEntity
  8
606355349-000-00-ED1_FORMAT
100
AcDbLine
 62
2
  6
CONTINUOUS
 10
307.3317083482
 20
54.7871290549
 11
306.5745017091
 21
57.103103411
  0
LINE
  5
65F
100
AcDbEntity
  8
606355349-000-00-ED1_FORMAT
100
AcDbLine
 62
2
  6
CONTINUOUS
 10
314.2397405602
 20
54.8051239806
 11
314.2044576714
 21
54.9194538566
  0
LINE
  5
660
100
AcDbEntity
  8
606355349-000-00-ED1_FORMAT
100
AcDbLine
 62
7
  6
CONTINUOUS
 10
294.99999432
 20
65.00000176
 11
294.99999432
 21
35.0000008
  0
LINE
  5
661
100
AcDbEntity
  8
606355349-000-00-ED1_FORMAT
100
AcDbLine
 62
7
  6
CONTINUOUS
 10
264.9013593819
 20
225.000007
 11
410.0000007463
 21
225.000007
  0
LINE
  5
662
100
AcDbEntity
  8
606355349-000-00-ED1_FORMAT
100
AcDbLine
 62
7
  6
CONTINUOUS
 10
274.9014193732
 20
229.5500015411
 11
376.900004085
 21
229.5500015411
  0
LINE
  5
663
100
AcDbEntity
  8
606355349-000-00-ED1_FORMAT
100
AcDbLine
 62
7
  6
CONTINUOUS
 10
264.9013593819
 20
234.0999960821
 11
410.0000007463
 21
234.0999960821
  0
LINE
  5
664
100
AcDbEntity
  8
606355349-000-00-ED1_FORMAT
100
AcDbLine
 62
2
  6
CONTINUOUS
 10
312.5391021943
 20
52.5618121345
 11
311.7224794206
 21
55.894561621
  0
LINE
  5
665
100
AcDbEntity
  8
606355349-000-00-ED1_FORMAT
100
AcDbLine
 62
2
  6
CONTINUOUS
 10
315.0437861199
 20
54.9534544272
 11
314.9991458672
 21
55.1446941962
  0
LINE
  5
666
100
AcDbEntity
  8
606355349-000-00-ED1_FORMAT
100
AcDbLine
 62
2
  6
CONTINUOUS
 10
311.3784660447
 20
53.2094789191
 11
311.5221922364
 21
52.5294029883
  0
LINE
  5
667
100
AcDbEntity
  8
606355349-000-00-ED1_FORMAT
100
AcDbLine
 62
2
  6
CONTINUOUS
 10
311.0311598771
 20
55.1588611007
 11
311.2880080537
 21
53.9326200889
  0
LINE
  5
668
100
AcDbEntity
  8
606355349-000-00-ED1_FORMAT
100
AcDbLine
 62
2
  6
CONTINUOUS
 10
317.609850393
 20
51.9276617057
 11
316.811390075
 21
56.3655426444
  0
LINE
  5
669
100
AcDbEntity
  8
606355349-000-00-ED1_FORMAT
100
AcDbLine
 62
2
  6
CONTINUOUS
 10
314.2397405602
 20
54.8051239806
 11
314.2514528954
 21
54.659702185
  0
LINE
  5
66A
100
AcDbEntity
  8
606355349-000-00-ED1_FORMAT
100
AcDbLine
 62
2
  6
CONTINUOUS
 10
316.4781928948
 20
52.5908825149
 11
316.5117251855
 21
52.14662237
  0
LINE
  5
66B
100
AcDbEntity
  8
606355349-000-00-ED1_FORMAT
100
AcDbLine
 62
2
  6
CONTINUOUS
 10
313.6209822678
 20
55.162603099
 11
313.62612986
 21
54.0232237601
  0
LINE
  5
66C
100
AcDbEntity
  8
606355349-000-00-ED1_FORMAT
100
AcDbLine
 62
2
  6
CONTINUOUS
 10
313.6491481416
 20
52.5004132544
 11
313.6478560334
 21
53.2465010459
  0
LINE
  5
66D
100
AcDbEntity
  8
606355349-000-00-ED1_FORMAT
100
AcDbLine
 62
2
  6
CONTINUOUS
 10
306.724938527
 20
52.4154010749
 11
306.7262827363
 21
51.4182069182
  0
LINE
  5
66E
100
AcDbEntity
  8
606355349-000-00-ED1_FORMAT
100
AcDbLine
 62
7
  6
CONTINUOUS
 10
299.9999903875
 20
10.0
 11
299.999990634
 21
24.250000456
  0
LINE
  5
66F
100
AcDbEntity
  8
606355349-000-00-ED1_FORMAT
100
AcDbLine
 62
2
  6
CONTINUOUS
 10
305.0850031937
 20
50.9150103003
 11
305.0850031937
 21
53.2406138503
  0
LINE
  5
670
100
AcDbEntity
  8
606355349-000-00-ED1_FORMAT
100
AcDbLine
 62
2
  6
CONTINUOUS
 10
305.0855867265
 20
55.1631246131
 11
305.0855867265
 21
57.6283917975
  0
LINE
  5
671
100
AcDbEntity
  8
606355349-000-00-ED1_FORMAT
100
AcDbLine
 62
2
  6
CONTINUOUS
 10
305.4976754456
 20
57.6291444983
 11
305.4976754456
 21
50.923187857
  0
LINE
  5
672
100
AcDbEntity
  8
606355349-000-00-ED1_FORMAT
100
AcDbLine
 62
2
  6
CONTINUOUS
 10
306.5876624558
 20
51.5376981711
 11
306.5876624558
 21
54.1095262839
  0
LINE
  5
673
100
AcDbEntity
  8
606355349-000-00-ED1_FORMAT
100
AcDbLine
 62
2
  6
CONTINUOUS
 10
308.1737564759
 20
53.919834928
 11
308.1737564759
 21
52.0267386374
  0
LINE
  5
674
100
AcDbEntity
  8
606355349-000-00-ED1_FORMAT
100
AcDbLine
 62
2
  6
CONTINUOUS
 10
309.1516114228
 20
52.2473767493
 11
309.1516114228
 21
56.1287752295
  0
LINE
  5
675
100
AcDbEntity
  8
606355349-000-00-ED1_FORMAT
100
AcDbLine
 62
3
  6
CONTINUOUS
 10
310.0
 20
10.0
 11
310.0
 21
5.0
  0
LINE
  5
676
100
AcDbEntity
  8
606355349-000-00-ED1_FORMAT
100
AcDbLine
 62
3
  6
CONTINUOUS
 10
310.0
 20
287.0
 11
310.0
 21
292.0
  0
LINE
  5
677
100
AcDbEntity
  8
606355349-000-00-ED1_FORMAT
100
AcDbLine
 62
2
  6
CONTINUOUS
 10
312.7687535783
 20
55.9176103949
 11
312.7687535783
 21
52.5591239173
  0
LINE
  5
678
100
AcDbEntity
  8
606355349-000-00-ED1_FORMAT
100
AcDbLine
 62
7
  6
CONTINUOUS
 10
314.0000008808
 20
65.00000176
 11
314.0000008808
 21
72.500002
  0
LINE
  5
679
100
AcDbEntity
  8
606355349-000-00-ED1_FORMAT
100
AcDbLine
 62
7
  6
CONTINUOUS
 10
274.9014193732
 20
238.6499906232
 11
376.900004085
 21
238.6499906232
  0
LINE
  5
67A
100
AcDbEntity
  8
606355349-000-00-ED1_FORMAT
100
AcDbLine
 62
7
  6
CONTINUOUS
 10
264.9013593819
 20
243.1999851642
 11
410.0000007463
 21
243.1999851642
  0
LINE
  5
67B
100
AcDbEntity
  8
606355349-000-00-ED1_FORMAT
100
AcDbLine
 62
7
  6
CONTINUOUS
 10
274.9014193732
 20
247.7499797053
 11
376.900004085
 21
247.7499797053
  0
LINE
  5
67C
100
AcDbEntity
  8
606355349-000-00-ED1_FORMAT
100
AcDbLine
 62
3
  6
CONTINUOUS
 10
23.0
 20
248.5
 11
18.0
 21
248.5
  0
LINE
  5
67D
100
AcDbEntity
  8
606355349-000-00-ED1_FORMAT
100
AcDbLine
 62
3
  6
CONTINUOUS
 10
410.0
 20
248.5
 11
415.0
 21
248.5
  0
LINE
  5
67E
100
AcDbEntity
  8
606355349-000-00-ED1_FORMAT
100
AcDbLine
 62
7
  6
CONTINUOUS
 10
264.9013593819
 20
252.2999732463
 11
410.0000007463
 21
252.2999732463
  0
LINE
  5
67F
100
AcDbEntity
  8
606355349-000-00-ED1_FORMAT
100
AcDbLine
 62
2
  6
CONTINUOUS
 10
316.1995560235
 20
55.0577518767
 11
316.4130664758
 21
53.6217008918
  0
LINE
  5
680
100
AcDbEntity
  8
606355349-000-00-ED1_FORMAT
100
AcDbLine
 62
2
  6
CONTINUOUS
 10
315.0549566033
 20
54.8569420546
 11
315.0437861199
 21
54.9534544272
  0
LINE
  5
681
100
AcDbEntity
  8
606355349-000-00-ED1_FORMAT
100
AcDbLine
 62
2
  6
CONTINUOUS
 10
315.0549566033
 20
54.6206692717
 11
315.0549566033
 21
54.8569420546
  0
LINE
  5
682
100
AcDbEntity
  8
606355349-000-00-ED1_FORMAT
100
AcDbLine
 62
2
  6
CONTINUOUS
 10
317.9768299493
 20
51.6789962417
 11
317.9768299493
 21
52.0552391158
  0
LINE
  5
683
100
AcDbEntity
  8
606355349-000-00-ED1_FORMAT
100
AcDbLine
 62
2
  6
CONTINUOUS
 10
317.9768299493
 20
56.2618312262
 11
317.9768299493
 21
57.09487209
  0
LINE
  5
684
100
AcDbEntity
  8
606355349-000-00-ED1_FORMAT
100
AcDbLine
 62
2
  6
CONTINUOUS
 10
318.1654360589
 20
56.9863057517
 11
318.1654360589
 21
51.7783204894
  0
LINE
  5
685
100
AcDbEntity
  8
606355349-000-00-ED1_FORMAT
100
AcDbLine
 62
2
  6
CONTINUOUS
 10
319.2068127099
 20
52.3385073111
 11
319.2068127099
 21
57.4193990424
  0
LINE
  5
686
100
AcDbEntity
  8
606355349-000-00-ED1_FORMAT
100
AcDbLine
 62
2
  6
CONTINUOUS
 10
319.559328991
 20
52.8235369574
 11
319.559328991
 21
52.4583050208
  0
LINE
  5
687
100
AcDbEntity
  8
606355349-000-00-ED1_FORMAT
100
AcDbLine
 62
2
  6
CONTINUOUS
 10
319.6064909387
 20
57.121523075
 11
319.6064909387
 21
55.5284318198
  0
LINE
  5
688
100
AcDbEntity
  8
606355349-000-00-ED1_FORMAT
100
AcDbLine
 62
2
  6
CONTINUOUS
 10
320.1383810082
 20
50.7511580878
 11
320.1383810082
 21
51.9501352012
  0
LINE
  5
689
100
AcDbEntity
  8
606355349-000-00-ED1_FORMAT
100
AcDbLine
 62
2
  6
CONTINUOUS
 10
320.5409560601
 20
52.0636854941
 11
320.5409560601
 21
50.825024919
  0
LINE
  5
68A
100
AcDbEntity
  8
606355349-000-00-ED1_FORMAT
100
AcDbLine
 62
2
  6
CONTINUOUS
 10
314.2514528954
 20
54.659702185
 11
314.2408242638
 21
54.4987801291
  0
LINE
  5
68B
100
AcDbEntity
  8
606355349-000-00-ED1_FORMAT
100
AcDbLine
 62
2
  6
CONTINUOUS
 10
315.0287393121
 20
54.3602885573
 11
315.0549566033
 21
54.6206692717
  0
LINE
  5
68C
100
AcDbEntity
  8
606355349-000-00-ED1_FORMAT
100
AcDbLine
 62
2
  6
CONTINUOUS
 10
316.1995560235
 20
55.0577518767
 11
316.0044268517
 21
53.6634865394
  0
LINE
  5
68D
100
AcDbEntity
  8
606355349-000-00-ED1_FORMAT
100
AcDbLine
 62
2
  6
CONTINUOUS
 10
310.5265291215
 20
52.4458639518
 11
310.6816029405
 21
53.1572307303
  0
LINE
  5
68E
100
AcDbEntity
  8
606355349-000-00-ED1_FORMAT
100
AcDbLine
 62
2
  6
CONTINUOUS
 10
311.0311598771
 20
55.1588611007
 11
310.7557428559
 21
53.9038776709
  0
LINE
  5
68F
100
AcDbEntity
  8
606355349-000-00-ED1_FORMAT
100
AcDbLine
 62
7
  6
CONTINUOUS
 10
274.9014193732
 20
256.8499677874
 11
376.900004085
 21
256.8499677874
  0
LINE
  5
690
100
AcDbEntity
  8
606355349-000-00-ED1_FORMAT
100
AcDbLine
 62
7
  6
CONTINUOUS
 10
135.0000610636
 20
259.0000097341
 11
23.0001
 21
259.0000097341
  0
LINE
  5
691
100
AcDbEntity
  8
606355349-000-00-ED1_FORMAT
100
AcDbLine
 62
7
  6
CONTINUOUS
 10
264.9013593819
 20
261.3999623285
 11
410.0000007463
 21
261.3999623285
  0
LINE
  5
692
100
AcDbEntity
  8
606355349-000-00-ED1_FORMAT
100
AcDbLine
 62
7
  6
CONTINUOUS
 10
135.0000610636
 20
265.0000076482
 11
23.0001
 21
265.0000076482
  0
LINE
  5
693
100
AcDbEntity
  8
606355349-000-00-ED1_FORMAT
100
AcDbLine
 62
7
  6
CONTINUOUS
 10
274.9014193732
 20
265.9499568695
 11
376.900004085
 21
265.9499568695
  0
LINE
  5
694
100
AcDbEntity
  8
606355349-000-00-ED1_FORMAT
100
AcDbLine
 62
2
  6
CONTINUOUS
 10
315.8408084466
 20
52.2778396262
 11
315.9152088677
 21
52.6866529395
  0
LINE
  5
695
100
AcDbEntity
  8
606355349-000-00-ED1_FORMAT
100
AcDbLine
 62
2
  6
CONTINUOUS
 10
315.6581835473
 20
56.1055812919
 11
314.8399247979
 21
52.3946910499
  0
LINE
  5
696
100
AcDbEntity
  8
606355349-000-00-ED1_FORMAT
100
AcDbLine
 62
2
  6
CONTINUOUS
 10
314.2408242638
 20
54.4987801291
 11
314.2106472863
 21
54.3649284202
  0
LINE
  5
697
100
AcDbEntity
  8
606355349-000-00-ED1_FORMAT
100
AcDbLine
 62
2
  6
CONTINUOUS
 10
314.9760546441
 20
54.126634098
 11
315.0287393121
 21
54.3602885573
  0
LINE
  5
698
100
AcDbEntity
  8
606355349-000-00-ED1_FORMAT
100
AcDbLine
 62
2
  6
CONTINUOUS
 10
310.4555152741
 20
55.9733855246
 11
309.4726377778
 21
52.3088992873
  0
LINE
  5
699
100
AcDbEntity
  8
606355349-000-00-ED1_FORMAT
100
AcDbLine
 62
2
  6
CONTINUOUS
 10
314.897298568
 20
53.9199424567
 11
314.9760546441
 21
54.126634098
  0
LINE
  5
69A
100
AcDbEntity
  8
606355349-000-00-ED1_FORMAT
100
AcDbLine
 62
2
  6
CONTINUOUS
 10
307.412287964
 20
52.0724060706
 11
308.1737564759
 21
53.919834928
  0
LINE
  5
69B
100
AcDbEntity
  8
606355349-000-00-ED1_FORMAT
100
AcDbLine
 62
2
  6
CONTINUOUS
 10
307.4111900432
 20
52.070082645
 11
308.1737564759
 21
53.919834928
  0
LINE
  5
69C
100
AcDbEntity
  8
606355349-000-00-ED1_FORMAT
100
AcDbLine
 62
2
  6
CONTINUOUS
 10
308.3285281083
 20
56.2978479598
 11
307.3317083482
 21
54.7871290549
  0
LINE
  5
69D
100
AcDbEntity
  8
606355349-000-00-ED1_FORMAT
100
AcDbLine
 62
2
  6
CONTINUOUS
 10
306.7262827363
 20
51.4182069182
 11
305.491402469
 21
50.7036949256
  0
LINE
  5
69E
100
AcDbEntity
  8
606355349-000-00-ED1_FORMAT
100
AcDbLine
 62
2
  6
CONTINUOUS
 10
305.4976754456
 20
50.923187857
 11
306.5876624558
 21
51.5376981711
  0
LINE
  5
69F
100
AcDbEntity
  8
606355349-000-00-ED1_FORMAT
100
AcDbLine
 62
2
  6
CONTINUOUS
 10
305.0855867265
 20
57.6283917975
 11
305.4845042786
 21
57.8197498481
  0
LINE
  5
6A0
100
AcDbEntity
  8
606355349-000-00-ED1_FORMAT
100
AcDbLine
 62
2
  6
CONTINUOUS
 10
305.0855867265
 20
55.5498515342
 11
302.29999432
 21
54.25000176
  0
LINE
  5
6A1
100
AcDbEntity
  8
606355349-000-00-ED1_FORMAT
100
AcDbLine
 62
2
  6
CONTINUOUS
 10
312.6104703294
 20
59.0612169219
 11
306.9737006074
 21
56.4309093329
  0
LINE
  5
6A2
100
AcDbEntity
  8
606355349-000-00-ED1_FORMAT
100
AcDbLine
 62
2
  6
CONTINUOUS
 10
303.1029301255
 20
54.2379800528
 11
305.0855867265
 21
55.1631246131
  0
LINE
  5
6A3
100
AcDbEntity
  8
606355349-000-00-ED1_FORMAT
100
AcDbLine
 62
2
  6
CONTINUOUS
 10
307.0868225922
 20
56.0970005027
 11
312.6129816041
 21
58.6756889457
  0
LINE
  5
6A4
100
AcDbEntity
  8
606355349-000-00-ED1_FORMAT
100
AcDbLine
 62
2
  6
CONTINUOUS
 10
314.2304457177
 20
53.3293357696
 11
314.4218236077
 21
53.411982318
  0
LINE
  5
6A5
100
AcDbEntity
  8
606355349-000-00-ED1_FORMAT
100
AcDbLine
 62
2
  6
CONTINUOUS
 10
317.9768299493
 20
57.09487209
 11
319.2546207116
 21
57.638015615
  0
LINE
  5
6A6
100
AcDbEntity
  8
606355349-000-00-ED1_FORMAT
100
AcDbLine
 62
2
  6
CONTINUOUS
 10
314.004113176
 20
54.106655268
 11
313.8970140824
 21
54.0619609694
  0
LINE
  5
6A7
100
AcDbEntity
  8
606355349-000-00-ED1_FORMAT
100
AcDbLine
 62
2
  6
CONTINUOUS
 10
319.2068127099
 20
57.4193990424
 11
318.1654360589
 21
56.9863057517
  0
LINE
  5
6A8
100
AcDbEntity
  8
606355349-000-00-ED1_FORMAT
100
AcDbLine
 62
2
  6
CONTINUOUS
 10
314.125727646
 20
53.2985664359
 11
314.2304457177
 21
53.3293357696
  0
LINE
  5
6A9
100
AcDbEntity
  8
606355349-000-00-ED1_FORMAT
100
AcDbLine
 62
7
  6
CONTINUOUS
 10
264.9013593819
 20
270.4999514106
 11
410.0000007463
 21
270.4999514106
  0
LINE
  5
6AA
100
AcDbEntity
  8
606355349-000-00-ED1_FORMAT
100
AcDbLine
 62
7
  6
CONTINUOUS
 10
274.9014193732
 20
275.0499459516
 11
376.900004085
 21
275.0499459516
  0
LINE
  5
6AB
100
AcDbEntity
  8
606355349-000-00-ED1_FORMAT
100
AcDbLine
 62
7
  6
CONTINUOUS
 10
264.9013593819
 20
279.5999404927
 11
410.0000007463
 21
279.5999404927
  0
LINE
  5
6AC
100
AcDbEntity
  8
606355349-000-00-ED1_FORMAT
100
AcDbLine
 62
7
  6
CONTINUOUS
 10
135.0000610636
 20
281.0000010853
 11
23.0001
 21
281.0000010853
  0
LINE
  5
6AD
100
AcDbEntity
  8
606355349-000-00-ED1_FORMAT
100
AcDbLine
 62
7
  6
CONTINUOUS
 10
344.9999968815
 20
13.500000112
 11
344.9999968815
 21
24.250000456
  0
LINE
  5
6AE
100
AcDbEntity
  8
606355349-000-00-ED1_FORMAT
100
AcDbLine
 62
2
  6
CONTINUOUS
 10
314.2106472863
 20
54.3649284202
 11
314.1610626359
 21
54.2562276709
  0
LINE
  5
6AF
100
AcDbEntity
  8
606355349-000-00-ED1_FORMAT
100
AcDbLine
 62
2
  6
CONTINUOUS
 10
314.8482609795
 20
53.8267688498
 11
314.897298568
 21
53.9199424567
  0
LINE
  5
6B0
100
AcDbEntity
  8
606355349-000-00-ED1_FORMAT
100
AcDbLine
 62
2
  6
CONTINUOUS
 10
314.7928670525
 20
53.7404233146
 11
314.8482609795
 21
53.8267688498
  0
LINE
  5
6B1
100
AcDbEntity
  8
606355349-000-00-ED1_FORMAT
100
AcDbLine
 62
2
  6
CONTINUOUS
 10
314.731116787
 20
53.6609219802
 11
314.7928670525
 21
53.7404233146
  0
LINE
  5
6B2
100
AcDbEntity
  8
606355349-000-00-ED1_FORMAT
100
AcDbLine
 62
2
  6
CONTINUOUS
 10
314.1610626359
 20
54.2562276709
 11
314.0921745149
 21
54.1707746238
  0
LINE
  5
6B3
100
AcDbEntity
  8
606355349-000-00-ED1_FORMAT
100
AcDbLine
 62
2
  6
CONTINUOUS
 10
314.5888598473
 20
53.5225809485
 11
314.731116787
 21
53.6609219802
  0
LINE
  5
6B4
100
AcDbEntity
  8
606355349-000-00-ED1_FORMAT
100
AcDbLine
 62
2
  6
CONTINUOUS
 10
320.5409560601
 20
50.825024919
 11
320.1637855218
 21
50.5303156714
  0
LINE
  5
6B5
100
AcDbEntity
  8
606355349-000-00-ED1_FORMAT
100
AcDbLine
 62
2
  6
CONTINUOUS
 10
314.0921745149
 20
54.1707746238
 11
314.004113176
 21
54.106655268
  0
LINE
  5
6B6
100
AcDbEntity
  8
606355349-000-00-ED1_FORMAT
100
AcDbLine
 62
2
  6
CONTINUOUS
 10
314.4218236077
 20
53.411982318
 11
314.5888598473
 21
53.5225809485
  0
LINE
  5
6B7
100
AcDbEntity
  8
606355349-000-00-ED1_FORMAT
100
AcDbLine
 62
2
  6
CONTINUOUS
 10
317.9768299493
 20
52.0552391158
 11
312.6129816041
 21
49.4525663993
  0
LINE
  5
6B8
100
AcDbEntity
  8
606355349-000-00-ED1_FORMAT
100
AcDbLine
 62
2
  6
CONTINUOUS
 10
322.4740123803
 20
54.2379800528
 11
319.559328991
 21
52.8235369574
  0
LINE
  5
6B9
100
AcDbEntity
  8
606355349-000-00-ED1_FORMAT
100
AcDbLine
 62
2
  6
CONTINUOUS
 10
312.6103036057
 20
49.0619039283
 11
317.9894905251
 21
51.6723455924
  0
LINE
  5
6BA
100
AcDbEntity
  8
606355349-000-00-ED1_FORMAT
100
AcDbLine
 62
2
  6
CONTINUOUS
 10
319.5865362039
 20
52.4473693534
 11
323.3012846261
 21
54.2500824065
  0
LINE
  5
6BB
100
AcDbEntity
  8
606355349-000-00-ED1_FORMAT
100
AcDbLine
 62
7
  6
CONTINUOUS
 10
410.0
 20
287.0
 11
264.9013593819
 21
287.0
  0
LINE
  5
6BC
100
AcDbEntity
  8
606355349-000-00-ED1_FORMAT
100
AcDbLine
 62
3
  6
CONTINUOUS
 10
23.0
 20
287.0
 11
23.0001
 21
287.0
  0
LINE
  5
6BD
100
AcDbEntity
  8
606355349-000-00-ED1_FORMAT
100
AcDbLine
 62
7
  6
CONTINUOUS
 10
23.0001
 20
287.0
 11
135.0000610636
 21
287.0
  0
LINE
  5
6BE
100
AcDbEntity
  8
606355349-000-00-ED1_FORMAT
100
AcDbLine
 62
3
  6
CONTINUOUS
 10
135.0000610636
 20
287.0
 11
264.9013593819
 21
287.0
  0
LINE
  5
6BF
100
AcDbEntity
  8
606355349-000-00-ED1_FORMAT
100
AcDbLine
 62
7
  6
CONTINUOUS
 10
415.0
 20
292.0
 11
18.0
 21
292.0
  0
LINE
  5
6C0
100
AcDbEntity
  8
606355349-000-00-ED1_FORMAT
100
AcDbLine
 62
6
  6
HIDDEN
 10
420.0
 20
297.0
 11
0.0
 21
297.0
  0
LINE
  5
6C1
100
AcDbEntity
  8
606355349-000-00-ED1_FORMAT
100
AcDbLine
 62
3
  6
CONTINUOUS
 10
360.0
 20
10.0
 11
360.0
 21
5.0
  0
LINE
  5
6C2
100
AcDbEntity
  8
606355349-000-00-ED1_FORMAT
100
AcDbLine
 62
3
  6
CONTINUOUS
 10
360.0
 20
287.0
 11
360.0
 21
292.0
  0
LINE
  5
6C3
100
AcDbEntity
  8
606355349-000-00-ED1_FORMAT
100
AcDbLine
 62
7
  6
CONTINUOUS
 10
365.999998592
 20
35.0000008
 11
366.0000025448
 21
72.500002
  0
LINE
  5
6C4
100
AcDbEntity
  8
606355349-000-00-ED1_FORMAT
100
AcDbLine
 62
7
  6
CONTINUOUS
 10
376.8994429408
 20
40.9546819905
 11
376.8994429408
 21
65.00000176
  0
LINE
  5
6C5
100
AcDbEntity
  8
606355349-000-00-ED1_FORMAT
100
AcDbLine
 62
7
  6
CONTINUOUS
 10
376.900004085
 20
225.000007
 11
376.900004085
 21
287.0000007463
  0
LINE
  5
6C6
100
AcDbEntity
  8
606355349-000-00-ED1_FORMAT
100
AcDbLine
 62
7
  6
CONTINUOUS
 10
377.7325379674
 20
13.500000112
 11
377.7325379674
 21
10.0
  0
LINE
  5
6C7
100
AcDbEntity
  8
606355349-000-00-ED1_FORMAT
100
AcDbLine
 62
7
  6
CONTINUOUS
 10
391.8994434208
 20
65.00000176
 11
391.8994434208
 21
35.0000008
  0
LINE
  5
6C8
100
AcDbEntity
  8
606355349-000-00-ED1_FORMAT
100
AcDbLine
 62
7
  6
CONTINUOUS
 10
391.900002572
 20
225.000007
 11
391.900002572
 21
287.0000007463
  0
LINE
  5
6C9
100
AcDbEntity
  8
606355349-000-00-ED1_FORMAT
100
AcDbLine
 62
7
  6
CONTINUOUS
 10
399.9999602137
 20
13.500000112
 11
399.9999602137
 21
35.0000008
  0
LINE
  5
6CA
100
AcDbEntity
  8
606355349-000-00-ED1_FORMAT
100
AcDbLine
 62
7
  6
CONTINUOUS
 10
410.0
 20
10.0
 11
410.0
 21
78.4999970131
  0
LINE
  5
6CB
100
AcDbEntity
  8
606355349-000-00-ED1_FORMAT
100
AcDbLine
 62
3
  6
CONTINUOUS
 10
410.0
 20
78.4999970131
 11
410.0000007463
 21
225.000007
  0
LINE
  5
6CC
100
AcDbEntity
  8
606355349-000-00-ED1_FORMAT
100
AcDbLine
 62
7
  6
CONTINUOUS
 10
410.0000007463
 20
225.000007
 11
410.0000007463
 21
287.0000007463
  0
LINE
  5
6CD
100
AcDbEntity
  8
606355349-000-00-ED1_FORMAT
100
AcDbLine
 62
7
  6
CONTINUOUS
 10
415.0
 20
5.0
 11
415.0
 21
292.0
  0
LINE
  5
6CE
100
AcDbEntity
  8
606355349-000-00-ED1_FORMAT
100
AcDbLine
 62
6
  6
HIDDEN
 10
420.0
 20
0.0
 11
420.0
 21
297.0
  0
LINE
  5
6CF
100
AcDbEntity
  8
30350716_CL
100
AcDbLine
 62
7
  6
CONTINUOUS
 10
60.4571766257
 20
146.4577288594
 11
60.4571766257
 21
132.1469890852
  0
LINE
  5
6D0
100
AcDbEntity
  8
30350716_CL
100
AcDbLine
 62
7
  6
CONTINUOUS
 10
60.4571766257
 20
160.9977288594
 11
60.4571766257
 21
175.3087788953
  0
LINE
  5
6D1
100
AcDbEntity
  8
30350716_CL
100
AcDbLine
 62
7
  6
CONTINUOUS
 10
61.4571766257
 20
147.4577288594
 11
61.4571766257
 21
144.6349495888
  0
LINE
  5
6D2
100
AcDbEntity
  8
30350716_HL
100
AcDbLine
 62
6
  6
HIDDEN
 10
61.4571766257
 20
136.7277288594
 11
61.4571766257
 21
144.6349495888
  0
LINE
  5
6D3
100
AcDbEntity
  8
30350716_CL
100
AcDbLine
 62
7
  6
CONTINUOUS
 10
61.4571766257
 20
159.9977288594
 11
61.4571766257
 21
162.82050813
  0
LINE
  5
6D4
100
AcDbEntity
  8
30350716_HL
100
AcDbLine
 62
6
  6
HIDDEN
 10
61.4571766257
 20
162.82050813
 11
61.4571766257
 21
170.7277288594
  0
LINE
  5
6D5
100
AcDbEntity
  8
30350716_CL
100
AcDbLine
 62
9
  6
CONTINUOUS
 10
61.5971316953
 20
176.5072757064
 11
61.5971316953
 21
162.8575592289
  0
LINE
  5
6D6
100
AcDbEntity
  8
30350716_CL
100
AcDbLine
 62
9
  6
CONTINUOUS
 10
61.5971316953
 20
144.5978984899
 11
61.5971316953
 21
130.9481820124
  0
LINE
  5
6D7
100
AcDbEntity
  8
30350716_CL
100
AcDbLine
 62
9
  6
CONTINUOUS
 10
64.9571766257
 20
147.4577288594
 11
64.9571766257
 21
144.0984326972
  0
LINE
  5
6D8
100
AcDbEntity
  8
30350716_CL
100
AcDbLine
 62
9
  6
CONTINUOUS
 10
64.9571766257
 20
159.9977288594
 11
64.9571766257
 21
163.3570250217
  0
LINE
  5
6D9
100
AcDbEntity
  8
30350716_CL
100
AcDbLine
 62
7
  6
CONTINUOUS
 10
66.4571766257
 20
160.8752636854
 11
66.4571766257
 21
146.5801940334
  0
LINE
  5
6DA
100
AcDbEntity
  8
30350716_HL
100
AcDbLine
 62
6
  6
HIDDEN
 10
73.361151222
 20
170.7277288594
 11
73.361151222
 21
136.7277288594
  0
LINE
  5
6DB
100
AcDbEntity
  8
30350716_CL
100
AcDbLine
 62
9
  6
CONTINUOUS
 10
74.9199969488
 20
134.0277288594
 11
74.9199969488
 21
173.4277288594
  0
LINE
  5
6DC
100
AcDbEntity
  8
30350716_CL
100
AcDbLine
 62
9
  6
CONTINUOUS
 10
75.439612191
 20
133.7277288594
 11
75.439612191
 21
173.7277288594
  0
LINE
  5
6DD
100
AcDbEntity
  8
30350716_HL
100
AcDbLine
 62
6
  6
HIDDEN
 10
73.361151222
 20
170.7277288594
 11
74.9199969488
 21
173.4277288594
  0
LINE
  5
6DE
100
AcDbEntity
  8
30350716_HL
100
AcDbLine
 62
6
  6
HIDDEN
 10
73.361151222
 20
136.7277288594
 11
74.9199969488
 21
134.0277288594
  0
LINE
  5
6DF
100
AcDbEntity
  8
30350716_AXIS
100
AcDbLine
 62
3
  6
CENTER
 10
83.3571766257
 20
153.7277288594
 11
83.3571766257
 21
144.9777288594
  0
LINE
  5
6E0
100
AcDbEntity
  8
30350716_AXIS
100
AcDbLine
 62
3
  6
CENTER
 10
83.3571766257
 20
153.7277288594
 11
83.3571766257
 21
162.4777288594
  0
LINE
  5
6E1
100
AcDbEntity
  8
30350716_CL
100
AcDbLine
 62
9
  6
CONTINUOUS
 10
86.1121786273
 20
151.1836250936
 11
86.1121786273
 21
133.7277288594
  0
LINE
  5
6E2
100
AcDbEntity
  8
30350716_CL
100
AcDbLine
 62
9
  6
CONTINUOUS
 10
86.1121786273
 20
156.2718326252
 11
86.1121786273
 21
173.7277288594
  0
LINE
  5
6E3
100
AcDbEntity
  8
30350716_CL
100
AcDbLine
 62
7
  6
CONTINUOUS
 10
90.3571766257
 20
129.5072979977
 11
90.3571766257
 21
177.9481597212
  0
LINE
  5
6E4
100
AcDbEntity
  8
30350716_CL
100
AcDbLine
 62
9
  6
CONTINUOUS
 10
91.0272868587
 20
177.7686042254
 11
91.0272868587
 21
129.6868534934
  0
LINE
  5
6E5
100
AcDbEntity
  8
30350716_CL
100
AcDbLine
 62
9
  6
CONTINUOUS
 10
91.1825782858
 20
177.7481597212
 11
91.1825782858
 21
129.7072979977
  0
LINE
  5
6E6
100
AcDbEntity
  8
30350716_CL
100
AcDbLine
 62
9
  6
CONTINUOUS
 10
91.8571766257
 20
177.7481597212
 11
91.8571766257
 21
129.7072979977
  0
LINE
  5
6E7
100
AcDbEntity
  8
30350716_CL
100
AcDbLine
 62
7
  6
CONTINUOUS
 10
92.3571766257
 20
122.427731671
 11
92.3571766257
 21
185.0277260478
  0
LINE
  5
6E8
100
AcDbEntity
  8
30350716_CL
100
AcDbLine
 62
9
  6
CONTINUOUS
 10
92.451337467
 20
129.0237941371
 11
92.451337467
 21
178.4316635817
  0
LINE
  5
6E9
100
AcDbEntity
  8
30350716_HL
100
AcDbLine
 62
6
  6
HIDDEN
 10
92.4571766257
 20
178.3481597212
 11
92.4571766257
 21
129.1072979977
  0
LINE
  5
6EA
100
AcDbEntity
  8
30350716_CL
100
AcDbLine
 62
7
  6
CONTINUOUS
 10
92.5571766257
 20
122.2277288594
 11
92.5571766257
 21
185.2277288594
  0
LINE
  5
6EB
100
AcDbEntity
  8
30350716_HL
100
AcDbLine
 62
6
  6
HIDDEN
 10
94.3571766257
 20
184.6277288594
 11
94.3571766257
 21
180.5277288594
  0
LINE
  5
6EC
100
AcDbEntity
  8
30350716_HL
100
AcDbLine
 62
6
  6
HIDDEN
 10
97.3071766257
 20
154.7277288594
 11
97.3071766257
 21
152.7277288594
  0
LINE
  5
6ED
100
AcDbEntity
  8
30350716_HL
100
AcDbLine
 62
6
  6
HIDDEN
 10
92.3571766257
 20
128.3538049383
 11
92.451337467
 21
129.0237941371
  0
LINE
  5
6EE
100
AcDbEntity
  8
30350716_CL
100
AcDbLine
 62
7
  6
CONTINUOUS
 10
92.3571766257
 20
185.0277288594
 11
92.5571766257
 21
185.2277288594
  0
LINE
  5
6EF
100
AcDbEntity
  8
30350716_CL
100
AcDbLine
 62
7
  6
CONTINUOUS
 10
92.3571766257
 20
122.4277288594
 11
92.5571766257
 21
122.2277288594
  0
LINE
  5
6F0
100
AcDbEntity
  8
30350716_HL
100
AcDbLine
 62
6
  6
HIDDEN
 10
92.3571766257
 20
179.1016527806
 11
92.451337467
 21
178.4316635817
  0
LINE
  5
6F1
100
AcDbEntity
  8
30350716_AXIS
100
AcDbLine
 62
3
  6
CENTER
 10
99.3571766257
 20
126.0175862587
 11
99.3571766257
 21
118.986368889
  0
LINE
  5
6F2
100
AcDbEntity
  8
30350716_AXIS
100
AcDbLine
 62
3
  6
CENTER
 10
99.3571766257
 20
176.6277288594
 11
99.3571766257
 21
189.6277288594
  0
LINE
  5
6F3
100
AcDbEntity
  8
30350716_HL
100
AcDbLine
 62
6
  6
HIDDEN
 10
100.0280204282
 20
170.7277288594
 11
100.0280204282
 21
136.7277288594
  0
LINE
  5
6F4
100
AcDbEntity
  8
30350716_HL
100
AcDbLine
 62
6
  6
HIDDEN
 10
102.3571766257
 20
169.4742746241
 11
102.3571766257
 21
137.9811830947
  0
LINE
  5
6F5
100
AcDbEntity
  8
30350716_HL
100
AcDbLine
 62
6
  6
HIDDEN
 10
102.3571766257
 20
137.9811830947
 11
102.3571766257
 21
137.9777314558
  0
LINE
  5
6F6
100
AcDbEntity
  8
30350716_HL
100
AcDbLine
 62
6
  6
HIDDEN
 10
102.3571766257
 20
169.4742746241
 11
102.3571766257
 21
169.477726263
  0
LINE
  5
6F7
100
AcDbEntity
  8
30350716_HL
100
AcDbLine
 62
6
  6
HIDDEN
 10
104.3571766257
 20
184.6277288594
 11
104.3571766257
 21
180.5277288594
  0
LINE
  5
6F8
100
AcDbEntity
  8
30350716_CL
100
AcDbLine
 62
7
  6
CONTINUOUS
 10
60.4571766257
 20
146.4577288594
 11
61.4571766257
 21
147.4577288594
  0
LINE
  5
6F9
100
AcDbEntity
  8
30350716_HL
100
AcDbLine
 62
6
  6
HIDDEN
 10
104.9571766257
 20
185.2277288594
 11
104.3571766257
 21
184.6277288594
  0
LINE
  5
6FA
100
AcDbEntity
  8
30350716_HL
100
AcDbLine
 62
6
  6
HIDDEN
 10
99.9571766257
 20
180.2277288594
 11
99.3571766257
 21
179.6277288594
  0
LINE
  5
6FB
100
AcDbEntity
  8
30350716_CL
100
AcDbLine
 62
7
  6
CONTINUOUS
 10
61.4571766257
 20
159.9977288594
 11
60.4571766257
 21
160.9977288594
  0
LINE
  5
6FC
100
AcDbEntity
  8
30350716_CL
100
AcDbLine
 62
7
  6
CONTINUOUS
 10
106.979677551
 20
185.2277288594
 11
106.979677551
 21
161.7277288594
  0
LINE
  5
6FD
100
AcDbEntity
  8
30350716_CL
100
AcDbLine
 62
7
  6
CONTINUOUS
 10
106.979677551
 20
145.7277288594
 11
106.979677551
 21
133.7277288594
  0
LINE
  5
6FE
100
AcDbEntity
  8
30350716_CL
100
AcDbLine
 62
7
  6
CONTINUOUS
 10
106.979677551
 20
129.3915418121
 11
106.979677551
 21
122.2277288594
  0
LINE
  5
6FF
100
AcDbEntity
  8
30350716_HL
100
AcDbLine
 62
6
  6
HIDDEN
 10
106.979677551
 20
129.3915418121
 11
106.979677551
 21
133.7277288594
  0
LINE
  5
700
100
AcDbEntity
  8
30350716_CL
100
AcDbLine
 62
7
  6
CONTINUOUS
 10
108.4821766257
 20
182.6253239199
 11
108.4821766257
 21
161.7277288594
  0
LINE
  5
701
100
AcDbEntity
  8
30350716_CL
100
AcDbLine
 62
7
  6
CONTINUOUS
 10
108.4821766257
 20
124.8301359792
 11
108.4821766257
 21
145.7277288594
  0
LINE
  5
702
100
AcDbEntity
  8
30350716_CL
100
AcDbLine
 62
9
  6
CONTINUOUS
 10
109.2321766257
 20
181.2277288594
 11
109.2321766257
 21
161.0761980878
  0
LINE
  5
703
100
AcDbEntity
  8
30350716_CL
100
AcDbLine
 62
9
  6
CONTINUOUS
 10
109.2321766257
 20
146.3792596311
 11
109.2321766257
 21
126.2277288594
  0
LINE
  5
704
100
AcDbEntity
  8
30350716_AXIS
100
AcDbLine
 62
3
  6
CENTER
 10
110.3571766257
 20
153.7277288594
 11
110.3571766257
 21
146.7777288594
  0
LINE
  5
705
100
AcDbEntity
  8
30350716_AXIS
100
AcDbLine
 62
3
  6
CENTER
 10
110.3571766257
 20
153.7277288594
 11
110.3571766257
 21
160.6777288594
  0
LINE
  5
706
100
AcDbEntity
  8
30350716_HL
100
AcDbLine
 62
6
  6
HIDDEN
 10
110.6571766257
 20
144.2277316073
 11
110.6571766257
 21
163.2277261115
  0
LINE
  5
707
100
AcDbEntity
  8
30350716_CL
100
AcDbLine
 62
9
  6
CONTINUOUS
 10
111.4821766257
 20
181.2277288594
 11
111.4821766257
 21
161.0761980878
  0
LINE
  5
708
100
AcDbEntity
  8
30350716_CL
100
AcDbLine
 62
9
  6
CONTINUOUS
 10
111.4821766257
 20
146.3792596311
 11
111.4821766257
 21
126.2277288594
  0
LINE
  5
709
100
AcDbEntity
  8
30350716_CL
100
AcDbLine
 62
7
  6
CONTINUOUS
 10
112.2321766257
 20
124.8301359792
 11
112.2321766257
 21
145.7277288594
  0
LINE
  5
70A
100
AcDbEntity
  8
30350716_CL
100
AcDbLine
 62
7
  6
CONTINUOUS
 10
112.2321766257
 20
161.7277288594
 11
112.2321766257
 21
182.6253239199
  0
LINE
  5
70B
100
AcDbEntity
  8
30350716_CL
100
AcDbLine
 62
7
  6
CONTINUOUS
 10
113.7346757005
 20
185.2277288594
 11
112.2321766257
 21
182.6253241236
  0
LINE
  5
70C
100
AcDbEntity
  8
30350716_HL
100
AcDbLine
 62
6
  6
HIDDEN
 10
104.3571766257
 20
180.5277288594
 11
104.0571766257
 21
180.2277288594
  0
LINE
  5
70D
100
AcDbEntity
  8
30350716_CL
100
AcDbLine
 62
7
  6
CONTINUOUS
 10
113.7346757005
 20
122.2277288594
 11
112.2321766257
 21
124.8301335952
  0
LINE
  5
70E
100
AcDbEntity
  8
30350716_CL
100
AcDbLine
 62
7
  6
CONTINUOUS
 10
113.7346757005
 20
185.2277288594
 11
113.7346757005
 21
161.7277288594
  0
LINE
  5
70F
100
AcDbEntity
  8
30350716_CL
100
AcDbLine
 62
7
  6
CONTINUOUS
 10
113.7346757005
 20
145.7277288594
 11
113.7346757005
 21
133.7277288594
  0
LINE
  5
710
100
AcDbEntity
  8
30350716_CL
100
AcDbLine
 62
7
  6
CONTINUOUS
 10
113.7346757005
 20
129.3915418121
 11
113.7346757005
 21
122.2277288594
  0
LINE
  5
711
100
AcDbEntity
  8
30350716_HL
100
AcDbLine
 62
6
  6
HIDDEN
 10
113.7346757005
 20
129.3915418121
 11
113.7346757005
 21
133.7277288594
  0
LINE
  5
712
100
AcDbEntity
  8
30350716_HL
100
AcDbLine
 62
6
  6
HIDDEN
 10
114.3571766257
 20
144.2277316073
 11
114.3571766257
 21
163.2277261115
  0
LINE
  5
713
100
AcDbEntity
  8
30350716_CL
100
AcDbLine
 62
7
  6
CONTINUOUS
 10
118.3071766257
 20
122.2277290332
 11
118.3071766257
 21
185.2277284741
  0
LINE
  5
714
100
AcDbEntity
  8
30350716_CL
100
AcDbLine
 62
9
  6
CONTINUOUS
 10
60.7039655646
 20
163.8432708326
 11
60.9282127174
 21
163.945076979
  0
LINE
  5
715
100
AcDbEntity
  8
30350716_CL
100
AcDbLine
 62
9
  6
CONTINUOUS
 10
60.7039655646
 20
143.6121868862
 11
60.9282127178
 21
143.5103808091
  0
LINE
  5
716
100
AcDbEntity
  8
30350716_CL
100
AcDbLine
 62
9
  6
CONTINUOUS
 10
123.3071766257
 20
169.7277288594
 11
123.3071766257
 21
137.7277288594
  0
LINE
  5
717
100
AcDbEntity
  8
30350716_CL
100
AcDbLine
 62
7
  6
CONTINUOUS
 10
108.4821766257
 20
124.8301335952
 11
106.979677551
 21
122.2277288594
  0
LINE
  5
718
100
AcDbEntity
  8
30350716_HL
100
AcDbLine
 62
6
  6
HIDDEN
 10
61.4571766257
 20
136.7277288594
 11
60.4571766257
 21
136.1503785902
  0
LINE
  5
719
100
AcDbEntity
  8
30350716_HL
100
AcDbLine
 62
6
  6
HIDDEN
 10
61.4571766257
 20
170.7277288594
 11
60.4571766257
 21
171.3050791286
  0
LINE
  5
71A
100
AcDbEntity
  8
30350716_HL
100
AcDbLine
 62
6
  6
HIDDEN
 10
94.3571766257
 20
180.5277288594
 11
94.6571766257
 21
180.2277288594
  0
LINE
  5
71B
100
AcDbEntity
  8
30350716_CL
100
AcDbLine
 62
7
  6
CONTINUOUS
 10
108.4821766257
 20
182.6253241236
 11
106.979677551
 21
185.2277288594
  0
LINE
  5
71C
100
AcDbEntity
  8
30350716_CL
100
AcDbLine
 62
7
  6
CONTINUOUS
 10
92.5571766257
 20
122.2277288594
 11
95.158536806
 21
122.2277288594
  0
LINE
  5
71D
100
AcDbEntity
  8
30350716_CL
100
AcDbLine
 62
7
  6
CONTINUOUS
 10
103.5558162908
 20
122.2277288594
 11
106.979677551
 21
122.2277288594
  0
LINE
  5
71E
100
AcDbEntity
  8
30350716_CL
100
AcDbLine
 62
7
  6
CONTINUOUS
 10
113.7346757005
 20
122.2277288594
 11
118.3071766257
 21
122.2277288594
  0
LINE
  5
71F
100
AcDbEntity
  8
30350716_HL
100
AcDbLine
 62
6
  6
HIDDEN
 10
93.7571766257
 20
185.2277288594
 11
94.3571766257
 21
184.6277288594
  0
LINE
  5
720
100
AcDbEntity
  8
30350716_HL
100
AcDbLine
 62
6
  6
HIDDEN
 10
98.7571766257
 20
180.2277288594
 11
99.3571766257
 21
179.6277288594
  0
LINE
  5
721
100
AcDbEntity
  8
30350716_CL
100
AcDbLine
 62
7
  6
CONTINUOUS
 10
111.4821766257
 20
126.2277288594
 11
109.2321766257
 21
126.2277288594
  0
LINE
  5
722
100
AcDbEntity
  8
30350716_CL
100
AcDbLine
 62
7
  6
CONTINUOUS
 10
98.1954627221
 20
129.3915418121
 11
106.979677551
 21
129.3915418121
  0
LINE
  5
723
100
AcDbEntity
  8
30350716_CL
100
AcDbLine
 62
7
  6
CONTINUOUS
 10
113.7346757005
 20
129.3915418121
 11
118.3071766257
 21
129.3915418121
  0
LINE
  5
724
100
AcDbEntity
  8
30350716_CL
100
AcDbLine
 62
7
  6
CONTINUOUS
 10
91.1825782858
 20
129.7072979977
 11
91.8571766257
 21
129.7072979977
  0
LINE
  5
725
100
AcDbEntity
  8
30350716_CL
100
AcDbLine
 62
7
  6
CONTINUOUS
 10
61.5971316953
 20
130.9481820124
 11
90.3571766257
 21
129.5072979977
  0
LINE
  5
726
100
AcDbEntity
  8
30350716_CL
100
AcDbLine
 62
7
  6
CONTINUOUS
 10
241.532357681
 20
137.7277288594
 11
291.4356357215
 21
141.6552020173
  0
LINE
  5
727
100
AcDbEntity
  8
30350716_HL
100
AcDbLine
 62
6
  6
HIDDEN
 10
75.439612191
 20
133.7277288594
 11
86.1121786273
 21
133.7277288594
  0
LINE
  5
728
100
AcDbEntity
  8
30350716_CL
100
AcDbLine
 62
7
  6
CONTINUOUS
 10
105.3071766257
 20
133.7277288594
 11
108.4821766257
 21
133.7277288594
  0
LINE
  5
729
100
AcDbEntity
  8
30350716_CL
100
AcDbLine
 62
7
  6
CONTINUOUS
 10
112.2321766257
 20
133.7277288594
 11
118.3071766257
 21
133.7277288594
  0
LINE
  5
72A
100
AcDbEntity
  8
30350716_HL
100
AcDbLine
 62
6
  6
HIDDEN
 10
61.4571766257
 20
136.7277288594
 11
73.361151222
 21
136.7277288594
  0
LINE
  5
72B
100
AcDbEntity
  8
30350716_HL
100
AcDbLine
 62
6
  6
HIDDEN
 10
92.3571766257
 20
136.7277288594
 11
100.0280204282
 21
136.7277288594
  0
LINE
  5
72C
100
AcDbEntity
  8
30350716_CL
100
AcDbLine
 62
7
  6
CONTINUOUS
 10
123.3071766257
 20
137.7277288594
 11
230.3571766257
 21
137.7277288594
  0
LINE
  5
72D
100
AcDbEntity
  8
30350716_CL
100
AcDbLine
 62
7
  6
CONTINUOUS
 10
238.3571766257
 20
137.7277288594
 11
241.532357681
 21
137.7277288594
  0
LINE
  5
72E
100
AcDbEntity
  8
30350716_CL
100
AcDbLine
 62
7
  6
CONTINUOUS
 10
230.3571766257
 20
137.8777288594
 11
231.8571766257
 21
137.8777288594
  0
LINE
  5
72F
100
AcDbEntity
  8
30350716_CL
100
AcDbLine
 62
7
  6
CONTINUOUS
 10
236.8571766257
 20
137.8777288594
 11
238.3571766257
 21
137.8777288594
  0
LINE
  5
730
100
AcDbEntity
  8
30350716_HL
100
AcDbLine
 62
6
  6
HIDDEN
 10
114.3571766257
 20
144.2277288594
 11
110.6571766257
 21
144.2277288594
  0
LINE
  5
731
100
AcDbEntity
  8
30350716_HL
100
AcDbLine
 62
6
  6
HIDDEN
 10
237.3571766257
 20
144.3777288594
 11
231.3571766257
 21
144.3777288594
  0
LINE
  5
732
100
AcDbEntity
  8
30350716_HL
100
AcDbLine
 62
6
  6
HIDDEN
 10
110.6571766257
 20
144.7277288594
 11
102.3571766257
 21
144.7277288594
  0
LINE
  5
733
100
AcDbEntity
  8
30350716_HL
100
AcDbLine
 62
6
  6
HIDDEN
 10
112.1844034514
 20
144.7277288594
 11
118.3071766257
 21
144.7277288594
  0
LINE
  5
734
100
AcDbEntity
  8
30350716_HL
100
AcDbLine
 62
6
  6
HIDDEN
 10
110.6571766257
 20
145.2277288594
 11
102.3571766257
 21
145.2277288594
  0
LINE
  5
735
100
AcDbEntity
  8
30350716_CL
100
AcDbLine
 62
7
  6
CONTINUOUS
 10
105.3071766257
 20
145.7277288594
 11
108.7433100485
 21
145.7277288594
  0
LINE
  5
736
100
AcDbEntity
  8
30350716_CL
100
AcDbLine
 62
7
  6
CONTINUOUS
 10
111.9710432029
 20
145.7277288594
 11
118.3071766257
 21
145.7277288594
  0
LINE
  5
737
100
AcDbEntity
  8
30350716_HL
100
AcDbLine
 62
6
  6
HIDDEN
 10
236.8571766257
 20
146.3777288594
 11
231.8571766257
 21
146.3777288594
  0
LINE
  5
738
100
AcDbEntity
  8
30350716_CL
100
AcDbLine
 62
7
  6
CONTINUOUS
 10
111.4821766257
 20
146.3792596311
 11
109.2321766257
 21
146.3792596311
  0
LINE
  5
739
100
AcDbEntity
  8
30350716_CL
100
AcDbLine
 62
7
  6
CONTINUOUS
 10
90.3571766257
 20
129.5072979977
 11
91.0272868587
 21
129.6868534934
  0
LINE
  5
73A
100
AcDbEntity
  8
30350716_HL
100
AcDbLine
 62
6
  6
HIDDEN
 10
290.3571766257
 20
158.7277288594
 11
291.4443323685
 21
158.8228426624
  0
LINE
  5
73B
100
AcDbEntity
  8
30350716_CL
100
AcDbLine
 62
7
  6
CONTINUOUS
 10
61.4571766257
 20
147.4577288594
 11
64.9571766257
 21
147.4577288594
  0
LINE
  5
73C
100
AcDbEntity
  8
30350716_HL
100
AcDbLine
 62
6
  6
HIDDEN
 10
249.8571766257
 20
148.5777288594
 11
261.3571766257
 21
148.5777288594
  0
LINE
  5
73D
100
AcDbEntity
  8
30350716_HL
100
AcDbLine
 62
6
  6
HIDDEN
 10
261.3571766257
 20
148.7277288594
 11
290.3571766257
 21
148.7277288594
  0
LINE
  5
73E
100
AcDbEntity
  8
30252541_HP_HL
100
AcDbLine
 62
6
  6
HIDDEN
 10
249.8571766257
 20
149.2277288594
 11
251.3571766257
 21
149.2277288594
  0
LINE
  5
73F
100
AcDbEntity
  8
30350716_HL
100
AcDbLine
 62
6
  6
HIDDEN
 10
249.8571766257
 20
149.7277288594
 11
235.3571766257
 21
149.7277288594
  0
LINE
  5
740
100
AcDbEntity
  8
30350716_HL
100
AcDbLine
 62
6
  6
HIDDEN
 10
114.3571766257
 20
149.7277288594
 11
235.3571766257
 21
149.7277288594
  0
LINE
  5
741
100
AcDbEntity
  8
30252541_HP_HL
100
AcDbLine
 62
6
  6
HIDDEN
 10
238.4721766257
 20
149.7277288594
 11
246.6571766257
 21
149.7277288594
  0
LINE
  5
742
100
AcDbEntity
  8
30350716_HL
100
AcDbLine
 62
6
  6
HIDDEN
 10
235.6576069353
 20
150.2277288594
 11
249.2571766257
 21
150.2277288594
  0
LINE
  5
743
100
AcDbEntity
  8
30252541_HP_HL
100
AcDbLine
 62
6
  6
HIDDEN
 10
237.8571766257
 20
150.3427288594
 11
247.7223878724
 21
150.3427288594
  0
LINE
  5
744
100
AcDbEntity
  8
30252541_HP_HL
100
AcDbLine
 62
6
  6
HIDDEN
 10
248.5499969488
 20
150.7277288594
 11
249.2571766257
 21
150.7277288594
  0
LINE
  5
745
100
AcDbEntity
  8
30252541_HP_HL
100
AcDbLine
 62
6
  6
HIDDEN
 10
237.9851258182
 20
152.2277288594
 11
251.2292274333
 21
152.2277288594
  0
LINE
  5
746
100
AcDbEntity
  8
30252541_HP_HL
100
AcDbLine
 62
6
  6
HIDDEN
 10
251.2292274333
 20
153.7277288594
 11
247.3571766257
 21
153.7277288594
  0
LINE
  5
747
100
AcDbEntity
  8
30350716_AXIS
100
AcDbLine
 62
3
  6
CENTER
 10
110.3571766257
 20
153.7277288594
 11
103.4071766257
 21
153.7277288594
  0
LINE
  5
748
100
AcDbEntity
  8
30350716_AXIS
100
AcDbLine
 62
3
  6
CENTER
 10
83.3571766257
 20
153.7277288594
 11
74.6071766257
 21
153.7277288594
  0
LINE
  5
749
100
AcDbEntity
  8
30350716_AXIS
100
AcDbLine
 62
3
  6
CENTER
 10
297.3571766257
 20
153.7277288594
 11
55.4571766257
 21
153.7277288594
  0
LINE
  5
74A
100
AcDbEntity
  8
30350716_AXIS
100
AcDbLine
 62
3
  6
CENTER
 10
83.3571766257
 20
153.7277288594
 11
92.1071766257
 21
153.7277288594
  0
LINE
  5
74B
100
AcDbEntity
  8
30350716_AXIS
100
AcDbLine
 62
3
  6
CENTER
 10
110.3571766257
 20
153.7277288594
 11
117.3071766257
 21
153.7277288594
  0
LINE
  5
74C
100
AcDbEntity
  8
30252541_HP_HL
100
AcDbLine
 62
6
  6
HIDDEN
 10
237.9851258182
 20
153.7277288594
 11
241.8571766257
 21
153.7277288594
  0
LINE
  5
74D
100
AcDbEntity
  8
30252541_HP_HL
100
AcDbLine
 62
6
  6
HIDDEN
 10
237.9851258182
 20
155.2277288594
 11
251.2292274333
 21
155.2277288594
  0
LINE
  5
74E
100
AcDbEntity
  8
30252541_HP_HL
100
AcDbLine
 62
6
  6
HIDDEN
 10
248.5499969488
 20
156.7277288594
 11
249.2571766257
 21
156.7277288594
  0
LINE
  5
74F
100
AcDbEntity
  8
30252541_HP_HL
100
AcDbLine
 62
6
  6
HIDDEN
 10
237.8571766257
 20
157.1127288594
 11
247.7223878724
 21
157.1127288594
  0
LINE
  5
750
100
AcDbEntity
  8
30350716_HL
100
AcDbLine
 62
6
  6
HIDDEN
 10
235.6576069353
 20
157.2277288594
 11
249.2571766257
 21
157.2277288594
  0
LINE
  5
751
100
AcDbEntity
  8
30350716_HL
100
AcDbLine
 62
6
  6
HIDDEN
 10
249.8571766257
 20
157.7277288594
 11
235.3571766257
 21
157.7277288594
  0
LINE
  5
752
100
AcDbEntity
  8
30350716_HL
100
AcDbLine
 62
6
  6
HIDDEN
 10
114.3571766257
 20
157.7277288594
 11
235.3571766257
 21
157.7277288594
  0
LINE
  5
753
100
AcDbEntity
  8
30252541_HP_HL
100
AcDbLine
 62
6
  6
HIDDEN
 10
238.4721766257
 20
157.7277288594
 11
246.6571766257
 21
157.7277288594
  0
LINE
  5
754
100
AcDbEntity
  8
30252541_HP_HL
100
AcDbLine
 62
6
  6
HIDDEN
 10
249.8571766257
 20
158.2277288594
 11
251.3571766257
 21
158.2277288594
  0
LINE
  5
755
100
AcDbEntity
  8
30350716_HL
100
AcDbLine
 62
6
  6
HIDDEN
 10
261.3571766257
 20
158.7277288594
 11
290.3571766257
 21
158.7277288594
  0
LINE
  5
756
100
AcDbEntity
  8
30350716_HL
100
AcDbLine
 62
6
  6
HIDDEN
 10
249.8571766257
 20
158.8777288594
 11
261.3571766257
 21
158.8777288594
  0
LINE
  5
757
100
AcDbEntity
  8
30350716_CL
100
AcDbLine
 62
7
  6
CONTINUOUS
 10
64.9571766257
 20
159.9977288594
 11
61.4571766257
 21
159.9977288594
  0
LINE
  5
758
100
AcDbEntity
  8
30350716_CL
100
AcDbLine
 62
7
  6
CONTINUOUS
 10
111.4821766257
 20
161.0761980878
 11
109.2321766257
 21
161.0761980878
  0
LINE
  5
759
100
AcDbEntity
  8
30350716_HL
100
AcDbLine
 62
6
  6
HIDDEN
 10
236.8571766257
 20
161.0777288594
 11
231.8571766257
 21
161.0777288594
  0
LINE
  5
75A
100
AcDbEntity
  8
30350716_CL
100
AcDbLine
 62
7
  6
CONTINUOUS
 10
105.3071766257
 20
161.7277288594
 11
108.7433100485
 21
161.7277288594
  0
LINE
  5
75B
100
AcDbEntity
  8
30350716_CL
100
AcDbLine
 62
7
  6
CONTINUOUS
 10
111.9710432029
 20
161.7277288594
 11
118.3071766257
 21
161.7277288594
  0
LINE
  5
75C
100
AcDbEntity
  8
30350716_HL
100
AcDbLine
 62
6
  6
HIDDEN
 10
110.6571766257
 20
162.2277288594
 11
102.3571766257
 21
162.2277288594
  0
LINE
  5
75D
100
AcDbEntity
  8
30350716_HL
100
AcDbLine
 62
6
  6
HIDDEN
 10
118.3071766257
 20
162.7277288594
 11
112.1844034514
 21
162.7277288594
  0
LINE
  5
75E
100
AcDbEntity
  8
30350716_HL
100
AcDbLine
 62
6
  6
HIDDEN
 10
110.6571766257
 20
162.7277288594
 11
102.3571766257
 21
162.7277288594
  0
LINE
  5
75F
100
AcDbEntity
  8
30350716_HL
100
AcDbLine
 62
6
  6
HIDDEN
 10
290.3571766257
 20
148.7277288594
 11
291.4443323685
 21
148.6326150564
  0
LINE
  5
760
100
AcDbEntity
  8
30350716_CL
100
AcDbLine
 62
7
  6
CONTINUOUS
 10
90.3571766257
 20
177.9481597212
 11
91.0272868587
 21
177.7686042254
  0
LINE
  5
761
100
AcDbEntity
  8
30350716_HL
100
AcDbLine
 62
6
  6
HIDDEN
 10
237.3571766257
 20
163.0777288594
 11
231.3571766257
 21
163.0777288594
  0
LINE
  5
762
100
AcDbEntity
  8
30350716_HL
100
AcDbLine
 62
6
  6
HIDDEN
 10
114.3571766257
 20
163.2277288594
 11
110.6571766257
 21
163.2277288594
  0
LINE
  5
763
100
AcDbEntity
  8
30350716_CL
100
AcDbLine
 62
7
  6
CONTINUOUS
 10
230.3571766257
 20
169.5777288594
 11
231.8571766257
 21
169.5777288594
  0
LINE
  5
764
100
AcDbEntity
  8
30350716_CL
100
AcDbLine
 62
7
  6
CONTINUOUS
 10
236.8571766257
 20
169.5777288594
 11
238.3571766257
 21
169.5777288594
  0
LINE
  5
765
100
AcDbEntity
  8
30350716_CL
100
AcDbLine
 62
7
  6
CONTINUOUS
 10
123.3071766257
 20
169.7277288594
 11
230.3571766257
 21
169.7277288594
  0
LINE
  5
766
100
AcDbEntity
  8
30350716_CL
100
AcDbLine
 62
7
  6
CONTINUOUS
 10
238.3571766257
 20
169.7277288594
 11
241.532357681
 21
169.7277288594
  0
LINE
  5
767
100
AcDbEntity
  8
30350716_HL
100
AcDbLine
 62
6
  6
HIDDEN
 10
61.4571766257
 20
170.7277288594
 11
73.361151222
 21
170.7277288594
  0
LINE
  5
768
100
AcDbEntity
  8
30350716_HL
100
AcDbLine
 62
6
  6
HIDDEN
 10
92.3571766257
 20
170.7277288594
 11
100.0280204282
 21
170.7277288594
  0
LINE
  5
769
100
AcDbEntity
  8
30350716_HL
100
AcDbLine
 62
6
  6
HIDDEN
 10
236.8571766257
 20
161.0777288594
 11
234.3571766257
 21
159.5755773118
  0
LINE
  5
76A
100
AcDbEntity
  8
30350716_HL
100
AcDbLine
 62
6
  6
HIDDEN
 10
75.439612191
 20
173.7277288594
 11
86.1121786273
 21
173.7277288594
  0
LINE
  5
76B
100
AcDbEntity
  8
30350716_CL
100
AcDbLine
 62
7
  6
CONTINUOUS
 10
91.1825782858
 20
177.7481597212
 11
91.8571766257
 21
177.7481597212
  0
LINE
  5
76C
100
AcDbEntity
  8
30350716_CL
100
AcDbLine
 62
7
  6
CONTINUOUS
 10
241.532357681
 20
169.7277288594
 11
291.4356357215
 21
165.8002557015
  0
LINE
  5
76D
100
AcDbEntity
  8
30350716_HL
100
AcDbLine
 62
6
  6
HIDDEN
 10
236.8571766257
 20
146.3777288594
 11
234.3571766257
 21
147.879880407
  0
LINE
  5
76E
100
AcDbEntity
  8
30350716_CL
100
AcDbLine
 62
7
  6
CONTINUOUS
 10
61.5971316953
 20
176.5072757064
 11
90.3571766257
 21
177.9481597212
  0
LINE
  5
76F
100
AcDbEntity
  8
30350716_HL
100
AcDbLine
 62
6
  6
HIDDEN
 10
94.6571766257
 20
180.2277288594
 11
104.0571766257
 21
180.2277288594
  0
LINE
  5
770
100
AcDbEntity
  8
30350716_HL
100
AcDbLine
 62
6
  6
HIDDEN
 10
94.3571766257
 20
180.5277288594
 11
104.3571766257
 21
180.5277288594
  0
LINE
  5
771
100
AcDbEntity
  8
30350716_CL
100
AcDbLine
 62
7
  6
CONTINUOUS
 10
111.4821766257
 20
181.2277288594
 11
109.2321766257
 21
181.2277288594
  0
LINE
  5
772
100
AcDbEntity
  8
30350716_HL
100
AcDbLine
 62
6
  6
HIDDEN
 10
94.3571766257
 20
184.6277288594
 11
104.3571766257
 21
184.6277288594
  0
LINE
  5
773
100
AcDbEntity
  8
30350716_CL
100
AcDbLine
 62
7
  6
CONTINUOUS
 10
92.5571766257
 20
185.2277288594
 11
93.7571766257
 21
185.2277288594
  0
LINE
  5
774
100
AcDbEntity
  8
30350716_CL
100
AcDbLine
 62
7
  6
CONTINUOUS
 10
104.9571766257
 20
185.2277288594
 11
106.979677551
 21
185.2277288594
  0
LINE
  5
775
100
AcDbEntity
  8
30350716_CL
100
AcDbLine
 62
7
  6
CONTINUOUS
 10
113.7346757005
 20
185.2277288594
 11
118.3071766257
 21
185.2277288594
  0
LINE
  5
776
100
AcDbEntity
  8
30252541_HP_HL
100
AcDbLine
 62
6
  6
HIDDEN
 10
237.8571766257
 20
157.1127288594
 11
238.4721766257
 21
157.7277288594
  0
LINE
  5
777
100
AcDbEntity
  8
30350716_HL
100
AcDbLine
 62
6
  6
HIDDEN
 10
231.8571766257
 20
146.3777288594
 11
234.3571766257
 21
147.879880407
  0
LINE
  5
778
100
AcDbEntity
  8
30252541_HP_HL
100
AcDbLine
 62
6
  6
HIDDEN
 10
246.6571766257
 20
149.7277288594
 11
248.2499969488
 21
150.6473441017
  0
LINE
  5
779
100
AcDbEntity
  8
30252541_HP_HL
100
AcDbLine
 62
6
  6
HIDDEN
 10
246.6571766257
 20
157.7277288594
 11
248.2499969488
 21
156.8081136171
  0
LINE
  5
77A
100
AcDbEntity
  8
30350716_HL
100
AcDbLine
 62
6
  6
HIDDEN
 10
231.8571766257
 20
161.0777288594
 11
234.3571766257
 21
159.5755773118
  0
LINE
  5
77B
100
AcDbEntity
  8
30252541_HP_HL
100
AcDbLine
 62
6
  6
HIDDEN
 10
237.8571766257
 20
150.3427288594
 11
238.4721766257
 21
149.7277288594
  0
LINE
  5
77C
100
AcDbEntity
  8
30252541_HP_HL
100
AcDbLine
 62
6
  6
HIDDEN
 10
237.8571766257
 20
151.8677288594
 11
238.2171692176
 21
152.2277214513
  0
LINE
  5
77D
100
AcDbEntity
  8
30252541_HP_HL
100
AcDbLine
 62
6
  6
HIDDEN
 10
237.8571766257
 20
155.5877288594
 11
238.2171692176
 21
155.2277362676
  0
LINE
  5
77E
100
AcDbEntity
  8
30350716_CL
100
AcDbLine
 62
7
  6
CONTINUOUS
 10
230.3571766257
 20
169.7277288594
 11
230.3571766257
 21
137.7277288594
  0
LINE
  5
77F
100
AcDbEntity
  8
30350716_HL
100
AcDbLine
 62
6
  6
HIDDEN
 10
231.3571766257
 20
144.3777288594
 11
231.3571766257
 21
137.8777288716
  0
LINE
  5
780
100
AcDbEntity
  8
30350716_HL
100
AcDbLine
 62
6
  6
HIDDEN
 10
231.3571766257
 20
163.0777288594
 11
231.3571766257
 21
169.5777288472
  0
LINE
  5
781
100
AcDbEntity
  8
30350716_HL
100
AcDbLine
 62
6
  6
HIDDEN
 10
231.8571766257
 20
169.5777288594
 11
231.8571766257
 21
161.0777288594
  0
LINE
  5
782
100
AcDbEntity
  8
30350716_HL
100
AcDbLine
 62
6
  6
HIDDEN
 10
231.8571766257
 20
137.8777288594
 11
231.8571766257
 21
146.3777288594
  0
LINE
  5
783
100
AcDbEntity
  8
30350716_HL
100
AcDbLine
 62
6
  6
HIDDEN
 10
235.3571766257
 20
149.7277288594
 11
235.6576069353
 21
150.2277288594
  0
LINE
  5
784
100
AcDbEntity
  8
30252541_HP_HL
100
AcDbLine
 62
6
  6
HIDDEN
 10
250.9971840339
 20
155.2277362676
 11
251.3571766257
 21
155.5877288594
  0
LINE
  5
785
100
AcDbEntity
  8
30252541_HP_HL
100
AcDbLine
 62
6
  6
HIDDEN
 10
250.9971840339
 20
152.2277214513
 11
251.3571766257
 21
151.8677288594
  0
LINE
  5
786
100
AcDbEntity
  8
30350716_HL
100
AcDbLine
 62
6
  6
HIDDEN
 10
235.3571766257
 20
157.7277288594
 11
235.6576069353
 21
157.2277288594
  0
LINE
  5
787
100
AcDbEntity
  8
30350716_CL
100
AcDbLine
 62
30
  6
CONTINUOUS
 10
234.3571766257
 20
138.0752580987
 11
234.3571766257
 21
138.6853728441
  0
LINE
  5
788
100
AcDbEntity
  8
30350716_CL
100
AcDbLine
 62
30
  6
CONTINUOUS
 10
234.3571766257
 20
148.7327288594
 11
234.3571766257
 21
158.7227288273
  0
LINE
  5
789
100
AcDbEntity
  8
30350716_CL
100
AcDbLine
 62
30
  6
CONTINUOUS
 10
234.3571766257
 20
168.7700848916
 11
234.3571766257
 21
169.3801996198
  0
LINE
  5
78A
100
AcDbEntity
  8
30350716_AXIS
100
AcDbLine
 62
3
  6
CENTER
 10
234.3571766257
 20
135.6652161377
 11
234.3571766257
 21
174.5677288594
  0
LINE
  5
78B
100
AcDbEntity
  8
30350716_HL
100
AcDbLine
 62
6
  6
HIDDEN
 10
235.3571766257
 20
157.7277288594
 11
235.3571766257
 21
149.7277288594
  0
LINE
  5
78C
100
AcDbEntity
  8
30350716_HL
100
AcDbLine
 62
6
  6
HIDDEN
 10
235.6576069353
 20
157.2277288594
 11
235.6576069353
 21
150.2277288594
  0
LINE
  5
78D
100
AcDbEntity
  8
30350716_HL
100
AcDbLine
 62
6
  6
HIDDEN
 10
236.8571766257
 20
169.5777288594
 11
236.8571766257
 21
161.0777288594
  0
LINE
  5
78E
100
AcDbEntity
  8
30350716_HL
100
AcDbLine
 62
6
  6
HIDDEN
 10
236.8571766257
 20
137.8777288594
 11
236.8571766257
 21
146.3777288594
  0
LINE
  5
78F
100
AcDbEntity
  8
30350716_HL
100
AcDbLine
 62
6
  6
HIDDEN
 10
237.3571766257
 20
144.3777288594
 11
237.3571766257
 21
137.8777288716
  0
LINE
  5
790
100
AcDbEntity
  8
30350716_HL
100
AcDbLine
 62
6
  6
HIDDEN
 10
237.3571766257
 20
163.0777288594
 11
237.3571766257
 21
169.5777288472
  0
LINE
  5
791
100
AcDbEntity
  8
30252541_HP_HL
100
AcDbLine
 62
6
  6
HIDDEN
 10
237.8571766257
 20
157.1127288594
 11
237.8571766257
 21
150.3427288594
  0
LINE
  5
792
100
AcDbEntity
  8
30350716_CL
100
AcDbLine
 62
7
  6
CONTINUOUS
 10
238.3571766257
 20
169.7277288594
 11
238.3571766257
 21
137.7277288594
  0
LINE
  5
793
100
AcDbEntity
  8
30252541_HP_HL
100
AcDbLine
 62
6
  6
HIDDEN
 10
238.4721766257
 20
157.7277288594
 11
238.4721766257
 21
149.7277288594
  0
LINE
  5
794
100
AcDbEntity
  8
30350716_CL
100
AcDbLine
 62
7
  6
CONTINUOUS
 10
241.532357681
 20
169.7277288594
 11
241.532357681
 21
137.7277288594
  0
LINE
  5
795
100
AcDbEntity
  8
30350716_HL
100
AcDbLine
 62
6
  6
HIDDEN
 10
249.2571766257
 20
157.2277288594
 11
249.8571766257
 21
158.2669593439
  0
LINE
  5
796
100
AcDbEntity
  8
30350716_HL
100
AcDbLine
 62
6
  6
HIDDEN
 10
249.2571766257
 20
150.2277288594
 11
249.8571766257
 21
149.1884983749
  0
LINE
  5
797
100
AcDbEntity
  8
30252541_HP_HL
100
AcDbLine
 62
6
  6
HIDDEN
 10
241.8571766257
 20
152.2277288594
 11
241.8571766257
 21
155.2277288594
  0
LINE
  5
798
100
AcDbEntity
  8
30252541_HP_HL
100
AcDbLine
 62
6
  6
HIDDEN
 10
246.6571766257
 20
157.7277288594
 11
246.6571766257
 21
149.7277288594
  0
LINE
  5
799
100
AcDbEntity
  8
30252541_HP_HL
100
AcDbLine
 62
6
  6
HIDDEN
 10
247.3571766257
 20
155.2277288594
 11
247.3571766257
 21
152.2277288594
  0
LINE
  5
79A
100
AcDbEntity
  8
30252541_HP_HL
100
AcDbLine
 62
6
  6
HIDDEN
 10
247.7223878724
 20
157.1127288594
 11
247.7223878724
 21
150.3427288594
  0
LINE
  5
79B
100
AcDbEntity
  8
30252541_HP_CL
100
AcDbLine
 62
9
  6
CONTINUOUS
 10
248.2499969488
 20
150.6473441017
 11
248.2499969488
 21
156.8081136171
  0
LINE
  5
79C
100
AcDbEntity
  8
30252541_HP_CL
100
AcDbLine
 62
9
  6
CONTINUOUS
 10
248.5499969488
 20
150.7277288594
 11
248.5499969488
 21
156.7277288594
  0
LINE
  5
79D
100
AcDbEntity
  8
30252541_HP_CL
100
AcDbLine
 62
9
  6
CONTINUOUS
 10
249.2571766257
 20
150.7277288594
 11
249.2571766257
 21
156.7277288594
  0
LINE
  5
79E
100
AcDbEntity
  8
30350716_HL
100
AcDbLine
 62
6
  6
HIDDEN
 10
249.2571766257
 20
150.2277288594
 11
249.2571766257
 21
157.2277288594
  0
LINE
  5
79F
100
AcDbEntity
  8
30350716_HL
100
AcDbLine
 62
6
  6
HIDDEN
 10
249.8571766257
 20
158.8777288594
 11
249.8571766257
 21
148.5777288594
  0
LINE
  5
7A0
100
AcDbEntity
  8
30252541_HP_HL
100
AcDbLine
 62
6
  6
HIDDEN
 10
249.8571766257
 20
149.2277288594
 11
249.8571766257
 21
158.2277288594
  0
LINE
  5
7A1
100
AcDbEntity
  8
30252541_HP_HL
100
AcDbLine
 62
6
  6
HIDDEN
 10
251.3571766257
 20
149.2277288594
 11
251.3571766257
 21
158.2277288594
  0
LINE
  5
7A2
100
AcDbEntity
  8
30350716_HL
100
AcDbLine
 62
6
  6
HIDDEN
 10
261.3571766257
 20
158.8777288594
 11
261.3571766257
 21
148.5777288594
  0
LINE
  5
7A3
100
AcDbEntity
  8
30350716_HL
100
AcDbLine
 62
6
  6
HIDDEN
 10
290.3571766257
 20
158.7277288594
 11
290.3571766257
 21
148.7277288594
  0
LINE
  5
7A4
100
AcDbEntity
  8
30350716_CL
100
AcDbLine
 62
9
  6
CONTINUOUS
 10
291.4356357215
 20
165.8002557015
 11
291.4356357215
 21
141.6552020173
  0
LINE
  5
7A5
100
AcDbEntity
  8
30350716_CL
100
AcDbLine
 62
9
  6
CONTINUOUS
 10
291.4443323685
 20
158.8228426624
 11
291.4443323685
 21
148.6326150564
  0
LINE
  5
7A6
100
AcDbEntity
  8
30350716_CL
100
AcDbLine
 62
7
  6
CONTINUOUS
 10
292.3571766257
 20
164.8033383677
 11
292.3571766257
 21
142.6521193511
  0
ARC
  5
7A7
100
AcDbEntity
  8
30350716_CL
100
AcDbCircle
 62
7
  6
CONTINUOUS
 10
61.6571766257
 20
132.1466788235
 40
1.2
100
AcDbArc
 50
180.0
 51
267.131868059
  0
ARC
  5
7A8
100
AcDbEntity
  8
30350716_HL
100
AcDbCircle
 62
6
  6
HIDDEN
 10
75.439612191
 20
134.3277288594
 40
0.6
100
AcDbArc
 50
210.0
 51
270.0
  0
ARC
  5
7A9
100
AcDbEntity
  8
30350716_HL
100
AcDbCircle
 62
6
  6
HIDDEN
 10
91.8571766257
 20
129.1072979977
 40
0.6
100
AcDbArc
 50
352.0
 51
33.5532737773
  0
ARC
  5
7AA
100
AcDbEntity
  8
30350716_CL
100
AcDbCircle
 62
7
  6
CONTINUOUS
 10
91.1825782858
 20
129.1072979977
 40
0.6
100
AcDbArc
 50
90.0
 51
105.0
  0
ARC
  5
7AB
100
AcDbEntity
  8
30350716_CL
100
AcDbCircle
 62
7
  6
CONTINUOUS
 10
91.8571766257
 20
129.1072979977
 40
0.6
100
AcDbArc
 50
33.5532737773
 51
90.0
  0
ARC
  5
7AC
100
AcDbEntity
  8
30350716_HL
100
AcDbCircle
 62
6
  6
HIDDEN
 10
86.1121786273
 20
141.7277288594
 40
8.0
100
AcDbArc
 50
270.0
 51
321.3178125465
  0
CIRCLE
  5
7AD
100
AcDbEntity
  8
30350716_CL
100
AcDbCircle
 62
7
  6
CONTINUOUS
 10
83.3571766257
 20
153.7277288594
 40
3.75
  0
ARC
  5
7AE
100
AcDbEntity
  8
30350716_HL
100
AcDbCircle
 62
6
  6
HIDDEN
 10
64.9571766257
 20
148.9577288594
 40
1.5
100
AcDbArc
 50
358.3068594613
 51
360.0
  0
ARC
  5
7AF
100
AcDbEntity
  8
30350716_CL
100
AcDbCircle
 62
7
  6
CONTINUOUS
 10
64.9571766257
 20
148.9577288594
 40
1.5
100
AcDbArc
 50
270.0
 51
358.3068594613
  0
ARC
  5
7B0
100
AcDbEntity
  8
30350716_CL
100
AcDbCircle
 62
7
  6
CONTINUOUS
 10
105.3071766257
 20
125.7277288594
 40
8.0
100
AcDbArc
 50
90.0
 51
152.7433806908
  0
ARC
  5
7B1
100
AcDbEntity
  8
30350716_CL
100
AcDbCircle
 62
7
  6
CONTINUOUS
 10
123.3071766257
 20
132.7277288594
 40
5.0
100
AcDbArc
 50
90.0
 51
180.0
  0
ARC
  5
7B2
100
AcDbEntity
  8
30350716_HL
100
AcDbCircle
 62
6
  6
HIDDEN
 10
100.8571766257
 20
137.9777288594
 40
1.5
100
AcDbArc
 50
236.4426902381
 51
360.0
  0
ARC
  5
7B3
100
AcDbEntity
  8
30350716_CL
100
AcDbCircle
 62
7
  6
CONTINUOUS
 10
111.4821766257
 20
125.4777288594
 40
0.75
100
AcDbArc
 50
0.0
 51
90.0
  0
ARC
  5
7B4
100
AcDbEntity
  8
30350716_CL
100
AcDbCircle
 62
7
  6
CONTINUOUS
 10
109.2321766257
 20
125.4777288594
 40
0.75
100
AcDbArc
 50
90.0
 51
180.0
  0
ARC
  5
7B5
100
AcDbEntity
  8
30350716_HL
100
AcDbCircle
 62
6
  6
HIDDEN
 10
105.3071766257
 20
154.7277288594
 40
8.0
100
AcDbArc
 50
90.0
 51
180.0
  0
ARC
  5
7B6
100
AcDbEntity
  8
30350716_HL
100
AcDbCircle
 62
6
  6
HIDDEN
 10
105.3071766257
 20
152.7277288594
 40
8.0
100
AcDbArc
 50
180.0
 51
270.0
  0
ARC
  5
7B7
100
AcDbEntity
  8
30350716_CL
100
AcDbCircle
 62
7
  6
CONTINUOUS
 10
105.3071766257
 20
153.7277288594
 40
8.0
100
AcDbArc
 50
90.0
 51
270.0
  0
CIRCLE
  5
7B8
100
AcDbEntity
  8
30350716_CL
100
AcDbCircle
 62
7
  6
CONTINUOUS
 10
110.3571766257
 20
153.7277288594
 40
3.95
  0
CIRCLE
  5
7B9
100
AcDbEntity
  8
30350716_CL
100
AcDbCircle
 62
7
  6
CONTINUOUS
 10
110.3571766257
 20
153.7277288594
 40
3.75
  0
CIRCLE
  5
7BA
100
AcDbEntity
  8
30350716_CL
100
AcDbCircle
 62
7
  6
CONTINUOUS
 10
110.3571766257
 20
153.7277288594
 40
0.1
  0
ARC
  5
7BB
100
AcDbEntity
  8
30350716_CL
100
AcDbCircle
 62
7
  6
CONTINUOUS
 10
-32.9855318848
 20
191.9230439602
 40
153.2985603758
100
AcDbArc
 50
335.9265985332
 51
337.3426013525
  0
ARC
  5
7BC
100
AcDbEntity
  8
30350716_HL
100
AcDbCircle
 62
6
  6
HIDDEN
 10
86.1121786273
 20
165.7277288594
 40
8.0
100
AcDbArc
 50
38.6821874535
 51
90.0
  0
ARC
  5
7BD
100
AcDbEntity
  8
30350716_CL
100
AcDbCircle
 62
7
  6
CONTINUOUS
 10
123.3071766257
 20
174.7277288594
 40
5.0
100
AcDbArc
 50
180.0
 51
270.0
  0
ARC
  5
7BE
100
AcDbEntity
  8
30350716_HL
100
AcDbCircle
 62
6
  6
HIDDEN
 10
100.8571766257
 20
169.4777288594
 40
1.5
100
AcDbArc
 50
0.0
 51
123.5573097619
  0
ARC
  5
7BF
100
AcDbEntity
  8
30350716_HL
100
AcDbCircle
 62
6
  6
HIDDEN
 10
64.9571766257
 20
158.4977288594
 40
1.5
100
AcDbArc
 50
0.0
 51
1.6931405387
  0
ARC
  5
7C0
100
AcDbEntity
  8
30350716_CL
100
AcDbCircle
 62
7
  6
CONTINUOUS
 10
64.9571766257
 20
158.4977288594
 40
1.5
100
AcDbArc
 50
1.6931405387
 51
90.0
  0
ARC
  5
7C1
100
AcDbEntity
  8
30350716_CL
100
AcDbCircle
 62
7
  6
CONTINUOUS
 10
61.6571766257
 20
175.3087788953
 40
1.2
100
AcDbArc
 50
92.868131941
 51
180.0
  0
ARC
  5
7C2
100
AcDbEntity
  8
30350716_CL
100
AcDbCircle
 62
7
  6
CONTINUOUS
 10
111.4821766257
 20
181.9777288594
 40
0.75
100
AcDbArc
 50
270.0
 51
360.0
  0
ARC
  5
7C3
100
AcDbEntity
  8
30350716_CL
100
AcDbCircle
 62
7
  6
CONTINUOUS
 10
109.2321766257
 20
181.9777288594
 40
0.75
100
AcDbArc
 50
180.0
 51
270.0
  0
ARC
  5
7C4
100
AcDbEntity
  8
30350716_HL
100
AcDbCircle
 62
6
  6
HIDDEN
 10
75.439612191
 20
173.1277288594
 40
0.6
100
AcDbArc
 50
90.0
 51
150.0
  0
ARC
  5
7C5
100
AcDbEntity
  8
30350716_HL
100
AcDbCircle
 62
6
  6
HIDDEN
 10
91.8571766257
 20
178.3481597212
 40
0.6
100
AcDbArc
 50
326.4467262227
 51
8.0
  0
ARC
  5
7C6
100
AcDbEntity
  8
30350716_CL
100
AcDbCircle
 62
7
  6
CONTINUOUS
 10
91.1825782858
 20
178.3481597212
 40
0.6
100
AcDbArc
 50
255.0
 51
270.0
  0
ARC
  5
7C7
100
AcDbEntity
  8
30350716_CL
100
AcDbCircle
 62
7
  6
CONTINUOUS
 10
91.8571766257
 20
178.3481597212
 40
0.6
100
AcDbArc
 50
270.0
 51
326.4467262227
  0
ARC
  5
7C8
100
AcDbEntity
  8
30350716_HL
100
AcDbCircle
 62
6
  6
HIDDEN
 10
234.3571766257
 20
153.7277288594
 40
3.0
100
AcDbArc
 50
194.9093036836
 51
195.0
  0
ARC
  5
7C9
100
AcDbEntity
  8
30350716_HL
100
AcDbCircle
 62
6
  6
HIDDEN
 10
234.4537060338
 20
121.4216891743
 40
16.6596280596
100
AcDbArc
 50
97.5067644354
 51
98.9665367876
  0
ARC
  5
7CA
100
AcDbEntity
  8
30350716_HL
100
AcDbCircle
 62
6
  6
HIDDEN
 10
234.3679280977
 20
122.1353520887
 40
15.9408774304
100
AcDbArc
 50
90.6231271048
 51
97.5362103521
  0
ARC
  5
7CB
100
AcDbEntity
  8
30350716_HL
100
AcDbCircle
 62
6
  6
HIDDEN
 10
234.3571856475
 20
122.4219526967
 40
15.6541788002
100
AcDbArc
 50
90.0000330206
 51
90.5952191837
  0
ARC
  5
7CC
100
AcDbEntity
  8
30350716_HL
100
AcDbCircle
 62
6
  6
HIDDEN
 10
234.3571655115
 20
122.4311461587
 40
15.6449853381
100
AcDbArc
 50
89.8012130814
 51
89.999959297
  0
ARC
  5
7CD
100
AcDbEntity
  8
30350716_HL
100
AcDbCircle
 62
6
  6
HIDDEN
 10
234.3571766257
 20
153.7277288594
 40
3.0
100
AcDbArc
 50
255.0
 51
255.0967676915
  0
ARC
  5
7CE
100
AcDbEntity
  8
30350716_CL
100
AcDbCircle
 62
3
  6
CONTINUOUS
 10
234.3571766257
 20
153.7277288594
 40
3.0
100
AcDbArc
 50
255.0967676915
 51
194.9093036836
  0
CIRCLE
  5
7CF
100
AcDbEntity
  8
30350716_CL
100
AcDbCircle
 62
7
  6
CONTINUOUS
 10
234.3571766257
 20
153.7277288594
 40
2.5
  0
ARC
  5
7D0
100
AcDbEntity
  8
30350716_HL
100
AcDbCircle
 62
6
  6
HIDDEN
 10
291.3571766257
 20
147.6364203583
 40
1.0
100
AcDbArc
 50
0.0
 51
85.0
  0
ARC
  5
7D1
100
AcDbEntity
  8
30350716_CL
100
AcDbCircle
 62
7
  6
CONTINUOUS
 10
291.3571766257
 20
142.6521193511
 40
1.0
100
AcDbArc
 50
274.5
 51
360.0
  0
ARC
  5
7D2
100
AcDbEntity
  8
30252541_HP_HL
100
AcDbCircle
 62
6
  6
HIDDEN
 10
248.5499969488
 20
150.1277288594
 40
0.6
100
AcDbArc
 50
90.0
 51
120.0
  0
ARC
  5
7D3
100
AcDbEntity
  8
30252541_HP_HL
100
AcDbCircle
 62
6
  6
HIDDEN
 10
249.2571766257
 20
150.1277288594
 40
0.6
100
AcDbArc
 50
0.0
 51
90.0
  0
ARC
  5
7D4
100
AcDbEntity
  8
30350716_CL
100
AcDbCircle
 62
7
  6
CONTINUOUS
 10
253.6998851362
 20
191.9230439602
 40
153.2985603758
100
AcDbArc
 50
202.6573986475
 51
204.0734014668
  0
ARC
  5
7D5
100
AcDbEntity
  8
30350716_HL
100
AcDbCircle
 62
6
  6
HIDDEN
 10
234.4627676283
 20
186.0963679766
 40
16.7228748353
100
AcDbArc
 50
261.0362238278
 51
262.490474931
  0
ARC
  5
7D6
100
AcDbEntity
  8
30350716_HL
100
AcDbCircle
 62
6
  6
HIDDEN
 10
234.2606472155
 20
186.0337685595
 40
16.6596280748
100
AcDbArc
 50
277.5067644594
 51
278.966536787
  0
ARC
  5
7D7
100
AcDbEntity
  8
30350716_HL
100
AcDbCircle
 62
6
  6
HIDDEN
 10
234.3679280979
 20
185.3201056334
 40
15.9408774337
100
AcDbArc
 50
262.4637896302
 51
269.3768728944
  0
ARC
  5
7D8
100
AcDbEntity
  8
30350716_HL
100
AcDbCircle
 62
6
  6
HIDDEN
 10
234.3464251539
 20
185.3201056295
 40
15.9408774298
100
AcDbArc
 50
270.6231270543
 51
277.5362103763
  0
ARC
  5
7D9
100
AcDbEntity
  8
30350716_HL
100
AcDbCircle
 62
6
  6
HIDDEN
 10
234.3571856416
 20
185.0335039342
 40
15.6541777122
100
AcDbArc
 50
269.4047807968
 51
270.5952191325
  0
ARC
  5
7DA
100
AcDbEntity
  8
30350716_HL
100
AcDbCircle
 62
6
  6
HIDDEN
 10
291.3571766257
 20
159.8190373605
 40
1.0
100
AcDbArc
 50
275.0
 51
360.0
  0
ARC
  5
7DB
100
AcDbEntity
  8
30350716_CL
100
AcDbCircle
 62
7
  6
CONTINUOUS
 10
291.3571766257
 20
164.8033383677
 40
1.0
100
AcDbArc
 50
0.0
 51
85.5
  0
ARC
  5
7DC
100
AcDbEntity
  8
30252541_HP_HL
100
AcDbCircle
 62
6
  6
HIDDEN
 10
248.5499969488
 20
157.3277288594
 40
0.6
100
AcDbArc
 50
240.0
 51
270.0
  0
ARC
  5
7DD
100
AcDbEntity
  8
30252541_HP_HL
100
AcDbCircle
 62
6
  6
HIDDEN
 10
249.2571766257
 20
157.3277288594
 40
0.6
100
AcDbArc
 50
270.0
 51
360.0
  0
SPLINE
  5
7DE
100
AcDbEntity
  8
30350716_HL
100
AcDbSpline
 62
6
  6
HIDDEN
 70
0
 71
3
 72
12
 73
8
 74
0
 42
0.0000001
 43
0.0000001
 44
0.0000000001
 40
0.0
 40
0.0
 40
0.0
 40
0.0
 40
0.0819441258
 40
0.3114471751
 40
0.5409602461
 40
0.7704781778
 40
1.0
 40
1.0
 40
1.0
 40
1.0
 10
108.7433099663
 20
161.7277288318
 30
0.0
 10
108.7343942731
 20
161.7542446112
 30
0.0
 10
108.701818135
 20
161.8554638236
 30
0.0
 10
108.6529069852
 20
162.0336518174
 30
0.0
 10
108.6020223941
 20
162.2631997253
 30
0.0
 10
108.5608817414
 20
162.4946851825
 30
0.0
 10
108.5393327269
 20
162.6499405809
 30
0.0
 10
108.5299498001
 20
162.7277288594
 30
0.0
  0
SPLINE
  5
7DF
100
AcDbEntity
  8
30350716_HL
100
AcDbSpline
 62
6
  6
HIDDEN
 70
0
 71
3
 72
12
 73
8
 74
0
 42
0.0000001
 43
0.0000001
 44
0.0000000001
 40
0.0
 40
0.0
 40
0.0
 40
0.0
 40
0.2295218208
 40
0.4590397526
 40
0.688552823
 40
0.9180558722
 40
1.0
 40
1.0
 40
1.0
 40
1.0
 10
108.5299498001
 20
144.7277288594
 30
0.0
 10
108.5393327268
 20
144.8055171374
 30
0.0
 10
108.5608817408
 20
144.9607725354
 30
0.0
 10
108.602022394
 20
145.1922579918
 30
0.0
 10
108.6529069848
 20
145.4218058997
 30
0.0
 10
108.7018181345
 20
145.599993894
 30
0.0
 10
108.7343942728
 20
145.7012131069
 30
0.0
 10
108.7433099664
 20
145.727728887
 30
0.0
  0
SPLINE
  5
7E0
100
AcDbEntity
  8
30350716_HL
100
AcDbSpline
 62
6
  6
HIDDEN
 70
0
 71
3
 72
12
 73
8
 74
0
 42
0.0000001
 43
0.0000001
 44
0.0000000001
 40
0.0
 40
0.0
 40
0.0
 40
0.0
 40
0.0819441218
 40
0.3114471739
 40
0.5409602453
 40
0.7704781779
 40
1.0
 40
1.0
 40
1.0
 40
1.0
 10
111.9710432853
 20
145.7277288871
 30
0.0
 10
111.9799589782
 20
145.7012131089
 30
0.0
 10
112.0125351166
 20
145.5999938971
 30
0.0
 10
112.0614462659
 20
145.4218059034
 30
0.0
 10
112.1123308566
 20
145.192257994
 30
0.0
 10
112.1534715106
 20
144.9607725366
 30
0.0
 10
112.1750205246
 20
144.8055171379
 30
0.0
 10
112.1844034514
 20
144.7277288594
 30
0.0
  0
SPLINE
  5
7E1
100
AcDbEntity
  8
30350716_HL
100
AcDbSpline
 62
6
  6
HIDDEN
 70
0
 71
3
 72
12
 73
8
 74
0
 42
0.0000001
 43
0.0000001
 44
0.0000000001
 40
0.0
 40
0.0
 40
0.0
 40
0.0
 40
0.2295218236
 40
0.4590397561
 40
0.688552828
 40
0.9180558802
 40
1.0
 40
1.0
 40
1.0
 40
1.0
 10
112.1844034514
 20
162.7277288594
 30
0.0
 10
112.1750205245
 20
162.6499405805
 30
0.0
 10
112.15347151
 20
162.4946851813
 30
0.0
 10
112.1123308565
 20
162.2631997231
 30
0.0
 10
112.0614462654
 20
162.0336518136
 30
0.0
 10
112.012535116
 20
161.8554638205
 30
0.0
 10
111.979958978
 20
161.7542446092
 30
0.0
 10
111.9710432853
 20
161.7277288317
 30
0.0
  0
SPLINE
  5
7E2
100
AcDbEntity
  8
30252541_HP_HL
100
AcDbSpline
 62
6
  6
HIDDEN
 70
0
 71
3
 72
15
 73
11
 74
0
 42
0.0000001
 43
0.0000001
 44
0.0000000001
 40
0.0
 40
0.0
 40
0.0
 40
0.0
 40
0.1268102916
 40
0.2523263444
 40
0.3765788684
 40
0.5000000701
 40
0.6234212771
 40
0.7476737821
 40
0.8731897959
 40
1.0
 40
1.0
 40
1.0
 40
1.0
 10
251.2292274333
 20
152.2277288594
 30
0.0
 10
251.1956747903
 20
152.2858437418
 30
0.0
 10
251.1331941041
 20
152.4040659836
 30
0.0
 10
251.0582017656
 20
152.5891647796
 30
0.0
 10
251.0088026928
 20
152.7811320363
 30
0.0
 10
250.9913874237
 20
152.9777289753
 30
0.0
 10
251.0088027434
 20
153.1743258977
 30
0.0
 10
251.0582018153
 20
153.3662931248
 30
0.0
 10
251.1331941488
 20
153.5513918406
 30
0.0
 10
251.1956748135
 20
153.6696140172
 30
0.0
 10
251.2292274333
 20
153.7277288594
 30
0.0
  0
SPLINE
  5
7E3
100
AcDbEntity
  8
30252541_HP_HL
100
AcDbSpline
 62
6
  6
HIDDEN
 70
0
 71
3
 72
15
 73
11
 74
0
 42
0.0000001
 43
0.0000001
 44
0.0000000001
 40
0.0
 40
0.0
 40
0.0
 40
0.0
 40
0.1268101393
 40
0.252326146
 40
0.3765787059
 40
0.500000002
 40
0.6234212799
 40
0.7476738035
 40
0.8731897861
 40
1.0
 40
1.0
 40
1.0
 40
1.0
 10
251.2292274333
 20
153.7277288594
 30
0.0
 10
251.1956748307
 20
153.7858436719
 30
0.0
 10
251.133194175
 20
153.90406581
 30
0.0
 10
251.0582018377
 20
154.0891645141
 30
0.0
 10
251.0088027352
 20
154.2811318097
 30
0.0
 10
250.9913874347
 20
154.4777288525
 30
0.0
 10
251.0088027293
 20
154.6743258764
 30
0.0
 10
251.0582018174
 20
154.8662931328
 30
0.0
 10
251.1331941563
 20
155.0513918436
 30
0.0
 10
251.1956748109
 20
155.1696140127
 30
0.0
 10
251.2292274333
 20
155.2277288594
 30
0.0
  0
SPLINE
  5
7E4
100
AcDbEntity
  8
30252541_HP_HL
100
AcDbSpline
 62
6
  6
HIDDEN
 70
0
 71
3
 72
15
 73
11
 74
0
 42
0.0000001
 43
0.0000001
 44
0.0000000001
 40
0.0
 40
0.0
 40
0.0
 40
0.0
 40
0.1268102916
 40
0.2523263444
 40
0.3765788684
 40
0.5000000701
 40
0.6234212771
 40
0.7476737821
 40
0.8731897959
 40
1.0
 40
1.0
 40
1.0
 40
1.0
 10
237.9851258182
 20
152.2277288594
 30
0.0
 10
238.0186784611
 20
152.2858437418
 30
0.0
 10
238.0811591474
 20
152.4040659836
 30
0.0
 10
238.1561514859
 20
152.5891647796
 30
0.0
 10
238.2055505586
 20
152.7811320363
 30
0.0
 10
238.2229658278
 20
152.9777289753
 30
0.0
 10
238.2055505081
 20
153.1743258977
 30
0.0
 10
238.1561514361
 20
153.3662931248
 30
0.0
 10
238.0811591027
 20
153.5513918406
 30
0.0
 10
238.018678438
 20
153.6696140172
 30
0.0
 10
237.9851258182
 20
153.7277288594
 30
0.0
  0
SPLINE
  5
7E5
100
AcDbEntity
  8
30252541_HP_HL
100
AcDbSpline
 62
6
  6
HIDDEN
 70
0
 71
3
 72
15
 73
11
 74
0
 42
0.0000001
 43
0.0000001
 44
0.0000000001
 40
0.0
 40
0.0
 40
0.0
 40
0.0
 40
0.1268101393
 40
0.252326146
 40
0.3765787059
 40
0.500000002
 40
0.6234212799
 40
0.7476738035
 40
0.8731897861
 40
1.0
 40
1.0
 40
1.0
 40
1.0
 10
237.9851258182
 20
153.7277288594
 30
0.0
 10
238.0186784208
 20
153.7858436719
 30
0.0
 10
238.0811590765
 20
153.90406581
 30
0.0
 10
238.1561514138
 20
154.0891645141
 30
0.0
 10
238.2055505163
 20
154.2811318097
 30
0.0
 10
238.2229658168
 20
154.4777288525
 30
0.0
 10
238.2055505222
 20
154.6743258764
 30
0.0
 10
238.1561514341
 20
154.8662931328
 30
0.0
 10
238.0811590952
 20
155.0513918436
 30
0.0
 10
238.0186784406
 20
155.1696140127
 30
0.0
 10
237.9851258182
 20
155.2277288594
 30
0.0
  0
SPLINE
  5
7E6
100
AcDbEntity
  8
30350716_HL
100
AcDbSpline
 62
6
  6
HIDDEN
 70
0
 71
3
 72
32
 73
28
 74
0
 42
0.0000001
 43
0.0000001
 44
0.0000000001
 40
0.0
 40
0.0
 40
0.0
 40
0.0
 40
0.0399999823
 40
0.0799999646
 40
0.1199999469
 40
0.1599999292
 40
0.1999999116
 40
0.2399998939
 40
0.2799998762
 40
0.3199998585
 40
0.3599998408
 40
0.3999998231
 40
0.4399998054
 40
0.4799997877
 40
0.51999977
 40
0.5599997524
 40
0.5999997347
 40
0.639999717
 40
0.6799996993
 40
0.7199996816
 40
0.7599996639
 40
0.7999996462
 40
0.8399996285
 40
0.8799996108
 40
0.9199995932
 40
0.9599995755
 40
1.0
 40
1.0
 40
1.0
 40
1.0
 10
234.3571766257
 20
138.1642298955
 30
0.0
 10
234.419500129
 20
138.1642273873
 30
0.0
 10
234.5441857057
 20
138.1634814302
 30
0.0
 10
234.7306162845
 20
138.1601194761
 30
0.0
 10
234.915680184
 20
138.1545750938
 30
0.0
 10
235.0989278362
 20
138.1469174865
 30
0.0
 10
235.2794238171
 20
138.1372705919
 30
0.0
 10
235.4568137725
 20
138.125757898
 30
0.0
 10
235.6300126076
 20
138.112578463
 30
0.0
 10
235.7987183631
 20
138.0979036118
 30
0.0
 10
235.961768193
 20
138.0820025654
 30
0.0
 10
236.1188926597
 20
138.0650863187
 30
0.0
 10
236.2689216867
 20
138.0474792508
 30
0.0
 10
236.411625097
 20
138.029417859
 30
0.0
 10
236.5459048327
 20
138.0112564136
 30
0.0
 10
236.6715883639
 20
137.993237082
 30
0.0
 10
236.787718253
 20
137.9757130239
 30
0.0
 10
236.8941912921
 20
137.9589110632
 30
0.0
 10
236.9902372368
 20
137.943152842
 30
0.0
 10
237.0758148543
 20
137.9286331931
 30
0.0
 10
237.1503597903
 20
137.9156183189
 30
0.0
 10
237.2138671763
 20
137.9042618343
 30
0.0
 10
237.265971742
 20
137.8947600102
 30
0.0
 10
237.3066748
 20
137.887222113
 30
0.0
 10
237.3357823209
 20
137.8817696087
 30
0.0
 10
237.3532875044
 20
137.878465666
 30
0.0
 10
237.3571766638
 20
137.8777288522
 30
0.0
 10
237.3571766257
 20
137.8777288594
 30
0.0
  0
SPLINE
  5
7E7
100
AcDbEntity
  8
30350716_HL
100
AcDbSpline
 62
6
  6
HIDDEN
 70
0
 71
3
 72
32
 73
28
 74
0
 42
0.0000001
 43
0.0000001
 44
0.0000000001
 40
0.0
 40
0.0
 40
0.0
 40
0.0
 40
0.0399995755
 40
0.0799995932
 40
0.1199996108
 40
0.1599996285
 40
0.1999996462
 40
0.2399996639
 40
0.2799996816
 40
0.3199996993
 40
0.359999717
 40
0.3999997347
 40
0.4399997524
 40
0.47999977
 40
0.5199997877
 40
0.5599998054
 40
0.5999998231
 40
0.6399998408
 40
0.6799998585
 40
0.7199998762
 40
0.7599998939
 40
0.7999999116
 40
0.8399999292
 40
0.8799999469
 40
0.9199999646
 40
0.9599999823
 40
1.0
 40
1.0
 40
1.0
 40
1.0
 10
231.3571766257
 20
137.8777288594
 30
0.0
 10
231.3571766638
 20
137.8777288666
 30
0.0
 10
231.3610658463
 20
137.8784656845
 30
0.0
 10
231.3785702891
 20
137.8817694882
 30
0.0
 10
231.407678301
 20
137.8872220846
 30
0.0
 10
231.448380438
 20
137.8947598134
 30
0.0
 10
231.5004856853
 20
137.9042617636
 30
0.0
 10
231.5639921487
 20
137.9156180868
 30
0.0
 10
231.6385376705
 20
137.9286330681
 30
0.0
 10
231.7241146022
 20
137.9431526058
 30
0.0
 10
231.8201608365
 20
137.9589108829
 30
0.0
 10
231.9266335849
 20
137.9757128048
 30
0.0
 10
232.0427633498
 20
137.9932368565
 30
0.0
 10
232.1684470748
 20
138.0112562252
 30
0.0
 10
232.3027262238
 20
138.0294176073
 30
0.0
 10
232.445430345
 20
138.0474791007
 30
0.0
 10
232.595458339
 20
138.0650860664
 30
0.0
 10
232.7525840115
 20
138.0820024569
 30
0.0
 10
232.9156324446
 20
138.0979033874
 30
0.0
 10
233.0843398119
 20
138.1125783948
 30
0.0
 10
233.2575370689
 20
138.1257577289
 30
0.0
 10
233.434928859
 20
138.1372705586
 30
0.0
 10
233.6154233451
 20
138.1469173879
 30
0.0
 10
233.798672725
 20
138.1545750841
 30
0.0
 10
233.9837357075
 20
138.1601194452
 30
0.0
 10
234.1701674948
 20
138.1634814333
 30
0.0
 10
234.2948531128
 20
138.1642273889
 30
0.0
 10
234.3571766257
 20
138.1642298955
 30
0.0
  0
SPLINE
  5
7E8
100
AcDbEntity
  8
30350716_HL
100
AcDbSpline
 62
6
  6
HIDDEN
 70
0
 71
3
 72
32
 73
28
 74
0
 42
0.0000001
 43
0.0000001
 44
0.0000000001
 40
0.0
 40
0.0
 40
0.0
 40
0.0
 40
0.04
 40
0.08
 40
0.12
 40
0.16
 40
0.2
 40
0.24
 40
0.28
 40
0.32
 40
0.36
 40
0.4
 40
0.44
 40
0.48
 40
0.52
 40
0.56
 40
0.6
 40
0.64
 40
0.68
 40
0.72
 40
0.76
 40
0.8
 40
0.84
 40
0.88
 40
0.92
 40
0.96
 40
1.0
 40
1.0
 40
1.0
 40
1.0
 10
237.3571766257
 20
169.5777288594
 30
0.0
 10
237.3571766307
 20
169.5777288604
 30
0.0
 10
237.3532874697
 20
169.5769920465
 30
0.0
 10
237.3357829624
 20
169.5736882306
 30
0.0
 10
237.3066749505
 20
169.5682356342
 30
0.0
 10
237.2659728135
 20
169.5606979054
 30
0.0
 10
237.2138675662
 20
169.5511959552
 30
0.0
 10
237.1503611027
 20
169.539839632
 30
0.0
 10
237.075815581
 20
169.5268246507
 30
0.0
 10
236.9902386493
 20
169.512305113
 30
0.0
 10
236.894192415
 20
169.4965468359
 30
0.0
 10
236.7877196666
 20
169.479744914
 30
0.0
 10
236.6715899017
 20
169.4622208623
 30
0.0
 10
236.5459061767
 20
169.4442014936
 30
0.0
 10
236.4116270277
 20
169.4260401115
 30
0.0
 10
236.2689229065
 20
169.4079786181
 30
0.0
 10
236.1188949125
 20
169.3903716524
 30
0.0
 10
235.96176924
 20
169.3734552619
 30
0.0
 10
235.7987208069
 20
169.3575543314
 30
0.0
 10
235.6300134396
 20
169.342879324
 30
0.0
 10
235.4568161825
 20
169.3296999899
 30
0.0
 10
235.2794243925
 20
169.3181871602
 30
0.0
 10
235.0989299063
 20
169.3085403309
 30
0.0
 10
234.9156805265
 20
169.3008826347
 30
0.0
 10
234.730617544
 20
169.2953382736
 30
0.0
 10
234.5441857567
 20
169.2919762855
 30
0.0
 10
234.4195001387
 20
169.2912303299
 30
0.0
 10
234.3571766257
 20
169.2912278233
 30
0.0
  0
SPLINE
  5
7E9
100
AcDbEntity
  8
30350716_HL
100
AcDbSpline
 62
6
  6
HIDDEN
 70
0
 71
3
 72
32
 73
28
 74
0
 42
0.0000001
 43
0.0000001
 44
0.0000000001
 40
0.0
 40
0.0
 40
0.0
 40
0.0
 40
0.04
 40
0.08
 40
0.12
 40
0.16
 40
0.2
 40
0.24
 40
0.28
 40
0.32
 40
0.36
 40
0.4
 40
0.44
 40
0.48
 40
0.52
 40
0.56
 40
0.6
 40
0.64
 40
0.68
 40
0.72
 40
0.76
 40
0.8
 40
0.84
 40
0.88
 40
0.92
 40
0.96
 40
1.0
 40
1.0
 40
1.0
 40
1.0
 10
234.3571766257
 20
169.2912278233
 30
0.0
 10
234.2948531225
 20
169.2912303316
 30
0.0
 10
234.1701675458
 20
169.2919762886
 30
0.0
 10
233.9837369669
 20
169.2953382427
 30
0.0
 10
233.7986730674
 20
169.300882625
 30
0.0
 10
233.6154254153
 20
169.3085402323
 30
0.0
 10
233.4349294344
 20
169.3181871269
 30
0.0
 10
233.257539479
 20
169.3296998208
 30
0.0
 10
233.0843406439
 20
169.3428792558
 30
0.0
 10
232.9156348884
 20
169.357554107
 30
0.0
 10
232.7525850585
 20
169.3734551534
 30
0.0
 10
232.5954605918
 20
169.3903714001
 30
0.0
 10
232.4454315648
 20
169.407978468
 30
0.0
 10
232.3027281545
 20
169.4260398598
 30
0.0
 10
232.1684484188
 20
169.4442013052
 30
0.0
 10
232.0427648876
 20
169.4622206368
 30
0.0
 10
231.9266349985
 20
169.4797446949
 30
0.0
 10
231.8201619593
 20
169.4965466556
 30
0.0
 10
231.7241160147
 20
169.5123048768
 30
0.0
 10
231.6385383971
 20
169.5268245257
 30
0.0
 10
231.5639934612
 20
169.5398393999
 30
0.0
 10
231.5004860751
 20
169.5511958845
 30
0.0
 10
231.4483815094
 20
169.5606977086
 30
0.0
 10
231.4076784515
 20
169.5682356058
 30
0.0
 10
231.3785709306
 20
169.5736881101
 30
0.0
 10
231.3610658116
 20
169.5769920407
 30
0.0
 10
231.3571766307
 20
169.5777288584
 30
0.0
 10
231.3571766257
 20
169.5777288594
 30
0.0
  0
LINE
  5
7EA
100
AcDbEntity
  8
30350716_HL
100
AcDbLine
 62
6
  6
HIDDEN
 10
236.8571766257
 20
137.8777288594
 11
236.8547782624
 21
137.8781070152
  0
SPLINE
  5
7EB
100
AcDbEntity
  8
30350716_HL
100
AcDbSpline
 62
6
  6
HIDDEN
 70
0
 71
3
 72
10
 73
6
 74
0
 42
0.0000001
 43
0.0000001
 44
0.0000000001
 40
0.0
 40
0.0
 40
0.0
 40
0.0
 40
0.3081996222
 40
0.6266051015
 40
1.0
 40
1.0
 40
1.0
 40
1.0
 10
236.8547782624
 20
137.8781070152
 30
0.0
 10
236.6057979439
 20
137.9173370403
 30
0.0
 10
236.0977185609
 20
137.9857607599
 30
0.0
 10
235.2826738668
 20
138.0564177806
 30
0.0
 10
234.7168136265
 20
138.0749780762
 30
0.0
 10
234.411445464
 20
138.076037335
 30
0.0
  0
LINE
  5
7EC
100
AcDbEntity
  8
30350716_HL
100
AcDbLine
 62
6
  6
HIDDEN
 10
93.7571766257
 20
185.2277288594
 11
93.7584211744
 21
185.2275409432
  0
LINE
  5
7ED
100
AcDbEntity
  8
30350716_HL
100
AcDbLine
 62
6
  6
HIDDEN
 10
104.9559216163
 20
185.2275393642
 11
104.9571766257
 21
185.2277288594
  0
SPLINE
  5
7EE
100
AcDbEntity
  8
30350716_CL
100
AcDbSpline
 62
3
  6
CONTINUOUS
 70
0
 71
3
 72
32
 73
28
 74
0
 42
0.0000001
 43
0.0000001
 44
0.0000000001
 40
0.0
 40
0.0
 40
0.0
 40
0.0
 40
0.0399995755
 40
0.0799995932
 40
0.1199996108
 40
0.1599996285
 40
0.1999996462
 40
0.2399996639
 40
0.2799996816
 40
0.3199996993
 40
0.359999717
 40
0.3999997347
 40
0.4399997524
 40
0.47999977
 40
0.5199997877
 40
0.5599998054
 40
0.5999998231
 40
0.6399998408
 40
0.6799998585
 40
0.7199998762
 40
0.7599998939
 40
0.7999999116
 40
0.8399999292
 40
0.8799999469
 40
0.9199999646
 40
0.9599999823
 40
1.0
 40
1.0
 40
1.0
 40
1.0
 10
237.3571766257
 20
137.8777288594
 30
0.0
 10
237.3571765877
 20
137.8777288666
 30
0.0
 10
237.3532874052
 20
137.8784656845
 30
0.0
 10
237.3357829624
 20
137.8817694882
 30
0.0
 10
237.3066749505
 20
137.8872220846
 30
0.0
 10
237.2659728135
 20
137.8947598134
 30
0.0
 10
237.2138675662
 20
137.9042617636
 30
0.0
 10
237.1503611027
 20
137.9156180868
 30
0.0
 10
237.075815581
 20
137.9286330681
 30
0.0
 10
236.9902386493
 20
137.9431526058
 30
0.0
 10
236.894192415
 20
137.9589108829
 30
0.0
 10
236.7877196666
 20
137.9757128048
 30
0.0
 10
236.6715899017
 20
137.9932368565
 30
0.0
 10
236.5459061767
 20
138.0112562252
 30
0.0
 10
236.4116270277
 20
138.0294176073
 30
0.0
 10
236.2689229065
 20
138.0474791007
 30
0.0
 10
236.1188949125
 20
138.0650860664
 30
0.0
 10
235.96176924
 20
138.0820024569
 30
0.0
 10
235.7987208069
 20
138.0979033874
 30
0.0
 10
235.6300134396
 20
138.1125783948
 30
0.0
 10
235.4568161825
 20
138.1257577289
 30
0.0
 10
235.2794243925
 20
138.1372705586
 30
0.0
 10
235.0989299063
 20
138.1469173879
 30
0.0
 10
234.9156805265
 20
138.1545750841
 30
0.0
 10
234.730617544
 20
138.1601194452
 30
0.0
 10
234.5441857567
 20
138.1634814333
 30
0.0
 10
234.4195001387
 20
138.1642273889
 30
0.0
 10
234.3571766257
 20
138.1642298955
 30
0.0
  0
SPLINE
  5
7EF
100
AcDbEntity
  8
30350716_CL
100
AcDbSpline
 62
3
  6
CONTINUOUS
 70
0
 71
3
 72
32
 73
28
 74
0
 42
0.0000001
 43
0.0000001
 44
0.0000000001
 40
0.0
 40
0.0
 40
0.0
 40
0.0
 40
0.0399999823
 40
0.0799999646
 40
0.1199999469
 40
0.1599999292
 40
0.1999999116
 40
0.2399998939
 40
0.2799998762
 40
0.3199998585
 40
0.3599998408
 40
0.3999998231
 40
0.4399998054
 40
0.4799997877
 40
0.51999977
 40
0.5599997524
 40
0.5999997347
 40
0.639999717
 40
0.6799996993
 40
0.7199996816
 40
0.7599996639
 40
0.7999996462
 40
0.8399996285
 40
0.8799996108
 40
0.9199995932
 40
0.9599995755
 40
1.0
 40
1.0
 40
1.0
 40
1.0
 10
234.3571766257
 20
138.1642298955
 30
0.0
 10
234.2948531225
 20
138.1642273873
 30
0.0
 10
234.1701675458
 20
138.1634814302
 30
0.0
 10
233.9837369669
 20
138.1601194761
 30
0.0
 10
233.7986730674
 20
138.1545750938
 30
0.0
 10
233.6154254153
 20
138.1469174865
 30
0.0
 10
233.4349294344
 20
138.1372705919
 30
0.0
 10
233.257539479
 20
138.125757898
 30
0.0
 10
233.0843406439
 20
138.112578463
 30
0.0
 10
232.9156348884
 20
138.0979036118
 30
0.0
 10
232.7525850585
 20
138.0820025654
 30
0.0
 10
232.5954605918
 20
138.0650863187
 30
0.0
 10
232.4454315648
 20
138.0474792508
 30
0.0
 10
232.3027281545
 20
138.029417859
 30
0.0
 10
232.1684484188
 20
138.0112564136
 30
0.0
 10
232.0427648876
 20
137.993237082
 30
0.0
 10
231.9266349985
 20
137.9757130239
 30
0.0
 10
231.8201619593
 20
137.9589110632
 30
0.0
 10
231.7241160147
 20
137.943152842
 30
0.0
 10
231.6385383971
 20
137.9286331931
 30
0.0
 10
231.5639934612
 20
137.9156183189
 30
0.0
 10
231.5004860751
 20
137.9042618343
 30
0.0
 10
231.4483815094
 20
137.8947600102
 30
0.0
 10
231.4076784515
 20
137.887222113
 30
0.0
 10
231.3785709306
 20
137.8817696087
 30
0.0
 10
231.3610657471
 20
137.878465666
 30
0.0
 10
231.3571765877
 20
137.8777288522
 30
0.0
 10
231.3571766257
 20
137.8777288594
 30
0.0
  0
SPLINE
  5
7F0
100
AcDbEntity
  8
30350716_CL
100
AcDbSpline
 62
3
  6
CONTINUOUS
 70
0
 71
3
 72
32
 73
28
 74
0
 42
0.0000001
 43
0.0000001
 44
0.0000000001
 40
0.0
 40
0.0
 40
0.0
 40
0.0
 40
0.04
 40
0.08
 40
0.12
 40
0.16
 40
0.2
 40
0.24
 40
0.28
 40
0.32
 40
0.36
 40
0.4
 40
0.44
 40
0.48
 40
0.52
 40
0.56
 40
0.6
 40
0.64
 40
0.68
 40
0.72
 40
0.76
 40
0.8
 40
0.84
 40
0.88
 40
0.92
 40
0.96
 40
1.0
 40
1.0
 40
1.0
 40
1.0
 10
234.3571766257
 20
169.2912278233
 30
0.0
 10
234.419500129
 20
169.2912303316
 30
0.0
 10
234.5441857057
 20
169.2919762886
 30
0.0
 10
234.7306162845
 20
169.2953382427
 30
0.0
 10
234.915680184
 20
169.300882625
 30
0.0
 10
235.0989278362
 20
169.3085402323
 30
0.0
 10
235.2794238171
 20
169.3181871269
 30
0.0
 10
235.4568137725
 20
169.3296998208
 30
0.0
 10
235.6300126076
 20
169.3428792558
 30
0.0
 10
235.7987183631
 20
169.357554107
 30
0.0
 10
235.961768193
 20
169.3734551534
 30
0.0
 10
236.1188926597
 20
169.3903714001
 30
0.0
 10
236.2689216867
 20
169.407978468
 30
0.0
 10
236.411625097
 20
169.4260398598
 30
0.0
 10
236.5459048327
 20
169.4442013052
 30
0.0
 10
236.6715883639
 20
169.4622206368
 30
0.0
 10
236.787718253
 20
169.4797446949
 30
0.0
 10
236.8941912921
 20
169.4965466556
 30
0.0
 10
236.9902372368
 20
169.5123048768
 30
0.0
 10
237.0758148543
 20
169.5268245257
 30
0.0
 10
237.1503597903
 20
169.5398393999
 30
0.0
 10
237.2138671763
 20
169.5511958845
 30
0.0
 10
237.265971742
 20
169.5606977086
 30
0.0
 10
237.3066748
 20
169.5682356058
 30
0.0
 10
237.3357823209
 20
169.5736881101
 30
0.0
 10
237.3532874399
 20
169.5769920407
 30
0.0
 10
237.3571766208
 20
169.5777288584
 30
0.0
 10
237.3571766257
 20
169.5777288594
 30
0.0
  0
SPLINE
  5
7F1
100
AcDbEntity
  8
30350716_CL
100
AcDbSpline
 62
3
  6
CONTINUOUS
 70
0
 71
3
 72
32
 73
28
 74
0
 42
0.0000001
 43
0.0000001
 44
0.0000000001
 40
0.0
 40
0.0
 40
0.0
 40
0.0
 40
0.04
 40
0.08
 40
0.12
 40
0.16
 40
0.2
 40
0.24
 40
0.28
 40
0.32
 40
0.36
 40
0.4
 40
0.44
 40
0.48
 40
0.52
 40
0.56
 40
0.6
 40
0.64
 40
0.68
 40
0.72
 40
0.76
 40
0.8
 40
0.84
 40
0.88
 40
0.92
 40
0.96
 40
1.0
 40
1.0
 40
1.0
 40
1.0
 10
231.3571766257
 20
169.5777288594
 30
0.0
 10
231.3571766208
 20
169.5777288604
 30
0.0
 10
231.3610657818
 20
169.5769920465
 30
0.0
 10
231.3785702891
 20
169.5736882306
 30
0.0
 10
231.407678301
 20
169.5682356342
 30
0.0
 10
231.448380438
 20
169.5606979054
 30
0.0
 10
231.5004856853
 20
169.5511959552
 30
0.0
 10
231.5639921487
 20
169.539839632
 30
0.0
 10
231.6385376705
 20
169.5268246507
 30
0.0
 10
231.7241146022
 20
169.512305113
 30
0.0
 10
231.8201608365
 20
169.4965468359
 30
0.0
 10
231.9266335849
 20
169.479744914
 30
0.0
 10
232.0427633498
 20
169.4622208623
 30
0.0
 10
232.1684470748
 20
169.4442014936
 30
0.0
 10
232.3027262238
 20
169.4260401115
 30
0.0
 10
232.445430345
 20
169.4079786181
 30
0.0
 10
232.595458339
 20
169.3903716524
 30
0.0
 10
232.7525840115
 20
169.3734552619
 30
0.0
 10
232.9156324446
 20
169.3575543314
 30
0.0
 10
233.0843398119
 20
169.342879324
 30
0.0
 10
233.2575370689
 20
169.3296999899
 30
0.0
 10
233.434928859
 20
169.3181871602
 30
0.0
 10
233.6154233451
 20
169.3085403309
 30
0.0
 10
233.798672725
 20
169.3008826347
 30
0.0
 10
233.9837357075
 20
169.2953382736
 30
0.0
 10
234.1701674948
 20
169.2919762855
 30
0.0
 10
234.2948531128
 20
169.2912303299
 30
0.0
 10
234.3571766257
 20
169.2912278233
 30
0.0
  0
SPLINE
  5
7F2
100
AcDbEntity
  8
30350716_CL
100
AcDbSpline
 62
7
  6
CONTINUOUS
 70
0
 71
3
 72
11
 73
7
 74
0
 42
0.0000001
 43
0.0000001
 44
0.0000000001
 40
0.0
 40
0.0
 40
0.0
 40
0.0
 40
0.3723208743
 40
0.695176926
 40
0.9190024421
 40
1.0
 40
1.0
 40
1.0
 40
1.0
 10
99.3571766257
 20
122.4763688979
 30
0.0
 10
99.8794399857
 20
122.4763688979
 30
0.0
 10
100.8547270074
 20
122.4546259
 30
0.0
 10
102.14152359
 20
122.3727593655
 30
0.0
 10
103.0180931937
 20
122.2890142142
 30
0.0
 10
103.4429780152
 20
122.2410006491
 30
0.0
 10
103.5558166553
 20
122.2277288594
 30
0.0
  0
SPLINE
  5
7F3
100
AcDbEntity
  8
30350716_CL
100
AcDbSpline
 62
7
  6
CONTINUOUS
 70
0
 71
3
 72
11
 73
7
 74
0
 42
0.0000001
 43
0.0000001
 44
0.0000000001
 40
0.0
 40
0.0
 40
0.0
 40
0.0
 40
0.0768335038
 40
0.294373525
 40
0.6183297404
 40
1.0
 40
1.0
 40
1.0
 40
1.0
 10
236.8571766257
 20
169.5777288594
 30
0.0
 10
236.7936740792
 20
169.5677123321
 30
0.0
 10
236.5501513779
 20
169.5307283242
 30
0.0
 10
236.0369537139
 20
169.4643782302
 30
0.0
 10
235.2671109155
 20
169.3974442167
 30
0.0
 10
234.6765289861
 20
169.379326222
 30
0.0
 10
234.3571766257
 20
169.379326222
 30
0.0
  0
SPLINE
  5
7F4
100
AcDbEntity
  8
30350716_CL
100
AcDbSpline
 62
7
  6
CONTINUOUS
 70
0
 71
3
 72
31
 73
27
 74
0
 42
0.0000001
 43
0.0000001
 44
0.0000000001
 40
0.0
 40
0.0
 40
0.0
 40
0.0
 40
0.0003235857
 40
0.0007278917
 40
0.0012937167
 40
0.002909446
 40
0.0051691799
 40
0.0080702321
 40
0.0116097496
 40
0.015783938
 40
0.0205882665
 40
0.0320673459
 40
0.0459998145
 40
0.0623298863
 40
0.0809940199
 40
0.1019215699
 40
0.1250358016
 40
0.1774933824
 40
0.2376672897
 40
0.3048147722
 40
0.3781685908
 40
0.4569504167
 40
0.5403788715
 40
0.6276737206
 40
0.8107530161
 40
1.0
 40
1.0
 40
1.0
 40
1.0
 10
95.1585365961
 20
122.2277288594
 30
0.0
 10
95.1589695361
 20
122.2278652736
 30
0.0
 10
95.1600118106
 20
122.2278530949
 30
0.0
 10
95.1617996348
 20
122.2281329658
 30
0.0
 10
95.1654105872
 20
122.2285174475
 30
0.0
 10
95.1715921288
 20
122.2292725131
 30
0.0
 10
95.1810365455
 20
122.2303648689
 30
0.0
 10
95.1931576111
 20
122.2317867206
 30
0.0
 10
95.2079482797
 20
122.2335077853
 30
0.0
 10
95.2253912301
 20
122.2355328404
 30
0.0
 10
95.2538993629
 20
122.2388262404
 30
0.0
 10
95.2960101588
 20
122.2436530341
 30
0.0
 10
95.3541935711
 20
122.2502370595
 30
0.0
 10
95.4224052636
 20
122.2578379937
 30
0.0
 10
95.5003862845
 20
122.2663713483
 30
0.0
 10
95.5878488609
 20
122.2757437216
 30
0.0
 10
95.7224824062
 20
122.289830079
 30
0.0
 10
95.9119560804
 20
122.3088301802
 30
0.0
 10
96.1630487696
 20
122.3323742125
 30
0.0
 10
96.443512572
 20
122.3565981034
 30
0.0
 10
96.750188885
 20
122.380571261
 30
0.0
 10
97.0798509374
 20
122.4034000786
 30
0.0
 10
97.4292381541
 20
122.4242560207
 30
0.0
 10
97.9249470121
 20
122.4488407921
 30
0.0
 10
98.5693889906
 20
122.4704575264
 30
0.0
 10
99.09170288
 20
122.4763688979
 30
0.0
 10
99.3571766257
 20
122.4763688979
 30
0.0
  0
SPLINE
  5
7F5
100
AcDbEntity
  8
30350716_CL
100
AcDbSpline
 62
7
  6
CONTINUOUS
 70
0
 71
3
 72
11
 73
7
 74
0
 42
0.0000001
 43
0.0000001
 44
0.0000000001
 40
0.0
 40
0.0
 40
0.0
 40
0.0
 40
0.3816702611
 40
0.7056264762
 40
0.923166497
 40
1.0
 40
1.0
 40
1.0
 40
1.0
 10
234.3571766257
 20
138.0761314968
 30
0.0
 10
234.6765289874
 20
138.0761314968
 30
0.0
 10
235.2671109179
 20
138.058013502
 30
0.0
 10
236.0369537169
 20
137.9910794882
 30
0.0
 10
236.5501513796
 20
137.9247293943
 30
0.0
 10
236.7936740799
 20
137.8877453866
 30
0.0
 10
236.8571766257
 20
137.8777288594
 30
0.0
  0
SPLINE
  5
7F6
100
AcDbEntity
  8
30350716_CL
100
AcDbSpline
 62
7
  6
CONTINUOUS
 70
0
 71
3
 72
11
 73
7
 74
0
 42
0.0000001
 43
0.0000001
 44
0.0000000001
 40
0.0
 40
0.0
 40
0.0
 40
0.0
 40
0.0768335038
 40
0.294373525
 40
0.6183297404
 40
1.0
 40
1.0
 40
1.0
 40
1.0
 10
231.8571766257
 20
137.8777288594
 30
0.0
 10
231.9206791722
 20
137.8877453867
 30
0.0
 10
232.1642018735
 20
137.9247293946
 30
0.0
 10
232.6773995375
 20
137.9910794886
 30
0.0
 10
233.4472423359
 20
138.0580135021
 30
0.0
 10
234.0378242654
 20
138.0761314968
 30
0.0
 10
234.3571766257
 20
138.0761314968
 30
0.0
  0
SPLINE
  5
7F7
100
AcDbEntity
  8
30350716_CL
100
AcDbSpline
 62
7
  6
CONTINUOUS
 70
0
 71
3
 72
11
 73
7
 74
0
 42
0.0000001
 43
0.0000001
 44
0.0000000001
 40
0.0
 40
0.0
 40
0.0
 40
0.0
 40
0.381670261
 40
0.7056264762
 40
0.9231664969
 40
1.0
 40
1.0
 40
1.0
 40
1.0
 10
234.3571766257
 20
169.379326222
 30
0.0
 10
234.0378242642
 20
169.379326222
 30
0.0
 10
233.4472423337
 20
169.3974442168
 30
0.0
 10
232.6773995347
 20
169.4643782306
 30
0.0
 10
232.1642018719
 20
169.5307283245
 30
0.0
 10
231.9206791716
 20
169.5677123322
 30
0.0
 10
231.8571766257
 20
169.5777288594
 30
0.0
  0
SPLINE
  5
7F8
100
AcDbEntity
  8
30350716_CL
100
AcDbSpline
 62
7
  6
CONTINUOUS
 70
0
 71
3
 72
15
 73
11
 74
0
 42
0.0000001
 43
0.0000001
 44
0.0000000001
 40
0.0
 40
0.0
 40
0.0
 40
0.0
 40
0.041365825
 40
0.1543852447
 40
0.3154477639
 40
0.5000000006
 40
0.6845522376
 40
0.8456147564
 40
0.9586341756
 40
1.0
 40
1.0
 40
1.0
 40
1.0
 10
104.9571766257
 20
185.2277288594
 30
0.0
 10
104.8039010009
 20
185.2045918116
 30
0.0
 10
104.2313366867
 20
185.1215527868
 30
0.0
 10
103.0578238525
 20
184.9775558181
 30
0.0
 10
101.3441918087
 20
184.8373457729
 30
0.0
 10
99.3571766182
 20
184.7803033058
 30
0.0
 10
97.3701614288
 20
184.8373457737
 30
0.0
 10
95.6565293873
 20
184.9775558193
 30
0.0
 10
94.4830165584
 20
185.1215527876
 30
0.0
 10
93.9104522484
 20
185.2045918119
 30
0.0
 10
93.7571766257
 20
185.2277288594
 30
0.0
  0
SPLINE
  5
7F9
100
AcDbEntity
  8
30350716_CL
100
AcDbSpline
 62
7
  6
CONTINUOUS
 70
0
 71
3
 72
17
 73
13
 74
0
 42
0.0000001
 43
0.0000001
 44
0.0000000001
 40
0.0
 40
0.0
 40
0.0
 40
0.0
 40
0.1250509093
 40
0.2500997825
 40
0.3751448249
 40
0.5001812055
 40
0.6251946291
 40
0.7501381638
 40
0.8126521836
 40
0.8751440342
 40
0.9375937337
 40
1.0
 40
1.0
 40
1.0
 40
1.0
 10
111.9710432029
 20
145.7277288594
 30
0.0
 10
111.9596715537
 20
145.7615482331
 30
0.0
 10
111.9358104228
 20
145.8288186299
 30
0.0
 10
111.8960864334
 20
145.9282476319
 30
0.0
 10
111.8516009096
 20
146.0256529983
 30
0.0
 10
111.8011250955
 20
146.1201398642
 30
0.0
 10
111.7427977244
 20
146.2100034082
 30
0.0
 10
111.6849982118
 20
146.2784963247
 30
0.0
 10
111.6309432784
 20
146.3252718581
 30
0.0
 10
111.5857502141
 20
146.3543301691
 30
0.0
 10
111.5357619773
 20
146.3743703006
 30
0.0
 10
111.4999826328
 20
146.3792596311
 30
0.0
 10
111.4821766257
 20
146.3792596311
 30
0.0
  0
SPLINE
  5
7FA
100
AcDbEntity
  8
30350716_CL
100
AcDbSpline
 62
7
  6
CONTINUOUS
 70
0
 71
3
 72
17
 73
13
 74
0
 42
0.0000001
 43
0.0000001
 44
0.0000000001
 40
0.0
 40
0.0
 40
0.0
 40
0.0
 40
0.0624063166
 40
0.1248560489
 40
0.1873479255
 40
0.2498619781
 40
0.3748055357
 40
0.4998189312
 40
0.6248552878
 40
0.7499002895
 40
0.8749491252
 40
1.0
 40
1.0
 40
1.0
 40
1.0
 10
111.4821766257
 20
161.0761980878
 30
0.0
 10
111.4999826471
 20
161.0761980878
 30
0.0
 10
111.5357620147
 20
161.081087431
 30
0.0
 10
111.5857502779
 20
161.1011275793
 30
0.0
 10
111.6309433598
 20
161.1301859126
 30
0.0
 10
111.6849982954
 20
161.17696148
 30
0.0
 10
111.7427977919
 20
161.2454544178
 30
0.0
 10
111.8011251732
 20
161.335317946
 30
0.0
 10
111.8516009335
 20
161.429804811
 30
0.0
 10
111.8960864621
 20
161.5272101422
 30
0.0
 10
111.9358104337
 20
161.6266391174
 30
0.0
 10
111.9596715568
 20
161.693909495
 30
0.0
 10
111.9710432029
 20
161.7277288594
 30
0.0
  0
SPLINE
  5
7FB
100
AcDbEntity
  8
30350716_CL
100
AcDbSpline
 62
7
  6
CONTINUOUS
 70
0
 71
3
 72
21
 73
17
 74
0
 42
0.0000001
 43
0.0000001
 44
0.0000000001
 40
0.0
 40
0.0
 40
0.0
 40
0.0
 40
0.0627710938
 40
0.1255058605
 40
0.188175608
 40
0.2507622175
 40
0.3132613376
 40
0.3756814035
 40
0.4380409772
 40
0.5003651512
 40
0.6248738353
 40
0.7495561122
 40
0.8120634359
 40
0.8746436607
 40
0.9372922237
 40
1.0
 40
1.0
 40
1.0
 40
1.0
 10
88.2328518328
 20
153.7277288594
 30
0.0
 10
88.2328518328
 20
153.57682693
 30
0.0
 10
88.2150710906
 20
153.2748110044
 30
0.0
 10
88.1356956554
 20
152.8284637517
 30
0.0
 10
88.0054752497
 20
152.3946516026
 30
0.0
 10
87.8272566416
 20
151.9789368037
 30
0.0
 10
87.6045904869
 20
151.5859777432
 30
0.0
 10
87.3414475118
 20
151.2196400185
 30
0.0
 10
87.0419148278
 20
150.8829876493
 30
0.0
 10
86.5999703575
 20
150.4773069096
 30
0.0
 10
85.9758354556
 20
150.05455254
 30
0.0
 10
85.2837760532
 20
149.7557561082
 30
0.0
 10
84.7046573821
 20
149.5946107406
 30
0.0
 10
84.2600991266
 20
149.5131336729
 30
0.0
 10
83.8096237215
 20
149.471792088
 30
0.0
 10
83.507786434
 20
149.4712356418
 30
0.0
 10
83.3571766257
 20
149.4777288594
 30
0.0
  0
SPLINE
  5
7FC
100
AcDbEntity
  8
30350716_CL
100
AcDbSpline
 62
7
  6
CONTINUOUS
 70
0
 71
3
 72
16
 73
12
 74
0
 42
0.0000001
 43
0.0000001
 44
0.0000000001
 40
0.0
 40
0.0
 40
0.0
 40
0.0
 40
0.2626124719
 40
0.3899788842
 40
0.5145498291
 40
0.636341096
 40
0.7557749642
 40
0.8150803778
 40
0.8747733232
 40
0.9359251566
 40
1.0
 40
1.0
 40
1.0
 40
1.0
 10
61.4571766257
 20
144.6349495888
 30
0.0
 10
61.4037556552
 20
144.5392852533
 30
0.0
 10
61.3240506948
 20
144.3974333181
 30
0.0
 10
61.2192552982
 20
144.210064147
 30
0.0
 10
61.1438697019
 20
144.0735627565
 30
0.0
 10
61.071827309
 20
143.9390179349
 30
0.0
 10
61.0157638509
 20
143.8267907751
 30
0.0
 10
60.9762836762
 20
143.7354403868
 30
0.0
 10
60.9508413152
 20
143.6646297127
 30
0.0
 10
60.93242018
 20
143.5894907694
 30
0.0
 10
60.9281303174
 20
143.5371145441
 30
0.0
 10
60.9282127178
 20
143.5103808091
 30
0.0
  0
SPLINE
  5
7FD
100
AcDbEntity
  8
30350716_CL
100
AcDbSpline
 62
7
  6
CONTINUOUS
 70
0
 71
3
 72
9
 73
5
 74
0
 42
0.0000001
 43
0.0000001
 44
0.0000000001
 40
0.0
 40
0.0
 40
0.0
 40
0.0
 40
0.2502442154
 40
1.0
 40
1.0
 40
1.0
 40
1.0
 10
61.5971316953
 20
144.5978984899
 30
0.0
 10
61.585125364
 20
144.5993756734
 30
0.0
 10
61.5373640343
 20
144.6070135014
 30
0.0
 10
61.4907728013
 20
144.6213525896
 30
0.0
 10
61.4571766257
 20
144.6349495888
 30
0.0
  0
SPLINE
  5
7FE
100
AcDbEntity
  8
30350716_CL
100
AcDbSpline
 62
7
  6
CONTINUOUS
 70
0
 71
3
 72
21
 73
17
 74
0
 42
0.0000001
 43
0.0000001
 44
0.0000000001
 40
0.0
 40
0.0
 40
0.0
 40
0.0
 40
0.0627077769
 40
0.1253563398
 40
0.1879365642
 40
0.2504438882
 40
0.3751261638
 40
0.4996348478
 40
0.5619590218
 40
0.6243185952
 40
0.6867386609
 40
0.7492377812
 40
0.8118243901
 40
0.8744941376
 40
0.9372289048
 40
1.0
 40
1.0
 40
1.0
 40
1.0
 10
83.3571766257
 20
157.9777288594
 30
0.0
 10
83.5077864355
 20
157.9842220771
 30
0.0
 10
83.8096237241
 20
157.9836656307
 30
0.0
 10
84.2600991295
 20
157.9423240455
 30
0.0
 10
84.7046573843
 20
157.8608469777
 30
0.0
 10
85.283776052
 20
157.6997016108
 30
0.0
 10
85.975835452
 20
157.4009051803
 30
0.0
 10
86.5999703518
 20
156.9781508137
 30
0.0
 10
87.0419148221
 20
156.5724700753
 30
0.0
 10
87.3414475058
 20
156.2358177075
 30
0.0
 10
87.6045904817
 20
155.8694799841
 30
0.0
 10
87.8272566364
 20
155.4765209252
 30
0.0
 10
88.0054752454
 20
155.0608061278
 30
0.0
 10
88.135695653
 20
154.6269939793
 30
0.0
 10
88.2150710896
 20
154.1806467222
 30
0.0
 10
88.2328518328
 20
153.8786307922
 30
0.0
 10
88.2328518328
 20
153.7277288594
 30
0.0
  0
SPLINE
  5
7FF
100
AcDbEntity
  8
30350716_CL
100
AcDbSpline
 62
7
  6
CONTINUOUS
 70
0
 71
3
 72
21
 73
17
 74
0
 42
0.0000001
 43
0.0000001
 44
0.0000000001
 40
0.0
 40
0.0
 40
0.0
 40
0.0
 40
0.0625460668
 40
0.125082566
 40
0.1876038345
 40
0.2501064639
 40
0.3125914489
 40
0.3750639347
 40
0.4375316437
 40
0.5000035122
 40
0.5624878625
 40
0.6249904382
 40
0.687513588
 40
0.7500554211
 40
0.8750491672
 40
1.0
 40
1.0
 40
1.0
 40
1.0
 10
78.9467376026
 20
153.7277288594
 30
0.0
 10
78.9467376026
 20
153.8686082901
 30
0.0
 10
78.9620277009
 20
154.1505831637
 30
0.0
 10
79.0304167743
 20
154.5683610571
 30
0.0
 10
79.1430497563
 20
154.97637204
 30
0.0
 10
79.2980143324
 20
155.3700901808
 30
0.0
 10
79.4928452702
 20
155.7455273422
 30
0.0
 10
79.7246643308
 20
156.099189709
 30
0.0
 10
79.9903331406
 20
156.4281041006
 30
0.0
 10
80.2865613752
 20
156.729780734
 30
0.0
 10
80.6099967011
 20
157.0021639437
 30
0.0
 10
80.9572664637
 20
157.2435695639
 30
0.0
 10
81.3250566028
 20
157.4526496933
 30
0.0
 10
81.8380253191
 20
157.6867526089
 30
0.0
 10
82.5144942057
 20
157.8939884145
 30
0.0
 10
83.075997227
 20
157.965606415
 30
0.0
 10
83.3571766257
 20
157.9777288594
 30
0.0
  0
SPLINE
  5
800
100
AcDbEntity
  8
30350716_CL
100
AcDbSpline
 62
7
  6
CONTINUOUS
 70
0
 71
3
 72
22
 73
18
 74
0
 42
0.0000001
 43
0.0000001
 44
0.0000000001
 40
0.0
 40
0.0
 40
0.0
 40
0.0
 40
0.033005072
 40
0.0657529327
 40
0.0980576226
 40
0.1299491723
 40
0.161532279
 40
0.1929009501
 40
0.2552184981
 40
0.3172415163
 40
0.3791144923
 40
0.4409175763
 40
0.5027024068
 40
0.6263192874
 40
0.7502556021
 40
0.8747388659
 40
1.0
 40
1.0
 40
1.0
 40
1.0
 10
64.9571766257
 20
163.3570250217
 30
0.0
 10
64.9909436383
 20
163.363374955
 30
0.0
 10
65.0599904238
 20
163.3684073157
 30
0.0
 10
65.1614401128
 20
163.350855095
 30
0.0
 10
65.2557843438
 20
163.3135575072
 30
0.0
 10
65.342224989
 20
163.2633536136
 30
0.0
 10
65.4219271573
 20
163.2048489038
 30
0.0
 10
65.5206963691
 20
163.1195507668
 30
0.0
 10
65.6335725808
 20
163.0027926892
 30
0.0
 10
65.7566810196
 20
162.8528709703
 30
0.0
 10
65.8695433337
 20
162.6957751702
 30
0.0
 10
65.9731892051
 20
162.5327691796
 30
0.0
 10
66.0995084699
 20
162.3084488082
 30
0.0
 10
66.2352055582
 20
162.0156829976
 30
0.0
 10
66.3588770383
 20
161.6477777828
 30
0.0
 10
66.4381832898
 20
161.2659626022
 30
0.0
 10
66.4571766257
 20
161.005662812
 30
0.0
 10
66.4571766257
 20
160.8752636854
 30
0.0
  0
SPLINE
  5
801
100
AcDbEntity
  8
30350716_CL
100
AcDbSpline
 62
7
  6
CONTINUOUS
 70
0
 71
3
 72
11
 73
7
 74
0
 42
0.0000001
 43
0.0000001
 44
0.0000000001
 40
0.0
 40
0.0
 40
0.0
 40
0.0
 40
0.2500281574
 40
0.5000499697
 40
0.7500513787
 40
1.0
 40
1.0
 40
1.0
 40
1.0
 10
61.5971316953
 20
162.8575592289
 30
0.0
 10
61.878166113
 20
162.892135936
 30
0.0
 10
62.4399335097
 20
162.9637145712
 30
0.0
 10
63.2813605283
 20
163.0801532292
 30
0.0
 10
64.1209861258
 20
163.2083871356
 30
0.0
 10
64.6789893004
 20
163.3047115111
 30
0.0
 10
64.9571766257
 20
163.3570250217
 30
0.0
  0
SPLINE
  5
802
100
AcDbEntity
  8
30350716_CL
100
AcDbSpline
 62
7
  6
CONTINUOUS
 70
0
 71
3
 72
16
 73
12
 74
0
 42
0.0000001
 43
0.0000001
 44
0.0000000001
 40
0.0
 40
0.0
 40
0.0
 40
0.0
 40
0.0589538769
 40
0.1208822345
 40
0.184010769
 40
0.2475668013
 40
0.374920502
 40
0.5019456004
 40
0.6282295968
 40
0.7534791672
 40
1.0
 40
1.0
 40
1.0
 40
1.0
 10
60.7039655646
 20
143.6121868862
 30
0.0
 10
60.7040374026
 20
143.6422854534
 30
0.0
 10
60.6992115197
 20
143.7040256004
 30
0.0
 10
60.682599228
 20
143.7965447858
 30
0.0
 10
60.6611447554
 20
143.8904363252
 30
0.0
 10
60.6298387374
 20
144.0162992339
 30
0.0
 10
60.5899024045
 20
144.1736332092
 30
0.0
 10
60.5460855597
 20
144.3629968643
 30
0.0
 10
60.5088694877
 20
144.5527153194
 30
0.0
 10
60.4708161611
 20
144.8041573162
 30
0.0
 10
60.4571766257
 20
144.9941101642
 30
0.0
 10
60.4571766257
 20
145.1199703343
 30
0.0
  0
SPLINE
  5
803
100
AcDbEntity
  8
30350716_CL
100
AcDbSpline
 62
7
  6
CONTINUOUS
 70
0
 71
3
 72
9
 73
5
 74
0
 42
0.0000001
 43
0.0000001
 44
0.0000000001
 40
0.0
 40
0.0
 40
0.0
 40
0.0
 40
0.7497560392
 40
1.0
 40
1.0
 40
1.0
 40
1.0
 10
61.4571766257
 20
162.82050813
 30
0.0
 10
61.4907728128
 20
162.8341051338
 30
0.0
 10
61.5373640438
 20
162.8484442343
 30
0.0
 10
61.5851253761
 20
162.8560820469
 30
0.0
 10
61.5971316953
 20
162.8575592289
 30
0.0
  0
SPLINE
  5
804
100
AcDbEntity
  8
30350716_CL
100
AcDbSpline
 62
7
  6
CONTINUOUS
 70
0
 71
3
 72
16
 73
12
 74
0
 42
0.0000001
 43
0.0000001
 44
0.0000000001
 40
0.0
 40
0.0
 40
0.0
 40
0.0
 40
0.0640762649
 40
0.1252314861
 40
0.1849256615
 40
0.2442309358
 40
0.3636640305
 40
0.485454454
 40
0.6100242674
 40
0.7373897431
 40
1.0
 40
1.0
 40
1.0
 40
1.0
 10
60.9282127178
 20
163.9450769097
 30
0.0
 10
60.9281303156
 20
163.9183425874
 30
0.0
 10
60.9324218315
 20
163.8659645606
 30
0.0
 10
60.9508417822
 20
163.790822719
 30
0.0
 10
60.9762882215
 20
163.7200114598
 30
0.0
 10
61.0157680859
 20
163.6286609224
 30
0.0
 10
61.0718308628
 20
163.5164342283
 30
0.0
 10
61.1438713885
 20
163.3818897562
 30
0.0
 10
61.2192575884
 20
163.2453901148
 30
0.0
 10
61.3240517352
 20
163.0580223521
 30
0.0
 10
61.4037561173
 20
162.9161716379
 30
0.0
 10
61.4571766257
 20
162.82050813
 30
0.0
  0
SPLINE
  5
805
100
AcDbEntity
  8
30350716_CL
100
AcDbSpline
 62
7
  6
CONTINUOUS
 70
0
 71
3
 72
40
 73
36
 74
0
 42
0.0000001
 43
0.0000001
 44
0.0000000001
 40
0.0
 40
0.0
 40
0.0
 40
0.0
 40
0.0637055856
 40
0.1279278657
 40
0.1926978598
 40
0.258087182
 40
0.3242323816
 40
0.3913979963
 40
0.4255266446
 40
0.4601770978
 40
0.4777582219
 40
0.4955149296
 40
0.5132089531
 40
0.5216098181
 40
0.5289440528
 40
0.5350034549
 40
0.5406151325
 40
0.5463385167
 40
0.552286329
 40
0.5584431629
 40
0.5647749272
 40
0.5778439668
 40
0.5913245201
 40
0.605109709
 40
0.6191319401
 40
0.6333461123
 40
0.6622303867
 40
0.6915969636
 40
0.7213461217
 40
0.7514136669
 40
0.7817556101
 40
0.8123406281
 40
0.8741523541
 40
0.9367279803
 40
1.0
 40
1.0
 40
1.0
 40
1.0
 10
60.7039655646
 20
163.8432708326
 30
0.0
 10
60.7038881598
 20
163.8757017503
 30
0.0
 10
60.7043133147
 20
163.9408294254
 30
0.0
 10
60.7067063934
 20
164.038903454
 30
0.0
 10
60.7110119527
 20
164.1377712805
 30
0.0
 10
60.7175399306
 20
164.237502467
 30
0.0
 10
60.726894966
 20
164.3382343667
 30
0.0
 10
60.7379218395
 20
164.4227985841
 30
0.0
 10
60.7501127265
 20
164.490936447
 30
0.0
 10
60.7599005318
 20
164.5338277588
 30
0.0
 10
60.7700246216
 20
164.5680164498
 30
0.0
 10
60.7794175496
 20
164.5933229271
 30
0.0
 10
60.7895605542
 20
164.613416073
 30
0.0
 10
60.8003748763
 20
164.6266482622
 30
0.0
 10
60.8097185805
 20
164.633207084
 30
0.0
 10
60.8198139059
 20
164.634253623
 30
0.0
 10
60.8281699567
 20
164.6306317368
 30
0.0
 10
60.8349246031
 20
164.6249056441
 30
0.0
 10
60.8407507903
 20
164.6179071973
 30
0.0
 10
60.8459131966
 20
164.61005412
 30
0.0
 10
60.852190362
 20
164.5986469806
 30
0.0
 10
60.858979669
 20
164.5833176615
 30
0.0
 10
60.8659782399
 20
164.5640045719
 30
0.0
 10
60.8721672134
 20
164.5439106879
 30
0.0
 10
60.8777161424
 20
164.5232470789
 30
0.0
 10
60.8844456141
 20
164.4949544994
 30
0.0
 10
60.8917166485
 20
164.4587765705
 30
0.0
 10
60.8990592835
 20
164.4145778079
 30
0.0
 10
60.9053064531
 20
164.3696040005
 30
0.0
 10
60.9106215666
 20
164.324012089
 30
0.0
 10
60.9151176239
 20
164.2779051567
 30
0.0
 10
60.9201444667
 20
164.215622033
 30
0.0
 10
60.924714985
 20
164.1368502885
 30
0.0
 10
60.9277799582
 20
164.0413578008
 30
0.0
 10
60.9283119978
 20
163.9772870487
 30
0.0
 10
60.9282127178
 20
163.9450769097
 30
0.0
  0
SPLINE
  5
806
100
AcDbEntity
  8
30350716_CL
100
AcDbSpline
 62
7
  6
CONTINUOUS
 70
0
 71
3
 72
16
 73
12
 74
0
 42
0.0000001
 43
0.0000001
 44
0.0000000001
 40
0.0
 40
0.0
 40
0.0
 40
0.0
 40
0.2465192083
 40
0.3717687171
 40
0.4980529312
 40
0.6250781892
 40
0.7524320654
 40
0.8159881962
 40
0.8791169268
 40
0.9410456946
 40
1.0
 40
1.0
 40
1.0
 40
1.0
 10
60.4571766257
 20
162.3354873845
 30
0.0
 10
60.4571766257
 20
162.4613467246
 30
0.0
 10
60.470816096
 20
162.6512986978
 30
0.0
 10
60.5088689888
 20
162.9027400034
 30
0.0
 10
60.5460851459
 20
163.0924586056
 30
0.0
 10
60.5899018229
 20
163.2818225875
 30
0.0
 10
60.6298383242
 20
163.4391567494
 30
0.0
 10
60.6611443063
 20
163.5650199134
 30
0.0
 10
60.6825988932
 20
163.6589117942
 30
0.0
 10
60.6992114133
 20
163.7514314729
 30
0.0
 10
60.7040374031
 20
163.8131720468
 30
0.0
 10
60.7039655646
 20
163.8432708326
 30
0.0
  0
SPLINE
  5
807
100
AcDbEntity
  8
30350716_CL
100
AcDbSpline
 62
7
  6
CONTINUOUS
 70
0
 71
3
 72
40
 73
36
 74
0
 42
0.0000001
 43
0.0000001
 44
0.0000000001
 40
0.0
 40
0.0
 40
0.0
 40
0.0
 40
0.0632719483
 40
0.1258474972
 40
0.1876591509
 40
0.2182441314
 40
0.2485860332
 40
0.2786535445
 40
0.3084026755
 40
0.3377692217
 40
0.3666534715
 40
0.3808676404
 40
0.3948898608
 40
0.4086750174
 40
0.4221556411
 40
0.4352245996
 40
0.4415563434
 40
0.4477131829
 40
0.4536609596
 40
0.4593845576
 40
0.4649966383
 40
0.4710557281
 40
0.4783916602
 40
0.4867926204
 40
0.5044864104
 40
0.5222430783
 40
0.5398242853
 40
0.5744747496
 40
0.6086030829
 40
0.6757682656
 40
0.7419132839
 40
0.8073024833
 40
0.8720723654
 40
0.9362945334
 40
1.0
 40
1.0
 40
1.0
 40
1.0
 10
60.9282127178
 20
143.5103808091
 30
0.0
 10
60.9283119977
 20
143.4781707052
 30
0.0
 10
60.9277799613
 20
143.4141000259
 30
0.0
 10
60.9247149917
 20
143.3186076467
 30
0.0
 10
60.9201444927
 20
143.2398359932
 30
0.0
 10
60.9151176658
 20
143.1775529427
 30
0.0
 10
60.9106216033
 20
143.1314460666
 30
0.0
 10
60.9053065078
 20
143.0858542038
 30
0.0
 10
60.899059378
 20
143.0408804359
 30
0.0
 10
60.8917167589
 20
142.9966817114
 30
0.0
 10
60.8844457459
 20
142.9605038066
 30
0.0
 10
60.8777163141
 20
142.9322112384
 30
0.0
 10
60.872167446
 20
142.9115476324
 30
0.0
 10
60.8659783014
 20
142.8914537928
 30
0.0
 10
60.8589801139
 20
142.8721405813
 30
0.0
 10
60.8521905254
 20
142.8568113948
 30
0.0
 10
60.8459133644
 20
142.8454043176
 30
0.0
 10
60.8407510627
 20
142.8375511969
 30
0.0
 10
60.8349246818
 20
142.8305527774
 30
0.0
 10
60.8281700539
 20
142.8248263265
 30
0.0
 10
60.8198141871
 20
142.8212034763
 30
0.0
 10
60.8097176925
 20
142.822250226
 30
0.0
 10
60.8003744728
 20
142.8288111756
 30
0.0
 10
60.7895587345
 20
142.8420429338
 30
0.0
 10
60.7794170651
 20
142.862137003
 30
0.0
 10
60.7700240196
 20
142.8874431637
 30
0.0
 10
60.7598997839
 20
142.9216319033
 30
0.0
 10
60.7501124692
 20
142.964523192
 30
0.0
 10
60.73792155
 20
143.0326606717
 30
0.0
 10
60.7268948978
 20
143.1172244476
 30
0.0
 10
60.7175398659
 20
143.217955973
 30
0.0
 10
60.7110119271
 20
143.317686955
 30
0.0
 10
60.7067063772
 20
143.416554609
 30
0.0
 10
60.7043133163
 20
143.5146284675
 30
0.0
 10
60.70388816
 20
143.5797560277
 30
0.0
 10
60.7039655646
 20
143.6121868862
 30
0.0
  0
SPLINE
  5
808
100
AcDbEntity
  8
30350716_CL
100
AcDbSpline
 62
7
  6
CONTINUOUS
 70
0
 71
3
 72
11
 73
7
 74
0
 42
0.0000001
 43
0.0000001
 44
0.0000000001
 40
0.0
 40
0.0
 40
0.0
 40
0.0
 40
0.2500281574
 40
0.5000499697
 40
0.7500513787
 40
1.0
 40
1.0
 40
1.0
 40
1.0
 10
61.5971316953
 20
144.5978984899
 30
0.0
 10
61.878166113
 20
144.5633217829
 30
0.0
 10
62.4399335097
 20
144.4917431476
 30
0.0
 10
63.2813605283
 20
144.3753044896
 30
0.0
 10
64.1209861258
 20
144.2470705832
 30
0.0
 10
64.6789893004
 20
144.1507462078
 30
0.0
 10
64.9571766257
 20
144.0984326972
 30
0.0
  0
SPLINE
  5
809
100
AcDbEntity
  8
30350716_CL
100
AcDbSpline
 62
7
  6
CONTINUOUS
 70
0
 71
3
 72
22
 73
18
 74
0
 42
0.0000001
 43
0.0000001
 44
0.0000000001
 40
0.0
 40
0.0
 40
0.0
 40
0.0
 40
0.1252608019
 40
0.2497438156
 40
0.3736799211
 40
0.4972967244
 40
0.5590815351
 40
0.6208846178
 40
0.6827576082
 40
0.7447806311
 40
0.8070981545
 40
0.838466804
 40
0.8700499327
 40
0.9019415099
 40
0.9342457638
 40
0.9669933662
 40
1.0
 40
1.0
 40
1.0
 40
1.0
 10
66.4571766257
 20
146.5801940334
 30
0.0
 10
66.4571766257
 20
146.4497952541
 30
0.0
 10
66.4381833689
 20
146.1894960742
 30
0.0
 10
66.3588774522
 20
145.8076816821
 30
0.0
 10
66.2352065031
 20
145.4397768791
 30
0.0
 10
66.0995095909
 20
145.1470113408
 30
0.0
 10
65.9731905325
 20
144.922690974
 30
0.0
 10
65.8695448085
 20
144.7596849101
 30
0.0
 10
65.756682926
 20
144.6025887677
 30
0.0
 10
65.6335742139
 20
144.452667278
 30
0.0
 10
65.520698283
 20
144.3359090193
 30
0.0
 10
65.4219292352
 20
144.2506107156
 30
0.0
 10
65.3422271549
 20
144.1921058827
 30
0.0
 10
65.2557872865
 20
144.1419014074
 30
0.0
 10
65.1614437831
 20
144.1046039932
 30
0.0
 10
65.0599935063
 20
144.0870500426
 30
0.0
 10
64.9909452358
 20
144.0920824634
 30
0.0
 10
64.9571766257
 20
144.0984326972
 30
0.0
  0
SPLINE
  5
80A
100
AcDbEntity
  8
30350716_CL
100
AcDbSpline
 62
7
  6
CONTINUOUS
 70
0
 71
3
 72
17
 73
13
 74
0
 42
0.0000001
 43
0.0000001
 44
0.0000000001
 40
0.0
 40
0.0
 40
0.0
 40
0.0
 40
0.1250508644
 40
0.2500996897
 40
0.3751446807
 40
0.5001810315
 40
0.6251944193
 40
0.7501379882
 40
0.8126520564
 40
0.8751439365
 40
0.9375936643
 40
1.0
 40
1.0
 40
1.0
 40
1.0
 10
108.7433100485
 20
161.7277288594
 30
0.0
 10
108.7546816937
 20
161.6939094978
 30
0.0
 10
108.7785428144
 20
161.6266391257
 30
0.0
 10
108.818266781
 20
161.5272101579
 30
0.0
 10
108.8627523117
 20
161.4298048363
 30
0.0
 10
108.9132280569
 20
161.3353179709
 30
0.0
 10
108.9715554421
 20
161.2454544457
 30
0.0
 10
109.0293549363
 20
161.1769614992
 30
0.0
 10
109.0834098758
 20
161.1301859228
 30
0.0
 10
109.1286029603
 20
161.101127586
 30
0.0
 10
109.1785912269
 20
161.0810874323
 30
0.0
 10
109.2143705989
 20
161.0761980878
 30
0.0
 10
109.2321766257
 20
161.0761980878
 30
0.0
  0
SPLINE
  5
80B
100
AcDbEntity
  8
30350716_CL
100
AcDbSpline
 62
7
  6
CONTINUOUS
 70
0
 71
3
 72
17
 73
13
 74
0
 42
0.0000001
 43
0.0000001
 44
0.0000000001
 40
0.0
 40
0.0
 40
0.0
 40
0.0
 40
0.0624062854
 40
0.1248559801
 40
0.187347834
 40
0.2498618695
 40
0.3748054156
 40
0.4998188314
 40
0.6248552065
 40
0.7499002383
 40
0.8749491011
 40
1.0
 40
1.0
 40
1.0
 40
1.0
 10
109.2321766257
 20
146.3792596311
 30
0.0
 10
109.2143706132
 20
146.3792596311
 30
0.0
 10
109.1785912644
 20
146.3743702993
 30
0.0
 10
109.1286030243
 20
146.3543301626
 30
0.0
 10
109.0834099575
 20
146.3252718481
 30
0.0
 10
109.0293550201
 20
146.2784963056
 30
0.0
 10
108.9715555099
 20
146.2100033803
 30
0.0
 10
108.9132281345
 20
146.1201398396
 30
0.0
 10
108.8627523356
 20
146.0256529731
 30
0.0
 10
108.8182668097
 20
145.9282476163
 30
0.0
 10
108.7785428253
 20
145.8288186216
 30
0.0
 10
108.7546816969
 20
145.7615482303
 30
0.0
 10
108.7433100485
 20
145.7277288594
 30
0.0
  0
SPLINE
  5
80C
100
AcDbEntity
  8
30350716_CL
100
AcDbSpline
 62
7
  6
CONTINUOUS
 70
0
 71
3
 72
21
 73
17
 74
0
 42
0.0000001
 43
0.0000001
 44
0.0000000001
 40
0.0
 40
0.0
 40
0.0
 40
0.0
 40
0.1249508325
 40
0.249944579
 40
0.3124864115
 40
0.3750095608
 40
0.4375121371
 40
0.4999964866
 40
0.5624683546
 40
0.6249360634
 40
0.6874085493
 40
0.7498935345
 40
0.8123961638
 40
0.8749174323
 40
0.9374539316
 40
1.0
 40
1.0
 40
1.0
 40
1.0
 10
83.3571766257
 20
149.4777288594
 30
0.0
 10
83.0759972276
 20
149.4898513038
 30
0.0
 10
82.5144942061
 20
149.561469304
 30
0.0
 10
81.8380253206
 20
149.7687051095
 30
0.0
 10
81.3250566055
 20
150.0028080241
 30
0.0
 10
80.9572664671
 20
150.2118881528
 30
0.0
 10
80.6099967054
 20
150.4532937719
 30
0.0
 10
80.2865613805
 20
150.7256769799
 30
0.0
 10
79.9903331477
 20
151.0273536102
 30
0.0
 10
79.7246643382
 20
151.3562680001
 30
0.0
 10
79.4928452758
 20
151.7099303662
 30
0.0
 10
79.2980143373
 20
152.0853675276
 30
0.0
 10
79.1430497599
 20
152.4790856679
 30
0.0
 10
79.0304167767
 20
152.8870966505
 30
0.0
 10
78.9620277018
 20
153.3048745476
 30
0.0
 10
78.9467376026
 20
153.5868494251
 30
0.0
 10
78.9467376026
 20
153.7277288594
 30
0.0
  0
ENDSEC
  0
SECTION
  2
OBJECTS
  0
DICTIONARY
  5
C
100
AcDbDictionary
280
0
281
1
  3
ACAD_GROUP
350
D
  3
ACAD_MLINESTYLE
350
17
  3
ACAD_LAYOUT
350
1A
  3
ACAD_PLOTSETTINGS
350
19
  3
ACAD_PLOTSTYLENAME
350
E
  0
DICTIONARY
  5
D
102
{ACAD_REACTORS
330
C
102
}
100
AcDbDictionary
280
0
281
1
  0
ACDBDICTIONARYWDFLT
  5
E
102
{ACAD_REACTORS
330
C
102
}
100
AcDbDictionary
281
1
  3
Normal
350
F
100
AcDbDictionaryWithDefault
340
F
  0
DICTIONARY
  5
17
102
{ACAD_REACTORS
330
C
102
}
100
AcDbDictionary
280
0
281
1
  3
Standard
350
18
  0
DICTIONARY
  5
19
102
{ACAD_REACTORS
330
C
102
}
100
AcDbDictionary
281
1
  0
DICTIONARY
  5
1A
102
{ACAD_REACTORS
330
C
102
}
100
AcDbDictionary
281
1
  3
Model
350
80D
  3
Layout1
350
80E
  0
ACDBPLACEHOLDER
  5
F
102
{ACAD_REACTORS
330
E
102
}
  0
MLINESTYLE
  5
18
102
{ACAD_REACTORS
330
17
102
}
100
AcDbMlineStyle
  2
STANDARD
 70
0
  3

 62
256
 51
90.0
 52
90.0
 71
2
 49
0.5
 62
256
  6
BYLAYER
 49
-0.5
 62
256
  6
BYLAYER
  0
LAYOUT
  5
80D
102
{ACAD_REACTORS
330
1A
102
}
100
AcDbPlotSettings
  1

  2
none_device
  4
ISO_A3_(420.00_x_297.00_MM)
  6

 40
0.0
 41
0.0
 42
0.0
 43
0.0
 44
420.0
 45
297.0
 46
0.0
 47
0.0
 48
0.0
 49
0.0
140
0.0
141
0.0
142
1.0
143
1.0
 70
1024
 72
1
 73
0
 74
0
  7

 75
0
147
1.0
148
0.0
149
0.0
100
AcDbLayout
  1
Model
 70
0
 71
0
 10
0.0
 20
0.0
 11
420.0
 21
297.0
 12
0.0
 22
0.0
 32
0.0
 14
0.0
 24
0.0
 34
0.0
 15
0.0
 25
0.0
 35
0.0
146
0.0
 13
0.0
 23
0.0
 33
0.0
 16
1.0
 26
0.0
 36
0.0
 17
0.0
 27
1.0
 37
0.0
 76
0
330
217
345
0
346
0
  0
LAYOUT
  5
80E
102
{ACAD_REACTORS
330
1A
102
}
100
AcDbPlotSettings
  1

  2
none_device
  4
ISO_A3_(420.00_x_297.00_MM)
  6

 40
0.0
 41
0.0
 42
0.0
 43
0.0
 44
420.0
 45
297.0
 46
0.0
 47
0.0
 48
0.0
 49
0.0
140
0.0
141
0.0
142
1.0
143
1.0
 70
0
 72
1
 73
0
 74
0
  7

 75
0
147
1.0
148
0.0
149
0.0
100
AcDbLayout
  1
Layout1
 70
0
 71
1
 10
0.0
 20
0.0
 11
420.0
 21
297.0
 12
0.0
 22
0.0
 32
0.0
 14
0.0
 24
0.0
 34
0.0
 15
0.0
 25
0.0
 35
0.0
146
0.0
 13
0.0
 23
0.0
 33
0.0
 16
1.0
 26
0.0
 36
0.0
 17
0.0
 27
1.0
 37
0.0
 76
0
330
218
345
0
346
0
  0
ENDSEC
  0
EOF
