999
DXF file: 606312146-000-00-ed1.dxf
999
Pro/ENGINEER 2011220 by Parametric Technology Corporation
  0
SECTION
  2
HEADER
  9
$ACADVER
  1
AC1015
  9
$DWGCODEPAGE
  3
ANSI_1252
  9
$EXTMAX
 10
420.0
 20
297.0
 30
0.0
  9
$EXTMIN
 10
0.0
 20
0.0
 30
0.0
  9
$LIMMIN
 10
0.0
 20
0.0
  9
$LIMMAX
 10
420.0
 20
297.0
  9
$VIEWCTR
 10
210.0
 20
148.5
  9
$VIEWSIZE
 40
297.0
  9
$CLAYER
  8
0
  9
$LTSCALE
 40
23.1
  9
$CELTYPE
  6
BYLAYER
  9
$DIMSCALE
 40
1.0
  9
$DIMASZ
 40
3.5
  9
$DIMEXO
 40
2.625
  9
$DIMDLI
 40
15.96
  9
$DIMEXE
 40
7.56
  9
$DIMCEN
 40
3.78
  9
$DIMLFAC
 40
1.0
  9
$DIMBLK
  1
_FILLED
  9
$DIMTXT
 40
3.5
  9
$DIMTOL
 70
1
  9
$DIMLIM
 70
0
  9
$DIMTFAC
 40
1.0
  9
$DIMTP
 40
0.005
  9
$DIMTM
 40
0.005
  9
$PDMODE
 70
3
  9
$PDSIZE
 40
0.3125
  9
$HANDSEED
  5
72D
  9
$TILEMODE
 70
1
  9
$MEASUREMENT
 70
1
  9
$INSUNITS
 70
4
  0
ENDSEC
  0
SECTION
  2
CLASSES
  0
CLASS
  1
ACDBDICTIONARYWDFLT
  2
AcDbDictionaryWithDefault
  3
AutoCAD 2000
 90
0
280
0
281
0
  0
CLASS
  1
ACDBPLACEHOLDER
  2
AcDbPlaceHolder
  3
AutoCAD 2000
 90
0
280
0
281
0
  0
CLASS
  1
LAYOUT
  2
AcDbLayout
  3
AutoCAD 2000
 90
0
280
0
281
0
  0
ENDSEC
  0
SECTION
  2
TABLES
  0
TABLE
  2
VPORT
  5
8
100
AcDbSymbolTable
 70
2
  0
VPORT
  5
1F4
100
AcDbSymbolTableRecord
100
AcDbViewportTableRecord
  2
*ACTIVE
 70
0
 10
0.0
 20
0.0
 11
1.0
 21
1.0
 12
210.0
 22
148.5
 13
0.0
 23
0.0
 14
1.0
 24
1.0
 15
0.0
 25
0.0
 16
0.0
 26
0.0
 36
1.0
 17
0.0
 27
0.0
 37
0.0
 40
297.0
 41
1.4141414141
 42
50.0
 43
0.0
 44
0.0
 50
0.0
 51
0.0
 71
0
 72
100
 73
1
 74
1
 75
0
 76
0
 77
0
 78
0
  0
ENDTAB
  0
TABLE
  2
LTYPE
  5
5
100
AcDbSymbolTable
 70
6
  0
LTYPE
  5
14
100
AcDbSymbolTableRecord
100
AcDbLinetypeTableRecord
  2
BYBLOCK
 70
0
  3

 72
65
 73
0
 40
0.0
  0
LTYPE
  5
15
100
AcDbSymbolTableRecord
100
AcDbLinetypeTableRecord
  2
BYLAYER
 70
0
  3

 72
65
 73
0
 40
0.0
  0
LTYPE
  5
16
100
AcDbSymbolTableRecord
100
AcDbLinetypeTableRecord
  2
CONTINUOUS
 70
64
  3
Solid line
 72
65
 73
0
 40
0.0
  0
LTYPE
  5
1F5
100
AcDbSymbolTableRecord
100
AcDbLinetypeTableRecord
  2
CENTER
 70
64
  3
____ _ ____ _ ____ _ ____ _ ____ _ ____ _ ____
 72
65
 73
4
 40
0.6
 49
0.375
 74
0
 49
-0.075
 74
0
 49
0.075
 74
0
 49
-0.075
 74
0
  0
LTYPE
  5
1F6
100
AcDbSymbolTableRecord
100
AcDbLinetypeTableRecord
  2
HIDDEN
 70
64
  3
- - - - - - - - - - - - - - - - - - - -
 72
65
 73
2
 40
0.2
 49
0.1
 74
0
 49
-0.1
 74
0
  0
LTYPE
  5
1F7
100
AcDbSymbolTableRecord
100
AcDbLinetypeTableRecord
  2
PHANTOM
 70
64
  3
_____ _ _ _____ _ _ _____ _ _ _____
 72
65
 73
6
 40
0.8
 49
0.45
 74
0
 49
-0.05
 74
0
 49
0.1
 74
0
 49
-0.05
 74
0
 49
0.1
 74
0
 49
-0.05
 74
0
  0
LTYPE
  5
1F8
100
AcDbSymbolTableRecord
100
AcDbLinetypeTableRecord
  2
DOT
 70
64
  3
. . . . . . . . . . . . . . . . . . . .
 72
65
 73
2
 40
0.2
 49
0.1
 74
0
 49
-0.1
 74
0
  0
LTYPE
  5
1F9
100
AcDbSymbolTableRecord
100
AcDbLinetypeTableRecord
  2
DASHED
 70
64
  3
- - - - - - - - - - - - - - - - - - - -
 72
65
 73
2
 40
0.2
 49
0.1
 74
0
 49
-0.1
 74
0
  0
ENDTAB
  0
TABLE
  2
LAYER
  5
2
100
AcDbSymbolTable
 70
36
  0
LAYER
  5
10
100
AcDbSymbolTableRecord
100
AcDbLayerTableRecord
  2
0
 70
0
 62
7
  6
CONTINUOUS
370
-3
390
F
  0
LAYER
  5
1FA
100
AcDbSymbolTableRecord
100
AcDbLayerTableRecord
  2
DEFAULT_1
 70
0
 62
7
  6
CENTER
370
-3
390
F
  0
LAYER
  5
1FB
100
AcDbSymbolTableRecord
100
AcDbLayerTableRecord
  2
DEFAULT_2
 70
0
 62
6
  6
HIDDEN
370
-3
390
F
  0
LAYER
  5
1FC
100
AcDbSymbolTableRecord
100
AcDbLayerTableRecord
  2
DEFAULT_3
 70
0
 62
7
  6
PHANTOM
370
-3
390
F
  0
LAYER
  5
1FD
100
AcDbSymbolTableRecord
100
AcDbLayerTableRecord
  2
COLLECTION01
 70
0
 62
7
  6
CONTINUOUS
370
-3
390
F
  0
LAYER
  5
1FE
100
AcDbSymbolTableRecord
100
AcDbLayerTableRecord
  2
COLLECTION02
 70
0
 62
7
  6
CONTINUOUS
370
-3
390
F
  0
LAYER
  5
1FF
100
AcDbSymbolTableRecord
100
AcDbLayerTableRecord
  2
COLLECTION03
 70
0
 62
7
  6
CONTINUOUS
370
-3
390
F
  0
LAYER
  5
200
100
AcDbSymbolTableRecord
100
AcDbLayerTableRecord
  2
COLLECTION12
 70
0
 62
7
  6
CONTINUOUS
370
-3
390
F
  0
LAYER
  5
201
100
AcDbSymbolTableRecord
100
AcDbLayerTableRecord
  2
COLLECTION04
 70
0
 62
7
  6
CONTINUOUS
370
-3
390
F
  0
LAYER
  5
202
100
AcDbSymbolTableRecord
100
AcDbLayerTableRecord
  2
COLLECTION06
 70
0
 62
7
  6
CONTINUOUS
370
-3
390
F
  0
LAYER
  5
203
100
AcDbSymbolTableRecord
100
AcDbLayerTableRecord
  2
COLLECTION07
 70
0
 62
7
  6
CONTINUOUS
370
-3
390
F
  0
LAYER
  5
204
100
AcDbSymbolTableRecord
100
AcDbLayerTableRecord
  2
COLLECTION09
 70
0
 62
7
  6
CONTINUOUS
370
-3
390
F
  0
LAYER
  5
205
100
AcDbSymbolTableRecord
100
AcDbLayerTableRecord
  2
COLLECTION10
 70
0
 62
7
  6
CONTINUOUS
370
-3
390
F
  0
LAYER
  5
206
100
AcDbSymbolTableRecord
100
AcDbLayerTableRecord
  2
COLLECTION13
 70
0
 62
7
  6
CONTINUOUS
370
-3
390
F
  0
LAYER
  5
207
100
AcDbSymbolTableRecord
100
AcDbLayerTableRecord
  2
COLLECTION15
 70
0
 62
7
  6
CONTINUOUS
370
-3
390
F
  0
LAYER
  5
208
100
AcDbSymbolTableRecord
100
AcDbLayerTableRecord
  2
COLLECTION16
 70
0
 62
7
  6
CONTINUOUS
370
-3
390
F
  0
LAYER
  5
209
100
AcDbSymbolTableRecord
100
AcDbLayerTableRecord
  2
606312146-000-00-ED1_FORMAT
 70
0
 62
7
  6
CONTINUOUS
370
-3
390
F
  0
LAYER
  5
20A
100
AcDbSymbolTableRecord
100
AcDbLayerTableRecord
  2
606312146-000-00-ED1_DIM
 70
0
 62
7
  6
CONTINUOUS
370
-3
390
F
  0
LAYER
  5
20B
100
AcDbSymbolTableRecord
100
AcDbLayerTableRecord
  2
30558364_DIM
 70
0
 62
7
  6
CONTINUOUS
370
-3
390
F
  0
LAYER
  5
20C
100
AcDbSymbolTableRecord
100
AcDbLayerTableRecord
  2
30530890_DIM
 70
0
 62
7
  6
CONTINUOUS
370
-3
390
F
  0
LAYER
  5
20D
100
AcDbSymbolTableRecord
100
AcDbLayerTableRecord
  2
606312146-000-00-ED1_CL
 70
0
 62
7
  6
CONTINUOUS
370
-3
390
F
  0
LAYER
  5
20E
100
AcDbSymbolTableRecord
100
AcDbLayerTableRecord
  2
606312146-000-00-ED1_TEXT
 70
0
 62
7
  6
CONTINUOUS
370
-3
390
F
  0
LAYER
  5
20F
100
AcDbSymbolTableRecord
100
AcDbLayerTableRecord
  2
30530890_CL
 70
0
 62
7
  6
CONTINUOUS
370
-3
390
F
  0
LAYER
  5
210
100
AcDbSymbolTableRecord
100
AcDbLayerTableRecord
  2
30530890_HL
 70
0
 62
7
  6
CONTINUOUS
370
-3
390
F
  0
LAYER
  5
211
100
AcDbSymbolTableRecord
100
AcDbLayerTableRecord
  2
30530890_AXIS
 70
0
 62
7
  6
CONTINUOUS
370
-3
390
F
  0
LAYER
  5
212
100
AcDbSymbolTableRecord
100
AcDbLayerTableRecord
  2
30252542_HP_HL
 70
0
 62
7
  6
CONTINUOUS
370
-3
390
F
  0
LAYER
  5
213
100
AcDbSymbolTableRecord
100
AcDbLayerTableRecord
  2
30252542_HP_CL
 70
0
 62
7
  6
CONTINUOUS
370
-3
390
F
  0
ENDTAB
  0
TABLE
  2
STYLE
  5
3
100
AcDbSymbolTable
 70
1
  0
STYLE
  5
11
100
AcDbSymbolTableRecord
100
AcDbTextStyleTableRecord
  2
STANDARD
 70
0
 40
0.0
 41
0.7
 50
0.0
 71
0
 42
0.2
  3
TXT.SHX
  4

  0
STYLE
  5
214
100
AcDbSymbolTableRecord
100
AcDbTextStyleTableRecord
  2
TEXTSTYLE_1
 70
0
 40
0.0
 41
0.8
 50
0.0
 71
0
 42
0.2
  3
gdt
  4

  0
STYLE
  5
215
100
AcDbSymbolTableRecord
100
AcDbTextStyleTableRecord
  2
TEXTSTYLE_2
 70
0
 40
0.0
 41
0.675
 50
0.0
 71
0
 42
0.2
  3
TXT.SHX
  4

  0
STYLE
  5
216
100
AcDbSymbolTableRecord
100
AcDbTextStyleTableRecord
  2
TEXTSTYLE_3
 70
0
 40
0.0
 41
0.7
 50
0.0
 71
0
 42
0.2
  3
gdt
  4

  0
ENDTAB
  0
TABLE
  2
VIEW
  5
6
100
AcDbSymbolTable
 70
0
  0
ENDTAB
  0
TABLE
  2
UCS
  5
7
100
AcDbSymbolTable
 70
0
  0
ENDTAB
  0
TABLE
  2
APPID
  5
9
100
AcDbSymbolTable
 70
1
  0
APPID
  5
217
100
AcDbSymbolTableRecord
100
AcDbRegAppTableRecord
  2
ACAD
 70
0
  0
ENDTAB
  0
TABLE
  2
BLOCK_RECORD
  5
1
100
AcDbSymbolTable
 70
0
  0
BLOCK_RECORD
  5
218
100
AcDbSymbolTableRecord
100
AcDbBlockTableRecord
  2
*Model_Space
  0
BLOCK_RECORD
  5
219
100
AcDbSymbolTableRecord
100
AcDbBlockTableRecord
  2
*Paper_Space
  0
BLOCK_RECORD
  5
21A
100
AcDbSymbolTableRecord
100
AcDbBlockTableRecord
  2
_FILLED
  0
BLOCK_RECORD
  5
21B
100
AcDbSymbolTableRecord
100
AcDbBlockTableRecord
  2
_DOT
  0
BLOCK_RECORD
  5
21C
100
AcDbSymbolTableRecord
100
AcDbBlockTableRecord
  2
*D0
  0
BLOCK_RECORD
  5
21D
100
AcDbSymbolTableRecord
100
AcDbBlockTableRecord
  2
*D1
  0
BLOCK_RECORD
  5
21E
100
AcDbSymbolTableRecord
100
AcDbBlockTableRecord
  2
*D2
  0
BLOCK_RECORD
  5
21F
100
AcDbSymbolTableRecord
100
AcDbBlockTableRecord
  2
*D3
  0
BLOCK_RECORD
  5
220
100
AcDbSymbolTableRecord
100
AcDbBlockTableRecord
  2
*D4
  0
BLOCK_RECORD
  5
221
100
AcDbSymbolTableRecord
100
AcDbBlockTableRecord
  2
*D5
  0
BLOCK_RECORD
  5
222
100
AcDbSymbolTableRecord
100
AcDbBlockTableRecord
  2
*D6
  0
BLOCK_RECORD
  5
223
100
AcDbSymbolTableRecord
100
AcDbBlockTableRecord
  2
*D7
  0
BLOCK_RECORD
  5
224
100
AcDbSymbolTableRecord
100
AcDbBlockTableRecord
  2
*D8
  0
BLOCK_RECORD
  5
225
100
AcDbSymbolTableRecord
100
AcDbBlockTableRecord
  2
*D9
  0
BLOCK_RECORD
  5
226
100
AcDbSymbolTableRecord
100
AcDbBlockTableRecord
  2
*D10
  0
BLOCK_RECORD
  5
227
100
AcDbSymbolTableRecord
100
AcDbBlockTableRecord
  2
*D11
  0
BLOCK_RECORD
  5
228
100
AcDbSymbolTableRecord
100
AcDbBlockTableRecord
  2
BOMBALLOON_BL4
  0
BLOCK_RECORD
  5
229
100
AcDbSymbolTableRecord
100
AcDbBlockTableRecord
  2
GEOM_TOLERANCE_SYMBOLS_BL3
  0
BLOCK_RECORD
  5
22A
100
AcDbSymbolTableRecord
100
AcDbBlockTableRecord
  2
GEOM_TOLERANCE_SYMBOLS_BL2
  0
BLOCK_RECORD
  5
22B
100
AcDbSymbolTableRecord
100
AcDbBlockTableRecord
  2
GEOM_TOLERANCE_SYMBOLS_BL1
  0
BLOCK_RECORD
  5
22C
100
AcDbSymbolTableRecord
100
AcDbBlockTableRecord
  2
BARCODEBOX_BL0
  0
ENDTAB
  0
TABLE
  2
DIMSTYLE
  5
A
100
AcDbSymbolTable
 70
1
100
AcDbDimStyleTable
 71
0
  0
DIMSTYLE
105
22D
100
AcDbSymbolTableRecord
100
AcDbDimStyleTableRecord
  2
STANDARD
 70
0
  3

  4

 40
1.0
 41
3.5
 42
0.0625
 43
0.38
 44
0.18
 45
0.0
 46
0.0
 47
0.005
 48
0.005
140
3.5
141
0.09
142
0.0
143
25.4
144
1.0
145
0.0
146
1.0
147
0.09
 71
1.0
 72
0.0
 73
0
 74
0
 75
0
 76
0
 77
1
 78
8
170
0
171
2
172
0
173
0
174
0
175
0
176
0
177
0
178
2
270
2
271
3
272
3
273
2
274
2
275
0
280
0
281
0
282
0
283
1
284
8
285
0
286
0
287
3
288
0
340
11
341
21A
342
21A
343
21A
344
21A
  0
DIMSTYLE
105
22E
100
AcDbSymbolTableRecord
100
AcDbDimStyleTableRecord
  2
DIMSTYLE_1
 70
0
  3

  4

 40
1.0
 41
3.5
 42
0.0625
 43
0.38
 44
0.18
 45
0.0
 46
0.0
 47
0.1
 48
0.1
140
3.5
141
0.09
142
0.0
143
25.4
144
1.0
145
0.0
146
1.0
147
0.09
 71
0.0
 72
0.0
 73
0
 74
0
 75
0
 76
0
 77
1
 78
8
170
0
171
2
172
0
173
0
174
0
175
0
176
0
177
0
178
2
270
2
271
3
272
3
273
2
274
2
275
0
280
0
281
0
282
0
283
1
284
8
285
0
286
0
287
3
288
0
340
11
341
21A
342
21A
343
21A
344
21A
  0
DIMSTYLE
105
22F
100
AcDbSymbolTableRecord
100
AcDbDimStyleTableRecord
  2
DIMSTYLE_2
 70
0
  3

  4

 40
1.0
 41
3.5
 42
0.0625
 43
0.38
 44
0.18
 45
0.0
 46
0.0
 47
0.1
 48
0.1
140
3.5
141
0.09
142
0.0
143
25.4
144
1.0
145
0.0
146
1.0
147
0.09
 71
0.0
 72
0.0
 73
0
 74
0
 75
0
 76
0
 77
1
 78
8
170
0
171
2
172
0
173
0
174
0
175
0
176
0
177
0
178
2
270
2
271
3
272
3
273
2
274
2
275
0
280
0
281
0
282
0
283
1
284
8
285
0
286
0
287
3
288
0
340
11
341
21A
342
21A
343
21A
344
21A
  0
DIMSTYLE
105
230
100
AcDbSymbolTableRecord
100
AcDbDimStyleTableRecord
  2
DIMSTYLE_3
 70
0
  3

  4

 40
1.0
 41
3.5
 42
0.0625
 43
0.38
 44
0.18
 45
0.0
 46
0.0
 47
0.25
 48
0.25
140
3.5
141
0.09
142
0.0
143
25.4
144
1.0
145
0.0
146
1.0
147
0.09
 71
1.0
 72
0.0
 73
0
 74
0
 75
0
 76
0
 77
1
 78
8
170
0
171
2
172
0
173
0
174
0
175
0
176
0
177
0
178
2
270
2
271
3
272
3
273
2
274
2
275
0
280
0
281
0
282
0
283
1
284
8
285
0
286
0
287
3
288
0
340
11
341
21A
342
21A
343
21A
344
21A
  0
DIMSTYLE
105
231
100
AcDbSymbolTableRecord
100
AcDbDimStyleTableRecord
  2
DIMSTYLE_4
 70
0
  3

  4

 40
1.0
 41
3.5
 42
0.0625
 43
0.38
 44
0.18
 45
0.0
 46
0.0
 47
0.05
 48
0.05
140
3.5
141
0.09
142
0.0
143
25.4
144
1.0
145
0.0
146
1.0
147
0.09
 71
0.0
 72
0.0
 73
0
 74
0
 75
0
 76
0
 77
1
 78
8
170
0
171
2
172
0
173
0
174
0
175
0
176
0
177
0
178
2
270
2
271
3
272
3
273
2
274
2
275
0
280
0
281
0
282
0
283
1
284
8
285
0
286
0
287
3
288
0
340
11
341
21A
342
21A
343
21A
344
21A
  0
DIMSTYLE
105
232
100
AcDbSymbolTableRecord
100
AcDbDimStyleTableRecord
  2
DIMSTYLE_5
 70
0
  3

  4

 40
1.0
 41
3.5
 42
0.0625
 43
0.38
 44
0.18
 45
0.0
 46
0.0
 47
0.15
 48
0.15
140
3.5
141
0.09
142
0.0
143
25.4
144
1.0
145
0.0
146
1.0
147
0.09
 71
0.0
 72
0.0
 73
0
 74
0
 75
0
 76
0
 77
1
 78
8
170
0
171
2
172
0
173
0
174
0
175
0
176
0
177
0
178
2
270
2
271
3
272
3
273
2
274
2
275
0
280
0
281
0
282
0
283
1
284
8
285
0
286
0
287
3
288
0
340
11
341
21A
342
21A
343
21A
344
21A
  0
DIMSTYLE
105
233
100
AcDbSymbolTableRecord
100
AcDbDimStyleTableRecord
  2
DIMSTYLE_6
 70
0
  3

  4

 40
1.0
 41
3.5
 42
0.0625
 43
0.38
 44
0.18
 45
0.0
 46
0.0
 47
0.2
 48
0.2
140
3.5
141
0.09
142
0.0
143
25.4
144
1.0
145
0.0
146
1.0
147
0.09
 71
0.0
 72
0.0
 73
0
 74
0
 75
0
 76
0
 77
1
 78
8
170
0
171
2
172
0
173
0
174
0
175
0
176
0
177
0
178
2
270
2
271
3
272
3
273
2
274
2
275
0
280
0
281
0
282
0
283
1
284
8
285
0
286
0
287
3
288
0
340
11
341
21A
342
21A
343
21A
344
21A
  0
DIMSTYLE
105
234
100
AcDbSymbolTableRecord
100
AcDbDimStyleTableRecord
  2
DIMSTYLE_7
 70
0
  3

  4

 40
1.0
 41
3.5
 42
0.0625
 43
0.38
 44
0.18
 45
0.0
 46
0.0
 47
0.15
 48
0.15
140
3.5
141
0.09
142
0.0
143
25.4
144
1.0
145
0.0
146
1.0
147
0.09
 71
0.0
 72
0.0
 73
0
 74
0
 75
0
 76
0
 77
1
 78
8
170
0
171
2
172
0
173
0
174
0
175
0
176
0
177
0
178
2
270
2
271
2
272
2
273
2
274
2
275
0
280
0
281
0
282
0
283
1
284
8
285
0
286
0
287
3
288
0
340
11
341
21A
342
21A
343
21A
344
21A
  0
ENDTAB
  0
ENDSEC
  0
SECTION
  2
BLOCKS
  0
BLOCK
  5
20
100
AcDbEntity
  8
0
100
AcDbBlockBegin
  2
*Model_Space
 70
0
 10
0.0
 20
0.0
 30
0.0
  3
*Model_Space
  1

  0
ENDBLK
  5
21
100
AcDbEntity
  8
0
100
AcDbBlockEnd
  0
BLOCK
  5
1C
100
AcDbEntity
  8
0
100
AcDbBlockBegin
  2
*Paper_Space
 70
0
 10
0.0
 20
0.0
 30
0.0
  3
*Paper_Space
  1

  0
ENDBLK
  5
1D
100
AcDbEntity
  8
0
100
AcDbBlockEnd
  0
BLOCK
  5
235
100
AcDbEntity
  8
606312146-000-00-ED1_CL
100
AcDbBlockBegin
 62
3
  6
CONTINUOUS
  2
BOMBALLOON_BL4
 70
64
 10
204.0329342609
 20
111.178529002
  3
BOMBALLOON_BL4
  1

  0
CIRCLE
  5
236
100
AcDbEntity
  8
606312146-000-00-ED1_CL
100
AcDbCircle
 62
3
  6
CONTINUOUS
 10
204.0329342609
 20
111.178529002
 40
6.125
  0
LINE
  5
237
100
AcDbEntity
  8
606312146-000-00-ED1_CL
100
AcDbLine
 62
3
  6
CONTINUOUS
 10
197.9079342609
 20
111.178529002
 11
210.1579342609
 21
111.178529002
  0
TEXT
  5
238
100
AcDbEntity
  8
606312146-000-00-ED1_CL
100
AcDbText
 62
2
  6
CONTINUOUS
 10
202.9281165525
 20
112.1173310853
  7
STANDARD
 40
3.5
  1
1
 41
0.5714285714
 72
0
100
AcDbText
  0
TEXT
  5
239
100
AcDbEntity
  8
606312146-000-00-ED1_CL
100
AcDbText
 62
2
  6
CONTINUOUS
 10
203.0283769692
 20
107.0040498353
  7
STANDARD
 40
3.5
  1
1
 41
0.5714285714
 72
0
100
AcDbText
  0
ENDBLK
  5
23A
100
AcDbEntity
  8
0
  6
BYBLOCK
 62
0
100
AcDbBlockEnd
  0
BLOCK
  5
23B
100
AcDbEntity
  8
606312146-000-00-ED1_CL
100
AcDbBlockBegin
 62
3
  6
CONTINUOUS
  2
GEOM_TOLERANCE_SYMBOLS_BL3
 70
64
 10
73.0975681697
 20
198.5623795106
  3
GEOM_TOLERANCE_SYMBOLS_BL3
  1

  0
LINE
  5
23C
100
AcDbEntity
  8
606312146-000-00-ED1_CL
100
AcDbLine
 62
3
  6
CONTINUOUS
 10
75.048811513
 20
192.3454366602
 11
72.0525694851
 21
192.1953243341
  0
LINE
  5
23D
100
AcDbEntity
  8
606312146-000-00-ED1_CL
100
AcDbLine
 62
3
  6
CONTINUOUS
 10
69.4268214235
 20
204.5794516862
 11
76.4180528218
 21
204.9297137803
  0
LINE
  5
23E
100
AcDbEntity
  8
606312146-000-00-ED1_CL
100
AcDbLine
 62
3
  6
CONTINUOUS
 10
76.4180528218
 20
204.9297137803
 11
76.768314916
 21
197.938482382
  0
LINE
  5
23F
100
AcDbEntity
  8
606312146-000-00-ED1_CL
100
AcDbLine
 62
3
  6
CONTINUOUS
 10
76.768314916
 20
197.938482382
 11
69.7770835176
 21
197.5882202878
  0
LINE
  5
240
100
AcDbEntity
  8
606312146-000-00-ED1_CL
100
AcDbLine
 62
3
  6
CONTINUOUS
 10
69.7770835176
 20
197.5882202878
 11
69.4268214235
 21
204.5794516862
  0
LINE
  5
241
100
AcDbEntity
  8
606312146-000-00-ED1_CL
100
AcDbLine
 62
3
  6
CONTINUOUS
 10
72.0469987828
 20
192.1950452408
 11
73.4228115428
 21
194.767109307
  0
LINE
  5
242
100
AcDbEntity
  8
606312146-000-00-ED1_CL
100
AcDbLine
 62
3
  6
CONTINUOUS
 10
73.4228115428
 20
194.767109307
 11
75.0432408107
 21
192.3451575669
  0
LINE
  5
243
100
AcDbEntity
  8
606312146-000-00-ED1_CL
100
AcDbLine
 62
3
  6
CONTINUOUS
 10
73.4228115428
 20
194.767109307
 11
73.2726992168
 21
197.7633513349
  0
LINE
  5
244
100
AcDbEntity
  8
606312146-000-00-ED1_CL
100
AcDbLine
 62
3
  6
CONTINUOUS
 10
72.1496588682
 20
192.2001885316
 11
72.1411026248
 21
192.3709711499
  0
LINE
  5
245
100
AcDbEntity
  8
606312146-000-00-ED1_CL
100
AcDbLine
 62
3
  6
CONTINUOUS
 10
72.2495336025
 20
192.2051922758
 11
72.2326532618
 21
192.5421238754
  0
LINE
  5
246
100
AcDbEntity
  8
606312146-000-00-ED1_CL
100
AcDbLine
 62
3
  6
CONTINUOUS
 10
72.3494083367
 20
192.2101960201
 11
72.3242038988
 21
192.7132766009
  0
LINE
  5
247
100
AcDbEntity
  8
606312146-000-00-ED1_CL
100
AcDbLine
 62
3
  6
CONTINUOUS
 10
72.449283071
 20
192.2151997643
 11
72.4157545358
 21
192.8844293264
  0
LINE
  5
248
100
AcDbEntity
  8
606312146-000-00-ED1_CL
100
AcDbLine
 62
3
  6
CONTINUOUS
 10
72.5491578053
 20
192.2202035085
 11
72.5073051728
 21
193.0555820519
  0
LINE
  5
249
100
AcDbEntity
  8
606312146-000-00-ED1_CL
100
AcDbLine
 62
3
  6
CONTINUOUS
 10
72.6490325395
 20
192.2252072527
 11
72.5988558098
 21
193.2267347774
  0
LINE
  5
24A
100
AcDbEntity
  8
606312146-000-00-ED1_CL
100
AcDbLine
 62
3
  6
CONTINUOUS
 10
72.7489072738
 20
192.2302109969
 11
72.6904064468
 21
193.3978875029
  0
LINE
  5
24B
100
AcDbEntity
  8
606312146-000-00-ED1_CL
100
AcDbLine
 62
3
  6
CONTINUOUS
 10
72.8487820081
 20
192.2352147411
 11
72.7819570838
 21
193.5690402285
  0
LINE
  5
24C
100
AcDbEntity
  8
606312146-000-00-ED1_CL
100
AcDbLine
 62
3
  6
CONTINUOUS
 10
72.9486567423
 20
192.2402184853
 11
72.8735077208
 21
193.740192954
  0
LINE
  5
24D
100
AcDbEntity
  8
606312146-000-00-ED1_CL
100
AcDbLine
 62
3
  6
CONTINUOUS
 10
73.0485314766
 20
192.2452222295
 11
72.9650583578
 21
193.9113456795
  0
LINE
  5
24E
100
AcDbEntity
  8
606312146-000-00-ED1_CL
100
AcDbLine
 62
3
  6
CONTINUOUS
 10
73.1484062108
 20
192.2502259737
 11
73.0566089948
 21
194.082498405
  0
LINE
  5
24F
100
AcDbEntity
  8
606312146-000-00-ED1_CL
100
AcDbLine
 62
3
  6
CONTINUOUS
 10
73.2482809451
 20
192.2552297179
 11
73.1481596318
 21
194.2536511305
  0
LINE
  5
250
100
AcDbEntity
  8
606312146-000-00-ED1_CL
100
AcDbLine
 62
3
  6
CONTINUOUS
 10
73.3481556794
 20
192.2602334621
 11
73.2397102688
 21
194.424803856
  0
LINE
  5
251
100
AcDbEntity
  8
606312146-000-00-ED1_CL
100
AcDbLine
 62
3
  6
CONTINUOUS
 10
73.4480304136
 20
192.2652372063
 11
73.3312609058
 21
194.5959565815
  0
LINE
  5
252
100
AcDbEntity
  8
606312146-000-00-ED1_CL
100
AcDbLine
 62
3
  6
CONTINUOUS
 10
73.5479051479
 20
192.2702409505
 11
73.4228115428
 21
194.767109307
  0
LINE
  5
253
100
AcDbEntity
  8
606312146-000-00-ED1_CL
100
AcDbLine
 62
3
  6
CONTINUOUS
 10
73.6477798822
 20
192.2752446947
 11
73.5310413848
 21
194.6053451009
  0
LINE
  5
254
100
AcDbEntity
  8
606312146-000-00-ED1_CL
100
AcDbLine
 62
3
  6
CONTINUOUS
 10
73.7476546164
 20
192.2802484389
 11
73.6392712268
 21
194.4435808947
  0
LINE
  5
255
100
AcDbEntity
  8
606312146-000-00-ED1_CL
100
AcDbLine
 62
3
  6
CONTINUOUS
 10
73.8475293507
 20
192.2852521831
 11
73.7475010688
 21
194.2818166885
  0
LINE
  5
256
100
AcDbEntity
  8
606312146-000-00-ED1_CL
100
AcDbLine
 62
3
  6
CONTINUOUS
 10
73.9474040849
 20
192.2902559273
 11
73.8557309108
 21
194.1200524824
  0
LINE
  5
257
100
AcDbEntity
  8
606312146-000-00-ED1_CL
100
AcDbLine
 62
3
  6
CONTINUOUS
 10
74.0472788192
 20
192.2952596715
 11
73.9639607528
 21
193.9582882762
  0
LINE
  5
258
100
AcDbEntity
  8
606312146-000-00-ED1_CL
100
AcDbLine
 62
3
  6
CONTINUOUS
 10
74.1471535535
 20
192.3002634157
 11
74.0721905948
 21
193.79652407
  0
LINE
  5
259
100
AcDbEntity
  8
606312146-000-00-ED1_CL
100
AcDbLine
 62
3
  6
CONTINUOUS
 10
74.2470282877
 20
192.3052671599
 11
74.1804204368
 21
193.6347598638
  0
LINE
  5
25A
100
AcDbEntity
  8
606312146-000-00-ED1_CL
100
AcDbLine
 62
3
  6
CONTINUOUS
 10
74.346903022
 20
192.3102709041
 11
74.2886502788
 21
193.4729956577
  0
LINE
  5
25B
100
AcDbEntity
  8
606312146-000-00-ED1_CL
100
AcDbLine
 62
3
  6
CONTINUOUS
 10
74.4467777563
 20
192.3152746483
 11
74.3968801208
 21
193.3112314515
  0
LINE
  5
25C
100
AcDbEntity
  8
606312146-000-00-ED1_CL
100
AcDbLine
 62
3
  6
CONTINUOUS
 10
74.5466524905
 20
192.3202783925
 11
74.5051099628
 21
193.1494672453
  0
LINE
  5
25D
100
AcDbEntity
  8
606312146-000-00-ED1_CL
100
AcDbLine
 62
3
  6
CONTINUOUS
 10
74.6465272248
 20
192.3252821367
 11
74.6133398048
 21
192.9877030392
  0
LINE
  5
25E
100
AcDbEntity
  8
606312146-000-00-ED1_CL
100
AcDbLine
 62
3
  6
CONTINUOUS
 10
74.746401959
 20
192.3302858809
 11
74.7215696468
 21
192.825938833
  0
LINE
  5
25F
100
AcDbEntity
  8
606312146-000-00-ED1_CL
100
AcDbLine
 62
3
  6
CONTINUOUS
 10
74.8462766933
 20
192.3352896251
 11
74.8297994888
 21
192.6641746268
  0
LINE
  5
260
100
AcDbEntity
  8
606312146-000-00-ED1_CL
100
AcDbLine
 62
3
  6
CONTINUOUS
 10
74.9461514276
 20
192.3402933693
 11
74.9380293308
 21
192.5024104207
  0
TEXT
  5
261
100
AcDbEntity
  8
606312146-000-00-ED1_CL
100
AcDbText
 62
2
  6
CONTINUOUS
 10
72.0898499471
 20
199.4534432174
  7
STANDARD
 40
3.5
  1
A
 50
2.868131941
 41
0.8571428571
 72
0
100
AcDbText
  0
ENDBLK
  5
262
100
AcDbEntity
  8
0
  6
BYBLOCK
 62
0
100
AcDbBlockEnd
  0
BLOCK
  5
263
100
AcDbEntity
  8
606312146-000-00-ED1_CL
100
AcDbBlockBegin
 62
3
  6
CONTINUOUS
  2
GEOM_TOLERANCE_SYMBOLS_BL2
 70
64
 10
347.3055340897
 20
121.1787900893
  3
GEOM_TOLERANCE_SYMBOLS_BL2
  1

  0
LINE
  5
264
100
AcDbEntity
  8
606312146-000-00-ED1_CL
100
AcDbLine
 62
3
  6
CONTINUOUS
 10
331.7871166947
 20
124.678529226
 11
331.7871166947
 21
117.678529002
  0
LINE
  5
265
100
AcDbEntity
  8
606312146-000-00-ED1_CL
100
AcDbLine
 62
3
  6
CONTINUOUS
 10
331.7871166947
 20
117.678529002
 11
353.7871173987
 21
117.678529002
  0
LINE
  5
266
100
AcDbEntity
  8
606312146-000-00-ED1_CL
100
AcDbLine
 62
3
  6
CONTINUOUS
 10
360.7871176227
 20
117.678529002
 11
360.7871176227
 21
124.678529226
  0
LINE
  5
267
100
AcDbEntity
  8
606312146-000-00-ED1_CL
100
AcDbLine
 62
3
  6
CONTINUOUS
 10
353.7871173987
 20
124.678529226
 11
331.7871166947
 21
124.678529226
  0
LINE
  5
268
100
AcDbEntity
  8
606312146-000-00-ED1_CL
100
AcDbLine
 62
3
  6
CONTINUOUS
 10
338.7871169187
 20
124.678529226
 11
338.7871169187
 21
117.678529002
  0
LINE
  5
269
100
AcDbEntity
  8
606312146-000-00-ED1_CL
100
AcDbLine
 62
3
  6
CONTINUOUS
 10
353.7871173987
 20
124.678529226
 11
353.7871173987
 21
117.678529002
  0
LINE
  5
26A
100
AcDbEntity
  8
606312146-000-00-ED1_CL
100
AcDbLine
 62
3
  6
CONTINUOUS
 10
353.7871173987
 20
124.678529226
 11
360.7871176227
 21
124.678529226
  0
LINE
  5
26B
100
AcDbEntity
  8
606312146-000-00-ED1_CL
100
AcDbLine
 62
3
  6
CONTINUOUS
 10
353.7871173987
 20
117.678529002
 11
360.7871176227
 21
117.678529002
  0
LINE
  5
26C
100
AcDbEntity
  8
606312146-000-00-ED1_CL
100
AcDbLine
 62
3
  6
CONTINUOUS
 10
326.7871166947
 20
121.178529002
 11
331.7871166947
 21
121.178529002
  0
LINE
  5
26D
100
AcDbEntity
  8
606312146-000-00-ED1_CL
100
AcDbLine
 62
3
  6
CONTINUOUS
 10
360.8239512606
 20
124.6790511765
 11
367.8239514846
 21
124.6790511765
  0
LINE
  5
26E
100
AcDbEntity
  8
606312146-000-00-ED1_CL
100
AcDbLine
 62
3
  6
CONTINUOUS
 10
367.8239512606
 20
124.6790511765
 11
367.8239512606
 21
117.6790509525
  0
LINE
  5
26F
100
AcDbEntity
  8
606312146-000-00-ED1_CL
100
AcDbLine
 62
3
  6
CONTINUOUS
 10
360.8239512606
 20
117.6790511765
 11
367.8239514846
 21
117.6790511765
  0
TEXT
  5
270
100
AcDbEntity
  8
606312146-000-00-ED1_CL
100
AcDbText
 62
2
  6
CONTINUOUS
 10
331.9371166995
 20
119.9785290756
  7
TEXTSTYLE_3
 40
2.4000000768
  1
t
 41
1.0
 72
0
100
AcDbText
  0
TEXT
  5
271
100
AcDbEntity
  8
606312146-000-00-ED1_CL
100
AcDbText
 62
2
  6
CONTINUOUS
 10
339.9121169547
 20
119.428529058
  7
STANDARD
 40
3.500000112
  1
0.003
 41
0.7285714286
 72
0
100
AcDbText
  0
TEXT
  5
272
100
AcDbEntity
  8
606312146-000-00-ED1_CL
100
AcDbText
 62
2
  6
CONTINUOUS
 10
355.7871174627
 20
119.428529058
  7
STANDARD
 40
3.500000112
  1
A
 41
0.8571428571
 72
0
100
AcDbText
  0
TEXT
  5
273
100
AcDbEntity
  8
606312146-000-00-ED1_CL
100
AcDbText
 62
2
  6
CONTINUOUS
 10
362.9489513726
 20
119.429051097
  7
STANDARD
 40
3.5
  1
B
 41
0.7857142857
 72
0
100
AcDbText
  0
ENDBLK
  5
274
100
AcDbEntity
  8
0
  6
BYBLOCK
 62
0
100
AcDbBlockEnd
  0
BLOCK
  5
275
100
AcDbEntity
  8
606312146-000-00-ED1_CL
100
AcDbBlockBegin
 62
3
  6
CONTINUOUS
  2
GEOM_TOLERANCE_SYMBOLS_BL1
 70
64
 10
105.5370746527
 20
205.4781049707
  3
GEOM_TOLERANCE_SYMBOLS_BL1
  1

  0
LINE
  5
276
100
AcDbEntity
  8
606312146-000-00-ED1_CL
100
AcDbLine
 62
3
  6
CONTINUOUS
 10
111.7870746527
 20
203.9781049707
 11
109.2870746527
 21
205.4781049707
  0
LINE
  5
277
100
AcDbEntity
  8
606312146-000-00-ED1_CL
100
AcDbLine
 62
3
  6
CONTINUOUS
 10
109.2870746527
 20
205.4781049707
 11
111.7870746527
 21
206.9781049707
  0
LINE
  5
278
100
AcDbEntity
  8
606312146-000-00-ED1_CL
100
AcDbLine
 62
3
  6
CONTINUOUS
 10
111.7870746527
 20
206.9781049707
 11
111.7870746527
 21
203.9781049707
  0
LINE
  5
279
100
AcDbEntity
  8
606312146-000-00-ED1_CL
100
AcDbLine
 62
3
  6
CONTINUOUS
 10
109.2870746527
 20
205.4781049707
 11
106.2870746527
 21
205.4781049707
  0
LINE
  5
27A
100
AcDbEntity
  8
606312146-000-00-ED1_CL
100
AcDbLine
 62
3
  6
CONTINUOUS
 10
106.2870746527
 20
201.9781049707
 11
106.2870746527
 21
208.9781049707
  0
LINE
  5
27B
100
AcDbEntity
  8
606312146-000-00-ED1_CL
100
AcDbLine
 62
3
  6
CONTINUOUS
 10
106.2870746527
 20
208.9781049707
 11
99.2870746527
 21
208.9781049707
  0
LINE
  5
27C
100
AcDbEntity
  8
606312146-000-00-ED1_CL
100
AcDbLine
 62
3
  6
CONTINUOUS
 10
99.2870746527
 20
208.9781049707
 11
99.2870746527
 21
201.9781049707
  0
LINE
  5
27D
100
AcDbEntity
  8
606312146-000-00-ED1_CL
100
AcDbLine
 62
3
  6
CONTINUOUS
 10
99.2870746527
 20
201.9781049707
 11
106.2870746527
 21
201.9781049707
  0
LINE
  5
27E
100
AcDbEntity
  8
606312146-000-00-ED1_CL
100
AcDbLine
 62
3
  6
CONTINUOUS
 10
111.7870746527
 20
206.875316126
 11
111.6157599117
 21
206.875316126
  0
LINE
  5
27F
100
AcDbEntity
  8
606312146-000-00-ED1_CL
100
AcDbLine
 62
3
  6
CONTINUOUS
 10
111.7870746527
 20
206.775316126
 11
111.449093245
 21
206.775316126
  0
LINE
  5
280
100
AcDbEntity
  8
606312146-000-00-ED1_CL
100
AcDbLine
 62
3
  6
CONTINUOUS
 10
111.7870746527
 20
206.675316126
 11
111.2824265783
 21
206.675316126
  0
LINE
  5
281
100
AcDbEntity
  8
606312146-000-00-ED1_CL
100
AcDbLine
 62
3
  6
CONTINUOUS
 10
111.7870746527
 20
206.575316126
 11
111.1157599117
 21
206.575316126
  0
LINE
  5
282
100
AcDbEntity
  8
606312146-000-00-ED1_CL
100
AcDbLine
 62
3
  6
CONTINUOUS
 10
111.7870746527
 20
206.475316126
 11
110.949093245
 21
206.475316126
  0
LINE
  5
283
100
AcDbEntity
  8
606312146-000-00-ED1_CL
100
AcDbLine
 62
3
  6
CONTINUOUS
 10
111.7870746527
 20
206.375316126
 11
110.7824265783
 21
206.375316126
  0
LINE
  5
284
100
AcDbEntity
  8
606312146-000-00-ED1_CL
100
AcDbLine
 62
3
  6
CONTINUOUS
 10
111.7870746527
 20
206.275316126
 11
110.6157599117
 21
206.275316126
  0
LINE
  5
285
100
AcDbEntity
  8
606312146-000-00-ED1_CL
100
AcDbLine
 62
3
  6
CONTINUOUS
 10
111.7870746527
 20
206.175316126
 11
110.449093245
 21
206.175316126
  0
LINE
  5
286
100
AcDbEntity
  8
606312146-000-00-ED1_CL
100
AcDbLine
 62
3
  6
CONTINUOUS
 10
111.7870746527
 20
206.075316126
 11
110.2824265783
 21
206.075316126
  0
LINE
  5
287
100
AcDbEntity
  8
606312146-000-00-ED1_CL
100
AcDbLine
 62
3
  6
CONTINUOUS
 10
111.7870746527
 20
205.975316126
 11
110.1157599117
 21
205.975316126
  0
LINE
  5
288
100
AcDbEntity
  8
606312146-000-00-ED1_CL
100
AcDbLine
 62
3
  6
CONTINUOUS
 10
111.7870746527
 20
205.875316126
 11
109.949093245
 21
205.875316126
  0
LINE
  5
289
100
AcDbEntity
  8
606312146-000-00-ED1_CL
100
AcDbLine
 62
3
  6
CONTINUOUS
 10
111.7870746527
 20
205.775316126
 11
109.7824265783
 21
205.775316126
  0
LINE
  5
28A
100
AcDbEntity
  8
606312146-000-00-ED1_CL
100
AcDbLine
 62
3
  6
CONTINUOUS
 10
111.7870746527
 20
205.675316126
 11
109.6157599117
 21
205.675316126
  0
LINE
  5
28B
100
AcDbEntity
  8
606312146-000-00-ED1_CL
100
AcDbLine
 62
3
  6
CONTINUOUS
 10
111.7870746527
 20
205.575316126
 11
109.449093245
 21
205.575316126
  0
LINE
  5
28C
100
AcDbEntity
  8
606312146-000-00-ED1_CL
100
AcDbLine
 62
3
  6
CONTINUOUS
 10
111.7870746527
 20
205.475316126
 11
109.2917227271
 21
205.475316126
  0
LINE
  5
28D
100
AcDbEntity
  8
606312146-000-00-ED1_CL
100
AcDbLine
 62
3
  6
CONTINUOUS
 10
111.7870746527
 20
205.375316126
 11
109.4583893937
 21
205.375316126
  0
LINE
  5
28E
100
AcDbEntity
  8
606312146-000-00-ED1_CL
100
AcDbLine
 62
3
  6
CONTINUOUS
 10
111.7870746527
 20
205.275316126
 11
109.6250560604
 21
205.275316126
  0
LINE
  5
28F
100
AcDbEntity
  8
606312146-000-00-ED1_CL
100
AcDbLine
 62
3
  6
CONTINUOUS
 10
111.7870746527
 20
205.175316126
 11
109.7917227271
 21
205.175316126
  0
LINE
  5
290
100
AcDbEntity
  8
606312146-000-00-ED1_CL
100
AcDbLine
 62
3
  6
CONTINUOUS
 10
111.7870746527
 20
205.075316126
 11
109.9583893937
 21
205.075316126
  0
LINE
  5
291
100
AcDbEntity
  8
606312146-000-00-ED1_CL
100
AcDbLine
 62
3
  6
CONTINUOUS
 10
111.7870746527
 20
204.975316126
 11
110.1250560604
 21
204.975316126
  0
LINE
  5
292
100
AcDbEntity
  8
606312146-000-00-ED1_CL
100
AcDbLine
 62
3
  6
CONTINUOUS
 10
111.7870746527
 20
204.875316126
 11
110.2917227271
 21
204.875316126
  0
LINE
  5
293
100
AcDbEntity
  8
606312146-000-00-ED1_CL
100
AcDbLine
 62
3
  6
CONTINUOUS
 10
111.7870746527
 20
204.775316126
 11
110.4583893937
 21
204.775316126
  0
LINE
  5
294
100
AcDbEntity
  8
606312146-000-00-ED1_CL
100
AcDbLine
 62
3
  6
CONTINUOUS
 10
111.7870746527
 20
204.675316126
 11
110.6250560604
 21
204.675316126
  0
LINE
  5
295
100
AcDbEntity
  8
606312146-000-00-ED1_CL
100
AcDbLine
 62
3
  6
CONTINUOUS
 10
111.7870746527
 20
204.575316126
 11
110.7917227271
 21
204.575316126
  0
LINE
  5
296
100
AcDbEntity
  8
606312146-000-00-ED1_CL
100
AcDbLine
 62
3
  6
CONTINUOUS
 10
111.7870746527
 20
204.475316126
 11
110.9583893937
 21
204.475316126
  0
LINE
  5
297
100
AcDbEntity
  8
606312146-000-00-ED1_CL
100
AcDbLine
 62
3
  6
CONTINUOUS
 10
111.7870746527
 20
204.375316126
 11
111.1250560604
 21
204.375316126
  0
LINE
  5
298
100
AcDbEntity
  8
606312146-000-00-ED1_CL
100
AcDbLine
 62
3
  6
CONTINUOUS
 10
111.7870746527
 20
204.275316126
 11
111.2917227271
 21
204.275316126
  0
LINE
  5
299
100
AcDbEntity
  8
606312146-000-00-ED1_CL
100
AcDbLine
 62
3
  6
CONTINUOUS
 10
111.7870746527
 20
204.175316126
 11
111.4583893937
 21
204.175316126
  0
LINE
  5
29A
100
AcDbEntity
  8
606312146-000-00-ED1_CL
100
AcDbLine
 62
3
  6
CONTINUOUS
 10
111.7870746527
 20
204.075316126
 11
111.6250560604
 21
204.075316126
  0
TEXT
  5
29B
100
AcDbEntity
  8
606312146-000-00-ED1_CL
100
AcDbText
 62
2
  6
CONTINUOUS
 10
101.8120746527
 20
203.7281049707
  7
STANDARD
 40
3.5
  1
B
 41
0.7857142857
 72
0
100
AcDbText
  0
ENDBLK
  5
29C
100
AcDbEntity
  8
0
  6
BYBLOCK
 62
0
100
AcDbBlockEnd
  0
BLOCK
  5
29D
100
AcDbEntity
  8
606312146-000-00-ED1_FORMAT
100
AcDbBlockBegin
 62
3
  6
CONTINUOUS
  2
BARCODEBOX_BL0
 70
64
 10
87.5
 20
46.5
  3
BARCODEBOX_BL0
  1

  0
LINE
  5
29E
100
AcDbEntity
  8
606312146-000-00-ED1_FORMAT
100
AcDbLine
 62
3
  6
CONTINUOUS
 10
48.0
 20
83.0
 11
53.0
 21
83.0
  0
LINE
  5
29F
100
AcDbEntity
  8
606312146-000-00-ED1_FORMAT
100
AcDbLine
 62
3
  6
CONTINUOUS
 10
53.0
 20
83.0
 11
53.0
 21
78.0
  0
LINE
  5
2A0
100
AcDbEntity
  8
606312146-000-00-ED1_FORMAT
100
AcDbLine
 62
3
  6
CONTINUOUS
 10
135.0
 20
65.0
 11
140.0
 21
65.0
  0
LINE
  5
2A1
100
AcDbEntity
  8
606312146-000-00-ED1_FORMAT
100
AcDbLine
 62
3
  6
CONTINUOUS
 10
140.0
 20
65.0
 11
140.0
 21
60.0
  0
LINE
  5
2A2
100
AcDbEntity
  8
606312146-000-00-ED1_FORMAT
100
AcDbLine
 62
3
  6
CONTINUOUS
 10
91.5
 20
65.0
 11
101.5
 21
65.0
  0
LINE
  5
2A3
100
AcDbEntity
  8
606312146-000-00-ED1_FORMAT
100
AcDbLine
 62
3
  6
CONTINUOUS
 10
140.0
 20
42.5
 11
140.0
 21
32.5
  0
LINE
  5
2A4
100
AcDbEntity
  8
606312146-000-00-ED1_FORMAT
100
AcDbLine
 62
3
  6
CONTINUOUS
 10
140.0
 20
10.0
 11
140.0
 21
15.0
  0
LINE
  5
2A5
100
AcDbEntity
  8
606312146-000-00-ED1_FORMAT
100
AcDbLine
 62
3
  6
CONTINUOUS
 10
40.0
 20
83.0
 11
35.0
 21
83.0
  0
LINE
  5
2A6
100
AcDbEntity
  8
606312146-000-00-ED1_FORMAT
100
AcDbLine
 62
3
  6
CONTINUOUS
 10
58.0
 20
65.0
 11
48.0
 21
65.0
  0
LINE
  5
2A7
100
AcDbEntity
  8
606312146-000-00-ED1_FORMAT
100
AcDbLine
 62
3
  6
CONTINUOUS
 10
53.0
 20
65.0
 11
53.0
 21
70.0
  0
LINE
  5
2A8
100
AcDbEntity
  8
606312146-000-00-ED1_FORMAT
100
AcDbLine
 62
3
  6
CONTINUOUS
 10
35.0
 20
65.0
 11
40.0
 21
65.0
  0
TEXT
  5
2A9
100
AcDbEntity
  8
606312146-000-00-ED1_FORMAT
100
AcDbText
 62
2
  6
CONTINUOUS
 10
139.0
 20
11.0
  7
STANDARD
 40
2.0
  1
BARCODE-ZONE
 50
90.0
 41
0.7876984127
 72
0
100
AcDbText
  0
ENDBLK
  5
2AA
100
AcDbEntity
  8
0
  6
BYBLOCK
 62
0
100
AcDbBlockEnd
  0
BLOCK
  5
2AB
100
AcDbEntity
  8
0
100
AcDbBlockBegin
  2
_FILLED
 70
64
 10
0.0
 20
0.0
  3
_FILLED
  1

  0
SOLID
  5
2AC
100
AcDbEntity
  8
0
  6
BYBLOCK
 62
0
100
AcDbTrace
 10
0.0
 20
0.0
 11
-1.0
 21
0.125
 12
-1.0
 22
-0.125
 13
-1.0
 23
-0.125
  0
ENDBLK
  5
2AD
100
AcDbEntity
  8
0
  6
BYBLOCK
 62
0
100
AcDbBlockEnd
  0
BLOCK
  5
2AE
100
AcDbEntity
  8
0
100
AcDbBlockBegin
  2
_DOT
 70
64
 10
0.0
 20
0.0
  3
_DOT
  1

  0
LWPOLYLINE
  5
2AF
100
AcDbEntity
  8
0
  6
BYBLOCK
 62
0
100
AcDbPolyline
 90
2
 70
1
 43
0.125
 10
-0.0625
 20
0.0
 42
1.0
 10
0.0625
 20
0.0
 42
1.0
  0
LINE
  5
2B0
100
AcDbEntity
  8
0
  6
BYBLOCK
 62
0
100
AcDbLine
 10
-0.125
 20
0.0
 11
-1.0
 21
0.0
  0
ENDBLK
  5
2B1
100
AcDbEntity
  8
0
  6
BYBLOCK
 62
0
100
AcDbBlockEnd
  0
BLOCK
  5
2B2
100
AcDbEntity
  8
606312146-000-00-ED1_DIM
100
AcDbBlockBegin
 62
3
  6
CONTINUOUS
  2
*D0
 70
65
 10
0.0
 20
0.0
  3
*D0
  1

  0
TEXT
  5
2B3
100
AcDbEntity
  8
606312146-000-00-ED1_DIM
100
AcDbText
 62
2
  6
CONTINUOUS
 10
148.547482363
 20
133.4776948237
  7
STANDARD
 40
3.5
  1
R
 50
-43.6619867319
 41
0.7857142857
 72
1
 11
149.5421922293
 21
132.5283912464
100
AcDbText
  0
TEXT
  5
2B4
100
AcDbEntity
  8
606312146-000-00-ED1_DIM
100
AcDbText
 62
2
  6
CONTINUOUS
 10
150.5369020956
 20
131.5790876691
  7
STANDARD
 40
3.5
  1
10
 50
-43.6619867319
 41
0.6785714286
 72
1
 11
152.2550373192
 21
129.9393814901
100
AcDbText
  0
LINE
  5
2B5
100
AcDbEntity
  8
606312146-000-00-ED1_DIM
100
AcDbLine
 62
3
  6
CONTINUOUS
 10
143.5028210795
 20
137.0825550187
 11
153.3690702664
 21
127.6666781235
  0
INSERT
  5
2B6
100
AcDbEntity
  8
606312146-000-00-ED1_DIM
100
AcDbBlockReference
 62
3
  6
CONTINUOUS
  2
_FILLED
 10
143.5028210795
 20
137.0825550187
 41
3.5
 42
3.5
 43
3.5
 50
136.3380132681
  0
ENDBLK
  5
2B7
100
AcDbEntity
  8
0
  6
BYBLOCK
 62
0
100
AcDbBlockEnd
  0
BLOCK
  5
2B8
100
AcDbEntity
  8
30558364_DIM
100
AcDbBlockBegin
 62
3
  6
CONTINUOUS
  2
*D1
 70
65
 10
0.0
 20
0.0
  3
*D1
  1

  0
TEXT
  5
2B9
100
AcDbEntity
  8
30558364_DIM
100
AcDbText
 62
2
  6
CONTINUOUS
 10
259.4660313754
 20
112.053529002
  7
STANDARD
 40
3.5
  1
10
 41
0.6785714286
 72
2
 11
264.2160313754
 21
112.053529002
100
AcDbText
  0
TEXT
  5
2BA
100
AcDbEntity
  8
30558364_DIM
100
AcDbText
 62
2
  6
CONTINUOUS
 10
233.2993647087
 20
105.928529002
  7
STANDARD
 40
3.5
  1
VERSTELLWEG
 41
0.803030303
 72
2
 11
264.2160313754
 21
105.928529002
100
AcDbText
  0
LINE
  5
2BB
100
AcDbEntity
  8
30558364_DIM
100
AcDbLine
 62
3
  6
CONTINUOUS
 10
264.7870746527
 20
156.178529002
 11
264.7870746527
 21
109.678529002
  0
LINE
  5
2BC
100
AcDbEntity
  8
30558364_DIM
100
AcDbLine
 62
3
  6
CONTINUOUS
 10
274.7870746527
 20
156.178529002
 11
274.7870746527
 21
109.678529002
  0
LINE
  5
2BD
100
AcDbEntity
  8
30558364_DIM
100
AcDbLine
 62
3
  6
CONTINUOUS
 10
264.7870746527
 20
111.178529002
 11
269.7870746527
 21
111.178529002
  0
LINE
  5
2BE
100
AcDbEntity
  8
30558364_DIM
100
AcDbLine
 62
3
  6
CONTINUOUS
 10
269.7870746527
 20
111.178529002
 11
233.2993647087
 21
111.178529002
  0
LINE
  5
2BF
100
AcDbEntity
  8
30558364_DIM
100
AcDbLine
 62
3
  6
CONTINUOUS
 10
274.7870746527
 20
111.178529002
 11
269.7870746527
 21
111.178529002
  0
INSERT
  5
2C0
100
AcDbEntity
  8
30558364_DIM
100
AcDbBlockReference
 62
3
  6
CONTINUOUS
  2
_FILLED
 10
264.7870746527
 20
111.178529002
 41
3.5
 42
3.5
 43
3.5
 50
180.0
  0
INSERT
  5
2C1
100
AcDbEntity
  8
30558364_DIM
100
AcDbBlockReference
 62
3
  6
CONTINUOUS
  2
_FILLED
 10
274.7870746527
 20
111.178529002
 41
3.5
 42
3.5
 43
3.5
  0
ENDBLK
  5
2C2
100
AcDbEntity
  8
0
  6
BYBLOCK
 62
0
100
AcDbBlockEnd
  0
BLOCK
  5
2C3
100
AcDbEntity
  8
30530890_DIM
100
AcDbBlockBegin
 62
3
  6
CONTINUOUS
  2
*D2
 70
65
 10
0.0
 20
0.0
  3
*D2
  1

  0
TEXT
  5
2C4
100
AcDbEntity
  8
30530890_DIM
100
AcDbText
 62
2
  6
CONTINUOUS
 10
284.8719415349
 20
181.5388893532
  7
STANDARD
 40
3.5
  1
4.5
 50
78.6190513041
 41
0.6904761905
 72
1
 11
285.5872677928
 21
185.0926104094
100
AcDbText
  0
TEXT
  5
2C5
100
AcDbEntity
  8
30530890_DIM
100
AcDbText
 62
2
  6
CONTINUOUS
 10
286.3025940506
 20
188.6463314655
  7
TEXTSTYLE_3
 40
3.5
  1
~
 50
78.6190513041
 41
1.0
 72
1
 11
286.5328139956
 21
189.7900577824
100
AcDbText
  0
TEXT
  5
2C6
100
AcDbEntity
  8
30530890_DIM
100
AcDbText
 62
2
  6
CONTINUOUS
 10
286.2483570981
 20
191.0373830746
  7
TEXTSTYLE_3
 40
2.45
  1
`
 50
78.6190513041
 41
1.0
 72
1
 11
286.5303765307
 21
192.4384478128
100
AcDbText
  0
TEXT
  5
2C7
100
AcDbEntity
  8
30530890_DIM
100
AcDbText
 62
2
  6
CONTINUOUS
 10
286.8123959634
 20
193.8395125511
  7
STANDARD
 40
2.45
  1
0.25
 50
78.6190513041
 41
0.7142857143
 72
1
 11
287.5030557985
 21
197.2706915018
100
AcDbText
  0
TEXT
  5
2C8
100
AcDbEntity
  8
30530890_DIM
100
AcDbText
 62
2
  6
CONTINUOUS
 10
288.1937156337
 20
200.7018704526
  7
TEXTSTYLE_3
 40
2.45
  1
~
 50
78.6190513041
 41
1.0
 72
1
 11
288.3548695952
 21
201.5024788744
100
AcDbText
  0
LINE
  5
2C9
100
AcDbEntity
  8
30530890_DIM
100
AcDbLine
 62
3
  6
CONTINUOUS
 10
290.0647484522
 20
156.178529002
 11
285.3949122504
 21
156.178529002
  0
LINE
  5
2CA
100
AcDbEntity
  8
30530890_DIM
100
AcDbLine
 62
3
  6
CONTINUOUS
 10
290.6354225907
 20
169.8432001214
 11
285.9462983438
 21
170.2122422032
  0
ARC
  5
2CB
100
AcDbEntity
  8
30530890_DIM
100
AcDbCircle
 62
3
  6
CONTINUOUS
 10
464.2615314868
 20
156.178529002
 40
177.3666192363
100
AcDbArc
 50
168.6190513041
 51
180.0
  0
SOLID
  5
2CC
100
AcDbEntity
  8
30530890_DIM
100
AcDbTrace
 62
3
  6
CONTINUOUS
 10
286.4919659769
 20
159.6826751962
 11
286.8949122504
 21
156.178529002
 12
287.3669233869
 22
159.6740420883
 13
287.3669233869
 23
159.6740420883
  0
SOLID
  5
2CD
100
AcDbEntity
  8
30530890_DIM
100
AcDbTrace
 62
3
  6
CONTINUOUS
 10
287.6379756323
 20
166.5727824065
 11
287.4416743444
 21
170.0945535596
 12
286.765038078
 22
166.6328242788
 13
286.765038078
 23
166.6328242788
  0
ENDBLK
  5
2CE
100
AcDbEntity
  8
0
  6
BYBLOCK
 62
0
100
AcDbBlockEnd
  0
BLOCK
  5
2CF
100
AcDbEntity
  8
30530890_DIM
100
AcDbBlockBegin
 62
3
  6
CONTINUOUS
  2
*D3
 70
65
 10
0.0
 20
0.0
  3
*D3
  1

  0
TEXT
  5
2D0
100
AcDbEntity
  8
30530890_DIM
100
AcDbText
 62
2
  6
CONTINUOUS
 10
233.0078221075
 20
192.053529002
  7
STANDARD
 40
3.5
  1
M
 41
0.8571428571
 72
2
 11
236.0078221075
 21
192.053529002
100
AcDbText
  0
TEXT
  5
2D1
100
AcDbEntity
  8
30530890_DIM
100
AcDbText
 62
2
  6
CONTINUOUS
 10
236.0078221075
 20
192.053529002
  7
STANDARD
 40
3.5
  1
6
 41
0.7857142857
 72
2
 11
238.7578221075
 21
192.053529002
100
AcDbText
  0
TEXT
  5
2D2
100
AcDbEntity
  8
30530890_DIM
100
AcDbText
 62
2
  6
CONTINUOUS
 10
238.7578221075
 20
192.053529002
  7
STANDARD
 40
3.5
  1
(
 41
0.4285714286
 72
2
 11
240.2578221075
 21
192.053529002
100
AcDbText
  0
TEXT
  5
2D3
100
AcDbEntity
  8
30530890_DIM
100
AcDbText
 62
2
  6
CONTINUOUS
 10
240.2578221075
 20
192.053529002
  7
STANDARD
 40
3.5
  1
4
 41
0.7857142857
 72
2
 11
243.0078221075
 21
192.053529002
100
AcDbText
  0
TEXT
  5
2D4
100
AcDbEntity
  8
30530890_DIM
100
AcDbText
 62
2
  6
CONTINUOUS
 10
243.0078221075
 20
192.053529002
  7
STANDARD
 40
3.5
  1
x)
 41
0.5714285714
 72
2
 11
247.0078221075
 21
192.053529002
100
AcDbText
  0
LINE
  5
2D5
100
AcDbEntity
  8
30530890_DIM
100
AcDbLine
 62
3
  6
CONTINUOUS
 10
250.7870746527
 20
172.0286075343
 11
250.7870746527
 21
192.678529002
  0
LINE
  5
2D6
100
AcDbEntity
  8
30530890_DIM
100
AcDbLine
 62
3
  6
CONTINUOUS
 10
256.7870746527
 20
172.0286075343
 11
256.7870746527
 21
192.678529002
  0
LINE
  5
2D7
100
AcDbEntity
  8
30530890_DIM
100
AcDbLine
 62
3
  6
CONTINUOUS
 10
250.7870746527
 20
191.178529002
 11
233.0078221075
 21
191.178529002
  0
LINE
  5
2D8
100
AcDbEntity
  8
30530890_DIM
100
AcDbLine
 62
3
  6
CONTINUOUS
 10
233.0078221075
 20
191.178529002
 11
253.7870746527
 21
191.178529002
  0
LINE
  5
2D9
100
AcDbEntity
  8
30530890_DIM
100
AcDbLine
 62
3
  6
CONTINUOUS
 10
256.7870746527
 20
191.178529002
 11
262.7870746527
 21
191.178529002
  0
LINE
  5
2DA
100
AcDbEntity
  8
30530890_DIM
100
AcDbLine
 62
3
  6
CONTINUOUS
 10
262.7870746527
 20
191.178529002
 11
253.7870746527
 21
191.178529002
  0
INSERT
  5
2DB
100
AcDbEntity
  8
30530890_DIM
100
AcDbBlockReference
 62
3
  6
CONTINUOUS
  2
_FILLED
 10
250.7870746527
 20
191.178529002
 41
3.5
 42
3.5
 43
3.5
  0
INSERT
  5
2DC
100
AcDbEntity
  8
30530890_DIM
100
AcDbBlockReference
 62
3
  6
CONTINUOUS
  2
_FILLED
 10
256.7870746527
 20
191.178529002
 41
3.5
 42
3.5
 43
3.5
 50
180.0
  0
ENDBLK
  5
2DD
100
AcDbEntity
  8
0
  6
BYBLOCK
 62
0
100
AcDbBlockEnd
  0
BLOCK
  5
2DE
100
AcDbEntity
  8
30530890_DIM
100
AcDbBlockBegin
 62
3
  6
CONTINUOUS
  2
*D4
 70
65
 10
0.0
 20
0.0
  3
*D4
  1

  0
TEXT
  5
2DF
100
AcDbEntity
  8
30530890_DIM
100
AcDbText
 62
2
  6
CONTINUOUS
 10
280.1620746527
 20
92.053529002
  7
STANDARD
 40
3.5
  1
58
 41
0.75
 72
1
 11
282.7870746527
 21
92.053529002
100
AcDbText
  0
LINE
  5
2E0
100
AcDbEntity
  8
30530890_DIM
100
AcDbLine
 62
3
  6
CONTINUOUS
 10
253.7870746527
 20
140.7429037063
 11
253.7870746527
 21
89.678529002
  0
LINE
  5
2E1
100
AcDbEntity
  8
30530890_DIM
100
AcDbLine
 62
3
  6
CONTINUOUS
 10
311.7870746527
 20
145.1029194936
 11
311.7870746527
 21
89.678529002
  0
LINE
  5
2E2
100
AcDbEntity
  8
30530890_DIM
100
AcDbLine
 62
3
  6
CONTINUOUS
 10
253.7870746527
 20
91.178529002
 11
282.7870746527
 21
91.178529002
  0
LINE
  5
2E3
100
AcDbEntity
  8
30530890_DIM
100
AcDbLine
 62
3
  6
CONTINUOUS
 10
311.7870746527
 20
91.178529002
 11
282.7870746527
 21
91.178529002
  0
INSERT
  5
2E4
100
AcDbEntity
  8
30530890_DIM
100
AcDbBlockReference
 62
3
  6
CONTINUOUS
  2
_FILLED
 10
253.7870746527
 20
91.178529002
 41
3.5
 42
3.5
 43
3.5
 50
180.0
  0
INSERT
  5
2E5
100
AcDbEntity
  8
30530890_DIM
100
AcDbBlockReference
 62
3
  6
CONTINUOUS
  2
_FILLED
 10
311.7870746527
 20
91.178529002
 41
3.5
 42
3.5
 43
3.5
  0
ENDBLK
  5
2E6
100
AcDbEntity
  8
0
  6
BYBLOCK
 62
0
100
AcDbBlockEnd
  0
BLOCK
  5
2E7
100
AcDbEntity
  8
30530890_DIM
100
AcDbBlockBegin
 62
3
  6
CONTINUOUS
  2
*D5
 70
65
 10
0.0
 20
0.0
  3
*D5
  1

  0
TEXT
  5
2E8
100
AcDbEntity
  8
30530890_DIM
100
AcDbText
 62
2
  6
CONTINUOUS
 10
285.5370746527
 20
102.053529002
  7
STANDARD
 40
3.5
  1
47
 41
0.7857142857
 72
1
 11
288.2870746527
 21
102.053529002
100
AcDbText
  0
LINE
  5
2E9
100
AcDbEntity
  8
30530890_DIM
100
AcDbLine
 62
3
  6
CONTINUOUS
 10
264.7870746527
 20
145.1029194936
 11
264.7870746527
 21
99.678529002
  0
LINE
  5
2EA
100
AcDbEntity
  8
30530890_DIM
100
AcDbLine
 62
3
  6
CONTINUOUS
 10
311.7870746527
 20
145.1029194936
 11
311.7870746527
 21
99.678529002
  0
LINE
  5
2EB
100
AcDbEntity
  8
30530890_DIM
100
AcDbLine
 62
3
  6
CONTINUOUS
 10
264.7870746527
 20
101.178529002
 11
288.2870746527
 21
101.178529002
  0
LINE
  5
2EC
100
AcDbEntity
  8
30530890_DIM
100
AcDbLine
 62
3
  6
CONTINUOUS
 10
311.7870746527
 20
101.178529002
 11
288.2870746527
 21
101.178529002
  0
INSERT
  5
2ED
100
AcDbEntity
  8
30530890_DIM
100
AcDbBlockReference
 62
3
  6
CONTINUOUS
  2
_FILLED
 10
264.7870746527
 20
101.178529002
 41
3.5
 42
3.5
 43
3.5
 50
180.0
  0
INSERT
  5
2EE
100
AcDbEntity
  8
30530890_DIM
100
AcDbBlockReference
 62
3
  6
CONTINUOUS
  2
_FILLED
 10
311.7870746527
 20
101.178529002
 41
3.5
 42
3.5
 43
3.5
  0
ENDBLK
  5
2EF
100
AcDbEntity
  8
0
  6
BYBLOCK
 62
0
100
AcDbBlockEnd
  0
BLOCK
  5
2F0
100
AcDbEntity
  8
30530890_DIM
100
AcDbBlockBegin
 62
3
  6
CONTINUOUS
  2
*D6
 70
65
 10
0.0
 20
0.0
  3
*D6
  1

  0
TEXT
  5
2F1
100
AcDbEntity
  8
30530890_DIM
100
AcDbText
 62
2
  6
CONTINUOUS
 10
207.6620746527
 20
215.053529002
  7
STANDARD
 40
3.5
  1
200
 41
0.7857142857
 72
1
 11
211.7870746527
 21
215.053529002
100
AcDbText
  0
LINE
  5
2F2
100
AcDbEntity
  8
30530890_DIM
100
AcDbLine
 62
3
  6
CONTINUOUS
 10
311.7870746527
 20
159.1177602338
 11
311.7870746527
 21
215.678529002
  0
LINE
  5
2F3
100
AcDbEntity
  8
30530890_DIM
100
AcDbLine
 62
3
  6
CONTINUOUS
 10
111.7870746527
 20
156.178529002
 11
111.7870746527
 21
215.678529002
  0
LINE
  5
2F4
100
AcDbEntity
  8
30530890_DIM
100
AcDbLine
 62
3
  6
CONTINUOUS
 10
311.7870746527
 20
214.178529002
 11
211.7870746527
 21
214.178529002
  0
LINE
  5
2F5
100
AcDbEntity
  8
30530890_DIM
100
AcDbLine
 62
3
  6
CONTINUOUS
 10
111.7870746527
 20
214.178529002
 11
211.7870746527
 21
214.178529002
  0
INSERT
  5
2F6
100
AcDbEntity
  8
30530890_DIM
100
AcDbBlockReference
 62
3
  6
CONTINUOUS
  2
_FILLED
 10
311.7870746527
 20
214.178529002
 41
3.5
 42
3.5
 43
3.5
  0
INSERT
  5
2F7
100
AcDbEntity
  8
30530890_DIM
100
AcDbBlockReference
 62
3
  6
CONTINUOUS
  2
_FILLED
 10
111.7870746527
 20
214.178529002
 41
3.5
 42
3.5
 43
3.5
 50
180.0
  0
ENDBLK
  5
2F8
100
AcDbEntity
  8
0
  6
BYBLOCK
 62
0
100
AcDbBlockEnd
  0
BLOCK
  5
2F9
100
AcDbEntity
  8
30530890_DIM
100
AcDbBlockBegin
 62
3
  6
CONTINUOUS
  2
*D7
 70
65
 10
0.0
 20
0.0
  3
*D7
  1

  0
TEXT
  5
2FA
100
AcDbEntity
  8
30530890_DIM
100
AcDbText
 62
2
  6
CONTINUOUS
 10
51.0120746527
 20
165.3337596107
  7
STANDARD
 40
3.5
  1
M
 50
90.0
 41
0.8571428571
 72
0
100
AcDbText
  0
TEXT
  5
2FB
100
AcDbEntity
  8
30530890_DIM
100
AcDbText
 62
2
  6
CONTINUOUS
 10
51.0120746527
 20
168.3337596107
  7
STANDARD
 40
3.5
  1
10
 50
90.0
 41
0.6785714286
 72
0
100
AcDbText
  0
TEXT
  5
2FC
100
AcDbEntity
  8
30530890_DIM
100
AcDbText
 62
2
  6
CONTINUOUS
 10
51.0120746527
 20
173.0837596107
  7
STANDARD
 40
3.5
  1
x1
 50
90.0
 41
0.6428571429
 72
0
100
AcDbText
  0
LINE
  5
2FD
100
AcDbEntity
  8
30530890_DIM
100
AcDbLine
 62
3
  6
CONTINUOUS
 10
246.7870746527
 20
151.178529002
 11
50.3870746527
 21
151.178529002
  0
LINE
  5
2FE
100
AcDbEntity
  8
30530890_DIM
100
AcDbLine
 62
3
  6
CONTINUOUS
 10
246.7870746527
 20
161.178529002
 11
50.3870746527
 21
161.178529002
  0
LINE
  5
2FF
100
AcDbEntity
  8
30530890_DIM
100
AcDbLine
 62
3
  6
CONTINUOUS
 10
51.8870746527
 20
151.178529002
 11
51.8870746527
 21
145.178529002
  0
LINE
  5
300
100
AcDbEntity
  8
30530890_DIM
100
AcDbLine
 62
3
  6
CONTINUOUS
 10
51.8870746527
 20
145.178529002
 11
51.8870746527
 21
156.178529002
  0
LINE
  5
301
100
AcDbEntity
  8
30530890_DIM
100
AcDbLine
 62
3
  6
CONTINUOUS
 10
51.8870746527
 20
161.178529002
 11
51.8870746527
 21
177.5837596107
  0
LINE
  5
302
100
AcDbEntity
  8
30530890_DIM
100
AcDbLine
 62
3
  6
CONTINUOUS
 10
51.8870746527
 20
177.5837596107
 11
51.8870746527
 21
156.178529002
  0
INSERT
  5
303
100
AcDbEntity
  8
30530890_DIM
100
AcDbBlockReference
 62
3
  6
CONTINUOUS
  2
_FILLED
 10
51.8870746527
 20
151.178529002
 41
3.5
 42
3.5
 43
3.5
 50
90.0
  0
INSERT
  5
304
100
AcDbEntity
  8
30530890_DIM
100
AcDbBlockReference
 62
3
  6
CONTINUOUS
  2
_FILLED
 10
51.8870746527
 20
161.178529002
 41
3.5
 42
3.5
 43
3.5
 50
270.0
  0
ENDBLK
  5
305
100
AcDbEntity
  8
0
  6
BYBLOCK
 62
0
100
AcDbBlockEnd
  0
BLOCK
  5
306
100
AcDbEntity
  8
30530890_DIM
100
AcDbBlockBegin
 62
3
  6
CONTINUOUS
  2
*D8
 70
65
 10
0.0
 20
0.0
  3
*D8
  1

  0
TEXT
  5
307
100
AcDbEntity
  8
30530890_DIM
100
AcDbText
 62
2
  6
CONTINUOUS
 10
325.9120746527
 20
151.4701956686
  7
TEXTSTYLE_3
 40
3.5
  1
n
 50
90.0
 41
1.0
 72
1
 11
325.9120746527
 21
153.803529002
100
AcDbText
  0
TEXT
  5
308
100
AcDbEntity
  8
30530890_DIM
100
AcDbText
 62
2
  6
CONTINUOUS
 10
325.9120746527
 20
156.1368623353
  7
STANDARD
 40
3.5
  1
12
 50
90.0
 41
0.6785714286
 72
1
 11
325.9120746527
 21
158.5118623353
100
AcDbText
  0
LINE
  5
309
100
AcDbEntity
  8
30530890_DIM
100
AcDbLine
 62
3
  6
CONTINUOUS
 10
308.7870746527
 20
150.178529002
 11
328.2870746527
 21
150.178529002
  0
LINE
  5
30A
100
AcDbEntity
  8
30530890_DIM
100
AcDbLine
 62
3
  6
CONTINUOUS
 10
308.7870746527
 20
162.178529002
 11
328.2870746527
 21
162.178529002
  0
LINE
  5
30B
100
AcDbEntity
  8
30530890_DIM
100
AcDbLine
 62
3
  6
CONTINUOUS
 10
326.7870746527
 20
150.178529002
 11
326.7870746527
 21
156.178529002
  0
LINE
  5
30C
100
AcDbEntity
  8
30530890_DIM
100
AcDbLine
 62
3
  6
CONTINUOUS
 10
326.7870746527
 20
162.178529002
 11
326.7870746527
 21
156.178529002
  0
INSERT
  5
30D
100
AcDbEntity
  8
30530890_DIM
100
AcDbBlockReference
 62
3
  6
CONTINUOUS
  2
_FILLED
 10
326.7870746527
 20
150.178529002
 41
3.5
 42
3.5
 43
3.5
 50
270.0
  0
INSERT
  5
30E
100
AcDbEntity
  8
30530890_DIM
100
AcDbBlockReference
 62
3
  6
CONTINUOUS
  2
_FILLED
 10
326.7870746527
 20
162.178529002
 41
3.5
 42
3.5
 43
3.5
 50
90.0
  0
ENDBLK
  5
30F
100
AcDbEntity
  8
0
  6
BYBLOCK
 62
0
100
AcDbBlockEnd
  0
BLOCK
  5
310
100
AcDbEntity
  8
30530890_DIM
100
AcDbBlockBegin
 62
3
  6
CONTINUOUS
  2
*D9
 70
65
 10
0.0
 20
0.0
  3
*D9
  1

  0
TEXT
  5
311
100
AcDbEntity
  8
30530890_DIM
100
AcDbText
 62
2
  6
CONTINUOUS
 10
278.4996651803
 20
205.053529002
  7
STANDARD
 40
3.5
  1
(
 41
0.4285714286
 72
1
 11
279.2496651803
 21
205.053529002
100
AcDbText
  0
TEXT
  5
312
100
AcDbEntity
  8
30530890_DIM
100
AcDbText
 62
2
  6
CONTINUOUS
 10
279.9996651803
 20
205.053529002
  7
STANDARD
 40
3.5
  1
50.82
 41
0.7285714286
 72
1
 11
286.3746651803
 21
205.053529002
100
AcDbText
  0
TEXT
  5
313
100
AcDbEntity
  8
30530890_DIM
100
AcDbText
 62
2
  6
CONTINUOUS
 10
292.7496651803
 20
205.053529002
  7
STANDARD
 40
3.5
  1
)
 41
0.4285714286
 72
1
 11
293.4996651803
 21
205.053529002
100
AcDbText
  0
LINE
  5
314
100
AcDbEntity
  8
30530890_DIM
100
AcDbLine
 62
3
  6
CONTINUOUS
 10
311.7870746527
 20
167.2541385103
 11
311.7870746527
 21
205.678529002
  0
LINE
  5
315
100
AcDbEntity
  8
30530890_DIM
100
AcDbLine
 62
3
  6
CONTINUOUS
 10
260.962255708
 20
172.178529002
 11
260.962255708
 21
205.678529002
  0
LINE
  5
316
100
AcDbEntity
  8
30530890_DIM
100
AcDbLine
 62
3
  6
CONTINUOUS
 10
311.7870746527
 20
204.178529002
 11
286.3746651803
 21
204.178529002
  0
LINE
  5
317
100
AcDbEntity
  8
30530890_DIM
100
AcDbLine
 62
3
  6
CONTINUOUS
 10
260.962255708
 20
204.178529002
 11
286.3746651803
 21
204.178529002
  0
INSERT
  5
318
100
AcDbEntity
  8
30530890_DIM
100
AcDbBlockReference
 62
3
  6
CONTINUOUS
  2
_FILLED
 10
311.7870746527
 20
204.178529002
 41
3.5
 42
3.5
 43
3.5
  0
INSERT
  5
319
100
AcDbEntity
  8
30530890_DIM
100
AcDbBlockReference
 62
3
  6
CONTINUOUS
  2
_FILLED
 10
260.962255708
 20
204.178529002
 41
3.5
 42
3.5
 43
3.5
 50
180.0
  0
ENDBLK
  5
31A
100
AcDbEntity
  8
0
  6
BYBLOCK
 62
0
100
AcDbBlockEnd
  0
BLOCK
  5
31B
100
AcDbEntity
  8
30530890_DIM
100
AcDbBlockBegin
 62
3
  6
CONTINUOUS
  2
*D10
 70
65
 10
0.0
 20
0.0
  3
*D10
  1

  0
TEXT
  5
31C
100
AcDbEntity
  8
30530890_DIM
100
AcDbText
 62
2
  6
CONTINUOUS
 10
345.9120746527
 20
151.2201956686
  7
TEXTSTYLE_3
 40
3.5
  1
n
 50
90.0
 41
1.0
 72
1
 11
345.9120746527
 21
153.553529002
100
AcDbText
  0
TEXT
  5
31D
100
AcDbEntity
  8
30530890_DIM
100
AcDbText
 62
2
  6
CONTINUOUS
 10
345.9120746527
 20
155.8868623353
  7
STANDARD
 40
3.5
  1
32
 50
90.0
 41
0.75
 72
1
 11
345.9120746527
 21
158.5118623353
100
AcDbText
  0
LINE
  5
31E
100
AcDbEntity
  8
30530890_DIM
100
AcDbLine
 62
3
  6
CONTINUOUS
 10
259.336183053
 20
140.178529002
 11
348.2870746527
 21
140.178529002
  0
LINE
  5
31F
100
AcDbEntity
  8
30530890_DIM
100
AcDbLine
 62
3
  6
CONTINUOUS
 10
260.5817568443
 20
172.178529002
 11
348.2870746527
 21
172.178529002
  0
LINE
  5
320
100
AcDbEntity
  8
30530890_DIM
100
AcDbLine
 62
3
  6
CONTINUOUS
 10
346.7870746527
 20
140.178529002
 11
346.7870746527
 21
156.178529002
  0
LINE
  5
321
100
AcDbEntity
  8
30530890_DIM
100
AcDbLine
 62
3
  6
CONTINUOUS
 10
346.7870746527
 20
172.178529002
 11
346.7870746527
 21
156.178529002
  0
INSERT
  5
322
100
AcDbEntity
  8
30530890_DIM
100
AcDbBlockReference
 62
3
  6
CONTINUOUS
  2
_FILLED
 10
346.7870746527
 20
140.178529002
 41
3.5
 42
3.5
 43
3.5
 50
270.0
  0
INSERT
  5
323
100
AcDbEntity
  8
30530890_DIM
100
AcDbBlockReference
 62
3
  6
CONTINUOUS
  2
_FILLED
 10
346.7870746527
 20
172.178529002
 41
3.5
 42
3.5
 43
3.5
 50
90.0
  0
ENDBLK
  5
324
100
AcDbEntity
  8
0
  6
BYBLOCK
 62
0
100
AcDbBlockEnd
  0
BLOCK
  5
325
100
AcDbEntity
  8
30530890_DIM
100
AcDbBlockBegin
 62
3
  6
CONTINUOUS
  2
*D11
 70
65
 10
0.0
 20
0.0
  3
*D11
  1

  0
TEXT
  5
326
100
AcDbEntity
  8
30530890_DIM
100
AcDbText
 62
2
  6
CONTINUOUS
 10
335.9120746527
 20
151.0951956686
  7
TEXTSTYLE_3
 40
3.5
  1
n
 50
90.0
 41
1.0
 72
1
 11
335.9120746527
 21
153.428529002
100
AcDbText
  0
TEXT
  5
327
100
AcDbEntity
  8
30530890_DIM
100
AcDbText
 62
2
  6
CONTINUOUS
 10
335.9120746527
 20
155.7618623353
  7
STANDARD
 40
3.5
  1
24
 50
90.0
 41
0.7857142857
 72
1
 11
335.9120746527
 21
158.5118623353
100
AcDbText
  0
LINE
  5
328
100
AcDbEntity
  8
30530890_DIM
100
AcDbLine
 62
3
  6
CONTINUOUS
 10
311.7870746527
 20
144.178529002
 11
338.2870746527
 21
144.178529002
  0
LINE
  5
329
100
AcDbEntity
  8
30530890_DIM
100
AcDbLine
 62
3
  6
CONTINUOUS
 10
311.7870746527
 20
168.178529002
 11
338.2870746527
 21
168.178529002
  0
LINE
  5
32A
100
AcDbEntity
  8
30530890_DIM
100
AcDbLine
 62
3
  6
CONTINUOUS
 10
336.7870746527
 20
144.178529002
 11
336.7870746527
 21
156.178529002
  0
LINE
  5
32B
100
AcDbEntity
  8
30530890_DIM
100
AcDbLine
 62
3
  6
CONTINUOUS
 10
336.7870746527
 20
168.178529002
 11
336.7870746527
 21
156.178529002
  0
INSERT
  5
32C
100
AcDbEntity
  8
30530890_DIM
100
AcDbBlockReference
 62
3
  6
CONTINUOUS
  2
_FILLED
 10
336.7870746527
 20
144.178529002
 41
3.5
 42
3.5
 43
3.5
 50
270.0
  0
INSERT
  5
32D
100
AcDbEntity
  8
30530890_DIM
100
AcDbBlockReference
 62
3
  6
CONTINUOUS
  2
_FILLED
 10
336.7870746527
 20
168.178529002
 41
3.5
 42
3.5
 43
3.5
 50
90.0
  0
ENDBLK
  5
32E
100
AcDbEntity
  8
0
  6
BYBLOCK
 62
0
100
AcDbBlockEnd
  0
ENDSEC
  0
SECTION
  2
ENTITIES
  0
TEXT
  5
32F
100
AcDbEntity
  8
606312146-000-00-ED1_FORMAT
100
AcDbText
 62
90
  6
CONTINUOUS
 10
34.0
 20
287.75
  7
TEXTSTYLE_2
 40
3.5
  1
1
 41
0.5714285714
 72
1
 11
35.0
 21
287.75
100
AcDbText
  0
TEXT
  5
330
100
AcDbEntity
  8
606312146-000-00-ED1_FORMAT
100
AcDbText
 62
90
  6
CONTINUOUS
 10
83.625
 20
287.75
  7
TEXTSTYLE_2
 40
3.5
  1
2
 41
0.7857142857
 72
1
 11
85.0
 21
287.75
100
AcDbText
  0
TEXT
  5
331
100
AcDbEntity
  8
606312146-000-00-ED1_FORMAT
100
AcDbText
 62
90
  6
CONTINUOUS
 10
133.75
 20
287.75
  7
TEXTSTYLE_2
 40
3.5
  1
3
 41
0.7142857143
 72
1
 11
135.0
 21
287.75
100
AcDbText
  0
TEXT
  5
332
100
AcDbEntity
  8
606312146-000-00-ED1_FORMAT
100
AcDbText
 62
90
  6
CONTINUOUS
 10
183.625
 20
287.75
  7
TEXTSTYLE_2
 40
3.5
  1
4
 41
0.7857142857
 72
1
 11
185.0
 21
287.75
100
AcDbText
  0
TEXT
  5
333
100
AcDbEntity
  8
606312146-000-00-ED1_FORMAT
100
AcDbText
 62
90
  6
CONTINUOUS
 10
233.75
 20
287.75
  7
TEXTSTYLE_2
 40
3.5
  1
5
 41
0.7142857143
 72
1
 11
235.0
 21
287.75
100
AcDbText
  0
TEXT
  5
334
100
AcDbEntity
  8
606312146-000-00-ED1_FORMAT
100
AcDbText
 62
90
  6
CONTINUOUS
 10
283.625
 20
287.75
  7
TEXTSTYLE_2
 40
3.5
  1
6
 41
0.7857142857
 72
1
 11
285.0
 21
287.75
100
AcDbText
  0
TEXT
  5
335
100
AcDbEntity
  8
606312146-000-00-ED1_FORMAT
100
AcDbText
 62
90
  6
CONTINUOUS
 10
333.625
 20
287.75
  7
TEXTSTYLE_2
 40
3.5
  1
7
 41
0.7857142857
 72
1
 11
335.0
 21
287.75
100
AcDbText
  0
TEXT
  5
336
100
AcDbEntity
  8
606312146-000-00-ED1_FORMAT
100
AcDbText
 62
90
  6
CONTINUOUS
 10
383.625
 20
287.75
  7
TEXTSTYLE_2
 40
3.5
  1
8
 41
0.7857142857
 72
1
 11
385.0
 21
287.75
100
AcDbText
  0
TEXT
  5
337
100
AcDbEntity
  8
606312146-000-00-ED1_FORMAT
100
AcDbText
 62
90
  6
CONTINUOUS
 10
133.75
 20
5.75
  7
TEXTSTYLE_2
 40
3.5
  1
3
 41
0.7142857143
 72
1
 11
135.0
 21
5.75
100
AcDbText
  0
TEXT
  5
338
100
AcDbEntity
  8
606312146-000-00-ED1_FORMAT
100
AcDbText
 62
90
  6
CONTINUOUS
 10
83.625
 20
5.75
  7
TEXTSTYLE_2
 40
3.5
  1
2
 41
0.7857142857
 72
1
 11
85.0
 21
5.75
100
AcDbText
  0
TEXT
  5
339
100
AcDbEntity
  8
606312146-000-00-ED1_FORMAT
100
AcDbText
 62
90
  6
CONTINUOUS
 10
34.0
 20
5.75
  7
TEXTSTYLE_2
 40
3.5
  1
1
 41
0.5714285714
 72
1
 11
35.0
 21
5.75
100
AcDbText
  0
TEXT
  5
33A
100
AcDbEntity
  8
606312146-000-00-ED1_FORMAT
100
AcDbText
 62
90
  6
CONTINUOUS
 10
19.0
 20
262.75
  7
TEXTSTYLE_2
 40
3.5
  1
A
 41
0.8571428571
 72
1
 11
20.5
 21
262.75
100
AcDbText
  0
TEXT
  5
33B
100
AcDbEntity
  8
606312146-000-00-ED1_FORMAT
100
AcDbText
 62
90
  6
CONTINUOUS
 10
411.0
 20
262.75
  7
TEXTSTYLE_2
 40
3.5
  1
A
 41
0.8571428571
 72
1
 11
412.5
 21
262.75
100
AcDbText
  0
TEXT
  5
33C
100
AcDbEntity
  8
606312146-000-00-ED1_FORMAT
100
AcDbText
 62
90
  6
CONTINUOUS
 10
411.125
 20
221.75
  7
TEXTSTYLE_2
 40
3.5
  1
B
 41
0.7857142857
 72
1
 11
412.5
 21
221.75
100
AcDbText
  0
TEXT
  5
33D
100
AcDbEntity
  8
606312146-000-00-ED1_FORMAT
100
AcDbText
 62
90
  6
CONTINUOUS
 10
19.125
 20
221.75
  7
TEXTSTYLE_2
 40
3.5
  1
B
 41
0.7857142857
 72
1
 11
20.5
 21
221.75
100
AcDbText
  0
TEXT
  5
33E
100
AcDbEntity
  8
606312146-000-00-ED1_FORMAT
100
AcDbText
 62
90
  6
CONTINUOUS
 10
19.0416666667
 20
171.75
  7
TEXTSTYLE_2
 40
3.5
  1
C
 41
0.8333333333
 72
1
 11
20.5
 21
171.75
100
AcDbText
  0
TEXT
  5
33F
100
AcDbEntity
  8
606312146-000-00-ED1_FORMAT
100
AcDbText
 62
90
  6
CONTINUOUS
 10
411.0416666667
 20
171.75
  7
TEXTSTYLE_2
 40
3.5
  1
C
 41
0.8333333333
 72
1
 11
412.5
 21
171.75
100
AcDbText
  0
TEXT
  5
340
100
AcDbEntity
  8
606312146-000-00-ED1_FORMAT
100
AcDbText
 62
90
  6
CONTINUOUS
 10
410.9166666667
 20
121.75
  7
TEXTSTYLE_2
 40
3.5
  1
D
 41
0.9047619048
 72
1
 11
412.5
 21
121.75
100
AcDbText
  0
TEXT
  5
341
100
AcDbEntity
  8
606312146-000-00-ED1_FORMAT
100
AcDbText
 62
90
  6
CONTINUOUS
 10
18.9166666667
 20
121.75
  7
TEXTSTYLE_2
 40
3.5
  1
D
 41
0.9047619048
 72
1
 11
20.5
 21
121.75
100
AcDbText
  0
TEXT
  5
342
100
AcDbEntity
  8
606312146-000-00-ED1_FORMAT
100
AcDbText
 62
90
  6
CONTINUOUS
 10
19.25
 20
71.75
  7
TEXTSTYLE_2
 40
3.5
  1
E
 41
0.7142857143
 72
1
 11
20.5
 21
71.75
100
AcDbText
  0
TEXT
  5
343
100
AcDbEntity
  8
606312146-000-00-ED1_FORMAT
100
AcDbText
 62
90
  6
CONTINUOUS
 10
411.25
 20
71.75
  7
TEXTSTYLE_2
 40
3.5
  1
E
 41
0.7142857143
 72
1
 11
412.5
 21
71.75
100
AcDbText
  0
TEXT
  5
344
100
AcDbEntity
  8
606312146-000-00-ED1_FORMAT
100
AcDbText
 62
90
  6
CONTINUOUS
 10
411.25
 20
21.75
  7
TEXTSTYLE_2
 40
3.5
  1
F
 41
0.7142857143
 72
1
 11
412.5
 21
21.75
100
AcDbText
  0
TEXT
  5
345
100
AcDbEntity
  8
606312146-000-00-ED1_FORMAT
100
AcDbText
 62
90
  6
CONTINUOUS
 10
19.25
 20
21.75
  7
TEXTSTYLE_2
 40
3.5
  1
F
 41
0.7142857143
 72
1
 11
20.5
 21
21.75
100
AcDbText
  0
TEXT
  5
346
100
AcDbEntity
  8
606312146-000-00-ED1_FORMAT
100
AcDbText
 62
2
  6
CONTINUOUS
 10
266.0792011722
 20
283.4479128464
  7
STANDARD
 40
1.9999997015
  1
INDEX
 41
0.780952381
 72
0
100
AcDbText
  0
TEXT
  5
347
100
AcDbEntity
  8
606312146-000-00-ED1_FORMAT
100
AcDbText
 62
2
  6
CONTINUOUS
 10
267.8411056711
 20
280.4479132942
  7
STANDARD
 40
1.9999997015
  1
NR.
 41
0.7142857143
 72
0
100
AcDbText
  0
TEXT
  5
348
100
AcDbEntity
  8
606312146-000-00-ED1_FORMAT
100
AcDbText
 62
2
  6
CONTINUOUS
 10
310.3389765087
 20
281.9588201847
  7
STANDARD
 40
1.9999997015
  1
ART DER AENDERUNG
 41
0.799719888
 72
0
100
AcDbText
  0
TEXT
  5
349
100
AcDbEntity
  8
606312146-000-00-ED1_FORMAT
100
AcDbText
 62
2
  6
CONTINUOUS
 10
379.9980938591
 20
282.0962316584
  7
STANDARD
 40
1.9999997015
  1
DATUM
 41
0.8523809524
 72
0
100
AcDbText
  0
TEXT
  5
34A
100
AcDbEntity
  8
606312146-000-00-ED1_FORMAT
100
AcDbText
 62
2
  6
CONTINUOUS
 10
397.8615854447
 20
282.0962316584
  7
STANDARD
 40
1.9999997015
  1
NAME
 41
0.8035714286
 72
0
100
AcDbText
  0
TEXT
  5
34B
100
AcDbEntity
  8
606312146-000-00-ED1_FORMAT
100
AcDbText
 62
2
  6
CONTINUOUS
 10
27.6553587823
 20
149.7733961004
  7
STANDARD
 40
3.0
  1
VORGANGS-NR.:
 50
90.0
 41
0.7399267399
 72
0
100
AcDbText
  0
TEXT
  5
34C
100
AcDbEntity
  8
606312146-000-00-ED1_FORMAT
100
AcDbText
 62
2
  6
CONTINUOUS
 10
27.9024680453
 20
94.666552576
  7
STANDARD
 40
3.0
  1
PROJEKT-NR.:
 50
90.0
 41
0.7142857143
 72
0
100
AcDbText
  0
TEXT
  5
34D
100
AcDbEntity
  8
606312146-000-00-ED1_FORMAT
100
AcDbText
 62
2
  6
CONTINUOUS
 10
27.9024680453
 20
11.0873145846
  7
STANDARD
 40
3.0
  1
KUNDE:
 50
90.0
 41
0.7222222222
 72
0
100
AcDbText
  0
TEXT
  5
34E
100
AcDbEntity
  8
606312146-000-00-ED1_FORMAT
100
AcDbText
 62
2
  6
CONTINUOUS
 10
225.0528335394
 20
61.7772757079
  7
STANDARD
 40
1.4000001944
  1
DIE ZEICHNUNGEN,  MODELLE  ETC. BLEIBEN  UNSER  AUSSCHLIESSLICHES
 41
0.7549450549
 72
0
100
AcDbText
  0
TEXT
  5
34F
100
AcDbEntity
  8
606312146-000-00-ED1_FORMAT
100
AcDbText
 62
2
  6
CONTINUOUS
 10
225.0528335394
 20
58.9772753192
  7
STANDARD
 40
1.4000001944
  1
EIGENTUM. SIE WERDEN NUR ZU DEM VEREINBARTEN  ZWECK ANVERTRAUT
 41
0.7976190476
 72
0
100
AcDbText
  0
TEXT
  5
350
100
AcDbEntity
  8
606312146-000-00-ED1_FORMAT
100
AcDbText
 62
2
  6
CONTINUOUS
 10
225.0528335394
 20
56.1772749305
  7
STANDARD
 40
1.4000001944
  1
UND DUERFEN ZU KEINEM ANDEREN  ZWECK VERWENDET WERDEN. KOPIEN
 41
0.8040593286
 72
0
100
AcDbText
  0
TEXT
  5
351
100
AcDbEntity
  8
606312146-000-00-ED1_FORMAT
100
AcDbText
 62
2
  6
CONTINUOUS
 10
225.0528335394
 20
53.3772745417
  7
STANDARD
 40
1.4000001944
  1
ODER  SONSTIGE  VERVIELFAELTIGUNGEN  DUERFEN  NUR ZU DEM VEREIN-
 41
0.7689732143
 72
0
100
AcDbText
  0
TEXT
  5
352
100
AcDbEntity
  8
606312146-000-00-ED1_FORMAT
100
AcDbText
 62
2
  6
CONTINUOUS
 10
225.0528335394
 20
50.577274153
  7
STANDARD
 40
1.4000001944
  1
BARTEN ZWECK ANGEFERTIGT WERDEN. WEDER ORIGINALE NOCH VERVIEL-
 41
0.7949308756
 72
0
100
AcDbText
  0
TEXT
  5
353
100
AcDbEntity
  8
606312146-000-00-ED1_FORMAT
100
AcDbText
 62
2
  6
CONTINUOUS
 10
225.0528335394
 20
47.7772737643
  7
STANDARD
 40
1.4000001944
  1
FAELTIGUNGEN  DUERFEN  DRITTEN  AUSGEHAENDIGT ODER IN SONSTIGER
 41
0.776266062
 72
0
100
AcDbText
  0
TEXT
  5
354
100
AcDbEntity
  8
606312146-000-00-ED1_FORMAT
100
AcDbText
 62
2
  6
CONTINUOUS
 10
225.0528335394
 20
44.9772733756
  7
STANDARD
 40
1.4000001944
  1
WEISE ZUGAENGLICH GEMACHT WERDEN.
 41
0.803030303
 72
0
100
AcDbText
  0
TEXT
  5
355
100
AcDbEntity
  8
606312146-000-00-ED1_FORMAT
100
AcDbText
 62
2
  6
CONTINUOUS
 10
225.1601630615
 20
39.378272574
  7
STANDARD
 40
1.8000002499
  1
MASSE OHNE TOLERANZANGABE
 41
0.7857142857
 72
0
100
AcDbText
  0
TEXT
  5
356
100
AcDbEntity
  8
606312146-000-00-ED1_FORMAT
100
AcDbText
 62
2
  6
CONTINUOUS
 10
236.0244502841
 20
36.6782721992
  7
STANDARD
 40
1.8000002499
  1
ISO 2768-F
 41
0.7571428571
 72
0
100
AcDbText
  0
TEXT
  5
357
100
AcDbEntity
  8
606312146-000-00-ED1_FORMAT
100
AcDbText
 62
2
  6
CONTINUOUS
 10
262.1543713235
 20
39.5917730329
  7
STANDARD
 40
1.8000002499
  1
UNBEMASSTE EINZELHEITEN
 41
0.7608695652
 72
0
100
AcDbText
  0
TEXT
  5
358
100
AcDbEntity
  8
606312146-000-00-ED1_FORMAT
100
AcDbText
 62
2
  6
CONTINUOUS
 10
267.382943478
 20
36.8917726581
  7
STANDARD
 40
1.8000002499
  1
NACH WERKSNORM
 41
0.8350340136
 72
0
100
AcDbText
  0
TEXT
  5
359
100
AcDbEntity
  8
606312146-000-00-ED1_FORMAT
100
AcDbText
 62
2
  6
CONTINUOUS
 10
150.063304016
 20
38.7910868059
  7
STANDARD
 40
2.0
  1
ZUSAETZLICH ZU VA-NR. 07.05.01 BESCHRIFTET MIT:
 41
0.7507598784
 72
1
 11
185.3490183017
 21
38.7910868059
100
AcDbText
  0
TEXT
  5
35A
100
AcDbEntity
  8
606312146-000-00-ED1_FORMAT
100
AcDbText
 62
2
  6
CONTINUOUS
 10
224.7601228044
 20
20.7999897947
  7
STANDARD
 40
2.5
  1
TECHNISCHE SPEZIFIKATION:
 41
0.7466666667
 72
0
100
AcDbText
  0
TEXT
  5
35B
100
AcDbEntity
  8
606312146-000-00-ED1_FORMAT
100
AcDbText
 62
2
  6
CONTINUOUS
 10
224.8199471988
 20
31.7602174681
  7
STANDARD
 40
2.5
  1
BENENNUNG:
 41
0.7285714286
 72
0
100
AcDbText
  0
TEXT
  5
35C
100
AcDbEntity
  8
606312146-000-00-ED1_FORMAT
100
AcDbText
 62
2
  6
CONTINUOUS
 10
224.5262063004
 20
11.0903924223
  7
STANDARD
 40
1.6000002221
  1
ERSATZ F. ZCHNR.:
 41
0.7380952381
 72
0
100
AcDbText
  0
TEXT
  5
35D
100
AcDbEntity
  8
606312146-000-00-ED1_FORMAT
100
AcDbText
 62
2
  6
CONTINUOUS
 10
300.4889576042
 20
10.8414910836
  7
STANDARD
 40
1.6000002221
  1
ERSETZT D. ZCHNR.:
 41
0.7473544974
 72
0
100
AcDbText
  0
TEXT
  5
35E
100
AcDbEntity
  8
606312146-000-00-ED1_FORMAT
100
AcDbText
 62
2
  6
CONTINUOUS
 10
379.498513208
 20
60.814916182
  7
STANDARD
 40
2.0000002777
  1
DATUM
 41
0.8523809524
 72
0
100
AcDbText
  0
TEXT
  5
35F
100
AcDbEntity
  8
606312146-000-00-ED1_FORMAT
100
AcDbText
 62
2
  6
CONTINUOUS
 10
398.0389134502
 20
60.814916182
  7
STANDARD
 40
2.0000002777
  1
NAME
 41
0.8035714286
 72
0
100
AcDbText
  0
TEXT
  5
360
100
AcDbEntity
  8
606312146-000-00-ED1_FORMAT
100
AcDbText
 62
2
  6
CONTINUOUS
 10
366.6248819325
 20
54.9911796252
  7
STANDARD
 40
2.0000002777
  1
GEZ.
 41
0.7142857143
 72
0
100
AcDbText
  0
TEXT
  5
361
100
AcDbEntity
  8
606312146-000-00-ED1_FORMAT
100
AcDbText
 62
2
  6
CONTINUOUS
 10
366.6248819325
 20
48.9031554343
  7
STANDARD
 40
2.0
  1
GEPR.
 41
0.7285714286
 72
0
100
AcDbText
  0
TEXT
  5
362
100
AcDbEntity
  8
606312146-000-00-ED1_FORMAT
100
AcDbText
 62
2
  6
CONTINUOUS
 10
366.6248819325
 20
42.8151311047
  7
STANDARD
 40
2.0
  1
FREIG.
 41
0.7023809524
 72
0
100
AcDbText
  0
TEXT
  5
363
100
AcDbEntity
  8
606312146-000-00-ED1_FORMAT
100
AcDbText
 62
2
  6
CONTINUOUS
 10
300.5448732723
 20
20.8921153842
  7
STANDARD
 40
2.5
  1
MATERIALNUMMER:
 41
0.7571428571
 72
0
100
AcDbText
  0
TEXT
  5
364
100
AcDbEntity
  8
606312146-000-00-ED1_FORMAT
100
AcDbText
 62
2
  6
CONTINUOUS
 10
345.5006276188
 20
20.8921153842
  7
STANDARD
 40
2.5
  1
ZEICHNUNGSNUMMER:
 41
0.7549019608
 72
0
100
AcDbText
  0
TEXT
  5
365
100
AcDbEntity
  8
606312146-000-00-ED1_FORMAT
100
AcDbText
 62
2
  6
CONTINUOUS
 10
400.7764463981
 20
32.1524019301
  7
STANDARD
 40
2.0
  1
ORIGIN
 41
0.7380952381
 72
0
100
AcDbText
  0
TEXT
  5
366
100
AcDbEntity
  8
606312146-000-00-ED1_FORMAT
100
AcDbText
 62
2
  6
CONTINUOUS
 10
400.4059589228
 20
21.1649440759
  7
STANDARD
 40
2.5
  1
INDEX
 41
0.780952381
 72
0
100
AcDbText
  0
TEXT
  5
367
100
AcDbEntity
  8
606312146-000-00-ED1_FORMAT
100
AcDbText
 62
2
  6
CONTINUOUS
 10
366.825457919
 20
36.6922441013
  7
STANDARD
 40
2.0000002777
  1
MASSSTAB: 
 41
0.7714285714
 72
0
100
AcDbText
  0
TEXT
  5
368
100
AcDbEntity
  8
606312146-000-00-ED1_FORMAT
100
AcDbText
 62
2
  6
CONTINUOUS
 10
382.2540314895
 20
36.6922441013
  7
STANDARD
 40
2.0000002777
  1
1:1
 41
0.5
 72
0
100
AcDbText
  0
TEXT
  5
369
100
AcDbEntity
  8
606312146-000-00-ED1_FORMAT
100
AcDbText
 62
2
  6
CONTINUOUS
 10
148.8802806988
 20
67.4938922276
  7
STANDARD
 40
2.0000002777
  1
POS
 41
0.7857142857
 72
0
100
AcDbText
  0
TEXT
  5
36A
100
AcDbEntity
  8
606312146-000-00-ED1_FORMAT
100
AcDbText
 62
2
  6
CONTINUOUS
 10
156.2800350516
 20
67.4938922276
  7
STANDARD
 40
2.0000002777
  1
TYP
 41
0.8333333333
 72
0
100
AcDbText
  0
TEXT
  5
36B
100
AcDbEntity
  8
606312146-000-00-ED1_FORMAT
100
AcDbText
 62
2
  6
CONTINUOUS
 10
163.3396899162
 20
67.5421772957
  7
STANDARD
 40
2.0000002777
  1
MENGE
 41
0.7714285714
 72
0
100
AcDbText
  0
TEXT
  5
36C
100
AcDbEntity
  8
606312146-000-00-ED1_FORMAT
100
AcDbText
 62
2
  6
CONTINUOUS
 10
172.6578100909
 20
67.5585023576
  7
STANDARD
 40
2.0000002777
  1
ME
 41
0.7857142857
 72
0
100
AcDbText
  0
TEXT
  5
36D
100
AcDbEntity
  8
606312146-000-00-ED1_FORMAT
100
AcDbText
 62
2
  6
CONTINUOUS
 10
181.2151302056
 20
67.5585023576
  7
STANDARD
 40
2.0000002777
  1
MATERIALNUMMER
 41
0.7857142857
 72
0
100
AcDbText
  0
TEXT
  5
36E
100
AcDbEntity
  8
606312146-000-00-ED1_FORMAT
100
AcDbText
 62
2
  6
CONTINUOUS
 10
257.4508902212
 20
67.6477439033
  7
STANDARD
 40
2.0000002777
  1
BENENNUNG
 41
0.7698412698
 72
0
100
AcDbText
  0
TEXT
  5
36F
100
AcDbEntity
  8
606312146-000-00-ED1_FORMAT
100
AcDbText
 62
2
  6
CONTINUOUS
 10
321.8093099266
 20
67.455938924
  7
STANDARD
 40
2.0000002777
  1
TECHNISCHE SPEZIFIKATION
 41
0.7628968254
 72
0
100
AcDbText
  0
TEXT
  5
370
100
AcDbEntity
  8
606312146-000-00-ED1_FORMAT
100
AcDbText
 62
2
  6
CONTINUOUS
 10
378.8634420866
 20
67.8395488825
  7
STANDARD
 40
2.0000002777
  1
KUNDENNUMMER
 41
0.7956349206
 72
0
100
AcDbText
  0
TEXT
  5
371
100
AcDbEntity
  8
606312146-000-00-ED1_FORMAT
100
AcDbText
 62
2
  6
CONTINUOUS
 10
334.8050437149
 20
48.3350050929
  7
TEXTSTYLE_2
 40
1.8000001121
  1
Dr. Kress KG
 41
0.7361111111
 72
0
100
AcDbText
  0
TEXT
  5
372
100
AcDbEntity
  8
606312146-000-00-ED1_FORMAT
100
AcDbText
 62
7
  6
CONTINUOUS
 10
334.8050437149
 20
57.9850056872
  7
TEXTSTYLE_2
 40
2.5000001557
  1
MAPAL
 41
0.8
 72
0
100
AcDbText
  0
TEXT
  5
373
100
AcDbEntity
  8
606312146-000-00-ED1_FORMAT
100
AcDbText
 62
2
  6
CONTINUOUS
 10
334.8050437149
 20
53.3350053976
  7
TEXTSTYLE_2
 40
1.8000001121
  1
Präzisionswerkzeuge
 41
0.7034461153
 72
0
100
AcDbText
  0
TEXT
  5
374
100
AcDbEntity
  8
606312146-000-00-ED1_FORMAT
100
AcDbText
 62
2
  6
CONTINUOUS
 10
378.2047936993
 20
10.9096736719
  7
STANDARD
 40
1.6
  1
BLATT   V.   BLAETTERN
 41
0.7781385281
 72
0
100
AcDbText
  0
TEXT
  5
375
100
AcDbEntity
  8
606312146-000-00-ED1_FORMAT
100
AcDbText
 62
2
  6
CONTINUOUS
 10
385.137224502
 20
10.8641703019
  7
STANDARD
 40
1.6
  1
1
 41
0.5714285714
 72
0
100
AcDbText
  0
TEXT
  5
376
100
AcDbEntity
  8
606312146-000-00-ED1_FORMAT
100
AcDbText
 62
2
  6
CONTINUOUS
 10
391.2747609807
 20
10.9140689725
  7
STANDARD
 40
1.6
  1
1
 41
0.5714285714
 72
0
100
AcDbText
  0
TEXT
  5
377
100
AcDbEntity
  8
606312146-000-00-ED1_FORMAT
100
AcDbText
 62
2
  6
CONTINUOUS
 10
398.7751202552
 20
36.7556960436
  7
STANDARD
 40
2.0
  1
A3
 41
0.7857142857
 72
0
100
AcDbText
  0
TEXT
  5
378
100
AcDbEntity
  8
606312146-000-00-ED1_FORMAT
100
AcDbText
 62
2
  6
CONTINUOUS
 10
23.9272382303
 20
282.7195210512
  7
STANDARD
 40
1.9999995576
  1
MASCH.-NR.:
 41
0.7186147186
 72
0
100
AcDbText
  0
TEXT
  5
379
100
AcDbEntity
  8
606312146-000-00-ED1_FORMAT
100
AcDbText
 62
2
  6
CONTINUOUS
 10
61.221262923
 20
282.7441697896
  7
STANDARD
 40
1.9999995184
  1
STATION:
 41
0.7410714286
 72
0
100
AcDbText
  0
TEXT
  5
37A
100
AcDbEntity
  8
606312146-000-00-ED1_FORMAT
100
AcDbText
 62
2
  6
CONTINUOUS
 10
99.2119750426
 20
282.7441697896
  7
STANDARD
 40
1.9999995184
  1
SPINDEL:
 41
0.7023809524
 72
0
100
AcDbText
  0
TEXT
  5
37B
100
AcDbEntity
  8
606312146-000-00-ED1_FORMAT
100
AcDbText
 62
2
  6
CONTINUOUS
 10
23.5637846434
 20
277.4328879656
  7
STANDARD
 40
1.9999995576
  1
WERKST.-BEN.:
 41
0.7527472527
 72
0
100
AcDbText
  0
TEXT
  5
37C
100
AcDbEntity
  8
606312146-000-00-ED1_FORMAT
100
AcDbText
 62
2
  6
CONTINUOUS
 10
23.7506774
 20
266.657832536
  7
STANDARD
 40
1.9999995184
  1
WERKSTOFF:
 41
0.7857142857
 72
0
100
AcDbText
  0
TEXT
  5
37D
100
AcDbEntity
  8
606312146-000-00-ED1_FORMAT
100
AcDbText
 62
2
  6
CONTINUOUS
 10
99.2058269153
 20
260.6643446337
  7
STANDARD
 40
1.9999995184
  1
BOHRUNGS-NR.:
 41
0.7307692308
 72
0
100
AcDbText
  0
TEXT
  5
37E
100
AcDbEntity
  8
606312146-000-00-ED1_FORMAT
100
AcDbText
 62
2
  6
CONTINUOUS
 10
23.8681648642
 20
272.062255871
  7
STANDARD
 40
1.9999995576
  1
WERKST.-NR.:
 41
0.755952381
 72
0
100
AcDbText
  0
TEXT
  5
37F
100
AcDbEntity
  8
606312146-000-00-ED1_FORMAT
100
AcDbText
 62
2
  6
CONTINUOUS
 10
61.140009526
 20
260.6643443929
  7
STANDARD
 40
2.0
  1
OP-NR.:
 41
0.6836734694
 72
0
100
AcDbText
  0
TEXT
  5
380
100
AcDbEntity
  8
606312146-000-00-ED1_FORMAT
100
AcDbText
 62
2
  6
CONTINUOUS
 10
23.9309790234
 20
260.9091406462
  7
STANDARD
 40
2.0
  1
TOOL-NR.:
 41
0.6984126984
 72
0
100
AcDbText
  0
INSERT
  5
381
100
AcDbEntity
  8
606312146-000-00-ED1_FORMAT
100
AcDbBlockReference
 62
3
  6
CONTINUOUS
  2
BARCODEBOX_BL0
 10
87.5
 20
46.5
  0
DIMENSION
  5
382
100
AcDbEntity
  8
606312146-000-00-ED1_DIM
100
AcDbDimension
 62
3
  6
CONTINUOUS
  2
*D0
 10
150.7370746527
 20
130.178529002
 11
150.6888987712
 21
131.5643146823
 70
164
 71
2
 42
10.0
  1
<>
  3
DIMSTYLE_1
100
AcDbRadialDimension
 15
143.5028210795
 25
137.0825550187
  0
DIMENSION
  5
383
100
AcDbEntity
  8
30558364_DIM
100
AcDbDimension
 62
3
  6
CONTINUOUS
  2
*D1
 10
274.7870746527
 20
111.178529002
 11
230.9243647087
 21
110.741029002
 70
160
 71
3
 42
10.0
  1
<>\PVERSTELLWEG
  3
DIMSTYLE_2
100
AcDbAlignedDimension
 13
264.7870746527
 23
156.178529002
 14
274.7870746527
 24
156.178529002
100
AcDbRotatedDimension
  0
DIMENSION
  5
384
100
AcDbEntity
  8
30530890_DIM
100
AcDbDimension
 62
3
  6
CONTINUOUS
  2
*D2
 10
285.9462983438
 20
170.2122422032
 11
287.8585779885
 21
192.3385028488
 70
162
 71
2
 42
0.0785398163
  3
DIMSTYLE_3
100
AcDb2LineAngularDimension
 13
285.3949122504
 23
156.178529002
 14
290.0647484522
 24
156.178529002
 15
290.6354225907
 25
169.8432001214
 16
287.031655486
 26
163.141909795
  0
DIMENSION
  5
385
100
AcDbEntity
  8
30530890_DIM
100
AcDbDimension
 62
3
  6
CONTINUOUS
  2
*D3
 10
256.7870746527
 20
191.178529002
 11
236.5078221075
 21
193.803529002
 70
160
 71
3
 42
6.0
  1
M<>(4x)
  3
DIMSTYLE_4
100
AcDbAlignedDimension
 13
250.7870746527
 23
172.0286075343
 14
256.7870746527
 24
172.0286075343
100
AcDbRotatedDimension
  0
DIMENSION
  5
386
100
AcDbEntity
  8
30530890_DIM
100
AcDbDimension
 62
3
  6
CONTINUOUS
  2
*D4
 10
311.7870746527
 20
91.178529002
 11
280.1620746527
 21
93.803529002
 70
160
 71
2
 42
58.0
  3
DIMSTYLE_5
100
AcDbAlignedDimension
 13
253.7870746527
 23
140.7429037063
 14
311.7870746527
 24
145.1029194936
100
AcDbRotatedDimension
  0
DIMENSION
  5
387
100
AcDbEntity
  8
30530890_DIM
100
AcDbDimension
 62
3
  6
CONTINUOUS
  2
*D5
 10
311.7870746527
 20
101.178529002
 11
285.5370746527
 21
103.803529002
 70
160
 71
2
 42
47.0
  3
DIMSTYLE_5
100
AcDbAlignedDimension
 13
264.7870746527
 23
145.1029194936
 14
311.7870746527
 24
145.1029194936
100
AcDbRotatedDimension
  0
DIMENSION
  5
388
100
AcDbEntity
  8
30530890_DIM
100
AcDbDimension
 62
3
  6
CONTINUOUS
  2
*D6
 10
111.7870746527
 20
214.178529002
 11
207.6620746527
 21
216.803529002
 70
160
 71
2
 42
200.0
  3
DIMSTYLE_6
100
AcDbAlignedDimension
 13
311.7870746527
 23
159.1177602338
 14
111.7870746527
 24
156.178529002
 50
180.0
100
AcDbRotatedDimension
  0
INSERT
  5
389
100
AcDbEntity
  8
606312146-000-00-ED1_CL
100
AcDbBlockReference
 62
3
  6
CONTINUOUS
  2
GEOM_TOLERANCE_SYMBOLS_BL1
 10
105.5370746527
 20
205.4781049707
  0
DIMENSION
  5
38A
100
AcDbEntity
  8
30530890_DIM
100
AcDbDimension
 62
3
  6
CONTINUOUS
  2
*D7
 10
51.8870746527
 20
161.178529002
 11
49.2620746527
 21
171.4587596107
 70
160
 71
1
 42
10.0
  1
M<>x1
  3
DIMSTYLE_2
100
AcDbAlignedDimension
 13
246.7870746527
 23
151.178529002
 14
246.7870746527
 24
161.178529002
 50
90.0
100
AcDbRotatedDimension
  0
DIMENSION
  5
38B
100
AcDbEntity
  8
30530890_DIM
100
AcDbDimension
 62
3
  6
CONTINUOUS
  2
*D8
 10
326.7870746527
 20
162.178529002
 11
325.216914624
 21
154.0739118564
 70
160
 71
2
 42
12.0
  1
%%c<>
  3
DIMSTYLE_2
100
AcDbAlignedDimension
 13
308.7870746527
 23
150.178529002
 14
308.7870746527
 24
162.178529002
 50
90.0
100
AcDbRotatedDimension
  0
LEADER
  5
38C
100
AcDbEntity
  8
606312146-000-00-ED1_CL
100
AcDbLeader
 62
3
  6
CONTINUOUS
  3
STANDARD
 71
1
 72
0
 73
2
 75
0
 76
3
 10
326.7870746527
 20
150.178529002
 30
0.0
 10
326.7870746527
 20
121.178529002
 30
0.0
 10
326.7871166947
 20
121.178529002
 30
0.0
340
38D
1001
ACAD
1000
DSTYLE
1002
{
1070
77
1070
0
1002
}
  0
INSERT
  5
38D
102
{ACAD_REACTORS
330
38C
102
}
100
AcDbEntity
  8
606312146-000-00-ED1_CL
100
AcDbBlockReference
 62
3
  6
CONTINUOUS
  2
GEOM_TOLERANCE_SYMBOLS_BL2
 10
347.3055340897
 20
121.1787900893
  0
TEXT
  5
38E
100
AcDbEntity
  8
0
100
AcDbText
 62
2
  6
CONTINUOUS
 10
331.7870746527
 20
109.428529002
  7
STANDARD
 40
3.5
  1
FUER SCHAEFTE MIT
 41
0.7759103641
 72
0
100
AcDbText
  0
TEXT
  5
38F
100
AcDbEntity
  8
0
100
AcDbText
 62
2
  6
CONTINUOUS
 10
331.7870746527
 20
104.178529002
  7
STANDARD
 40
3.5
  1
TOLERANZFELD h6
 41
0.7650793651
 72
0
100
AcDbText
  0
LEADER
  5
390
100
AcDbEntity
  8
0
100
AcDbLeader
 62
3
  6
CONTINUOUS
  3
STANDARD
 71
1
 72
0
 73
3
 75
0
 76
3
 10
326.7870746527
 20
150.178529002
 30
0.0
 10
326.7870746527
 20
111.178529002
 30
0.0
 10
331.7870746527
 20
111.178529002
 30
0.0
1001
ACAD
1000
DSTYLE
1002
{
1070
77
1070
0
1002
}
  0
DIMENSION
  5
391
100
AcDbEntity
  8
30530890_DIM
100
AcDbDimension
 62
3
  6
CONTINUOUS
  2
*D9
 10
260.962255708
 20
204.178529002
 11
283.5621651803
 21
206.803529002
 70
160
 71
2
 42
50.8248189447
  1
(<>)
  3
DIMSTYLE_7
100
AcDbAlignedDimension
 13
311.7870746527
 23
167.2541385103
 14
260.962255708
 24
172.178529002
 50
180.0
100
AcDbRotatedDimension
  0
DIMENSION
  5
392
100
AcDbEntity
  8
30530890_DIM
100
AcDbDimension
 62
3
  6
CONTINUOUS
  2
*D10
 10
346.7870746527
 20
172.178529002
 11
345.272923826
 21
153.9621622735
 70
160
 71
2
 42
32.0
  1
%%c<>
  3
DIMSTYLE_5
100
AcDbAlignedDimension
 13
259.336183053
 23
140.178529002
 14
260.5817568443
 24
172.178529002
 50
90.0
100
AcDbRotatedDimension
  0
DIMENSION
  5
393
100
AcDbEntity
  8
30530890_DIM
100
AcDbDimension
 62
3
  6
CONTINUOUS
  2
*D11
 10
336.7870746527
 20
168.178529002
 11
335.300928427
 21
153.906287482
 70
160
 71
2
 42
24.0
  1
%%c<>
  3
DIMSTYLE_2
100
AcDbAlignedDimension
 13
311.7870746527
 23
144.178529002
 14
311.7870746527
 24
168.178529002
 50
90.0
100
AcDbRotatedDimension
  0
LINE
  5
394
100
AcDbEntity
  8
606312146-000-00-ED1_FORMAT
100
AcDbLine
 62
3
  6
CONTINUOUS
 10
264.9
 20
287.0000007463
 11
410.0
 21
287.0000007463
  0
LINE
  5
395
100
AcDbEntity
  8
606312146-000-00-ED1_FORMAT
100
AcDbLine
 62
3
  6
CONTINUOUS
 10
264.9
 20
287.0000007463
 11
264.9
 21
225.0000007463
  0
LINE
  5
396
100
AcDbEntity
  8
606312146-000-00-ED1_FORMAT
100
AcDbLine
 62
3
  6
CONTINUOUS
 10
264.9
 20
225.0000007463
 11
410.0
 21
225.0000007463
  0
LINE
  5
397
100
AcDbEntity
  8
606312146-000-00-ED1_FORMAT
100
AcDbLine
 62
3
  6
CONTINUOUS
 10
410.0
 20
287.0000007463
 11
410.0
 21
225.0000007463
  0
LINE
  5
398
100
AcDbEntity
  8
606312146-000-00-ED1_FORMAT
100
AcDbLine
 62
3
  6
CONTINUOUS
 10
23.0
 20
10.0
 11
23.0
 21
210.0
  0
LINE
  5
399
100
AcDbEntity
  8
606312146-000-00-ED1_FORMAT
100
AcDbLine
 62
3
  6
CONTINUOUS
 10
23.0
 20
10.0
 11
29.0
 21
10.0
  0
LINE
  5
39A
100
AcDbEntity
  8
606312146-000-00-ED1_FORMAT
100
AcDbLine
 62
3
  6
CONTINUOUS
 10
29.0
 20
10.0
 11
29.0
 21
210.0
  0
LINE
  5
39B
100
AcDbEntity
  8
606312146-000-00-ED1_FORMAT
100
AcDbLine
 62
3
  6
CONTINUOUS
 10
23.0
 20
210.0
 11
29.0
 21
210.0
  0
LINE
  5
39C
100
AcDbEntity
  8
606312146-000-00-ED1_FORMAT
100
AcDbLine
 62
3
  6
CONTINUOUS
 10
146.999991584
 20
65.00000176
 11
410.000001584
 21
65.00000176
  0
LINE
  5
39D
100
AcDbEntity
  8
606312146-000-00-ED1_FORMAT
100
AcDbLine
 62
3
  6
CONTINUOUS
 10
146.999991584
 20
65.00000176
 11
146.999991584
 21
78.50000176
  0
LINE
  5
39E
100
AcDbEntity
  8
606312146-000-00-ED1_FORMAT
100
AcDbLine
 62
3
  6
CONTINUOUS
 10
146.999991584
 20
72.50000176
 11
410.000001584
 21
72.50000176
  0
LINE
  5
39F
100
AcDbEntity
  8
606312146-000-00-ED1_FORMAT
100
AcDbLine
 62
3
  6
CONTINUOUS
 10
146.999991584
 20
78.50000176
 11
410.000001584
 21
78.50000176
  0
LINE
  5
3A0
100
AcDbEntity
  8
606312146-000-00-ED1_FORMAT
100
AcDbLine
 62
3
  6
CONTINUOUS
 10
154.499991584
 20
65.00000176
 11
154.499991584
 21
78.50000176
  0
LINE
  5
3A1
100
AcDbEntity
  8
606312146-000-00-ED1_FORMAT
100
AcDbLine
 62
3
  6
CONTINUOUS
 10
161.999991584
 20
65.00000176
 11
161.999991584
 21
78.50000176
  0
LINE
  5
3A2
100
AcDbEntity
  8
606312146-000-00-ED1_FORMAT
100
AcDbLine
 62
3
  6
CONTINUOUS
 10
171.398801584
 20
65.00000176
 11
171.398801584
 21
78.50000176
  0
LINE
  5
3A3
100
AcDbEntity
  8
606312146-000-00-ED1_FORMAT
100
AcDbLine
 62
3
  6
CONTINUOUS
 10
176.398801584
 20
65.00000176
 11
176.398801584
 21
78.50000176
  0
LINE
  5
3A4
100
AcDbEntity
  8
606312146-000-00-ED1_FORMAT
100
AcDbLine
 62
3
  6
CONTINUOUS
 10
208.000001584
 20
65.00000176
 11
208.000001584
 21
78.50000176
  0
LINE
  5
3A5
100
AcDbEntity
  8
606312146-000-00-ED1_FORMAT
100
AcDbLine
 62
3
  6
CONTINUOUS
 10
314.000001584
 20
65.00000176
 11
314.000001584
 21
78.50000176
  0
LINE
  5
3A6
100
AcDbEntity
  8
606312146-000-00-ED1_FORMAT
100
AcDbLine
 62
3
  6
CONTINUOUS
 10
366.000001584
 20
65.00000176
 11
366.000001584
 21
78.50000176
  0
LINE
  5
3A7
100
AcDbEntity
  8
606312146-000-00-ED1_FORMAT
100
AcDbLine
 62
3
  6
CONTINUOUS
 10
410.000001584
 20
65.00000176
 11
410.000001584
 21
78.50000176
  0
TEXT
  5
3A8
100
AcDbEntity
  8
606312146-000-00-ED1_FORMAT
100
AcDbText
 62
2
  6
CONTINUOUS
 10
148.224991584
 20
74.25000176
  7
STANDARD
 40
2.0
  1
1
 41
0.5714285714
 72
0
100
AcDbText
  0
TEXT
  5
3A9
100
AcDbEntity
  8
606312146-000-00-ED1_FORMAT
100
AcDbText
 62
2
  6
CONTINUOUS
 10
163.224991584
 20
74.25000176
  7
STANDARD
 40
2.0
  1
1
 41
0.5714285714
 72
0
100
AcDbText
  0
TEXT
  5
3AA
100
AcDbEntity
  8
606312146-000-00-ED1_FORMAT
100
AcDbText
 62
2
  6
CONTINUOUS
 10
177.623801584
 20
74.25000176
  7
STANDARD
 40
2.0
  1
30252542
 41
0.7589285714
 72
0
100
AcDbText
  0
TEXT
  5
3AB
100
AcDbEntity
  8
606312146-000-00-ED1_FORMAT
100
AcDbText
 62
2
  6
CONTINUOUS
 10
209.225001584
 20
74.25000176
  7
STANDARD
 40
2.0
  1
ANSCHLAGSCHRAUBE
 41
0.7916666667
 72
0
100
AcDbText
  0
TEXT
  5
3AC
100
AcDbEntity
  8
606312146-000-00-ED1_FORMAT
100
AcDbText
 62
2
  6
CONTINUOUS
 10
315.225001584
 20
74.25000176
  7
STANDARD
 40
2.0
  1
M10X1 SW5
 41
0.8095238095
 72
0
100
AcDbText
  0
TEXT
  5
3AD
100
AcDbEntity
  8
606312146-000-00-ED1_FORMAT
100
AcDbText
 62
2
  6
CONTINUOUS
 10
406.5221444411
 20
76.72000176
  7
STANDARD
 40
0.03
  1
30252542_HP
 41
0.7662337662
 72
2
 11
406.775001584
 21
76.72000176
100
AcDbText
  0
TEXT
  5
3AE
100
AcDbEntity
  8
606312146-000-00-ED1_FORMAT
100
AcDbText
 62
2
  6
CONTINUOUS
 10
407.7257158697
 20
76.72000176
  7
STANDARD
 40
0.03
  1
KA
 41
0.8214285714
 72
2
 11
407.775001584
 21
76.72000176
100
AcDbText
  0
TEXT
  5
3AF
100
AcDbEntity
  8
606312146-000-00-ED1_FORMAT
100
AcDbText
 62
2
  6
CONTINUOUS
 10
408.7278587269
 20
76.72000176
  7
STANDARD
 40
0.03
  1
HP
 41
0.7857142857
 72
2
 11
408.775001584
 21
76.72000176
100
AcDbText
  0
LINE
  5
3B0
100
AcDbEntity
  8
606312146-000-00-ED1_FORMAT
100
AcDbLine
 62
3
  6
CONTINUOUS
 10
23.0
 20
287.0
 11
135.0
 21
287.0
  0
LINE
  5
3B1
100
AcDbEntity
  8
606312146-000-00-ED1_FORMAT
100
AcDbLine
 62
3
  6
CONTINUOUS
 10
23.0
 20
287.0
 11
23.0
 21
259.00001
  0
LINE
  5
3B2
100
AcDbEntity
  8
606312146-000-00-ED1_FORMAT
100
AcDbLine
 62
3
  6
CONTINUOUS
 10
23.0
 20
259.00001
 11
135.0
 21
259.00001
  0
LINE
  5
3B3
100
AcDbEntity
  8
606312146-000-00-ED1_FORMAT
100
AcDbLine
 62
3
  6
CONTINUOUS
 10
135.0
 20
287.0
 11
135.0
 21
259.00001
  0
LINE
  5
3B4
100
AcDbEntity
  8
606312146-000-00-ED1_FORMAT
100
AcDbLine
 62
3
  6
CONTINUOUS
 10
146.999991584
 20
65.00000176
 11
409.999961584
 21
65.00000176
  0
LINE
  5
3B5
100
AcDbEntity
  8
606312146-000-00-ED1_FORMAT
100
AcDbLine
 62
3
  6
CONTINUOUS
 10
146.999991584
 20
65.00000176
 11
146.999991584
 21
10.00000176
  0
LINE
  5
3B6
100
AcDbEntity
  8
606312146-000-00-ED1_FORMAT
100
AcDbLine
 62
3
  6
CONTINUOUS
 10
146.999991584
 20
10.00000176
 11
409.999961584
 21
10.00000176
  0
LINE
  5
3B7
100
AcDbEntity
  8
606312146-000-00-ED1_FORMAT
100
AcDbLine
 62
3
  6
CONTINUOUS
 10
409.999961584
 20
65.00000176
 11
409.999961584
 21
10.00000176
  0
TEXT
  5
3B8
100
AcDbEntity
  8
606312146-000-00-ED1_FORMAT
100
AcDbText
 62
2
  6
CONTINUOUS
 10
184.5178487269
 20
60.75000176
  7
STANDARD
 40
2.5
  1
 
 41
0.7857142857
 72
1
 11
185.499991584
 21
60.75000176
100
AcDbText
  0
TEXT
  5
3B9
100
AcDbEntity
  8
606312146-000-00-ED1_FORMAT
100
AcDbText
 62
2
  6
CONTINUOUS
 10
154.130943965
 20
58.24975176
  7
STANDARD
 40
2.5
  1
AUSWUCHTGUETE DIN ISO 1940-G 
 41
0.7939244663
 72
1
 11
182.9107058697
 21
58.24975176
100
AcDbText
  0
TEXT
  5
3BA
100
AcDbEntity
  8
606312146-000-00-ED1_FORMAT
100
AcDbText
 62
2
  6
CONTINUOUS
 10
211.6904677745
 20
58.24975176
  7
STANDARD
 40
2.5
  1
2.5
 41
0.6904761905
 72
1
 11
214.2797534888
 21
58.24975176
100
AcDbText
  0
TEXT
  5
3BB
100
AcDbEntity
  8
606312146-000-00-ED1_FORMAT
100
AcDbText
 62
2
  6
CONTINUOUS
 10
184.5178487269
 20
56.57968176
  7
STANDARD
 40
2.5
  1
 
 41
0.7857142857
 72
1
 11
185.499991584
 21
56.57968176
100
AcDbText
  0
TEXT
  5
3BC
100
AcDbEntity
  8
606312146-000-00-ED1_FORMAT
100
AcDbText
 62
2
  6
CONTINUOUS
 10
167.7321344411
 20
52.82968176
  7
STANDARD
 40
2.5
  1
(KOMPLETT MONTIERT)
 41
0.7481203008
 72
1
 11
185.499991584
 21
52.82968176
100
AcDbText
  0
TEXT
  5
3BD
100
AcDbEntity
  8
606312146-000-00-ED1_FORMAT
100
AcDbText
 62
2
  6
CONTINUOUS
 10
378.122491584
 20
54.95468176
  7
STANDARD
 40
2.0
  1
05.06.14
 41
0.6964285714
 72
0
100
AcDbText
  0
TEXT
  5
3BE
100
AcDbEntity
  8
606312146-000-00-ED1_FORMAT
100
AcDbText
 62
2
  6
CONTINUOUS
 10
398.3772980126
 20
54.95468176
  7
STANDARD
 40
2.0
  1
MAM
 41
0.8571428571
 72
1
 11
400.948726584
 21
54.95468176
100
AcDbText
  0
TEXT
  5
3BF
100
AcDbEntity
  8
606312146-000-00-ED1_FORMAT
100
AcDbText
 62
2
  6
CONTINUOUS
 10
157.8511820602
 20
46.82968176
  7
STANDARD
 40
2.5
  1
FUER NENNDREHZAHL 
 41
0.7724867725
 72
1
 11
175.2321344411
 21
46.82968176
100
AcDbText
  0
TEXT
  5
3C0
100
AcDbEntity
  8
606312146-000-00-ED1_FORMAT
100
AcDbText
 62
2
  6
CONTINUOUS
 10
192.6130868221
 20
46.82968176
  7
STANDARD
 40
2.5
  1
25000
 41
0.7714285714
 72
1
 11
197.4345153935
 21
46.82968176
100
AcDbText
  0
TEXT
  5
3C1
100
AcDbEntity
  8
606312146-000-00-ED1_FORMAT
100
AcDbText
 62
2
  6
CONTINUOUS
 10
202.255943965
 20
46.82968176
  7
STANDARD
 40
2.5
  1
 MIN
 41
0.7678571429
 72
1
 11
206.0952296792
 21
46.82968176
100
AcDbText
  0
TEXT
  5
3C2
100
AcDbEntity
  8
606312146-000-00-ED1_FORMAT
100
AcDbText
 62
2
  6
CONTINUOUS
 10
209.9345153935
 20
48.70468176
  7
STANDARD
 40
2.5
  1
-1
 41
0.6428571429
 72
1
 11
211.5416582507
 21
48.70468176
100
AcDbText
  0
TEXT
  5
3C3
100
AcDbEntity
  8
606312146-000-00-ED1_FORMAT
100
AcDbText
 62
7
  6
CONTINUOUS
 10
225.224991584
 20
26.00000176
  7
STANDARD
 40
2.5
  1
THERMOCHUCK, HSK, STANDARDAUSFUEHRUNG
 41
0.7889317889
 72
0
100
AcDbText
  0
TEXT
  5
3C4
100
AcDbEntity
  8
606312146-000-00-ED1_FORMAT
100
AcDbText
 62
2
  6
CONTINUOUS
 10
402.5951996792
 20
26.00000176
  7
STANDARD
 40
2.0
  1
EHD
 41
0.8015873016
 72
1
 11
404.999961584
 21
26.00000176
100
AcDbText
  0
TEXT
  5
3C5
100
AcDbEntity
  8
606312146-000-00-ED1_FORMAT
100
AcDbText
 62
7
  6
CONTINUOUS
 10
225.224991584
 20
15.25000176
  7
STANDARD
 40
2.5
  1
MTC-HSK-A100-12-200-1-0-A
 41
0.7533333333
 72
0
100
AcDbText
  0
TEXT
  5
3C6
100
AcDbEntity
  8
606312146-000-00-ED1_FORMAT
100
AcDbText
 62
7
  6
CONTINUOUS
 10
301.224991584
 20
15.25000176
  7
STANDARD
 40
2.5
  1
30558364
 41
0.75
 72
0
100
AcDbText
  0
TEXT
  5
3C7
100
AcDbEntity
  8
606312146-000-00-ED1_FORMAT
100
AcDbText
 62
7
  6
CONTINUOUS
 10
346.224991584
 20
15.25000176
  7
STANDARD
 40
2.5
  1
606312146-000-00-ED1
 41
0.7416666667
 72
0
100
AcDbText
  0
TEXT
  5
3C8
100
AcDbEntity
  8
606312146-000-00-ED1_FORMAT
100
AcDbText
 62
2
  6
CONTINUOUS
 10
403.0356758697
 20
15.25000176
  7
STANDARD
 40
2.5
  1
00
 41
0.7857142857
 72
1
 11
404.999961584
 21
15.25000176
100
AcDbText
  0
LINE
  5
3C9
100
AcDbEntity
  8
606312146-000-00-ED1_FORMAT
100
AcDbLine
 62
3
  6
CONTINUOUS
 10
29.0
 20
10.0
 11
29.0
 21
145.0
  0
LINE
  5
3CA
100
AcDbEntity
  8
606312146-000-00-ED1_FORMAT
100
AcDbLine
 62
3
  6
CONTINUOUS
 10
29.0
 20
10.0
 11
35.0
 21
10.0
  0
LINE
  5
3CB
100
AcDbEntity
  8
606312146-000-00-ED1_FORMAT
100
AcDbLine
 62
3
  6
CONTINUOUS
 10
35.0
 20
10.0
 11
35.0
 21
145.0
  0
LINE
  5
3CC
100
AcDbEntity
  8
606312146-000-00-ED1_FORMAT
100
AcDbLine
 62
3
  6
CONTINUOUS
 10
29.0
 20
80.0
 11
35.0
 21
80.0
  0
LINE
  5
3CD
100
AcDbEntity
  8
606312146-000-00-ED1_FORMAT
100
AcDbLine
 62
3
  6
CONTINUOUS
 10
29.0
 20
145.0
 11
35.0
 21
145.0
  0
TEXT
  5
3CE
100
AcDbEntity
  8
606312146-000-00-ED1_FORMAT
100
AcDbText
 62
2
  6
CONTINUOUS
 10
34.0
 20
11.225
  7
STANDARD
 40
3.0
  1
AEHNLICH:
 50
90.0
 41
0.7116402116
 72
0
100
AcDbText
  0
TEXT
  5
3CF
100
AcDbEntity
  8
606312146-000-00-ED1_FORMAT
100
AcDbText
 62
2
  6
CONTINUOUS
 10
34.0
 20
81.225
  7
STANDARD
 40
3.0
  1
SKIZZE:
 50
90.0
 41
0.693877551
 72
0
100
AcDbText
  0
LINE
  5
3D0
100
AcDbEntity
  8
606312146-000-00-ED1_FORMAT
100
AcDbLine
 62
3
  6
CONTINUOUS
 10
365.999998592
 20
35.0000008
 11
294.999998592
 21
35.0000008
  0
LINE
  5
3D1
100
AcDbEntity
  8
606312146-000-00-ED1_FORMAT
100
AcDbLine
 62
3
  6
CONTINUOUS
 10
365.999998592
 20
35.0000008
 11
365.999998592
 21
43.5000008
  0
LINE
  5
3D2
100
AcDbEntity
  8
606312146-000-00-ED1_FORMAT
100
AcDbLine
 62
3
  6
CONTINUOUS
 10
365.999998592
 20
43.5000008
 11
294.999998592
 21
43.5000008
  0
LINE
  5
3D3
100
AcDbEntity
  8
606312146-000-00-ED1_FORMAT
100
AcDbLine
 62
3
  6
CONTINUOUS
 10
294.999998592
 20
35.0000008
 11
294.999998592
 21
43.5000008
  0
TEXT
  5
3D4
100
AcDbEntity
  8
606312146-000-00-ED1_FORMAT
100
AcDbText
 62
2
  6
CONTINUOUS
 10
304.9642843063
 20
38.0000008
  7
STANDARD
 40
2.5
  1
PATENTRECHTLICH GESCHUETZT
 41
0.7857142857
 72
1
 11
330.499998592
 21
38.0000008
100
AcDbText
  0
TEXT
  5
3D5
100
AcDbEntity
  8
606312146-000-00-ED1_TEXT
100
AcDbText
 62
2
  6
CONTINUOUS
 10
147.5649083442
 20
241.678529002
  7
STANDARD
 40
5.0
  1
TRENNSTELLE HSK-A100
 41
0.7666666667
 72
0
100
AcDbText
  0
TEXT
  5
3D6
100
AcDbEntity
  8
606312146-000-00-ED1_TEXT
100
AcDbText
 62
2
  6
CONTINUOUS
 10
147.5649083442
 20
234.178529002
  7
STANDARD
 40
5.0
  1
(AEHNLICH DIN 69893-1)
 41
0.7251082251
 72
0
100
AcDbText
  0
TEXT
  5
3D7
100
AcDbEntity
  8
606312146-000-00-ED1_TEXT
100
AcDbText
 62
2
  6
CONTINUOUS
 10
147.5649083442
 20
226.678529002
  7
STANDARD
 40
5.0
  1
NACH MN609 BLATT 2-6
 41
0.7952380952
 72
0
100
AcDbText
  0
INSERT
  5
3D8
100
AcDbEntity
  8
606312146-000-00-ED1_CL
100
AcDbBlockReference
 62
3
  6
CONTINUOUS
  2
GEOM_TOLERANCE_SYMBOLS_BL3
 10
73.0975681697
 20
198.5623795106
  0
LEADER
  5
3D9
100
AcDbEntity
  8
606312146-000-00-ED1_CL
100
AcDbLeader
 62
3
  6
CONTINUOUS
  3
STANDARD
 71
1
 72
0
 73
2
 75
0
 76
2
 10
258.0870746527
 20
155.8515133558
 30
0.0
 10
208.7542358406
 20
115.0804434543
 30
0.0
340
3DA
1001
ACAD
1000
DSTYLE
1002
{
1070
77
1070
0
1070
341
1005
21B
1002
}
  0
INSERT
  5
3DA
102
{ACAD_REACTORS
330
3D9
102
}
100
AcDbEntity
  8
606312146-000-00-ED1_CL
100
AcDbBlockReference
 62
3
  6
CONTINUOUS
  2
BOMBALLOON_BL4
 10
204.0329342609
 20
111.178529002
  0
LINE
  5
3DB
100
AcDbEntity
  8
606312146-000-00-ED1_FORMAT
100
AcDbLine
 62
6
  6
HIDDEN
 10
0.0
 20
297.0
 11
0.0
 21
0.0
  0
LINE
  5
3DC
100
AcDbEntity
  8
606312146-000-00-ED1_FORMAT
100
AcDbLine
 62
7
  6
CONTINUOUS
 10
18.0
 20
292.0
 11
18.0
 21
5.0
  0
LINE
  5
3DD
100
AcDbEntity
  8
606312146-000-00-ED1_FORMAT
100
AcDbLine
 62
3
  6
CONTINUOUS
 10
23.0
 20
259.0000097341
 11
23.0
 21
10.0
  0
LINE
  5
3DE
100
AcDbEntity
  8
606312146-000-00-ED1_FORMAT
100
AcDbLine
 62
7
  6
CONTINUOUS
 10
23.0
 20
259.0000097341
 11
23.0
 21
287.0
  0
LINE
  5
3DF
100
AcDbEntity
  8
606312146-000-00-ED1_FORMAT
100
AcDbLine
 62
3
  6
CONTINUOUS
 10
28.9999998068
 20
9.9999999122
 11
28.9999998068
 21
209.9999964
  0
LINE
  5
3E0
100
AcDbEntity
  8
606312146-000-00-ED1_FORMAT
100
AcDbLine
 62
3
  6
CONTINUOUS
 10
60.0
 20
10.0
 11
60.0
 21
5.0
  0
LINE
  5
3E1
100
AcDbEntity
  8
606312146-000-00-ED1_FORMAT
100
AcDbLine
 62
3
  6
CONTINUOUS
 10
60.0
 20
287.0
 11
60.0
 21
292.0
  0
LINE
  5
3E2
100
AcDbEntity
  8
606312146-000-00-ED1_FORMAT
100
AcDbLine
 62
7
  6
CONTINUOUS
 10
60.4999978194
 20
259.0000097341
 11
60.4999978194
 21
265.0000076482
  0
LINE
  5
3E3
100
AcDbEntity
  8
606312146-000-00-ED1_FORMAT
100
AcDbLine
 62
7
  6
CONTINUOUS
 10
60.500027184
 20
281.0047710842
 11
60.500027184
 21
287.0
  0
LINE
  5
3E4
100
AcDbEntity
  8
606312146-000-00-ED1_FORMAT
100
AcDbLine
 62
6
  6
HIDDEN
 10
0.0
 20
0.0
 11
420.0
 21
0.0
  0
LINE
  5
3E5
100
AcDbEntity
  8
606312146-000-00-ED1_FORMAT
100
AcDbLine
 62
7
  6
CONTINUOUS
 10
18.0
 20
5.0
 11
415.0
 21
5.0
  0
LINE
  5
3E6
100
AcDbEntity
  8
606312146-000-00-ED1_FORMAT
100
AcDbLine
 62
3
  6
CONTINUOUS
 10
23.0
 20
10.0
 11
146.999991584
 21
10.0
  0
LINE
  5
3E7
100
AcDbEntity
  8
606312146-000-00-ED1_FORMAT
100
AcDbLine
 62
7
  6
CONTINUOUS
 10
146.999991584
 20
10.0
 11
410.0
 21
10.0
  0
LINE
  5
3E8
100
AcDbEntity
  8
606312146-000-00-ED1_FORMAT
100
AcDbLine
 62
7
  6
CONTINUOUS
 10
410.0
 20
13.500000112
 11
223.999992048
 21
13.500000112
  0
LINE
  5
3E9
100
AcDbEntity
  8
606312146-000-00-ED1_FORMAT
100
AcDbLine
 62
90
  6
CONTINUOUS
 10
312.2078938594
 20
51.4102448407
 11
310.7759784871
 21
51.0971573578
  0
LINE
  5
3EA
100
AcDbEntity
  8
606312146-000-00-ED1_FORMAT
100
AcDbLine
 62
90
  6
CONTINUOUS
 10
319.4917077896
 20
52.901936523
 11
319.3296594397
 21
52.8683099645
  0
LINE
  5
3EB
100
AcDbEntity
  8
606312146-000-00-ED1_FORMAT
100
AcDbLine
 62
7
  6
CONTINUOUS
 10
410.0
 20
24.250000456
 11
223.999992048
 21
24.250000456
  0
LINE
  5
3EC
100
AcDbEntity
  8
606312146-000-00-ED1_FORMAT
100
AcDbLine
 62
7
  6
CONTINUOUS
 10
98.4999894133
 20
259.0000097341
 11
98.4999894133
 21
265.0000076482
  0
LINE
  5
3ED
100
AcDbEntity
  8
606312146-000-00-ED1_FORMAT
100
AcDbLine
 62
7
  6
CONTINUOUS
 10
98.5000134045
 20
281.0047710842
 11
98.5000134045
 21
287.0
  0
LINE
  5
3EE
100
AcDbEntity
  8
606312146-000-00-ED1_FORMAT
100
AcDbLine
 62
90
  6
CONTINUOUS
 10
321.735726484
 20
56.8852055088
 11
323.4244472923
 21
57.2541096455
  0
LINE
  5
3EF
100
AcDbEntity
  8
606312146-000-00-ED1_FORMAT
100
AcDbLine
 62
90
  6
CONTINUOUS
 10
318.9722070248
 20
53.9466639135
 11
319.1567773488
 21
53.9852228758
  0
LINE
  5
3F0
100
AcDbEntity
  8
606312146-000-00-ED1_FORMAT
100
AcDbLine
 62
90
  6
CONTINUOUS
 10
312.8827596241
 20
51.5341805479
 11
312.6779866622
 21
51.4975518225
  0
LINE
  5
3F1
100
AcDbEntity
  8
606312146-000-00-ED1_FORMAT
100
AcDbLine
 62
90
  6
CONTINUOUS
 10
313.0814290701
 20
51.5666398089
 11
312.8827596241
 21
51.5341805479
  0
LINE
  5
3F2
100
AcDbEntity
  8
606312146-000-00-ED1_FORMAT
100
AcDbLine
 62
90
  6
CONTINUOUS
 10
313.2753377736
 20
51.5952614843
 11
313.0814290701
 21
51.5666398089
  0
LINE
  5
3F3
100
AcDbEntity
  8
606312146-000-00-ED1_FORMAT
100
AcDbLine
 62
90
  6
CONTINUOUS
 10
319.3296594397
 20
52.8683099645
 11
319.1589746146
 21
52.8447618368
  0
LINE
  5
3F4
100
AcDbEntity
  8
606312146-000-00-ED1_FORMAT
100
AcDbLine
 62
90
  6
CONTINUOUS
 10
313.4658590257
 20
51.6203545645
 11
313.2753377736
 21
51.5952614843
  0
LINE
  5
3F5
100
AcDbEntity
  8
606312146-000-00-ED1_FORMAT
100
AcDbLine
 62
90
  6
CONTINUOUS
 10
313.6543355999
 20
51.6422471134
 11
313.4658590257
 21
51.6203545645
  0
LINE
  5
3F6
100
AcDbEntity
  8
606312146-000-00-ED1_FORMAT
100
AcDbLine
 62
90
  6
CONTINUOUS
 10
313.842171305
 20
51.6612557511
 11
313.6543355999
 21
51.6422471134
  0
LINE
  5
3F7
100
AcDbEntity
  8
606312146-000-00-ED1_FORMAT
100
AcDbLine
 62
90
  6
CONTINUOUS
 10
314.0306783968
 20
51.6777047267
 11
313.842171305
 21
51.6612557511
  0
LINE
  5
3F8
100
AcDbEntity
  8
606312146-000-00-ED1_FORMAT
100
AcDbLine
 62
90
  6
CONTINUOUS
 10
315.8962180637
 20
51.8284043516
 11
315.6792380698
 21
51.8104561999
  0
LINE
  5
3F9
100
AcDbEntity
  8
606312146-000-00-ED1_FORMAT
100
AcDbLine
 62
90
  6
CONTINUOUS
 10
318.7601098437
 20
53.9302530848
 11
318.9722070248
 21
53.9466639135
  0
LINE
  5
3FA
100
AcDbEntity
  8
606312146-000-00-ED1_FORMAT
100
AcDbLine
 62
90
  6
CONTINUOUS
 10
319.1589746146
 20
52.8447618368
 11
318.9797143495
 21
52.8313264722
  0
LINE
  5
3FB
100
AcDbEntity
  8
606312146-000-00-ED1_FORMAT
100
AcDbLine
 62
90
  6
CONTINUOUS
 10
314.221260684
 20
51.6919106602
 11
314.0306783968
 21
51.6777047267
  0
LINE
  5
3FC
100
AcDbEntity
  8
606312146-000-00-ED1_FORMAT
100
AcDbLine
 62
90
  6
CONTINUOUS
 10
315.4687888379
 20
52.775513633
 11
314.4483114794
 21
52.701374987
  0
LINE
  5
3FD
100
AcDbEntity
  8
606312146-000-00-ED1_FORMAT
100
AcDbLine
 62
90
  6
CONTINUOUS
 10
316.110634581
 20
51.8401879522
 11
315.8962180637
 21
51.8284043516
  0
LINE
  5
3FE
100
AcDbEntity
  8
606312146-000-00-ED1_FORMAT
100
AcDbLine
 62
7
  6
CONTINUOUS
 10
223.999992048
 20
35.0000008
 11
410.0
 21
35.0000008
  0
LINE
  5
3FF
100
AcDbEntity
  8
606312146-000-00-ED1_FORMAT
100
AcDbLine
 62
7
  6
CONTINUOUS
 10
410.0
 20
40.9546819905
 11
365.999998592
 21
40.9546819905
  0
LINE
  5
400
100
AcDbEntity
  8
606312146-000-00-ED1_FORMAT
100
AcDbLine
 62
7
  6
CONTINUOUS
 10
365.999998592
 20
43.500001072
 11
146.999991584
 21
43.500001072
  0
LINE
  5
401
100
AcDbEntity
  8
606312146-000-00-ED1_FORMAT
100
AcDbLine
 62
7
  6
CONTINUOUS
 10
410.0
 20
46.9546821825
 11
365.999998592
 21
46.9546821825
  0
LINE
  5
402
100
AcDbEntity
  8
606312146-000-00-ED1_FORMAT
100
AcDbLine
 62
90
  6
CONTINUOUS
 10
316.8693931732
 20
47.6402784804
 11
317.6933373163
 21
47.6402784804
  0
LINE
  5
403
100
AcDbEntity
  8
606312146-000-00-ED1_FORMAT
100
AcDbLine
 62
3
  6
CONTINUOUS
 10
110.0
 20
10.0
 11
110.0
 21
5.0
  0
LINE
  5
404
100
AcDbEntity
  8
606312146-000-00-ED1_FORMAT
100
AcDbLine
 62
3
  6
CONTINUOUS
 10
110.0
 20
287.0
 11
110.0
 21
292.0
  0
LINE
  5
405
100
AcDbEntity
  8
606312146-000-00-ED1_FORMAT
100
AcDbLine
 62
90
  6
CONTINUOUS
 10
314.5568930292
 20
53.7608995891
 11
315.336312023
 21
53.8016825201
  0
LINE
  5
406
100
AcDbEntity
  8
606312146-000-00-ED1_FORMAT
100
AcDbLine
 62
90
  6
CONTINUOUS
 10
317.504647119
 20
56.61847423
 11
317.7463768704
 21
56.6283962582
  0
LINE
  5
407
100
AcDbEntity
  8
606312146-000-00-ED1_FORMAT
100
AcDbLine
 62
90
  6
CONTINUOUS
 10
317.7463768704
 20
56.6283962582
 11
317.9648522258
 21
56.6358997682
  0
LINE
  5
408
100
AcDbEntity
  8
606312146-000-00-ED1_FORMAT
100
AcDbLine
 62
90
  6
CONTINUOUS
 10
316.3231284907
 20
51.8472298838
 11
316.110634581
 21
51.8401879522
  0
LINE
  5
409
100
AcDbEntity
  8
606312146-000-00-ED1_FORMAT
100
AcDbLine
 62
90
  6
CONTINUOUS
 10
317.9648522258
 20
56.6358997682
 11
318.1659935957
 21
56.6412594182
  0
LINE
  5
40A
100
AcDbEntity
  8
606312146-000-00-ED1_FORMAT
100
AcDbLine
 62
90
  6
CONTINUOUS
 10
318.1659935957
 20
56.6412594182
 11
318.3558434611
 21
56.6447384223
  0
LINE
  5
40B
100
AcDbEntity
  8
606312146-000-00-ED1_FORMAT
100
AcDbLine
 62
90
  6
CONTINUOUS
 10
316.5344322148
 20
51.8509568432
 11
316.3231284907
 21
51.8472298838
  0
LINE
  5
40C
100
AcDbEntity
  8
606312146-000-00-ED1_FORMAT
100
AcDbLine
 62
90
  6
CONTINUOUS
 10
318.9797143495
 20
52.8313264722
 11
318.7919396796
 21
52.828049647
  0
LINE
  5
40D
100
AcDbEntity
  8
606312146-000-00-ED1_FORMAT
100
AcDbLine
 62
90
  6
CONTINUOUS
 10
318.310067091
 20
47.930279414
 11
316.2669761435
 21
47.930279414
  0
LINE
  5
40E
100
AcDbEntity
  8
606312146-000-00-ED1_FORMAT
100
AcDbLine
 62
90
  6
CONTINUOUS
 10
315.6645591138
 20
48.2202803476
 11
318.9268273833
 21
48.2202803476
  0
LINE
  5
40F
100
AcDbEntity
  8
606312146-000-00-ED1_FORMAT
100
AcDbLine
 62
3
  6
CONTINUOUS
 10
23.0
 20
48.5
 11
18.0
 21
48.5
  0
LINE
  5
410
100
AcDbEntity
  8
606312146-000-00-ED1_FORMAT
100
AcDbLine
 62
3
  6
CONTINUOUS
 10
410.0
 20
48.5
 11
415.0
 21
48.5
  0
LINE
  5
411
100
AcDbEntity
  8
606312146-000-00-ED1_FORMAT
100
AcDbLine
 62
90
  6
CONTINUOUS
 10
319.5435571581
 20
48.5102774665
 11
315.0621420841
 21
48.5102774665
  0
LINE
  5
412
100
AcDbEntity
  8
606312146-000-00-ED1_FORMAT
100
AcDbLine
 62
90
  6
CONTINUOUS
 10
314.4597250544
 20
48.8002784001
 11
320.1602869328
 21
48.8002784001
  0
LINE
  5
413
100
AcDbEntity
  8
606312146-000-00-ED1_FORMAT
100
AcDbLine
 62
90
  6
CONTINUOUS
 10
328.4875274416
 20
49.0902793337
 11
328.1043792244
 21
49.0902793337
  0
LINE
  5
414
100
AcDbEntity
  8
606312146-000-00-ED1_FORMAT
100
AcDbLine
 62
90
  6
CONTINUOUS
 10
320.7770472251
 20
49.0902793337
 11
313.8573080247
 21
49.0902793337
  0
LINE
  5
415
100
AcDbEntity
  8
606312146-000-00-ED1_FORMAT
100
AcDbLine
 62
90
  6
CONTINUOUS
 10
306.5293961914
 20
49.3802802673
 11
307.1344987681
 21
49.3802802673
  0
LINE
  5
416
100
AcDbEntity
  8
606312146-000-00-ED1_FORMAT
100
AcDbLine
 62
90
  6
CONTINUOUS
 10
313.254890995
 20
49.3802802673
 11
321.3937769999
 21
49.3802802673
  0
LINE
  5
417
100
AcDbEntity
  8
606312146-000-00-ED1_FORMAT
100
AcDbLine
 62
90
  6
CONTINUOUS
 10
327.5346465229
 20
49.3802802673
 11
328.1114898205
 21
49.3802802673
  0
LINE
  5
418
100
AcDbEntity
  8
606312146-000-00-ED1_FORMAT
100
AcDbLine
 62
90
  6
CONTINUOUS
 10
328.2963042852
 20
49.3802802673
 11
328.8704925534
 21
49.3802802673
  0
LINE
  5
419
100
AcDbEntity
  8
606312146-000-00-ED1_FORMAT
100
AcDbLine
 62
90
  6
CONTINUOUS
 10
328.8858123785
 20
49.6702773862
 11
328.2963042852
 21
49.6702773862
  0
LINE
  5
41A
100
AcDbEntity
  8
606312146-000-00-ED1_FORMAT
100
AcDbLine
 62
90
  6
CONTINUOUS
 10
327.5366912008
 20
49.6702773862
 11
326.9648833038
 21
49.6702773862
  0
LINE
  5
41B
100
AcDbEntity
  8
606312146-000-00-ED1_FORMAT
100
AcDbLine
 62
90
  6
CONTINUOUS
 10
322.0105067746
 20
49.6702773862
 11
312.6524739653
 21
49.6702773862
  0
LINE
  5
41C
100
AcDbEntity
  8
606312146-000-00-ED1_FORMAT
100
AcDbLine
 62
90
  6
CONTINUOUS
 10
307.6516801968
 20
49.6702773862
 11
307.1118852413
 21
49.6702773862
  0
LINE
  5
41D
100
AcDbEntity
  8
606312146-000-00-ED1_FORMAT
100
AcDbLine
 62
90
  6
CONTINUOUS
 10
306.8541337604
 20
49.6702773862
 11
306.2529679515
 21
49.6702773862
  0
LINE
  5
41E
100
AcDbEntity
  8
606312146-000-00-ED1_FORMAT
100
AcDbLine
 62
90
  6
CONTINUOUS
 10
306.2529679515
 20
49.9602783197
 11
306.8542558307
 21
49.9602783197
  0
LINE
  5
41F
100
AcDbEntity
  8
606312146-000-00-ED1_FORMAT
100
AcDbLine
 62
90
  6
CONTINUOUS
 10
307.6427080283
 20
49.9602783197
 11
308.1688921431
 21
49.9602783197
  0
LINE
  5
420
100
AcDbEntity
  8
606312146-000-00-ED1_FORMAT
100
AcDbLine
 62
90
  6
CONTINUOUS
 10
312.0500569355
 20
49.9602783197
 11
322.6272365493
 21
49.9602783197
  0
LINE
  5
421
100
AcDbEntity
  8
606312146-000-00-ED1_FORMAT
100
AcDbLine
 62
90
  6
CONTINUOUS
 10
326.3951200848
 20
49.9602783197
 11
326.961892581
 21
49.9602783197
  0
LINE
  5
422
100
AcDbEntity
  8
606312146-000-00-ED1_FORMAT
100
AcDbLine
 62
90
  6
CONTINUOUS
 10
328.2963042852
 20
49.9602783197
 11
328.8858123785
 21
49.9602783197
  0
LINE
  5
423
100
AcDbEntity
  8
606312146-000-00-ED1_FORMAT
100
AcDbLine
 62
90
  6
CONTINUOUS
 10
328.8858123785
 20
50.2502792533
 11
328.2963042852
 21
50.2502792533
  0
LINE
  5
424
100
AcDbEntity
  8
606312146-000-00-ED1_FORMAT
100
AcDbLine
 62
90
  6
CONTINUOUS
 10
326.3870939612
 20
50.2502792533
 11
325.8253873833
 21
50.2502792533
  0
LINE
  5
425
100
AcDbEntity
  8
606312146-000-00-ED1_FORMAT
100
AcDbLine
 62
90
  6
CONTINUOUS
 10
323.2439968416
 20
50.2502792533
 11
311.4476093883
 21
50.2502792533
  0
LINE
  5
426
100
AcDbEntity
  8
606312146-000-00-ED1_FORMAT
100
AcDbLine
 62
90
  6
CONTINUOUS
 10
308.6563494488
 20
50.2502792533
 11
308.1735308152
 21
50.2502792533
  0
LINE
  5
427
100
AcDbEntity
  8
606312146-000-00-ED1_FORMAT
100
AcDbLine
 62
90
  6
CONTINUOUS
 10
306.8543473835
 20
50.2502792533
 11
306.2529679515
 21
50.2502792533
  0
LINE
  5
428
100
AcDbEntity
  8
606312146-000-00-ED1_FORMAT
100
AcDbLine
 62
90
  6
CONTINUOUS
 10
306.2529679515
 20
50.5402801869
 11
306.8544389362
 21
50.5402801869
  0
LINE
  5
429
100
AcDbEntity
  8
606312146-000-00-ED1_FORMAT
100
AcDbLine
 62
90
  6
CONTINUOUS
 10
308.4533770241
 20
50.5402801869
 11
308.6559222027
 21
50.5402801869
  0
LINE
  5
42A
100
AcDbEntity
  8
606312146-000-00-ED1_FORMAT
100
AcDbLine
 62
90
  6
CONTINUOUS
 10
310.8451923586
 20
50.5402801869
 11
323.8607266164
 21
50.5402801869
  0
LINE
  5
42B
100
AcDbEntity
  8
606312146-000-00-ED1_FORMAT
100
AcDbLine
 62
90
  6
CONTINUOUS
 10
325.2556241642
 20
50.5402801869
 11
325.8122953414
 21
50.5402801869
  0
LINE
  5
42C
100
AcDbEntity
  8
606312146-000-00-ED1_FORMAT
100
AcDbLine
 62
90
  6
CONTINUOUS
 10
328.2963042852
 20
50.5402801869
 11
328.8858123785
 21
50.5402801869
  0
LINE
  5
42D
100
AcDbEntity
  8
606312146-000-00-ED1_FORMAT
100
AcDbLine
 62
90
  6
CONTINUOUS
 10
328.8858123785
 20
50.8302773058
 11
328.2963042852
 21
50.8302773058
  0
LINE
  5
42E
100
AcDbEntity
  8
606312146-000-00-ED1_FORMAT
100
AcDbLine
 62
90
  6
CONTINUOUS
 10
325.4072355017
 20
50.8302773058
 11
325.1310514025
 21
50.8302773058
  0
LINE
  5
42F
100
AcDbEntity
  8
606312146-000-00-ED1_FORMAT
100
AcDbLine
 62
90
  6
CONTINUOUS
 10
324.4774563911
 20
50.8302773058
 11
310.2427753289
 21
50.8302773058
  0
LINE
  5
430
100
AcDbEntity
  8
606312146-000-00-ED1_FORMAT
100
AcDbLine
 62
90
  6
CONTINUOUS
 10
308.6555254742
 20
50.8302773058
 11
308.4533770241
 21
50.8302773058
  0
LINE
  5
431
100
AcDbEntity
  8
606312146-000-00-ED1_FORMAT
100
AcDbLine
 62
90
  6
CONTINUOUS
 10
306.8545304889
 20
50.8302773058
 11
306.2529679515
 21
50.8302773058
  0
LINE
  5
432
100
AcDbEntity
  8
606312146-000-00-ED1_FORMAT
100
AcDbLine
 62
90
  6
CONTINUOUS
 10
306.2529679515
 20
51.1202782394
 11
306.8546220417
 21
51.1202782394
  0
LINE
  5
433
100
AcDbEntity
  8
606312146-000-00-ED1_FORMAT
100
AcDbLine
 62
90
  6
CONTINUOUS
 10
308.4533770241
 20
51.1202782394
 11
308.655098228
 21
51.1202782394
  0
LINE
  5
434
100
AcDbEntity
  8
606312146-000-00-ED1_FORMAT
100
AcDbLine
 62
90
  6
CONTINUOUS
 10
309.6403582992
 20
51.1202782394
 11
310.7759784871
 21
51.1202782394
  0
LINE
  5
435
100
AcDbEntity
  8
606312146-000-00-ED1_FORMAT
100
AcDbLine
 62
90
  6
CONTINUOUS
 10
310.8817219019
 20
51.1202782394
 11
323.7463467264
 21
51.1202782394
  0
LINE
  5
436
100
AcDbEntity
  8
606312146-000-00-ED1_FORMAT
100
AcDbLine
 62
90
  6
CONTINUOUS
 10
324.5632718261
 20
51.1202782394
 11
325.0942166834
 21
51.1202782394
  0
LINE
  5
437
100
AcDbEntity
  8
606312146-000-00-ED1_FORMAT
100
AcDbLine
 62
90
  6
CONTINUOUS
 10
325.1310514025
 20
51.1202782394
 11
325.4072355017
 21
51.1202782394
  0
LINE
  5
438
100
AcDbEntity
  8
606312146-000-00-ED1_FORMAT
100
AcDbLine
 62
90
  6
CONTINUOUS
 10
327.9700103195
 20
51.1202782394
 11
328.8858123785
 21
51.1202782394
  0
LINE
  5
439
100
AcDbEntity
  8
606312146-000-00-ED1_FORMAT
100
AcDbLine
 62
90
  6
CONTINUOUS
 10
328.2166228837
 20
51.410279173
 11
327.2521758022
 21
51.410279173
  0
LINE
  5
43A
100
AcDbEntity
  8
606312146-000-00-ED1_FORMAT
100
AcDbLine
 62
90
  6
CONTINUOUS
 10
325.4072355017
 20
51.410279173
 11
324.5094082974
 21
51.410279173
  0
LINE
  5
43B
100
AcDbEntity
  8
606312146-000-00-ED1_FORMAT
100
AcDbLine
 62
90
  6
CONTINUOUS
 10
322.9744655749
 20
51.410279173
 11
312.2078938594
 21
51.410279173
  0
LINE
  5
43C
100
AcDbEntity
  8
606312146-000-00-ED1_FORMAT
100
AcDbLine
 62
90
  6
CONTINUOUS
 10
310.7759784871
 20
51.410279173
 11
309.7665484926
 21
51.410279173
  0
LINE
  5
43D
100
AcDbEntity
  8
606312146-000-00-ED1_FORMAT
100
AcDbLine
 62
90
  6
CONTINUOUS
 10
309.5571978936
 20
51.410279173
 11
309.0379412695
 21
51.410279173
  0
LINE
  5
43E
100
AcDbEntity
  8
606312146-000-00-ED1_FORMAT
100
AcDbLine
 62
90
  6
CONTINUOUS
 10
308.6546709819
 20
51.410279173
 11
308.4533770241
 21
51.410279173
  0
LINE
  5
43F
100
AcDbEntity
  8
606312146-000-00-ED1_FORMAT
100
AcDbLine
 62
90
  6
CONTINUOUS
 10
306.8547135944
 20
51.410279173
 11
306.2529679515
 21
51.410279173
  0
LINE
  5
440
100
AcDbEntity
  8
606312146-000-00-ED1_FORMAT
100
AcDbLine
 62
90
  6
CONTINUOUS
 10
306.2529679515
 20
51.7002801066
 11
306.8548356647
 21
51.7002801066
  0
LINE
  5
441
100
AcDbEntity
  8
606312146-000-00-ED1_FORMAT
100
AcDbLine
 62
90
  6
CONTINUOUS
 10
308.4533770241
 20
51.7002801066
 11
309.4360431009
 21
51.7002801066
  0
LINE
  5
442
100
AcDbEntity
  8
606312146-000-00-ED1_FORMAT
100
AcDbLine
 62
90
  6
CONTINUOUS
 10
309.889900551
 20
51.7002801066
 11
310.7759784871
 21
51.7002801066
  0
LINE
  5
443
100
AcDbEntity
  8
606312146-000-00-ED1_FORMAT
100
AcDbLine
 62
90
  6
CONTINUOUS
 10
312.2078938594
 20
51.7002801066
 11
312.7341084918
 21
51.7002801066
  0
LINE
  5
444
100
AcDbEntity
  8
606312146-000-00-ED1_FORMAT
100
AcDbLine
 62
90
  6
CONTINUOUS
 10
314.2231222564
 20
51.7002801066
 11
320.5559473578
 21
51.7002801066
  0
LINE
  5
445
100
AcDbEntity
  8
606312146-000-00-ED1_FORMAT
100
AcDbLine
 62
90
  6
CONTINUOUS
 10
322.0495387594
 20
51.7002801066
 11
322.9518825656
 21
51.7002801066
  0
LINE
  5
446
100
AcDbEntity
  8
606312146-000-00-ED1_FORMAT
100
AcDbLine
 62
90
  6
CONTINUOUS
 10
324.4555752862
 20
51.7002801066
 11
325.4072355017
 21
51.7002801066
  0
LINE
  5
447
100
AcDbEntity
  8
606312146-000-00-ED1_FORMAT
100
AcDbLine
 62
90
  6
CONTINUOUS
 10
326.932168458
 20
51.7002801066
 11
327.4721770366
 21
51.7002801066
  0
LINE
  5
448
100
AcDbEntity
  8
606312146-000-00-ED1_FORMAT
100
AcDbLine
 62
90
  6
CONTINUOUS
 10
316.7452476576
 20
51.8527840833
 11
316.5344322148
 21
51.8527840833
  0
LINE
  5
449
100
AcDbEntity
  8
606312146-000-00-ED1_FORMAT
100
AcDbLine
 62
90
  6
CONTINUOUS
 10
316.9563377587
 20
51.854138301
 11
316.7452476576
 21
51.854138301
  0
LINE
  5
44A
100
AcDbEntity
  8
606312146-000-00-ED1_FORMAT
100
AcDbLine
 62
90
  6
CONTINUOUS
 10
317.1683433871
 20
51.8564423783
 11
316.9563377587
 21
51.8564423783
  0
LINE
  5
44B
100
AcDbEntity
  8
606312146-000-00-ED1_FORMAT
100
AcDbLine
 62
90
  6
CONTINUOUS
 10
327.4483428066
 20
51.9902772255
 11
326.932168458
 21
51.9902772255
  0
LINE
  5
44C
100
AcDbEntity
  8
606312146-000-00-ED1_FORMAT
100
AcDbLine
 62
90
  6
CONTINUOUS
 10
325.4072355017
 20
51.9902772255
 11
324.4017422751
 21
51.9902772255
  0
LINE
  5
44D
100
AcDbEntity
  8
606312146-000-00-ED1_FORMAT
100
AcDbLine
 62
90
  6
CONTINUOUS
 10
322.3748866801
 20
51.9902772255
 11
322.1039821222
 21
51.9902772255
  0
LINE
  5
44E
100
AcDbEntity
  8
606312146-000-00-ED1_FORMAT
100
AcDbLine
 62
90
  6
CONTINUOUS
 10
320.6219568834
 20
51.9902772255
 11
318.793435041
 21
51.9902772255
  0
LINE
  5
44F
100
AcDbEntity
  8
606312146-000-00-ED1_FORMAT
100
AcDbLine
 62
90
  6
CONTINUOUS
 10
317.504647119
 20
51.9902772255
 11
317.1344993909
 21
51.9902772255
  0
LINE
  5
450
100
AcDbEntity
  8
606312146-000-00-ED1_FORMAT
100
AcDbLine
 62
90
  6
CONTINUOUS
 10
315.6400229794
 20
51.9902772255
 11
314.2883688425
 21
51.9902772255
  0
LINE
  5
451
100
AcDbEntity
  8
606312146-000-00-ED1_FORMAT
100
AcDbLine
 62
90
  6
CONTINUOUS
 10
312.8143697273
 20
51.9902772255
 11
312.2078938594
 21
51.9902772255
  0
LINE
  5
452
100
AcDbEntity
  8
606312146-000-00-ED1_FORMAT
100
AcDbLine
 62
90
  6
CONTINUOUS
 10
310.7759784871
 20
51.9902772255
 11
310.0132526095
 21
51.9902772255
  0
LINE
  5
453
100
AcDbEntity
  8
606312146-000-00-ED1_FORMAT
100
AcDbLine
 62
90
  6
CONTINUOUS
 10
309.3149188258
 20
51.9902772255
 11
308.4533770241
 21
51.9902772255
  0
LINE
  5
454
100
AcDbEntity
  8
606312146-000-00-ED1_FORMAT
100
AcDbLine
 62
90
  6
CONTINUOUS
 10
306.8549272175
 20
51.9902772255
 11
306.2529679515
 21
51.9902772255
  0
LINE
  5
455
100
AcDbEntity
  8
606312146-000-00-ED1_FORMAT
100
AcDbLine
 62
90
  6
CONTINUOUS
 10
306.2529679515
 20
52.280278159
 11
306.8550187702
 21
52.280278159
  0
LINE
  5
456
100
AcDbEntity
  8
606312146-000-00-ED1_FORMAT
100
AcDbLine
 62
90
  6
CONTINUOUS
 10
308.4533770241
 20
52.280278159
 11
309.1937640331
 21
52.280278159
  0
LINE
  5
457
100
AcDbEntity
  8
606312146-000-00-ED1_FORMAT
100
AcDbLine
 62
90
  6
CONTINUOUS
 10
310.1365741504
 20
52.280278159
 11
310.7759784871
 21
52.280278159
  0
LINE
  5
458
100
AcDbEntity
  8
606312146-000-00-ED1_FORMAT
100
AcDbLine
 62
90
  6
CONTINUOUS
 10
312.2078938594
 20
52.280278159
 11
312.8946309628
 21
52.280278159
  0
LINE
  5
459
100
AcDbEntity
  8
606312146-000-00-ED1_FORMAT
100
AcDbLine
 62
90
  6
CONTINUOUS
 10
314.353584911
 20
52.280278159
 11
315.576760036
 21
52.280278159
  0
LINE
  5
45A
100
AcDbEntity
  8
606312146-000-00-ED1_FORMAT
100
AcDbLine
 62
90
  6
CONTINUOUS
 10
317.0611656461
 20
52.280278159
 11
317.504647119
 21
52.280278159
  0
LINE
  5
45B
100
AcDbEntity
  8
606312146-000-00-ED1_FORMAT
100
AcDbLine
 62
90
  6
CONTINUOUS
 10
318.7929162422
 20
52.280278159
 11
320.6879358914
 21
52.280278159
  0
LINE
  5
45C
100
AcDbEntity
  8
606312146-000-00-ED1_FORMAT
100
AcDbLine
 62
90
  6
CONTINUOUS
 10
324.3479092639
 20
52.280278159
 11
325.4072355017
 21
52.280278159
  0
LINE
  5
45D
100
AcDbEntity
  8
606312146-000-00-ED1_FORMAT
100
AcDbLine
 62
90
  6
CONTINUOUS
 10
326.932168458
 20
52.280278159
 11
327.7005706055
 21
52.280278159
  0
LINE
  5
45E
100
AcDbEntity
  8
606312146-000-00-ED1_FORMAT
100
AcDbLine
 62
90
  6
CONTINUOUS
 10
328.2963653203
 20
52.5702790926
 11
326.932168458
 21
52.5702790926
  0
LINE
  5
45F
100
AcDbEntity
  8
606312146-000-00-ED1_FORMAT
100
AcDbLine
 62
90
  6
CONTINUOUS
 10
325.4072355017
 20
52.5702790926
 11
324.2940457352
 21
52.5702790926
  0
LINE
  5
460
100
AcDbEntity
  8
606312146-000-00-ED1_FORMAT
100
AcDbLine
 62
90
  6
CONTINUOUS
 10
320.7539148995
 20
52.5702790926
 11
318.7923974433
 21
52.5702790926
  0
LINE
  5
461
100
AcDbEntity
  8
606312146-000-00-ED1_FORMAT
100
AcDbLine
 62
90
  6
CONTINUOUS
 10
317.504647119
 20
52.5702790926
 11
316.9878624188
 21
52.5702790926
  0
LINE
  5
462
100
AcDbEntity
  8
606312146-000-00-ED1_FORMAT
100
AcDbLine
 62
90
  6
CONTINUOUS
 10
315.5135276102
 20
52.5702790926
 11
314.4188314971
 21
52.5702790926
  0
LINE
  5
463
100
AcDbEntity
  8
606312146-000-00-ED1_FORMAT
100
AcDbLine
 62
90
  6
CONTINUOUS
 10
312.9748921982
 20
52.5702790926
 11
312.2078938594
 21
52.5702790926
  0
LINE
  5
464
100
AcDbEntity
  8
606312146-000-00-ED1_FORMAT
100
AcDbLine
 62
90
  6
CONTINUOUS
 10
310.7759784871
 20
52.5702790926
 11
310.2599262088
 21
52.5702790926
  0
LINE
  5
465
100
AcDbEntity
  8
606312146-000-00-ED1_FORMAT
100
AcDbLine
 62
90
  6
CONTINUOUS
 10
309.0726397579
 20
52.5702790926
 11
308.4533770241
 21
52.5702790926
  0
LINE
  5
466
100
AcDbEntity
  8
606312146-000-00-ED1_FORMAT
100
AcDbLine
 62
90
  6
CONTINUOUS
 10
306.855110323
 20
52.5702790926
 11
306.2529679515
 21
52.5702790926
  0
LINE
  5
467
100
AcDbEntity
  8
606312146-000-00-ED1_FORMAT
100
AcDbLine
 62
90
  6
CONTINUOUS
 10
306.0443192568
 20
52.8602800262
 11
306.8552018757
 21
52.8602800262
  0
LINE
  5
468
100
AcDbEntity
  8
606312146-000-00-ED1_FORMAT
100
AcDbLine
 62
90
  6
CONTINUOUS
 10
308.4533770241
 20
52.8602800262
 11
308.9514849652
 21
52.8602800262
  0
LINE
  5
469
100
AcDbEntity
  8
606312146-000-00-ED1_FORMAT
100
AcDbLine
 62
90
  6
CONTINUOUS
 10
310.3832782673
 20
52.8602800262
 11
310.7759784871
 21
52.8602800262
  0
LINE
  5
46A
100
AcDbEntity
  8
606312146-000-00-ED1_FORMAT
100
AcDbLine
 62
90
  6
CONTINUOUS
 10
312.2078938594
 20
52.8602800262
 11
313.0551534337
 21
52.8602800262
  0
LINE
  5
46B
100
AcDbEntity
  8
606312146-000-00-ED1_FORMAT
100
AcDbLine
 62
90
  6
CONTINUOUS
 10
316.914528674
 20
52.8602800262
 11
317.504647119
 21
52.8602800262
  0
LINE
  5
46C
100
AcDbEntity
  8
606312146-000-00-ED1_FORMAT
100
AcDbLine
 62
90
  6
CONTINUOUS
 10
319.304635024
 20
52.8602800262
 11
320.8198939075
 21
52.8602800262
  0
LINE
  5
46D
100
AcDbEntity
  8
606312146-000-00-ED1_FORMAT
100
AcDbLine
 62
90
  6
CONTINUOUS
 10
324.240212724
 20
52.8602800262
 11
325.4072355017
 21
52.8602800262
  0
LINE
  5
46E
100
AcDbEntity
  8
606312146-000-00-ED1_FORMAT
100
AcDbLine
 62
90
  6
CONTINUOUS
 10
326.932168458
 20
52.8602800262
 11
328.8921600352
 21
52.8602800262
  0
LINE
  5
46F
100
AcDbEntity
  8
606312146-000-00-ED1_FORMAT
100
AcDbLine
 62
7
  6
CONTINUOUS
 10
410.0
 20
52.9546823745
 11
365.999998592
 21
52.9546823745
  0
LINE
  5
470
100
AcDbEntity
  8
606312146-000-00-ED1_FORMAT
100
AcDbLine
 62
90
  6
CONTINUOUS
 10
329.48795475
 20
53.1502809598
 11
326.932168458
 21
53.1502809598
  0
LINE
  5
471
100
AcDbEntity
  8
606312146-000-00-ED1_FORMAT
100
AcDbLine
 62
90
  6
CONTINUOUS
 10
325.4072355017
 20
53.1502809598
 11
324.1863797128
 21
53.1502809598
  0
LINE
  5
472
100
AcDbEntity
  8
606312146-000-00-ED1_FORMAT
100
AcDbLine
 62
90
  6
CONTINUOUS
 10
320.8859034331
 20
53.1502809598
 11
320.0719995738
 21
53.1502809598
  0
LINE
  5
473
100
AcDbEntity
  8
606312146-000-00-ED1_FORMAT
100
AcDbLine
 62
90
  6
CONTINUOUS
 10
317.504647119
 20
53.1502809598
 11
316.8411949292
 21
53.1502809598
  0
LINE
  5
474
100
AcDbEntity
  8
606312146-000-00-ED1_FORMAT
100
AcDbLine
 62
90
  6
CONTINUOUS
 10
313.1354146692
 20
53.1502809598
 11
312.2078938594
 21
53.1502809598
  0
LINE
  5
475
100
AcDbEntity
  8
606312146-000-00-ED1_FORMAT
100
AcDbLine
 62
90
  6
CONTINUOUS
 10
310.7759784871
 20
53.1502809598
 11
310.5066303258
 21
53.1502809598
  0
LINE
  5
476
100
AcDbEntity
  8
606312146-000-00-ED1_FORMAT
100
AcDbLine
 62
90
  6
CONTINUOUS
 10
308.8303606901
 20
53.1502809598
 11
308.4533770241
 21
53.1502809598
  0
LINE
  5
477
100
AcDbEntity
  8
606312146-000-00-ED1_FORMAT
100
AcDbLine
 62
90
  6
CONTINUOUS
 10
306.8552934284
 20
53.1502809598
 11
305.4760513992
 21
53.1502809598
  0
LINE
  5
478
100
AcDbEntity
  8
606312146-000-00-ED1_FORMAT
100
AcDbLine
 62
90
  6
CONTINUOUS
 10
304.9078140591
 20
53.4402780787
 11
306.8554154988
 21
53.4402780787
  0
LINE
  5
479
100
AcDbEntity
  8
606312146-000-00-ED1_FORMAT
100
AcDbLine
 62
90
  6
CONTINUOUS
 10
308.4533770241
 20
53.4402780787
 11
308.7092058974
 21
53.4402780787
  0
LINE
  5
47A
100
AcDbEntity
  8
606312146-000-00-ED1_FORMAT
100
AcDbLine
 62
90
  6
CONTINUOUS
 10
310.6299823842
 20
53.4402780787
 11
310.7759784871
 21
53.4402780787
  0
LINE
  5
47B
100
AcDbEntity
  8
606312146-000-00-ED1_FORMAT
100
AcDbLine
 62
90
  6
CONTINUOUS
 10
312.2078938594
 20
53.4402780787
 11
313.2157064222
 21
53.4402780787
  0
LINE
  5
47C
100
AcDbEntity
  8
606312146-000-00-ED1_FORMAT
100
AcDbLine
 62
90
  6
CONTINUOUS
 10
316.7678611844
 20
53.4402780787
 11
317.504647119
 21
53.4402780787
  0
LINE
  5
47D
100
AcDbEntity
  8
606312146-000-00-ED1_FORMAT
100
AcDbLine
 62
90
  6
CONTINUOUS
 10
320.3908472499
 20
53.4402780787
 11
320.9518824411
 21
53.4402780787
  0
LINE
  5
47E
100
AcDbEntity
  8
606312146-000-00-ED1_FORMAT
100
AcDbLine
 62
90
  6
CONTINUOUS
 10
322.2457362814
 20
53.4402780787
 11
322.8289272357
 21
53.4402780787
  0
LINE
  5
47F
100
AcDbEntity
  8
606312146-000-00-ED1_FORMAT
100
AcDbLine
 62
90
  6
CONTINUOUS
 10
324.1325161841
 20
53.4402780787
 11
325.4072355017
 21
53.4402780787
  0
LINE
  5
480
100
AcDbEntity
  8
606312146-000-00-ED1_FORMAT
100
AcDbLine
 62
90
  6
CONTINUOUS
 10
326.932168458
 20
53.4402780787
 11
330.0837494649
 21
53.4402780787
  0
LINE
  5
481
100
AcDbEntity
  8
606312146-000-00-ED1_FORMAT
100
AcDbLine
 62
90
  6
CONTINUOUS
 10
330.6795441797
 20
53.7302790123
 11
326.932168458
 21
53.7302790123
  0
LINE
  5
482
100
AcDbEntity
  8
606312146-000-00-ED1_FORMAT
100
AcDbLine
 62
90
  6
CONTINUOUS
 10
325.4072355017
 20
53.7302790123
 11
324.0786831729
 21
53.7302790123
  0
LINE
  5
483
100
AcDbEntity
  8
606312146-000-00-ED1_FORMAT
100
AcDbLine
 62
90
  6
CONTINUOUS
 10
322.784432604
 20
53.7302790123
 11
322.2876064012
 21
53.7302790123
  0
LINE
  5
484
100
AcDbEntity
  8
606312146-000-00-ED1_FORMAT
100
AcDbLine
 62
90
  6
CONTINUOUS
 10
321.0178614491
 20
53.7302790123
 11
320.5930262176
 21
53.7302790123
  0
LINE
  5
485
100
AcDbEntity
  8
606312146-000-00-ED1_FORMAT
100
AcDbLine
 62
90
  6
CONTINUOUS
 10
317.504647119
 20
53.7302790123
 11
316.6945274396
 21
53.7302790123
  0
LINE
  5
486
100
AcDbEntity
  8
606312146-000-00-ED1_FORMAT
100
AcDbLine
 62
90
  6
CONTINUOUS
 10
313.2959676577
 20
53.7302790123
 11
312.2078938594
 21
53.7302790123
  0
LINE
  5
487
100
AcDbEntity
  8
606312146-000-00-ED1_FORMAT
100
AcDbLine
 62
90
  6
CONTINUOUS
 10
310.7759784871
 20
53.7302790123
 11
310.7533344427
 21
53.7302790123
  0
LINE
  5
488
100
AcDbEntity
  8
606312146-000-00-ED1_FORMAT
100
AcDbLine
 62
90
  6
CONTINUOUS
 10
308.5880816223
 20
53.7302790123
 11
308.4533770241
 21
53.7302790123
  0
LINE
  5
489
100
AcDbEntity
  8
606312146-000-00-ED1_FORMAT
100
AcDbLine
 62
90
  6
CONTINUOUS
 10
306.8555070515
 20
53.7302790123
 11
304.3395462015
 21
53.7302790123
  0
LINE
  5
48A
100
AcDbEntity
  8
606312146-000-00-ED1_FORMAT
100
AcDbLine
 62
90
  6
CONTINUOUS
 10
303.7713088614
 20
54.0202799459
 11
306.8555986042
 21
54.0202799459
  0
LINE
  5
48B
100
AcDbEntity
  8
606312146-000-00-ED1_FORMAT
100
AcDbLine
 62
90
  6
CONTINUOUS
 10
308.4533770241
 20
54.0202799459
 11
308.4669268296
 21
54.0202799459
  0
LINE
  5
48C
100
AcDbEntity
  8
606312146-000-00-ED1_FORMAT
100
AcDbLine
 62
90
  6
CONTINUOUS
 10
312.2078938594
 20
54.0202799459
 11
313.3762288931
 21
54.0202799459
  0
LINE
  5
48D
100
AcDbEntity
  8
606312146-000-00-ED1_FORMAT
100
AcDbLine
 62
90
  6
CONTINUOUS
 10
314.6156393707
 20
54.0202799459
 11
315.2890708091
 21
54.0202799459
  0
LINE
  5
48E
100
AcDbEntity
  8
606312146-000-00-ED1_FORMAT
100
AcDbLine
 62
90
  6
CONTINUOUS
 10
316.6212242124
 20
54.0202799459
 11
317.504647119
 21
54.0202799459
  0
LINE
  5
48F
100
AcDbEntity
  8
606312146-000-00-ED1_FORMAT
100
AcDbLine
 62
90
  6
CONTINUOUS
 10
318.7596825975
 20
54.0202799459
 11
319.2434777937
 21
54.0202799459
  0
LINE
  5
490
100
AcDbEntity
  8
606312146-000-00-ED1_FORMAT
100
AcDbLine
 62
90
  6
CONTINUOUS
 10
320.7216578174
 20
54.0202799459
 11
321.0838404571
 21
54.0202799459
  0
LINE
  5
491
100
AcDbEntity
  8
606312146-000-00-ED1_FORMAT
100
AcDbLine
 62
90
  6
CONTINUOUS
 10
322.329476521
 20
54.0202799459
 11
322.7399379724
 21
54.0202799459
  0
LINE
  5
492
100
AcDbEntity
  8
606312146-000-00-ED1_FORMAT
100
AcDbLine
 62
90
  6
CONTINUOUS
 10
324.0248501618
 20
54.0202799459
 11
325.4072355017
 21
54.0202799459
  0
LINE
  5
493
100
AcDbEntity
  8
606312146-000-00-ED1_FORMAT
100
AcDbLine
 62
90
  6
CONTINUOUS
 10
326.932168458
 20
54.0202799459
 11
331.2753083769
 21
54.0202799459
  0
LINE
  5
494
100
AcDbEntity
  8
606312146-000-00-ED1_FORMAT
100
AcDbLine
 62
3
  6
CONTINUOUS
 10
302.0615309229
 20
54.2350054536
 11
302.435676454
 21
54.2350054536
  0
LINE
  5
495
100
AcDbEntity
  8
606312146-000-00-ED1_FORMAT
100
AcDbLine
 62
90
  6
CONTINUOUS
 10
331.5333039985
 20
54.3102808795
 11
326.932168458
 21
54.3102808795
  0
LINE
  5
496
100
AcDbEntity
  8
606312146-000-00-ED1_FORMAT
100
AcDbLine
 62
90
  6
CONTINUOUS
 10
325.4072355017
 20
54.3102808795
 11
323.9710171506
 21
54.3102808795
  0
LINE
  5
497
100
AcDbEntity
  8
606312146-000-00-ED1_FORMAT
100
AcDbLine
 62
90
  6
CONTINUOUS
 10
322.6954433407
 20
54.3102808795
 11
322.3713771584
 21
54.3102808795
  0
LINE
  5
498
100
AcDbEntity
  8
606312146-000-00-ED1_FORMAT
100
AcDbLine
 62
90
  6
CONTINUOUS
 10
321.1498499827
 20
54.3102808795
 11
320.7964869236
 21
54.3102808795
  0
LINE
  5
499
100
AcDbEntity
  8
606312146-000-00-ED1_FORMAT
100
AcDbLine
 62
90
  6
CONTINUOUS
 10
319.5666894837
 20
54.3102808795
 11
318.758339824
 21
54.3102808795
  0
LINE
  5
49A
100
AcDbEntity
  8
606312146-000-00-ED1_FORMAT
100
AcDbLine
 62
90
  6
CONTINUOUS
 10
317.504647119
 20
54.3102808795
 11
316.5478904676
 21
54.3102808795
  0
LINE
  5
49B
100
AcDbEntity
  8
606312146-000-00-ED1_FORMAT
100
AcDbLine
 62
90
  6
CONTINUOUS
 10
315.2263876998
 20
54.3102808795
 11
314.6813132029
 21
54.3102808795
  0
LINE
  5
49C
100
AcDbEntity
  8
606312146-000-00-ED1_FORMAT
100
AcDbLine
 62
90
  6
CONTINUOUS
 10
313.4564901286
 20
54.3102808795
 11
312.2078938594
 21
54.3102808795
  0
LINE
  5
49D
100
AcDbEntity
  8
606312146-000-00-ED1_FORMAT
100
AcDbLine
 62
90
  6
CONTINUOUS
 10
306.855690157
 20
54.3102808795
 11
303.517005867
 21
54.3102808795
  0
LINE
  5
49E
100
AcDbEntity
  8
606312146-000-00-ED1_FORMAT
100
AcDbLine
 62
90
  6
CONTINUOUS
 10
304.1583328113
 20
54.6002779983
 11
306.8557817097
 21
54.6002779983
  0
LINE
  5
49F
100
AcDbEntity
  8
606312146-000-00-ED1_FORMAT
100
AcDbLine
 62
90
  6
CONTINUOUS
 10
312.2078938594
 20
54.6002779983
 11
313.5367513641
 21
54.6002779983
  0
LINE
  5
4A0
100
AcDbEntity
  8
606312146-000-00-ED1_FORMAT
100
AcDbLine
 62
90
  6
CONTINUOUS
 10
314.7469870351
 20
54.6002779983
 11
315.1637045904
 21
54.6002779983
  0
LINE
  5
4A1
100
AcDbEntity
  8
606312146-000-00-ED1_FORMAT
100
AcDbLine
 62
90
  6
CONTINUOUS
 10
316.4745567228
 20
54.6002779983
 11
317.504647119
 21
54.6002779983
  0
LINE
  5
4A2
100
AcDbEntity
  8
606312146-000-00-ED1_FORMAT
100
AcDbLine
 62
90
  6
CONTINUOUS
 10
318.7569970505
 20
54.6002779983
 11
319.6591272336
 21
54.6002779983
  0
LINE
  5
4A3
100
AcDbEntity
  8
606312146-000-00-ED1_FORMAT
100
AcDbLine
 62
90
  6
CONTINUOUS
 10
320.8410120729
 20
54.6002779983
 11
321.2158289907
 21
54.6002779983
  0
LINE
  5
4A4
100
AcDbEntity
  8
606312146-000-00-ED1_FORMAT
100
AcDbLine
 62
90
  6
CONTINUOUS
 10
322.4132472782
 20
54.6002779983
 11
322.650948709
 21
54.6002779983
  0
LINE
  5
4A5
100
AcDbEntity
  8
606312146-000-00-ED1_FORMAT
100
AcDbLine
 62
90
  6
CONTINUOUS
 10
323.9171536218
 20
54.6002779983
 11
325.4072355017
 21
54.6002779983
  0
LINE
  5
4A6
100
AcDbEntity
  8
606312146-000-00-ED1_FORMAT
100
AcDbLine
 62
90
  6
CONTINUOUS
 10
326.932168458
 20
54.6002779983
 11
330.8277070307
 21
54.6002779983
  0
LINE
  5
4A7
100
AcDbEntity
  8
606312146-000-00-ED1_FORMAT
100
AcDbLine
 62
90
  6
CONTINUOUS
 10
330.1221100629
 20
54.8902789319
 11
326.932168458
 21
54.8902789319
  0
LINE
  5
4A8
100
AcDbEntity
  8
606312146-000-00-ED1_FORMAT
100
AcDbLine
 62
90
  6
CONTINUOUS
 10
325.4072355017
 20
54.8902789319
 11
323.8633206107
 21
54.8902789319
  0
LINE
  5
4A9
100
AcDbEntity
  8
606312146-000-00-ED1_FORMAT
100
AcDbLine
 62
90
  6
CONTINUOUS
 10
322.6064540773
 20
54.8902789319
 11
322.455117398
 21
54.8902789319
  0
LINE
  5
4AA
100
AcDbEntity
  8
606312146-000-00-ED1_FORMAT
100
AcDbLine
 62
90
  6
CONTINUOUS
 10
321.2818079987
 20
54.8902789319
 11
320.8535242807
 21
54.8902789319
  0
LINE
  5
4AB
100
AcDbEntity
  8
606312146-000-00-ED1_FORMAT
100
AcDbLine
 62
90
  6
CONTINUOUS
 10
319.671090125
 20
54.8902789319
 11
318.755654277
 21
54.8902789319
  0
LINE
  5
4AC
100
AcDbEntity
  8
606312146-000-00-ED1_FORMAT
100
AcDbLine
 62
90
  6
CONTINUOUS
 10
317.504647119
 20
54.8902789319
 11
316.401222978
 21
54.8902789319
  0
LINE
  5
4AD
100
AcDbEntity
  8
606312146-000-00-ED1_FORMAT
100
AcDbLine
 62
90
  6
CONTINUOUS
 10
315.101021481
 20
54.8902789319
 11
314.8126608674
 21
54.8902789319
  0
LINE
  5
4AE
100
AcDbEntity
  8
606312146-000-00-ED1_FORMAT
100
AcDbLine
 62
90
  6
CONTINUOUS
 10
313.6170125995
 20
54.8902789319
 11
312.2078938594
 21
54.8902789319
  0
LINE
  5
4AF
100
AcDbEntity
  8
606312146-000-00-ED1_FORMAT
100
AcDbLine
 62
90
  6
CONTINUOUS
 10
306.8558732625
 20
54.8902789319
 11
304.7996902731
 21
54.8902789319
  0
LINE
  5
4B0
100
AcDbEntity
  8
606312146-000-00-ED1_FORMAT
100
AcDbLine
 62
90
  6
CONTINUOUS
 10
305.4410172173
 20
55.1802798655
 11
306.8559953328
 21
55.1802798655
  0
LINE
  5
4B1
100
AcDbEntity
  8
606312146-000-00-ED1_FORMAT
100
AcDbLine
 62
90
  6
CONTINUOUS
 10
309.4869159068
 20
55.1802798655
 11
309.6559527825
 21
55.1802798655
  0
LINE
  5
4B2
100
AcDbEntity
  8
606312146-000-00-ED1_FORMAT
100
AcDbLine
 62
90
  6
CONTINUOUS
 10
312.2078938594
 20
55.1802798655
 11
313.6973043526
 21
55.1802798655
  0
LINE
  5
4B3
100
AcDbEntity
  8
606312146-000-00-ED1_FORMAT
100
AcDbLine
 62
90
  6
CONTINUOUS
 10
314.8783346996
 20
55.1802798655
 11
315.0383383716
 21
55.1802798655
  0
LINE
  5
4B4
100
AcDbEntity
  8
606312146-000-00-ED1_FORMAT
100
AcDbLine
 62
90
  6
CONTINUOUS
 10
316.3278892332
 20
55.1802798655
 11
317.504647119
 21
55.1802798655
  0
LINE
  5
4B5
100
AcDbEntity
  8
606312146-000-00-ED1_FORMAT
100
AcDbLine
 62
90
  6
CONTINUOUS
 10
318.7542809859
 20
55.1802798655
 11
319.6139306976
 21
55.1802798655
  0
LINE
  5
4B6
100
AcDbEntity
  8
606312146-000-00-ED1_FORMAT
100
AcDbLine
 62
90
  6
CONTINUOUS
 10
320.8345118283
 20
55.1802798655
 11
321.3477870068
 21
55.1802798655
  0
LINE
  5
4B7
100
AcDbEntity
  8
606312146-000-00-ED1_FORMAT
100
AcDbLine
 62
90
  6
CONTINUOUS
 10
323.8094875995
 20
55.1802798655
 11
325.4072355017
 21
55.1802798655
  0
LINE
  5
4B8
100
AcDbEntity
  8
606312146-000-00-ED1_FORMAT
100
AcDbLine
 62
90
  6
CONTINUOUS
 10
326.932168458
 20
55.1802798655
 11
329.4165436128
 21
55.1802798655
  0
LINE
  5
4B9
100
AcDbEntity
  8
606312146-000-00-ED1_FORMAT
100
AcDbLine
 62
90
  6
CONTINUOUS
 10
328.710946645
 20
55.4702807991
 11
326.932168458
 21
55.4702807991
  0
LINE
  5
4BA
100
AcDbEntity
  8
606312146-000-00-ED1_FORMAT
100
AcDbLine
 62
90
  6
CONTINUOUS
 10
325.4072355017
 20
55.4702807991
 11
323.7556240708
 21
55.4702807991
  0
LINE
  5
4BB
100
AcDbEntity
  8
606312146-000-00-ED1_FORMAT
100
AcDbLine
 62
90
  6
CONTINUOUS
 10
321.4137660148
 20
55.4702807991
 11
320.7832728114
 21
55.4702807991
  0
LINE
  5
4BC
100
AcDbEntity
  8
606312146-000-00-ED1_FORMAT
100
AcDbLine
 62
90
  6
CONTINUOUS
 10
319.2926416151
 20
55.4702807991
 11
318.7529382123
 21
55.4702807991
  0
LINE
  5
4BD
100
AcDbEntity
  8
606312146-000-00-ED1_FORMAT
100
AcDbLine
 62
90
  6
CONTINUOUS
 10
317.504647119
 20
55.4702807991
 11
316.254586006
 21
55.4702807991
  0
LINE
  5
4BE
100
AcDbEntity
  8
606312146-000-00-ED1_FORMAT
100
AcDbLine
 62
90
  6
CONTINUOUS
 10
314.9756552623
 20
55.4702807991
 11
314.9440085318
 21
55.4702807991
  0
LINE
  5
4BF
100
AcDbEntity
  8
606312146-000-00-ED1_FORMAT
100
AcDbLine
 62
90
  6
CONTINUOUS
 10
313.777565588
 20
55.4702807991
 11
312.2078938594
 21
55.4702807991
  0
LINE
  5
4C0
100
AcDbEntity
  8
606312146-000-00-ED1_FORMAT
100
AcDbLine
 62
90
  6
CONTINUOUS
 10
309.8534320429
 20
55.4702807991
 11
309.3890765452
 21
55.4702807991
  0
LINE
  5
4C1
100
AcDbEntity
  8
606312146-000-00-ED1_FORMAT
100
AcDbLine
 62
90
  6
CONTINUOUS
 10
306.8560868855
 20
55.4702807991
 11
306.0823441616
 21
55.4702807991
  0
LINE
  5
4C2
100
AcDbEntity
  8
606312146-000-00-ED1_FORMAT
100
AcDbLine
 62
90
  6
CONTINUOUS
 10
306.2538224437
 20
55.760277918
 11
306.8561784383
 21
55.760277918
  0
LINE
  5
4C3
100
AcDbEntity
  8
606312146-000-00-ED1_FORMAT
100
AcDbLine
 62
90
  6
CONTINUOUS
 10
309.2912371837
 20
55.760277918
 11
310.0508807857
 21
55.760277918
  0
LINE
  5
4C4
100
AcDbEntity
  8
606312146-000-00-ED1_FORMAT
100
AcDbLine
 62
90
  6
CONTINUOUS
 10
312.2078938594
 20
55.760277918
 11
313.8578268235
 21
55.760277918
  0
LINE
  5
4C5
100
AcDbEntity
  8
606312146-000-00-ED1_FORMAT
100
AcDbLine
 62
90
  6
CONTINUOUS
 10
316.1812522612
 20
55.760277918
 11
317.504647119
 21
55.760277918
  0
LINE
  5
4C6
100
AcDbEntity
  8
606312146-000-00-ED1_FORMAT
100
AcDbLine
 62
90
  6
CONTINUOUS
 10
320.6674280777
 20
55.760277918
 11
321.4797755404
 21
55.760277918
  0
LINE
  5
4C7
100
AcDbEntity
  8
606312146-000-00-ED1_FORMAT
100
AcDbLine
 62
90
  6
CONTINUOUS
 10
323.7017910596
 20
55.760277918
 11
325.4072355017
 21
55.760277918
  0
LINE
  5
4C8
100
AcDbEntity
  8
606312146-000-00-ED1_FORMAT
100
AcDbLine
 62
90
  6
CONTINUOUS
 10
326.932168458
 20
55.760277918
 11
328.0053496772
 21
55.760277918
  0
LINE
  5
4C9
100
AcDbEntity
  8
606312146-000-00-ED1_FORMAT
100
AcDbLine
 62
90
  6
CONTINUOUS
 10
327.5174346078
 20
56.0502788516
 11
326.932168458
 21
56.0502788516
  0
LINE
  5
4CA
100
AcDbEntity
  8
606312146-000-00-ED1_FORMAT
100
AcDbLine
 62
90
  6
CONTINUOUS
 10
325.4072355017
 20
56.0502788516
 11
323.6479580484
 21
56.0502788516
  0
LINE
  5
4CB
100
AcDbEntity
  8
606312146-000-00-ED1_FORMAT
100
AcDbLine
 62
90
  6
CONTINUOUS
 10
321.5457545484
 20
56.0502788516
 11
320.4613123422
 21
56.0502788516
  0
LINE
  5
4CC
100
AcDbEntity
  8
606312146-000-00-ED1_FORMAT
100
AcDbLine
 62
90
  6
CONTINUOUS
 10
317.504647119
 20
56.0502788516
 11
316.1079185164
 21
56.0502788516
  0
LINE
  5
4CD
100
AcDbEntity
  8
606312146-000-00-ED1_FORMAT
100
AcDbLine
 62
90
  6
CONTINUOUS
 10
313.938088059
 20
56.0502788516
 11
312.2078938594
 21
56.0502788516
  0
LINE
  5
4CE
100
AcDbEntity
  8
606312146-000-00-ED1_FORMAT
100
AcDbLine
 62
90
  6
CONTINUOUS
 10
310.2483295284
 20
56.0502788516
 11
309.1933978221
 21
56.0502788516
  0
LINE
  5
4CF
100
AcDbEntity
  8
606312146-000-00-ED1_FORMAT
100
AcDbLine
 62
90
  6
CONTINUOUS
 10
306.856269991
 20
56.0502788516
 11
306.2538224437
 21
56.0502788516
  0
LINE
  5
4D0
100
AcDbEntity
  8
606312146-000-00-ED1_FORMAT
100
AcDbLine
 62
90
  6
CONTINUOUS
 10
306.2538224437
 20
56.3402797852
 11
306.8563615437
 21
56.3402797852
  0
LINE
  5
4D1
100
AcDbEntity
  8
606312146-000-00-ED1_FORMAT
100
AcDbLine
 62
90
  6
CONTINUOUS
 10
309.0955584605
 20
56.3402797852
 11
310.4458087888
 21
56.3402797852
  0
LINE
  5
4D2
100
AcDbEntity
  8
606312146-000-00-ED1_FORMAT
100
AcDbLine
 62
90
  6
CONTINUOUS
 10
312.2078938594
 20
56.3402797852
 11
314.0183492945
 21
56.3402797852
  0
LINE
  5
4D3
100
AcDbEntity
  8
606312146-000-00-ED1_FORMAT
100
AcDbLine
 62
90
  6
CONTINUOUS
 10
316.0345847716
 20
56.3402797852
 11
317.504647119
 21
56.3402797852
  0
LINE
  5
4D4
100
AcDbEntity
  8
606312146-000-00-ED1_FORMAT
100
AcDbLine
 62
90
  6
CONTINUOUS
 10
320.0910425437
 20
56.3402797852
 11
321.6117335564
 21
56.3402797852
  0
LINE
  5
4D5
100
AcDbEntity
  8
606312146-000-00-ED1_FORMAT
100
AcDbLine
 62
90
  6
CONTINUOUS
 10
323.5941250373
 20
56.3402797852
 11
325.4072355017
 21
56.3402797852
  0
LINE
  5
4D6
100
AcDbEntity
  8
606312146-000-00-ED1_FORMAT
100
AcDbLine
 62
90
  6
CONTINUOUS
 10
326.932168458
 20
56.3402797852
 11
327.5174346078
 21
56.3402797852
  0
LINE
  5
4D7
100
AcDbEntity
  8
606312146-000-00-ED1_FORMAT
100
AcDbLine
 62
90
  6
CONTINUOUS
 10
327.5174346078
 20
56.6302807188
 11
326.932168458
 21
56.6302807188
  0
LINE
  5
4D8
100
AcDbEntity
  8
606312146-000-00-ED1_FORMAT
100
AcDbLine
 62
90
  6
CONTINUOUS
 10
325.4072355017
 20
56.6302807188
 11
323.5402615085
 21
56.6302807188
  0
LINE
  5
4D9
100
AcDbEntity
  8
606312146-000-00-ED1_FORMAT
100
AcDbLine
 62
90
  6
CONTINUOUS
 10
321.6777125644
 20
56.6302807188
 11
319.2477502549
 21
56.6302807188
  0
LINE
  5
4DA
100
AcDbEntity
  8
606312146-000-00-ED1_FORMAT
100
AcDbLine
 62
90
  6
CONTINUOUS
 10
317.8003319519
 20
56.6302807188
 11
314.7750937263
 21
56.6302807188
  0
LINE
  5
4DB
100
AcDbEntity
  8
606312146-000-00-ED1_FORMAT
100
AcDbLine
 62
90
  6
CONTINUOUS
 10
314.0986105299
 20
56.6302807188
 11
312.2078938594
 21
56.6302807188
  0
LINE
  5
4DC
100
AcDbEntity
  8
606312146-000-00-ED1_FORMAT
100
AcDbLine
 62
90
  6
CONTINUOUS
 10
310.6432575315
 20
56.6302807188
 11
308.997719099
 21
56.6302807188
  0
LINE
  5
4DD
100
AcDbEntity
  8
606312146-000-00-ED1_FORMAT
100
AcDbLine
 62
90
  6
CONTINUOUS
 10
306.8564530965
 20
56.6302807188
 11
306.2538224437
 21
56.6302807188
  0
LINE
  5
4DE
100
AcDbEntity
  8
606312146-000-00-ED1_FORMAT
100
AcDbLine
 62
90
  6
CONTINUOUS
 10
318.3558434611
 20
56.6447384223
 11
318.5402917147
 21
56.6447384223
  0
LINE
  5
4DF
100
AcDbEntity
  8
606312146-000-00-ED1_FORMAT
100
AcDbLine
 62
90
  6
CONTINUOUS
 10
318.916970205
 20
56.6466038094
 11
319.1211633329
 21
56.6466038094
  0
LINE
  5
4E0
100
AcDbEntity
  8
606312146-000-00-ED1_FORMAT
100
AcDbLine
 62
90
  6
CONTINUOUS
 10
318.5402917147
 20
56.6466114388
 11
318.72535032
 21
56.6466114388
  0
LINE
  5
4E1
100
AcDbEntity
  8
606312146-000-00-ED1_FORMAT
100
AcDbLine
 62
90
  6
CONTINUOUS
 10
318.72535032
 20
56.6471416817
 11
318.916970205
 21
56.6471416817
  0
LINE
  5
4E2
100
AcDbEntity
  8
606312146-000-00-ED1_FORMAT
100
AcDbLine
 62
90
  6
CONTINUOUS
 10
306.2538224437
 20
56.9202778376
 11
306.8565751668
 21
56.9202778376
  0
LINE
  5
4E3
100
AcDbEntity
  8
606312146-000-00-ED1_FORMAT
100
AcDbLine
 62
90
  6
CONTINUOUS
 10
308.8998797374
 20
56.9202778376
 11
309.1677935725
 21
56.9202778376
  0
LINE
  5
4E4
100
AcDbEntity
  8
606312146-000-00-ED1_FORMAT
100
AcDbLine
 62
90
  6
CONTINUOUS
 10
309.3290484653
 20
56.9202778376
 11
310.8407367919
 21
56.9202778376
  0
LINE
  5
4E5
100
AcDbEntity
  8
606312146-000-00-ED1_FORMAT
100
AcDbLine
 62
90
  6
CONTINUOUS
 10
312.1970601185
 20
56.9202778376
 11
321.8962794726
 21
56.9202778376
  0
LINE
  5
4E6
100
AcDbEntity
  8
606312146-000-00-ED1_FORMAT
100
AcDbLine
 62
90
  6
CONTINUOUS
 10
323.4864284974
 20
56.9202778376
 11
325.4072355017
 21
56.9202778376
  0
LINE
  5
4E7
100
AcDbEntity
  8
606312146-000-00-ED1_FORMAT
100
AcDbLine
 62
90
  6
CONTINUOUS
 10
326.932168458
 20
56.9202778376
 11
327.5174346078
 21
56.9202778376
  0
LINE
  5
4E8
100
AcDbEntity
  8
606312146-000-00-ED1_FORMAT
100
AcDbLine
 62
90
  6
CONTINUOUS
 10
327.5174346078
 20
57.2102787712
 11
326.932168458
 21
57.2102787712
  0
LINE
  5
4E9
100
AcDbEntity
  8
606312146-000-00-ED1_FORMAT
100
AcDbLine
 62
90
  6
CONTINUOUS
 10
325.4072355017
 20
57.2102787712
 11
325.1310514025
 21
57.2102787712
  0
LINE
  5
4EA
100
AcDbEntity
  8
606312146-000-00-ED1_FORMAT
100
AcDbLine
 62
90
  6
CONTINUOUS
 10
324.643502544
 20
57.2102787712
 11
323.4325954862
 21
57.2102787712
  0
LINE
  5
4EB
100
AcDbEntity
  8
606312146-000-00-ED1_FORMAT
100
AcDbLine
 62
90
  6
CONTINUOUS
 10
323.2237942037
 20
57.2102787712
 11
309.9671405461
 21
57.2102787712
  0
LINE
  5
4EC
100
AcDbEntity
  8
606312146-000-00-ED1_FORMAT
100
AcDbLine
 62
90
  6
CONTINUOUS
 10
309.0664141716
 20
57.2102787712
 11
308.8020098583
 21
57.2102787712
  0
LINE
  5
4ED
100
AcDbEntity
  8
606312146-000-00-ED1_FORMAT
100
AcDbLine
 62
90
  6
CONTINUOUS
 10
306.8566667195
 20
57.2102787712
 11
306.2538224437
 21
57.2102787712
  0
LINE
  5
4EE
100
AcDbEntity
  8
606312146-000-00-ED1_FORMAT
100
AcDbLine
 62
90
  6
CONTINUOUS
 10
306.2538224437
 20
57.5002797048
 11
306.8567582723
 21
57.5002797048
  0
LINE
  5
4EF
100
AcDbEntity
  8
606312146-000-00-ED1_FORMAT
100
AcDbLine
 62
90
  6
CONTINUOUS
 10
308.7041704967
 20
57.5002797048
 11
308.9650347708
 21
57.5002797048
  0
LINE
  5
4F0
100
AcDbEntity
  8
606312146-000-00-ED1_FORMAT
100
AcDbLine
 62
90
  6
CONTINUOUS
 10
310.6052021092
 20
57.5002797048
 11
324.0003750626
 21
57.5002797048
  0
LINE
  5
4F1
100
AcDbEntity
  8
606312146-000-00-ED1_FORMAT
100
AcDbLine
 62
90
  6
CONTINUOUS
 10
325.1310514025
 20
57.5002797048
 11
325.4072355017
 21
57.5002797048
  0
LINE
  5
4F2
100
AcDbEntity
  8
606312146-000-00-ED1_FORMAT
100
AcDbLine
 62
90
  6
CONTINUOUS
 10
326.932168458
 20
57.5002797048
 11
327.5174346078
 21
57.5002797048
  0
LINE
  5
4F3
100
AcDbEntity
  8
606312146-000-00-ED1_FORMAT
100
AcDbLine
 62
90
  6
CONTINUOUS
 10
327.5174346078
 20
57.7902806384
 11
326.932168458
 21
57.7902806384
  0
LINE
  5
4F4
100
AcDbEntity
  8
606312146-000-00-ED1_FORMAT
100
AcDbLine
 62
90
  6
CONTINUOUS
 10
325.4072355017
 20
57.7902806384
 11
325.1310514025
 21
57.7902806384
  0
LINE
  5
4F5
100
AcDbEntity
  8
606312146-000-00-ED1_FORMAT
100
AcDbLine
 62
90
  6
CONTINUOUS
 10
323.3572780987
 20
57.7902806384
 11
311.24329419
 21
57.7902806384
  0
LINE
  5
4F6
100
AcDbEntity
  8
606312146-000-00-ED1_FORMAT
100
AcDbLine
 62
90
  6
CONTINUOUS
 10
308.8636553699
 20
57.7902806384
 11
308.6063311351
 21
57.7902806384
  0
LINE
  5
4F7
100
AcDbEntity
  8
606312146-000-00-ED1_FORMAT
100
AcDbLine
 62
90
  6
CONTINUOUS
 10
306.856849825
 20
57.7902806384
 11
306.2538224437
 21
57.7902806384
  0
LINE
  5
4F8
100
AcDbEntity
  8
606312146-000-00-ED1_FORMAT
100
AcDbLine
 62
90
  6
CONTINUOUS
 10
306.2538224437
 20
58.0802777573
 11
306.8569413778
 21
58.0802777573
  0
LINE
  5
4F9
100
AcDbEntity
  8
606312146-000-00-ED1_FORMAT
100
AcDbLine
 62
90
  6
CONTINUOUS
 10
308.5084917736
 20
58.0802777573
 11
308.7622759691
 21
58.0802777573
  0
LINE
  5
4FA
100
AcDbEntity
  8
606312146-000-00-ED1_FORMAT
100
AcDbLine
 62
90
  6
CONTINUOUS
 10
311.8813862707
 20
58.0802777573
 11
322.7141811348
 21
58.0802777573
  0
LINE
  5
4FB
100
AcDbEntity
  8
606312146-000-00-ED1_FORMAT
100
AcDbLine
 62
90
  6
CONTINUOUS
 10
325.1310514025
 20
58.0802777573
 11
325.4072355017
 21
58.0802777573
  0
LINE
  5
4FC
100
AcDbEntity
  8
606312146-000-00-ED1_FORMAT
100
AcDbLine
 62
90
  6
CONTINUOUS
 10
326.932168458
 20
58.0802777573
 11
327.5174346078
 21
58.0802777573
  0
LINE
  5
4FD
100
AcDbEntity
  8
606312146-000-00-ED1_FORMAT
100
AcDbLine
 62
90
  6
CONTINUOUS
 10
327.4869170277
 20
58.3702786909
 11
326.932168458
 21
58.3702786909
  0
LINE
  5
4FE
100
AcDbEntity
  8
606312146-000-00-ED1_FORMAT
100
AcDbLine
 62
90
  6
CONTINUOUS
 10
325.9910368076
 20
58.3702786909
 11
325.3282254871
 21
58.3702786909
  0
LINE
  5
4FF
100
AcDbEntity
  8
606312146-000-00-ED1_FORMAT
100
AcDbLine
 62
90
  6
CONTINUOUS
 10
322.0710536534
 20
58.3702786909
 11
312.5194478339
 21
58.3702786909
  0
LINE
  5
500
100
AcDbEntity
  8
606312146-000-00-ED1_FORMAT
100
AcDbLine
 62
90
  6
CONTINUOUS
 10
308.6608965682
 20
58.3702786909
 11
308.2872088008
 21
58.3702786909
  0
LINE
  5
501
100
AcDbEntity
  8
606312146-000-00-ED1_FORMAT
100
AcDbLine
 62
90
  6
CONTINUOUS
 10
306.8570329305
 20
58.3702786909
 11
306.2538224437
 21
58.3702786909
  0
LINE
  5
502
100
AcDbEntity
  8
606312146-000-00-ED1_FORMAT
100
AcDbLine
 62
90
  6
CONTINUOUS
 10
306.2538224437
 20
58.6602796245
 11
306.8571550008
 21
58.6602796245
  0
LINE
  5
503
100
AcDbEntity
  8
606312146-000-00-ED1_FORMAT
100
AcDbLine
 62
90
  6
CONTINUOUS
 10
307.674629417
 20
58.6602796245
 11
308.2281267659
 21
58.6602796245
  0
LINE
  5
504
100
AcDbEntity
  8
606312146-000-00-ED1_FORMAT
100
AcDbLine
 62
90
  6
CONTINUOUS
 10
313.1575399147
 20
58.6602796245
 11
321.4279566895
 21
58.6602796245
  0
LINE
  5
505
100
AcDbEntity
  8
606312146-000-00-ED1_FORMAT
100
AcDbLine
 62
90
  6
CONTINUOUS
 10
326.0322355407
 20
58.6602796245
 11
326.7106108271
 21
58.6602796245
  0
LINE
  5
506
100
AcDbEntity
  8
606312146-000-00-ED1_FORMAT
100
AcDbLine
 62
90
  6
CONTINUOUS
 10
326.932168458
 20
58.6602796245
 11
327.2830290756
 21
58.6602796245
  0
LINE
  5
507
100
AcDbEntity
  8
606312146-000-00-ED1_FORMAT
100
AcDbLine
 62
90
  6
CONTINUOUS
 10
327.079171641
 20
58.9502805581
 11
326.7362761119
 21
58.9502805581
  0
LINE
  5
508
100
AcDbEntity
  8
606312146-000-00-ED1_FORMAT
100
AcDbLine
 62
90
  6
CONTINUOUS
 10
320.7848597256
 20
58.9502805581
 11
313.7956319954
 21
58.9502805581
  0
LINE
  5
509
100
AcDbEntity
  8
606312146-000-00-ED1_FORMAT
100
AcDbLine
 62
90
  6
CONTINUOUS
 10
307.6149065129
 20
58.9502805581
 11
307.0620195155
 21
58.9502805581
  0
LINE
  5
50A
100
AcDbEntity
  8
606312146-000-00-ED1_FORMAT
100
AcDbLine
 62
90
  6
CONTINUOUS
 10
306.8572465536
 20
58.9502805581
 11
306.2538224437
 21
58.9502805581
  0
LINE
  5
50B
100
AcDbEntity
  8
606312146-000-00-ED1_FORMAT
100
AcDbLine
 62
7
  6
CONTINUOUS
 10
410.0
 20
58.9546825665
 11
365.999998592
 21
58.9546825665
  0
LINE
  5
50C
100
AcDbEntity
  8
606312146-000-00-ED1_FORMAT
100
AcDbLine
 62
90
  6
CONTINUOUS
 10
306.6714555264
 20
59.240277677
 11
307.0016862598
 21
59.240277677
  0
LINE
  5
50D
100
AcDbEntity
  8
606312146-000-00-ED1_FORMAT
100
AcDbLine
 62
90
  6
CONTINUOUS
 10
314.4336935586
 20
59.240277677
 11
320.1417322441
 21
59.240277677
  0
LINE
  5
50E
100
AcDbEntity
  8
606312146-000-00-ED1_FORMAT
100
AcDbLine
 62
90
  6
CONTINUOUS
 10
319.4986352803
 20
59.5302786105
 11
315.0717856394
 21
59.5302786105
  0
LINE
  5
50F
100
AcDbEntity
  8
606312146-000-00-ED1_FORMAT
100
AcDbLine
 62
90
  6
CONTINUOUS
 10
315.7098777201
 20
59.8202795441
 11
318.8555383164
 21
59.8202795441
  0
LINE
  5
510
100
AcDbEntity
  8
606312146-000-00-ED1_FORMAT
100
AcDbLine
 62
90
  6
CONTINUOUS
 10
318.2124108349
 20
60.1102804777
 11
316.3479392833
 21
60.1102804777
  0
LINE
  5
511
100
AcDbEntity
  8
606312146-000-00-ED1_FORMAT
100
AcDbLine
 62
90
  6
CONTINUOUS
 10
317.5471381942
 20
60.4102804964
 11
317.0080338075
 21
60.4102804964
  0
LINE
  5
512
100
AcDbEntity
  8
606312146-000-00-ED1_FORMAT
100
AcDbLine
 62
90
  6
CONTINUOUS
 10
315.5730674088
 20
56.5955211951
 11
315.773903603
 21
56.5907451938
  0
LINE
  5
513
100
AcDbEntity
  8
606312146-000-00-ED1_FORMAT
100
AcDbLine
 62
90
  6
CONTINUOUS
 10
315.773903603
 20
56.5907451938
 11
315.9725120138
 21
56.5857631989
  0
LINE
  5
514
100
AcDbEntity
  8
606312146-000-00-ED1_FORMAT
100
AcDbLine
 62
90
  6
CONTINUOUS
 10
315.3701865368
 20
56.6009647684
 11
315.5730674088
 21
56.5955211951
  0
LINE
  5
515
100
AcDbEntity
  8
606312146-000-00-ED1_FORMAT
100
AcDbLine
 62
90
  6
CONTINUOUS
 10
315.1653830573
 20
56.6079761825
 11
315.3701865368
 21
56.6009647684
  0
LINE
  5
516
100
AcDbEntity
  8
606312146-000-00-ED1_FORMAT
100
AcDbLine
 62
90
  6
CONTINUOUS
 10
317.7706383465
 20
51.8433922981
 11
317.504647119
 21
51.8526314954
  0
LINE
  5
517
100
AcDbEntity
  8
606312146-000-00-ED1_FORMAT
100
AcDbLine
 62
90
  6
CONTINUOUS
 10
314.9588095581
 20
56.617440447
 11
315.1653830573
 21
56.6079761825
  0
LINE
  5
518
100
AcDbEntity
  8
606312146-000-00-ED1_FORMAT
100
AcDbLine
 62
90
  6
CONTINUOUS
 10
318.9437646402
 20
55.5377780567
 11
318.7525720014
 21
55.5470821039
  0
LINE
  5
519
100
AcDbEntity
  8
606312146-000-00-ED1_FORMAT
100
AcDbLine
 62
90
  6
CONTINUOUS
 10
318.0062645819
 20
51.8308648315
 11
317.7706383465
 21
51.8433922981
  0
LINE
  5
51A
100
AcDbEntity
  8
606312146-000-00-ED1_FORMAT
100
AcDbLine
 62
90
  6
CONTINUOUS
 10
318.2189110795
 20
51.8161324697
 11
318.0062645819
 21
51.8308648315
  0
LINE
  5
51B
100
AcDbEntity
  8
606312146-000-00-ED1_FORMAT
100
AcDbLine
 62
90
  6
CONTINUOUS
 10
318.7938317696
 20
51.769318502
 11
318.605233125
 21
51.7842911897
  0
LINE
  5
51C
100
AcDbEntity
  8
606312146-000-00-ED1_FORMAT
100
AcDbLine
 62
90
  6
CONTINUOUS
 10
318.416085164
 20
51.8002480693
 11
318.2189110795
 21
51.8161324697
  0
LINE
  5
51D
100
AcDbEntity
  8
606312146-000-00-ED1_FORMAT
100
AcDbLine
 62
90
  6
CONTINUOUS
 10
318.605233125
 20
51.7842911897
 11
318.416085164
 21
51.8002480693
  0
LINE
  5
51E
100
AcDbEntity
  8
606312146-000-00-ED1_FORMAT
100
AcDbLine
 62
7
  6
CONTINUOUS
 10
135.000019298
 20
287.0000045341
 11
135.000019298
 21
259.0000098321
  0
LINE
  5
51F
100
AcDbEntity
  8
606312146-000-00-ED1_FORMAT
100
AcDbLine
 62
7
  6
CONTINUOUS
 10
146.999991584
 20
65.00000176
 11
410.0
 21
65.00000176
  0
LINE
  5
520
100
AcDbEntity
  8
606312146-000-00-ED1_FORMAT
100
AcDbLine
 62
7
  6
CONTINUOUS
 10
146.999993584
 20
72.500002
 11
410.0
 21
72.500002
  0
LINE
  5
521
100
AcDbEntity
  8
606312146-000-00-ED1_FORMAT
100
AcDbLine
 62
90
  6
CONTINUOUS
 10
314.750557592
 20
56.6302463865
 11
314.9588095581
 21
56.617440447
  0
LINE
  5
522
100
AcDbEntity
  8
606312146-000-00-ED1_FORMAT
100
AcDbLine
 62
90
  6
CONTINUOUS
 10
314.5408102645
 20
56.6472866402
 11
314.750557592
 21
56.6302463865
  0
LINE
  5
523
100
AcDbEntity
  8
606312146-000-00-ED1_FORMAT
100
AcDbLine
 62
90
  6
CONTINUOUS
 10
322.2427760762
 20
53.4197740796
 11
322.8411647853
 21
53.3604707922
  0
LINE
  5
524
100
AcDbEntity
  8
606312146-000-00-ED1_FORMAT
100
AcDbLine
 62
90
  6
CONTINUOUS
 10
314.3296591283
 20
56.669446218
 11
314.5408102645
 21
56.6472866402
  0
LINE
  5
525
100
AcDbEntity
  8
606312146-000-00-ED1_FORMAT
100
AcDbLine
 62
90
  6
CONTINUOUS
 10
322.0031825554
 20
51.4534806222
 11
320.5375452571
 21
51.6192978933
  0
LINE
  5
526
100
AcDbEntity
  8
606312146-000-00-ED1_FORMAT
100
AcDbLine
 62
90
  6
CONTINUOUS
 10
319.1197290067
 20
55.5162898657
 11
318.9437646402
 21
55.5377780567
  0
LINE
  5
527
100
AcDbEntity
  8
606312146-000-00-ED1_FORMAT
100
AcDbLine
 62
90
  6
CONTINUOUS
 10
314.1172567713
 20
56.6976177591
 11
314.3296591283
 21
56.669446218
  0
LINE
  5
528
100
AcDbEntity
  8
606312146-000-00-ED1_FORMAT
100
AcDbLine
 62
90
  6
CONTINUOUS
 10
319.1211633329
 20
56.6452572212
 11
319.3581628594
 21
56.6093113266
  0
LINE
  5
529
100
AcDbEntity
  8
606312146-000-00-ED1_FORMAT
100
AcDbLine
 62
90
  6
CONTINUOUS
 10
322.9365017053
 20
51.8976983318
 11
322.1121303161
 21
52.0335969303
  0
LINE
  5
52A
100
AcDbEntity
  8
606312146-000-00-ED1_FORMAT
100
AcDbLine
 62
90
  6
CONTINUOUS
 10
324.5936673358
 20
50.9565552373
 11
322.9856044916
 21
51.2672776077
  0
LINE
  5
52B
100
AcDbEntity
  8
606312146-000-00-ED1_FORMAT
100
AcDbLine
 62
7
  6
CONTINUOUS
 10
146.999991584
 20
10.0
 11
146.999993584
 21
72.500002
  0
LINE
  5
52C
100
AcDbEntity
  8
606312146-000-00-ED1_FORMAT
100
AcDbLine
 62
90
  6
CONTINUOUS
 10
311.0026020363
 20
57.1580441183
 11
312.2078938594
 21
56.9181225336
  0
LINE
  5
52D
100
AcDbEntity
  8
606312146-000-00-ED1_FORMAT
100
AcDbLine
 62
90
  6
CONTINUOUS
 10
319.3581628594
 20
56.6093113266
 11
319.5746545721
 21
56.5594341567
  0
LINE
  5
52E
100
AcDbEntity
  8
606312146-000-00-ED1_FORMAT
100
AcDbLine
 62
90
  6
CONTINUOUS
 10
319.2772302372
 20
55.4772960278
 11
319.1197290067
 21
55.5162898657
  0
LINE
  5
52F
100
AcDbEntity
  8
606312146-000-00-ED1_FORMAT
100
AcDbLine
 62
7
  6
CONTINUOUS
 10
154.499993824
 20
65.00000176
 11
154.499993824
 21
72.500002
  0
LINE
  5
530
100
AcDbEntity
  8
606312146-000-00-ED1_FORMAT
100
AcDbLine
 62
3
  6
CONTINUOUS
 10
160.0
 20
10.0
 11
160.0
 21
5.0
  0
LINE
  5
531
100
AcDbEntity
  8
606312146-000-00-ED1_FORMAT
100
AcDbLine
 62
3
  6
CONTINUOUS
 10
160.0
 20
287.0
 11
160.0
 21
292.0
  0
LINE
  5
532
100
AcDbEntity
  8
606312146-000-00-ED1_FORMAT
100
AcDbLine
 62
7
  6
CONTINUOUS
 10
161.999994064
 20
65.00000176
 11
161.999994064
 21
72.500002
  0
LINE
  5
533
100
AcDbEntity
  8
606312146-000-00-ED1_FORMAT
100
AcDbLine
 62
3
  6
CONTINUOUS
 10
22.9999999122
 20
93.4999984459
 11
28.9999998068
 21
93.4999984459
  0
LINE
  5
534
100
AcDbEntity
  8
606312146-000-00-ED1_FORMAT
100
AcDbLine
 62
3
  6
CONTINUOUS
 10
23.0
 20
98.5
 11
18.0
 21
98.5
  0
LINE
  5
535
100
AcDbEntity
  8
606312146-000-00-ED1_FORMAT
100
AcDbLine
 62
3
  6
CONTINUOUS
 10
410.0
 20
98.5
 11
415.0
 21
98.5
  0
LINE
  5
536
100
AcDbEntity
  8
606312146-000-00-ED1_FORMAT
100
AcDbLine
 62
90
  6
CONTINUOUS
 10
319.5746545721
 20
56.5594341567
 11
319.771370893
 21
56.4966518652
  0
LINE
  5
537
100
AcDbEntity
  8
606312146-000-00-ED1_FORMAT
100
AcDbLine
 62
90
  6
CONTINUOUS
 10
327.4483428066
 20
51.7095612656
 11
328.8858123785
 21
51.1495865603
  0
LINE
  5
538
100
AcDbEntity
  8
606312146-000-00-ED1_FORMAT
100
AcDbLine
 62
90
  6
CONTINUOUS
 10
326.932168458
 20
51.5395669008
 11
328.2963042852
 21
50.9884537378
  0
LINE
  5
539
100
AcDbEntity
  8
606312146-000-00-ED1_FORMAT
100
AcDbLine
 62
90
  6
CONTINUOUS
 10
319.771370893
 20
56.4966518652
 11
319.9490137263
 21
56.4220058645
  0
LINE
  5
53A
100
AcDbEntity
  8
606312146-000-00-ED1_FORMAT
100
AcDbLine
 62
90
  6
CONTINUOUS
 10
317.2765282083
 20
47.4442869521
 11
308.6544268413
 21
51.5949067174
  0
LINE
  5
53B
100
AcDbEntity
  8
606312146-000-00-ED1_FORMAT
100
AcDbLine
 62
3
  6
CONTINUOUS
 10
306.2529679515
 20
52.1786164706
 11
302.0615436566
 21
54.2349992063
  0
LINE
  5
53C
100
AcDbEntity
  8
606312146-000-00-ED1_FORMAT
100
AcDbLine
 62
3
  6
CONTINUOUS
 10
317.2765282083
 20
46.7702794944
 11
308.6552813335
 21
51.0000084565
  0
LINE
  5
53D
100
AcDbEntity
  8
606312146-000-00-ED1_FORMAT
100
AcDbLine
 62
90
  6
CONTINUOUS
 10
306.8480912796
 20
49.2196929465
 11
306.2529679515
 21
49.5195586878
  0
LINE
  5
53E
100
AcDbEntity
  8
606312146-000-00-ED1_FORMAT
100
AcDbLine
 62
7
  6
CONTINUOUS
 10
171.3988033648
 20
65.00000176
 11
171.3988033648
 21
72.500002
  0
LINE
  5
53F
100
AcDbEntity
  8
606312146-000-00-ED1_FORMAT
100
AcDbLine
 62
7
  6
CONTINUOUS
 10
176.3988035248
 20
65.00000176
 11
176.3988035248
 21
72.500002
  0
LINE
  5
540
100
AcDbEntity
  8
606312146-000-00-ED1_FORMAT
100
AcDbLine
 62
90
  6
CONTINUOUS
 10
327.5174346078
 20
55.960812751
 11
331.7164705138
 21
54.2350054536
  0
LINE
  5
541
100
AcDbEntity
  8
606312146-000-00-ED1_FORMAT
100
AcDbLine
 62
3
  6
CONTINUOUS
 10
317.2765282083
 20
61.1759505575
 11
325.1310514025
 21
57.6838620222
  0
LINE
  5
542
100
AcDbEntity
  8
606312146-000-00-ED1_FORMAT
100
AcDbLine
 62
3
  6
CONTINUOUS
 10
327.5174346078
 20
56.6228802056
 11
332.8883150692
 21
54.2350054536
  0
LINE
  5
543
100
AcDbEntity
  8
606312146-000-00-ED1_FORMAT
100
AcDbLine
 62
90
  6
CONTINUOUS
 10
317.2765282083
 20
60.5323080919
 11
325.1310514025
 21
56.99042631
  0
LINE
  5
544
100
AcDbEntity
  8
606312146-000-00-ED1_FORMAT
100
AcDbLine
 62
90
  6
CONTINUOUS
 10
319.4130945035
 20
55.4154712254
 11
319.2772302372
 21
55.4772960278
  0
LINE
  5
545
100
AcDbEntity
  8
606312146-000-00-ED1_FORMAT
100
AcDbLine
 62
90
  6
CONTINUOUS
 10
306.8379899606
 20
59.3176893334
 11
308.625160482
 21
58.4725202134
  0
LINE
  5
546
100
AcDbEntity
  8
606312146-000-00-ED1_FORMAT
100
AcDbLine
 62
90
  6
CONTINUOUS
 10
306.8572770711
 20
59.0472120216
 11
308.4341204311
 21
58.3007329407
  0
LINE
  5
547
100
AcDbEntity
  8
606312146-000-00-ED1_FORMAT
100
AcDbLine
 62
90
  6
CONTINUOUS
 10
328.2963042852
 20
49.2870452456
 11
325.4072355017
 21
50.7446373469
  0
LINE
  5
548
100
AcDbEntity
  8
606312146-000-00-ED1_FORMAT
100
AcDbLine
 62
90
  6
CONTINUOUS
 10
328.3335052152
 20
48.9736602163
 11
325.1310514025
 21
50.6036919035
  0
LINE
  5
549
100
AcDbEntity
  8
606312146-000-00-ED1_FORMAT
100
AcDbLine
 62
90
  6
CONTINUOUS
 10
306.2529679515
 20
52.7537889307
 11
303.350532468
 21
54.2350054536
  0
LINE
  5
54A
100
AcDbEntity
  8
606312146-000-00-ED1_FORMAT
100
AcDbLine
 62
90
  6
CONTINUOUS
 10
319.9490137263
 20
56.4220058645
 11
320.108315494
 21
56.3365261228
  0
LINE
  5
54B
100
AcDbEntity
  8
606312146-000-00-ED1_FORMAT
100
AcDbLine
 62
90
  6
CONTINUOUS
 10
320.108315494
 20
56.3365261228
 11
320.2500391357
 21
56.2412464233
  0
LINE
  5
54C
100
AcDbEntity
  8
606312146-000-00-ED1_FORMAT
100
AcDbLine
 62
7
  6
CONTINUOUS
 10
207.999993536
 20
65.00000176
 11
207.999993536
 21
72.500002
  0
LINE
  5
54D
100
AcDbEntity
  8
606312146-000-00-ED1_FORMAT
100
AcDbLine
 62
7
  6
CONTINUOUS
 10
210.0
 20
292.0
 11
210.0
 21
277.0
  0
LINE
  5
54E
100
AcDbEntity
  8
606312146-000-00-ED1_FORMAT
100
AcDbLine
 62
3
  6
CONTINUOUS
 10
210.0
 20
10.0
 11
210.0
 21
5.0
  0
LINE
  5
54F
100
AcDbEntity
  8
606312146-000-00-ED1_FORMAT
100
AcDbLine
 62
7
  6
CONTINUOUS
 10
415.0
 20
148.5
 11
400.0
 21
148.5
  0
LINE
  5
550
100
AcDbEntity
  8
606312146-000-00-ED1_FORMAT
100
AcDbLine
 62
7
  6
CONTINUOUS
 10
18.0
 20
148.5
 11
33.0
 21
148.5
  0
LINE
  5
551
100
AcDbEntity
  8
606312146-000-00-ED1_FORMAT
100
AcDbLine
 62
3
  6
CONTINUOUS
 10
23.0
 20
148.515014696
 11
29.000000192
 21
148.515014696
  0
LINE
  5
552
100
AcDbEntity
  8
606312146-000-00-ED1_FORMAT
100
AcDbLine
 62
90
  6
CONTINUOUS
 10
319.524086942
 20
55.3254977701
 11
319.4130945035
 21
55.4154712254
  0
LINE
  5
553
100
AcDbEntity
  8
606312146-000-00-ED1_FORMAT
100
AcDbLine
 62
90
  6
CONTINUOUS
 10
320.2500391357
 20
56.2412464233
 11
320.3748255204
 21
56.1372005489
  0
LINE
  5
554
100
AcDbEntity
  8
606312146-000-00-ED1_FORMAT
100
AcDbLine
 62
7
  6
CONTINUOUS
 10
223.999992048
 20
10.0
 11
223.999992048
 21
65.00000176
  0
LINE
  5
555
100
AcDbEntity
  8
606312146-000-00-ED1_FORMAT
100
AcDbLine
 62
90
  6
CONTINUOUS
 10
320.3748255204
 20
56.1372005489
 11
320.4834681053
 21
56.025418468
  0
LINE
  5
556
100
AcDbEntity
  8
606312146-000-00-ED1_FORMAT
100
AcDbLine
 62
90
  6
CONTINUOUS
 10
320.4834681053
 20
56.025418468
 11
320.5766382771
 21
55.9069454076
  0
LINE
  5
557
100
AcDbEntity
  8
606312146-000-00-ED1_FORMAT
100
AcDbLine
 62
90
  6
CONTINUOUS
 10
327.0021757866
 20
59.0598043381
 11
327.5174346078
 21
58.326871248
  0
LINE
  5
558
100
AcDbEntity
  8
606312146-000-00-ED1_FORMAT
100
AcDbLine
 62
90
  6
CONTINUOUS
 10
319.6070032069
 20
55.2020465295
 11
319.524086942
 21
55.3254977701
  0
LINE
  5
559
100
AcDbEntity
  8
606312146-000-00-ED1_FORMAT
100
AcDbLine
 62
90
  6
CONTINUOUS
 10
320.5766382771
 20
55.9069454076
 11
320.6550989753
 21
55.7828037068
  0
LINE
  5
55A
100
AcDbEntity
  8
606312146-000-00-ED1_FORMAT
100
AcDbLine
 62
3
  6
CONTINUOUS
 10
260.0
 20
10.0
 11
260.0
 21
5.0
  0
LINE
  5
55B
100
AcDbEntity
  8
606312146-000-00-ED1_FORMAT
100
AcDbLine
 62
3
  6
CONTINUOUS
 10
260.0
 20
287.0
 11
260.0
 21
292.0
  0
LINE
  5
55C
100
AcDbEntity
  8
606312146-000-00-ED1_FORMAT
100
AcDbLine
 62
7
  6
CONTINUOUS
 10
260.999993232
 20
43.500001072
 11
260.999993232
 21
35.0000008
  0
LINE
  5
55D
100
AcDbEntity
  8
606312146-000-00-ED1_FORMAT
100
AcDbLine
 62
7
  6
CONTINUOUS
 10
264.9013593819
 20
287.0
 11
264.9013593819
 21
225.000007
  0
LINE
  5
55E
100
AcDbEntity
  8
606312146-000-00-ED1_FORMAT
100
AcDbLine
 62
3
  6
CONTINUOUS
 10
23.0
 20
198.5
 11
18.0
 21
198.5
  0
LINE
  5
55F
100
AcDbEntity
  8
606312146-000-00-ED1_FORMAT
100
AcDbLine
 62
3
  6
CONTINUOUS
 10
410.0
 20
198.5
 11
415.0
 21
198.5
  0
LINE
  5
560
100
AcDbEntity
  8
606312146-000-00-ED1_FORMAT
100
AcDbLine
 62
90
  6
CONTINUOUS
 10
320.6550989753
 20
55.7828037068
 11
320.7195215868
 21
55.6540347778
  0
LINE
  5
561
100
AcDbEntity
  8
606312146-000-00-ED1_FORMAT
100
AcDbLine
 62
90
  6
CONTINUOUS
 10
309.6609271481
 20
51.1619538096
 11
308.4533770241
 21
54.0527163187
  0
LINE
  5
562
100
AcDbEntity
  8
606312146-000-00-ED1_FORMAT
100
AcDbLine
 62
7
  6
CONTINUOUS
 10
274.9014193732
 20
225.000007
 11
274.9014193732
 21
287.0000007463
  0
LINE
  5
563
100
AcDbEntity
  8
606312146-000-00-ED1_FORMAT
100
AcDbLine
 62
3
  6
CONTINUOUS
 10
28.9999998068
 20
209.9999964
 11
22.9999999122
 21
209.9999964
  0
LINE
  5
564
100
AcDbEntity
  8
606312146-000-00-ED1_FORMAT
100
AcDbLine
 62
90
  6
CONTINUOUS
 10
320.7195215868
 20
55.6540347778
 11
320.7706995685
 21
55.5216724039
  0
LINE
  5
565
100
AcDbEntity
  8
606312146-000-00-ED1_FORMAT
100
AcDbLine
 62
90
  6
CONTINUOUS
 10
308.625160482
 20
58.4725202134
 11
309.189918818
 21
56.8570377824
  0
LINE
  5
566
100
AcDbEntity
  8
606312146-000-00-ED1_FORMAT
100
AcDbLine
 62
90
  6
CONTINUOUS
 10
308.4341204311
 20
58.3007329407
 11
309.5429461837
 21
55.0142718596
  0
LINE
  5
567
100
AcDbEntity
  8
606312146-000-00-ED1_FORMAT
100
AcDbLine
 62
7
  6
CONTINUOUS
 10
294.99999432
 20
65.00000176
 11
294.99999432
 21
35.0000008
  0
LINE
  5
568
100
AcDbEntity
  8
606312146-000-00-ED1_FORMAT
100
AcDbLine
 62
7
  6
CONTINUOUS
 10
264.9013593819
 20
225.000007
 11
410.0000007463
 21
225.000007
  0
LINE
  5
569
100
AcDbEntity
  8
606312146-000-00-ED1_FORMAT
100
AcDbLine
 62
7
  6
CONTINUOUS
 10
274.9014193732
 20
229.5500015411
 11
376.900004085
 21
229.5500015411
  0
LINE
  5
56A
100
AcDbEntity
  8
606312146-000-00-ED1_FORMAT
100
AcDbLine
 62
7
  6
CONTINUOUS
 10
264.9013593819
 20
234.0999960821
 11
410.0000007463
 21
234.0999960821
  0
LINE
  5
56B
100
AcDbEntity
  8
606312146-000-00-ED1_FORMAT
100
AcDbLine
 62
90
  6
CONTINUOUS
 10
319.6586389523
 20
55.03980363
 11
319.6070032069
 21
55.2020465295
  0
LINE
  5
56C
100
AcDbEntity
  8
606312146-000-00-ED1_FORMAT
100
AcDbLine
 62
90
  6
CONTINUOUS
 10
320.7706995685
 20
55.5216724039
 11
320.8093043072
 21
55.3867427385
  0
LINE
  5
56D
100
AcDbEntity
  8
606312146-000-00-ED1_FORMAT
100
AcDbLine
 62
90
  6
CONTINUOUS
 10
315.9725120138
 20
56.5857631989
 11
317.1683433871
 21
51.8564423783
  0
LINE
  5
56E
100
AcDbEntity
  8
606312146-000-00-ED1_FORMAT
100
AcDbLine
 62
90
  6
CONTINUOUS
 10
315.6792380698
 20
51.8104561999
 11
315.4687888379
 21
52.775513633
  0
LINE
  5
56F
100
AcDbEntity
  8
606312146-000-00-ED1_FORMAT
100
AcDbLine
 62
90
  6
CONTINUOUS
 10
315.336312023
 20
53.8016825201
 11
314.9602133668
 21
55.541772045
  0
LINE
  5
570
100
AcDbEntity
  8
606312146-000-00-ED1_FORMAT
100
AcDbLine
 62
90
  6
CONTINUOUS
 10
319.6758203499
 20
54.8334437538
 11
319.6586389523
 21
55.03980363
  0
LINE
  5
571
100
AcDbEntity
  8
606312146-000-00-ED1_FORMAT
100
AcDbLine
 62
7
  6
CONTINUOUS
 10
299.9999903875
 20
10.0
 11
299.999990634
 21
24.250000456
  0
LINE
  5
572
100
AcDbEntity
  8
606312146-000-00-ED1_FORMAT
100
AcDbLine
 62
90
  6
CONTINUOUS
 10
306.2529679515
 20
49.5195586878
 11
306.2529679515
 21
52.7537889307
  0
LINE
  5
573
100
AcDbEntity
  8
606312146-000-00-ED1_FORMAT
100
AcDbLine
 62
90
  6
CONTINUOUS
 10
306.2538224437
 20
55.54782597
 11
306.2538224437
 21
59.0461400916
  0
LINE
  5
574
100
AcDbEntity
  8
606312146-000-00-ED1_FORMAT
100
AcDbLine
 62
90
  6
CONTINUOUS
 10
308.4533770241
 20
54.0527163187
 11
308.4533770241
 21
50.4031799586
  0
LINE
  5
575
100
AcDbEntity
  8
606312146-000-00-ED1_FORMAT
100
AcDbLine
 62
90
  6
CONTINUOUS
 10
308.6544268413
 20
51.5949067174
 11
308.6544268413
 21
50.2336204693
  0
LINE
  5
576
100
AcDbEntity
  8
606312146-000-00-ED1_FORMAT
100
AcDbLine
 62
3
  6
CONTINUOUS
 10
310.0
 20
10.0
 11
310.0
 21
5.0
  0
LINE
  5
577
100
AcDbEntity
  8
606312146-000-00-ED1_FORMAT
100
AcDbLine
 62
3
  6
CONTINUOUS
 10
310.0
 20
287.0
 11
310.0
 21
292.0
  0
LINE
  5
578
100
AcDbEntity
  8
606312146-000-00-ED1_FORMAT
100
AcDbLine
 62
90
  6
CONTINUOUS
 10
310.7759784871
 20
51.0971573578
 11
310.7759784871
 21
53.7835398188
  0
LINE
  5
579
100
AcDbEntity
  8
606312146-000-00-ED1_FORMAT
100
AcDbLine
 62
90
  6
CONTINUOUS
 10
312.2078938594
 20
56.9181225336
 11
312.2078938594
 21
51.4102448407
  0
LINE
  5
57A
100
AcDbEntity
  8
606312146-000-00-ED1_FORMAT
100
AcDbLine
 62
7
  6
CONTINUOUS
 10
314.0000008808
 20
65.00000176
 11
314.0000008808
 21
72.500002
  0
LINE
  5
57B
100
AcDbEntity
  8
606312146-000-00-ED1_FORMAT
100
AcDbLine
 62
90
  6
CONTINUOUS
 10
306.8541032428
 20
49.5294349396
 11
306.8572770711
 21
59.0472120216
  0
LINE
  5
57C
100
AcDbEntity
  8
606312146-000-00-ED1_FORMAT
100
AcDbLine
 62
7
  6
CONTINUOUS
 10
274.9014193732
 20
238.6499906232
 11
376.900004085
 21
238.6499906232
  0
LINE
  5
57D
100
AcDbEntity
  8
606312146-000-00-ED1_FORMAT
100
AcDbLine
 62
7
  6
CONTINUOUS
 10
264.9013593819
 20
243.1999851642
 11
410.0000007463
 21
243.1999851642
  0
LINE
  5
57E
100
AcDbEntity
  8
606312146-000-00-ED1_FORMAT
100
AcDbLine
 62
7
  6
CONTINUOUS
 10
274.9014193732
 20
247.7499797053
 11
376.900004085
 21
247.7499797053
  0
LINE
  5
57F
100
AcDbEntity
  8
606312146-000-00-ED1_FORMAT
100
AcDbLine
 62
3
  6
CONTINUOUS
 10
23.0
 20
248.5
 11
18.0
 21
248.5
  0
LINE
  5
580
100
AcDbEntity
  8
606312146-000-00-ED1_FORMAT
100
AcDbLine
 62
3
  6
CONTINUOUS
 10
410.0
 20
248.5
 11
415.0
 21
248.5
  0
LINE
  5
581
100
AcDbEntity
  8
606312146-000-00-ED1_FORMAT
100
AcDbLine
 62
7
  6
CONTINUOUS
 10
264.9013593819
 20
252.2999732463
 11
410.0000007463
 21
252.2999732463
  0
LINE
  5
582
100
AcDbEntity
  8
606312146-000-00-ED1_FORMAT
100
AcDbLine
 62
90
  6
CONTINUOUS
 10
320.8093043072
 20
55.3867427385
 11
320.8360377073
 21
55.2502871941
  0
LINE
  5
583
100
AcDbEntity
  8
606312146-000-00-ED1_FORMAT
100
AcDbLine
 62
90
  6
CONTINUOUS
 10
323.4244472923
 20
57.2541096455
 11
324.5936673358
 21
50.9565552373
  0
LINE
  5
584
100
AcDbEntity
  8
606312146-000-00-ED1_FORMAT
100
AcDbLine
 62
90
  6
CONTINUOUS
 10
322.8411647853
 20
53.3604707922
 11
322.5284816604
 21
55.3982936425
  0
LINE
  5
585
100
AcDbEntity
  8
606312146-000-00-ED1_FORMAT
100
AcDbLine
 62
90
  6
CONTINUOUS
 10
320.8360377073
 20
55.2502871941
 11
320.8516932259
 21
55.113335739
  0
LINE
  5
586
100
AcDbEntity
  8
606312146-000-00-ED1_FORMAT
100
AcDbLine
 62
90
  6
CONTINUOUS
 10
322.9856044916
 20
51.2672776077
 11
322.9365017053
 21
51.8976983318
  0
LINE
  5
587
100
AcDbEntity
  8
606312146-000-00-ED1_FORMAT
100
AcDbLine
 62
90
  6
CONTINUOUS
 10
320.8516932259
 20
55.113335739
 11
320.8569422496
 21
54.976925971
  0
LINE
  5
588
100
AcDbEntity
  8
606312146-000-00-ED1_FORMAT
100
AcDbLine
 62
90
  6
CONTINUOUS
 10
318.7525720014
 20
55.5470821039
 11
318.7601098437
 21
53.9302530848
  0
LINE
  5
589
100
AcDbEntity
  8
606312146-000-00-ED1_FORMAT
100
AcDbLine
 62
90
  6
CONTINUOUS
 10
317.504647119
 20
51.8526314954
 11
317.504647119
 21
56.61847423
  0
LINE
  5
58A
100
AcDbEntity
  8
606312146-000-00-ED1_FORMAT
100
AcDbLine
 62
90
  6
CONTINUOUS
 10
318.7919396796
 20
52.828049647
 11
318.7919396796
 21
51.769318502
  0
LINE
  5
58B
100
AcDbEntity
  8
606312146-000-00-ED1_FORMAT
100
AcDbLine
 62
90
  6
CONTINUOUS
 10
325.1310514025
 20
50.6036919035
 11
325.1310514025
 21
51.1375969661
  0
LINE
  5
58C
100
AcDbEntity
  8
606312146-000-00-ED1_FORMAT
100
AcDbLine
 62
90
  6
CONTINUOUS
 10
325.1310514025
 20
56.99042631
 11
325.1310514025
 21
58.2890561516
  0
LINE
  5
58D
100
AcDbEntity
  8
606312146-000-00-ED1_FORMAT
100
AcDbLine
 62
90
  6
CONTINUOUS
 10
325.4072355017
 20
50.7446373469
 11
325.4072355017
 21
58.1349919636
  0
LINE
  5
58E
100
AcDbEntity
  8
606312146-000-00-ED1_FORMAT
100
AcDbLine
 62
90
  6
CONTINUOUS
 10
326.932168458
 20
58.7495740636
 11
326.932168458
 21
51.5395669008
  0
LINE
  5
58F
100
AcDbEntity
  8
606312146-000-00-ED1_FORMAT
100
AcDbLine
 62
90
  6
CONTINUOUS
 10
327.4483428066
 20
52.1575097493
 11
327.4483428066
 21
51.7095612656
  0
LINE
  5
590
100
AcDbEntity
  8
606312146-000-00-ED1_FORMAT
100
AcDbLine
 62
90
  6
CONTINUOUS
 10
327.5174346078
 20
58.326871248
 11
327.5174346078
 21
55.960812751
  0
LINE
  5
591
100
AcDbEntity
  8
606312146-000-00-ED1_FORMAT
100
AcDbLine
 62
90
  6
CONTINUOUS
 10
328.2963042852
 20
50.9884537378
 11
328.2963042852
 21
49.2870452456
  0
LINE
  5
592
100
AcDbEntity
  8
606312146-000-00-ED1_FORMAT
100
AcDbLine
 62
90
  6
CONTINUOUS
 10
328.8858123785
 20
51.1495865603
 11
328.8858123785
 21
49.3918693183
  0
LINE
  5
593
100
AcDbEntity
  8
606312146-000-00-ED1_FORMAT
100
AcDbLine
 62
90
  6
CONTINUOUS
 10
320.8569422496
 20
54.976925971
 11
320.8524256478
 21
54.7780543461
  0
LINE
  5
594
100
AcDbEntity
  8
606312146-000-00-ED1_FORMAT
100
AcDbLine
 62
90
  6
CONTINUOUS
 10
319.6602563841
 20
54.6050921466
 11
319.6758203499
 21
54.8334437538
  0
LINE
  5
595
100
AcDbEntity
  8
606312146-000-00-ED1_FORMAT
100
AcDbLine
 62
90
  6
CONTINUOUS
 10
320.8524256478
 20
54.7780543461
 11
320.8380823852
 21
54.5885821358
  0
LINE
  5
596
100
AcDbEntity
  8
606312146-000-00-ED1_FORMAT
100
AcDbLine
 62
7
  6
CONTINUOUS
 10
274.9014193732
 20
256.8499677874
 11
376.900004085
 21
256.8499677874
  0
LINE
  5
597
100
AcDbEntity
  8
606312146-000-00-ED1_FORMAT
100
AcDbLine
 62
7
  6
CONTINUOUS
 10
135.0000610636
 20
259.0000097341
 11
23.0001
 21
259.0000097341
  0
LINE
  5
598
100
AcDbEntity
  8
606312146-000-00-ED1_FORMAT
100
AcDbLine
 62
7
  6
CONTINUOUS
 10
264.9013593819
 20
261.3999623285
 11
410.0000007463
 21
261.3999623285
  0
LINE
  5
599
100
AcDbEntity
  8
606312146-000-00-ED1_FORMAT
100
AcDbLine
 62
7
  6
CONTINUOUS
 10
135.0000610636
 20
265.0000076482
 11
23.0001
 21
265.0000076482
  0
LINE
  5
59A
100
AcDbEntity
  8
606312146-000-00-ED1_FORMAT
100
AcDbLine
 62
7
  6
CONTINUOUS
 10
274.9014193732
 20
265.9499568695
 11
376.900004085
 21
265.9499568695
  0
LINE
  5
59B
100
AcDbEntity
  8
606312146-000-00-ED1_FORMAT
100
AcDbLine
 62
90
  6
CONTINUOUS
 10
320.8380823852
 20
54.5885821358
 11
320.8140040145
 21
54.4085627459
  0
LINE
  5
59C
100
AcDbEntity
  8
606312146-000-00-ED1_FORMAT
100
AcDbLine
 62
90
  6
CONTINUOUS
 10
322.5284816604
 20
55.3982936425
 11
322.2427760762
 21
53.4197740796
  0
LINE
  5
59D
100
AcDbEntity
  8
606312146-000-00-ED1_FORMAT
100
AcDbLine
 62
90
  6
CONTINUOUS
 10
322.1121303161
 20
52.0335969303
 11
322.0031825554
 21
51.4534806222
  0
LINE
  5
59E
100
AcDbEntity
  8
606312146-000-00-ED1_FORMAT
100
AcDbLine
 62
90
  6
CONTINUOUS
 10
320.8140040145
 20
54.4085627459
 11
320.780251571
 21
54.2380190647
  0
LINE
  5
59F
100
AcDbEntity
  8
606312146-000-00-ED1_FORMAT
100
AcDbLine
 62
90
  6
CONTINUOUS
 10
314.4483114794
 20
52.701374987
 11
314.221260684
 21
51.6919106602
  0
LINE
  5
5A0
100
AcDbEntity
  8
606312146-000-00-ED1_FORMAT
100
AcDbLine
 62
90
  6
CONTINUOUS
 10
314.9602133668
 20
55.541772045
 11
314.5568930292
 21
53.7608995891
  0
LINE
  5
5A1
100
AcDbEntity
  8
606312146-000-00-ED1_FORMAT
100
AcDbLine
 62
90
  6
CONTINUOUS
 10
320.5375452571
 20
51.6192978933
 11
321.735726484
 21
56.8852055088
  0
LINE
  5
5A2
100
AcDbEntity
  8
606312146-000-00-ED1_FORMAT
100
AcDbLine
 62
90
  6
CONTINUOUS
 10
319.6160669282
 20
54.4151469138
 11
319.6602563841
 21
54.6050921466
  0
LINE
  5
5A3
100
AcDbEntity
  8
606312146-000-00-ED1_FORMAT
100
AcDbLine
 62
90
  6
CONTINUOUS
 10
320.780251571
 20
54.2380190647
 11
320.7368860898
 21
54.077000683
  0
LINE
  5
5A4
100
AcDbEntity
  8
606312146-000-00-ED1_FORMAT
100
AcDbLine
 62
90
  6
CONTINUOUS
 10
312.6779866622
 20
51.4975518225
 11
314.1172567713
 21
56.6976177591
  0
LINE
  5
5A5
100
AcDbEntity
  8
606312146-000-00-ED1_FORMAT
100
AcDbLine
 62
90
  6
CONTINUOUS
 10
310.7759784871
 20
53.7835398188
 11
309.6609271481
 21
51.1619538096
  0
LINE
  5
5A6
100
AcDbEntity
  8
606312146-000-00-ED1_FORMAT
100
AcDbLine
 62
90
  6
CONTINUOUS
 10
308.4533770241
 20
50.4031799586
 11
306.8541032428
 21
49.5294349396
  0
LINE
  5
5A7
100
AcDbEntity
  8
606312146-000-00-ED1_FORMAT
100
AcDbLine
 62
90
  6
CONTINUOUS
 10
319.9253015666
 20
53.0628747959
 11
319.7895898882
 21
52.9992570857
  0
LINE
  5
5A8
100
AcDbEntity
  8
606312146-000-00-ED1_FORMAT
100
AcDbLine
 62
90
  6
CONTINUOUS
 10
306.2538224437
 20
59.0461400916
 11
306.8379899606
 21
59.3176893334
  0
LINE
  5
5A9
100
AcDbEntity
  8
606312146-000-00-ED1_FORMAT
100
AcDbLine
 62
3
  6
CONTINUOUS
 10
302.0615436566
 20
54.2349992063
 11
306.2538224437
 21
56.1474824568
  0
LINE
  5
5AA
100
AcDbEntity
  8
606312146-000-00-ED1_FORMAT
100
AcDbLine
 62
3
  6
CONTINUOUS
 10
309.0000094785
 20
57.4002704925
 11
317.2765282083
 21
61.1759505575
  0
LINE
  5
5AB
100
AcDbEntity
  8
606312146-000-00-ED1_FORMAT
100
AcDbLine
 62
90
  6
CONTINUOUS
 10
309.189918818
 20
56.8570377824
 11
317.2765282083
 21
60.5323080919
  0
LINE
  5
5AC
100
AcDbEntity
  8
606312146-000-00-ED1_FORMAT
100
AcDbLine
 62
90
  6
CONTINUOUS
 10
303.350532468
 20
54.2350054536
 11
306.2538224437
 21
55.54782597
  0
LINE
  5
5AD
100
AcDbEntity
  8
606312146-000-00-ED1_FORMAT
100
AcDbLine
 62
90
  6
CONTINUOUS
 10
325.1310514025
 20
58.2890561516
 11
327.0021757866
 21
59.0598043381
  0
LINE
  5
5AE
100
AcDbEntity
  8
606312146-000-00-ED1_FORMAT
100
AcDbLine
 62
90
  6
CONTINUOUS
 10
319.1567773488
 20
53.9852228758
 11
319.3136377102
 21
54.0486460365
  0
LINE
  5
5AF
100
AcDbEntity
  8
606312146-000-00-ED1_FORMAT
100
AcDbLine
 62
90
  6
CONTINUOUS
 10
325.4072355017
 20
58.1349919636
 11
326.932168458
 21
58.7495740636
  0
LINE
  5
5B0
100
AcDbEntity
  8
606312146-000-00-ED1_FORMAT
100
AcDbLine
 62
90
  6
CONTINUOUS
 10
319.7895898882
 20
52.9992570857
 11
319.6450586292
 21
52.9455957359
  0
LINE
  5
5B1
100
AcDbEntity
  8
606312146-000-00-ED1_FORMAT
100
AcDbLine
 62
90
  6
CONTINUOUS
 10
319.6450586292
 20
52.9455957359
 11
319.4917077896
 21
52.901936523
  0
LINE
  5
5B2
100
AcDbEntity
  8
606312146-000-00-ED1_FORMAT
100
AcDbLine
 62
7
  6
CONTINUOUS
 10
264.9013593819
 20
270.4999514106
 11
410.0000007463
 21
270.4999514106
  0
LINE
  5
5B3
100
AcDbEntity
  8
606312146-000-00-ED1_FORMAT
100
AcDbLine
 62
7
  6
CONTINUOUS
 10
274.9014193732
 20
275.0499459516
 11
376.900004085
 21
275.0499459516
  0
LINE
  5
5B4
100
AcDbEntity
  8
606312146-000-00-ED1_FORMAT
100
AcDbLine
 62
7
  6
CONTINUOUS
 10
264.9013593819
 20
279.5999404927
 11
410.0000007463
 21
279.5999404927
  0
LINE
  5
5B5
100
AcDbEntity
  8
606312146-000-00-ED1_FORMAT
100
AcDbLine
 62
7
  6
CONTINUOUS
 10
135.0000610636
 20
281.0000010853
 11
23.0001
 21
281.0000010853
  0
LINE
  5
5B6
100
AcDbEntity
  8
606312146-000-00-ED1_FORMAT
100
AcDbLine
 62
7
  6
CONTINUOUS
 10
344.9999968815
 20
13.500000112
 11
344.9999968815
 21
24.250000456
  0
LINE
  5
5B7
100
AcDbEntity
  8
606312146-000-00-ED1_FORMAT
100
AcDbLine
 62
90
  6
CONTINUOUS
 10
320.7368860898
 20
54.077000683
 11
320.683968606
 21
53.9255419334
  0
LINE
  5
5B8
100
AcDbEntity
  8
606312146-000-00-ED1_FORMAT
100
AcDbLine
 62
90
  6
CONTINUOUS
 10
320.683968606
 20
53.9255419334
 11
320.6215601549
 21
53.783688592
  0
LINE
  5
5B9
100
AcDbEntity
  8
606312146-000-00-ED1_FORMAT
100
AcDbLine
 62
90
  6
CONTINUOUS
 10
319.5434350877
 20
54.2608958056
 11
319.6160669282
 21
54.4151469138
  0
LINE
  5
5BA
100
AcDbEntity
  8
606312146-000-00-ED1_FORMAT
100
AcDbLine
 62
90
  6
CONTINUOUS
 10
320.6215601549
 20
53.783688592
 11
320.5497522891
 21
53.6514749913
  0
LINE
  5
5BB
100
AcDbEntity
  8
606312146-000-00-ED1_FORMAT
100
AcDbLine
 62
90
  6
CONTINUOUS
 10
320.5497522891
 20
53.6514749913
 11
320.4686060438
 21
53.5289430928
  0
LINE
  5
5BC
100
AcDbEntity
  8
606312146-000-00-ED1_FORMAT
100
AcDbLine
 62
90
  6
CONTINUOUS
 10
309.5429461837
 20
55.0142718596
 11
311.0026020363
 21
57.1580441183
  0
LINE
  5
5BD
100
AcDbEntity
  8
606312146-000-00-ED1_FORMAT
100
AcDbLine
 62
90
  6
CONTINUOUS
 10
320.4686060438
 20
53.5289430928
 11
320.3782129718
 21
53.4161310435
  0
LINE
  5
5BE
100
AcDbEntity
  8
606312146-000-00-ED1_FORMAT
100
AcDbLine
 62
90
  6
CONTINUOUS
 10
319.4425744858
 20
54.1396303867
 11
319.5434350877
 21
54.2608958056
  0
LINE
  5
5BF
100
AcDbEntity
  8
606312146-000-00-ED1_FORMAT
100
AcDbLine
 62
90
  6
CONTINUOUS
 10
320.3782129718
 20
53.4161310435
 11
320.2786035906
 21
53.3130769905
  0
LINE
  5
5C0
100
AcDbEntity
  8
606312146-000-00-ED1_FORMAT
100
AcDbLine
 62
90
  6
CONTINUOUS
 10
320.2786035906
 20
53.3130769905
 11
320.1698694529
 21
53.2198228953
  0
LINE
  5
5C1
100
AcDbEntity
  8
606312146-000-00-ED1_FORMAT
100
AcDbLine
 62
90
  6
CONTINUOUS
 10
320.1698694529
 20
53.2198228953
 11
320.052071594
 21
53.1364107197
  0
LINE
  5
5C2
100
AcDbEntity
  8
606312146-000-00-ED1_FORMAT
100
AcDbLine
 62
90
  6
CONTINUOUS
 10
319.3136377102
 20
54.0486460365
 11
319.4425744858
 21
54.1396303867
  0
LINE
  5
5C3
100
AcDbEntity
  8
606312146-000-00-ED1_FORMAT
100
AcDbLine
 62
90
  6
CONTINUOUS
 10
320.052071594
 20
53.1364107197
 11
319.9253015666
 21
53.0628747959
  0
LINE
  5
5C4
100
AcDbEntity
  8
606312146-000-00-ED1_FORMAT
100
AcDbLine
 62
90
  6
CONTINUOUS
 10
308.6563799664
 20
50.2336204693
 11
306.8480912796
 21
49.2196929465
  0
LINE
  5
5C5
100
AcDbEntity
  8
606312146-000-00-ED1_FORMAT
100
AcDbLine
 62
90
  6
CONTINUOUS
 10
331.7164705138
 20
54.2350054536
 11
327.4483428066
 21
52.1575097493
  0
LINE
  5
5C6
100
AcDbEntity
  8
606312146-000-00-ED1_FORMAT
100
AcDbLine
 62
3
  6
CONTINUOUS
 10
325.2098477941
 20
50.5635765446
 11
317.2765282083
 21
46.7702794944
  0
LINE
  5
5C7
100
AcDbEntity
  8
606312146-000-00-ED1_FORMAT
100
AcDbLine
 62
3
  6
CONTINUOUS
 10
332.8883150692
 20
54.2350054536
 11
327.5355620503
 21
51.6755990137
  0
LINE
  5
5C8
100
AcDbEntity
  8
606312146-000-00-ED1_FORMAT
100
AcDbLine
 62
90
  6
CONTINUOUS
 10
325.1310514025
 20
51.1375969661
 11
317.2765282083
 21
47.4442869521
  0
LINE
  5
5C9
100
AcDbEntity
  8
606312146-000-00-ED1_FORMAT
100
AcDbLine
 62
7
  6
CONTINUOUS
 10
410.0
 20
287.0
 11
264.9013593819
 21
287.0
  0
LINE
  5
5CA
100
AcDbEntity
  8
606312146-000-00-ED1_FORMAT
100
AcDbLine
 62
3
  6
CONTINUOUS
 10
23.0
 20
287.0
 11
23.0001
 21
287.0
  0
LINE
  5
5CB
100
AcDbEntity
  8
606312146-000-00-ED1_FORMAT
100
AcDbLine
 62
7
  6
CONTINUOUS
 10
23.0001
 20
287.0
 11
135.0000610636
 21
287.0
  0
LINE
  5
5CC
100
AcDbEntity
  8
606312146-000-00-ED1_FORMAT
100
AcDbLine
 62
3
  6
CONTINUOUS
 10
135.0000610636
 20
287.0
 11
264.9013593819
 21
287.0
  0
LINE
  5
5CD
100
AcDbEntity
  8
606312146-000-00-ED1_FORMAT
100
AcDbLine
 62
7
  6
CONTINUOUS
 10
415.0
 20
292.0
 11
18.0
 21
292.0
  0
LINE
  5
5CE
100
AcDbEntity
  8
606312146-000-00-ED1_FORMAT
100
AcDbLine
 62
6
  6
HIDDEN
 10
420.0
 20
297.0
 11
0.0
 21
297.0
  0
LINE
  5
5CF
100
AcDbEntity
  8
606312146-000-00-ED1_FORMAT
100
AcDbLine
 62
3
  6
CONTINUOUS
 10
360.0
 20
10.0
 11
360.0
 21
5.0
  0
LINE
  5
5D0
100
AcDbEntity
  8
606312146-000-00-ED1_FORMAT
100
AcDbLine
 62
3
  6
CONTINUOUS
 10
360.0
 20
287.0
 11
360.0
 21
292.0
  0
LINE
  5
5D1
100
AcDbEntity
  8
606312146-000-00-ED1_FORMAT
100
AcDbLine
 62
7
  6
CONTINUOUS
 10
365.999998592
 20
35.0000008
 11
366.0000025448
 21
72.500002
  0
LINE
  5
5D2
100
AcDbEntity
  8
606312146-000-00-ED1_FORMAT
100
AcDbLine
 62
90
  6
CONTINUOUS
 10
328.8858123785
 20
49.3918693183
 11
328.3335052152
 21
48.9736602163
  0
LINE
  5
5D3
100
AcDbEntity
  8
606312146-000-00-ED1_FORMAT
100
AcDbLine
 62
7
  6
CONTINUOUS
 10
376.8994429408
 20
40.9546819905
 11
376.8994429408
 21
65.00000176
  0
LINE
  5
5D4
100
AcDbEntity
  8
606312146-000-00-ED1_FORMAT
100
AcDbLine
 62
7
  6
CONTINUOUS
 10
376.900004085
 20
225.000007
 11
376.900004085
 21
287.0000007463
  0
LINE
  5
5D5
100
AcDbEntity
  8
606312146-000-00-ED1_FORMAT
100
AcDbLine
 62
7
  6
CONTINUOUS
 10
377.7325379674
 20
13.500000112
 11
377.7325379674
 21
10.0
  0
LINE
  5
5D6
100
AcDbEntity
  8
606312146-000-00-ED1_FORMAT
100
AcDbLine
 62
7
  6
CONTINUOUS
 10
391.8994434208
 20
65.00000176
 11
391.8994434208
 21
35.0000008
  0
LINE
  5
5D7
100
AcDbEntity
  8
606312146-000-00-ED1_FORMAT
100
AcDbLine
 62
7
  6
CONTINUOUS
 10
391.900002572
 20
225.000007
 11
391.900002572
 21
287.0000007463
  0
LINE
  5
5D8
100
AcDbEntity
  8
606312146-000-00-ED1_FORMAT
100
AcDbLine
 62
7
  6
CONTINUOUS
 10
399.9999602137
 20
13.500000112
 11
399.9999602137
 21
35.0000008
  0
LINE
  5
5D9
100
AcDbEntity
  8
606312146-000-00-ED1_FORMAT
100
AcDbLine
 62
7
  6
CONTINUOUS
 10
410.0
 20
10.0
 11
410.0
 21
78.4999970131
  0
LINE
  5
5DA
100
AcDbEntity
  8
606312146-000-00-ED1_FORMAT
100
AcDbLine
 62
3
  6
CONTINUOUS
 10
410.0
 20
78.4999970131
 11
410.0000007463
 21
225.000007
  0
LINE
  5
5DB
100
AcDbEntity
  8
606312146-000-00-ED1_FORMAT
100
AcDbLine
 62
7
  6
CONTINUOUS
 10
410.0000007463
 20
225.000007
 11
410.0000007463
 21
287.0000007463
  0
LINE
  5
5DC
100
AcDbEntity
  8
606312146-000-00-ED1_FORMAT
100
AcDbLine
 62
7
  6
CONTINUOUS
 10
415.0
 20
5.0
 11
415.0
 21
292.0
  0
LINE
  5
5DD
100
AcDbEntity
  8
606312146-000-00-ED1_FORMAT
100
AcDbLine
 62
6
  6
HIDDEN
 10
420.0
 20
0.0
 11
420.0
 21
297.0
  0
LINE
  5
5DE
100
AcDbEntity
  8
30530890_CL
100
AcDbLine
 62
7
  6
CONTINUOUS
 10
61.8870746527
 20
122.5733350544
 11
61.8870746527
 21
144.668529002
  0
LINE
  5
5DF
100
AcDbEntity
  8
30530890_CL
100
AcDbLine
 62
7
  6
CONTINUOUS
 10
61.8870746527
 20
167.688529002
 11
61.8870746527
 21
189.7837229496
  0
LINE
  5
5E0
100
AcDbEntity
  8
30530890_CL
100
AcDbLine
 62
7
  6
CONTINUOUS
 10
63.3870746527
 20
146.168529002
 11
63.3870746527
 21
141.2398347156
  0
LINE
  5
5E1
100
AcDbEntity
  8
30530890_HL
100
AcDbLine
 62
6
  6
HIDDEN
 10
63.3870746527
 20
129.678529002
 11
63.3870746527
 21
141.2398347156
  0
LINE
  5
5E2
100
AcDbEntity
  8
30530890_CL
100
AcDbLine
 62
7
  6
CONTINUOUS
 10
63.3870746527
 20
166.188529002
 11
63.3870746527
 21
171.1172232883
  0
LINE
  5
5E3
100
AcDbEntity
  8
30530890_HL
100
AcDbLine
 62
6
  6
HIDDEN
 10
63.3870746527
 20
171.1172232883
 11
63.3870746527
 21
182.678529002
  0
LINE
  5
5E4
100
AcDbEntity
  8
30530890_CL
100
AcDbLine
 62
9
  6
CONTINUOUS
 10
63.7869997686
 20
191.7812176348
 11
63.7869997686
 21
171.2701738972
  0
LINE
  5
5E5
100
AcDbEntity
  8
30530890_CL
100
AcDbLine
 62
9
  6
CONTINUOUS
 10
63.7869997686
 20
141.0868841068
 11
63.7869997686
 21
120.5758403691
  0
LINE
  5
5E6
100
AcDbEntity
  8
30530890_CL
100
AcDbLine
 62
9
  6
CONTINUOUS
 10
69.8870746527
 20
146.168529002
 11
69.8870746527
 21
140.0823486665
  0
LINE
  5
5E7
100
AcDbEntity
  8
30530890_CL
100
AcDbLine
 62
9
  6
CONTINUOUS
 10
69.8870746527
 20
166.188529002
 11
69.8870746527
 21
172.2747093374
  0
LINE
  5
5E8
100
AcDbEntity
  8
30530890_CL
100
AcDbLine
 62
7
  6
CONTINUOUS
 10
71.8870746527
 20
168.6084106641
 11
71.8870746527
 21
143.7486473398
  0
LINE
  5
5E9
100
AcDbEntity
  8
30530890_HL
100
AcDbLine
 62
6
  6
HIDDEN
 10
81.7836989797
 20
182.678529002
 11
81.7836989797
 21
129.678529002
  0
LINE
  5
5EA
100
AcDbEntity
  8
30530890_CL
100
AcDbLine
 62
9
  6
CONTINUOUS
 10
84.3817751911
 20
125.178529002
 11
84.3817751911
 21
187.178529002
  0
LINE
  5
5EB
100
AcDbEntity
  8
30530890_CL
100
AcDbLine
 62
9
  6
CONTINUOUS
 10
85.2478005949
 20
124.678529002
 11
85.2478005949
 21
187.678529002
  0
LINE
  5
5EC
100
AcDbEntity
  8
30530890_HL
100
AcDbLine
 62
6
  6
HIDDEN
 10
81.7836989797
 20
182.678529002
 11
84.3817751911
 21
187.178529002
  0
LINE
  5
5ED
100
AcDbEntity
  8
30530890_HL
100
AcDbLine
 62
6
  6
HIDDEN
 10
81.7836989797
 20
129.678529002
 11
84.3817751911
 21
125.178529002
  0
LINE
  5
5EE
100
AcDbEntity
  8
30530890_AXIS
100
AcDbLine
 62
3
  6
CENTER
 10
96.7870746527
 20
156.178529002
 11
96.7870746527
 21
147.178529002
  0
LINE
  5
5EF
100
AcDbEntity
  8
30530890_AXIS
100
AcDbLine
 62
3
  6
CENTER
 10
96.7870746527
 20
147.178529002
 11
96.7870746527
 21
145.178529002
  0
LINE
  5
5F0
100
AcDbEntity
  8
30530890_AXIS
100
AcDbLine
 62
3
  6
CENTER
 10
96.7870746527
 20
156.178529002
 11
96.7870746527
 21
165.178529002
  0
LINE
  5
5F1
100
AcDbEntity
  8
30530890_AXIS
100
AcDbLine
 62
3
  6
CENTER
 10
96.7870746527
 20
165.178529002
 11
96.7870746527
 21
167.178529002
  0
LINE
  5
5F2
100
AcDbEntity
  8
30530890_CL
100
AcDbLine
 62
9
  6
CONTINUOUS
 10
102.0402803079
 20
153.2795929309
 11
102.0402803079
 21
124.678529002
  0
LINE
  5
5F3
100
AcDbEntity
  8
30530890_CL
100
AcDbLine
 62
9
  6
CONTINUOUS
 10
102.0402803079
 20
159.0774650731
 11
102.0402803079
 21
187.678529002
  0
LINE
  5
5F4
100
AcDbEntity
  8
30530890_CL
100
AcDbLine
 62
7
  6
CONTINUOUS
 10
111.7870746527
 20
205.978529002
 11
111.9870746527
 21
206.178529002
  0
LINE
  5
5F5
100
AcDbEntity
  8
30530890_CL
100
AcDbLine
 62
7
  6
CONTINUOUS
 10
61.8870746527
 20
144.668529002
 11
63.3870746527
 21
146.168529002
  0
LINE
  5
5F6
100
AcDbEntity
  8
30530890_HL
100
AcDbLine
 62
6
  6
HIDDEN
 10
124.2870746527
 20
206.178529002
 11
123.7870746527
 21
205.678529002
  0
LINE
  5
5F7
100
AcDbEntity
  8
30530890_HL
100
AcDbLine
 62
6
  6
HIDDEN
 10
119.3870746527
 20
201.278529002
 11
118.7870746527
 21
200.678529002
  0
LINE
  5
5F8
100
AcDbEntity
  8
30530890_CL
100
AcDbLine
 62
7
  6
CONTINUOUS
 10
111.7870746527
 20
106.378529002
 11
111.9870746527
 21
106.178529002
  0
LINE
  5
5F9
100
AcDbEntity
  8
30530890_CL
100
AcDbLine
 62
7
  6
CONTINUOUS
 10
63.3870746527
 20
166.188529002
 11
61.8870746527
 21
167.688529002
  0
LINE
  5
5FA
100
AcDbEntity
  8
30530890_HL
100
AcDbLine
 62
6
  6
HIDDEN
 10
123.8969449633
 20
106.1786586914
 11
120.2970746527
 21
109.778529002
  0
LINE
  5
5FB
100
AcDbEntity
  8
30530890_CL
100
AcDbLine
 62
7
  6
CONTINUOUS
 10
109.2870746527
 20
118.2962774989
 11
109.2870746527
 21
194.060780505
  0
LINE
  5
5FC
100
AcDbEntity
  8
30530890_CL
100
AcDbLine
 62
9
  6
CONTINUOUS
 10
109.9063182667
 20
193.8948546787
 11
109.9063182667
 21
118.4622033252
  0
LINE
  5
5FD
100
AcDbEntity
  8
30530890_CL
100
AcDbLine
 62
9
  6
CONTINUOUS
 10
110.1651373118
 20
193.860780505
 11
110.1651373118
 21
118.4962774989
  0
LINE
  5
5FE
100
AcDbEntity
  8
30530890_CL
100
AcDbLine
 62
9
  6
CONTINUOUS
 10
110.8870746527
 20
193.860780505
 11
110.8870746527
 21
118.4962774989
  0
LINE
  5
5FF
100
AcDbEntity
  8
30530890_CL
100
AcDbLine
 62
7
  6
CONTINUOUS
 10
111.7870746527
 20
106.3785308139
 11
111.7870746527
 21
205.9785271901
  0
LINE
  5
600
100
AcDbEntity
  8
30530890_CL
100
AcDbLine
 62
9
  6
CONTINUOUS
 10
111.8773427214
 20
117.357104398
 11
111.8773427214
 21
194.999953606
  0
LINE
  5
601
100
AcDbEntity
  8
30530890_HL
100
AcDbLine
 62
6
  6
HIDDEN
 10
111.8870746527
 20
194.85570863
 11
111.8870746527
 21
117.5013493739
  0
LINE
  5
602
100
AcDbEntity
  8
30530890_CL
100
AcDbLine
 62
7
  6
CONTINUOUS
 10
111.9870746527
 20
106.178529002
 11
111.9870746527
 21
206.178529002
  0
LINE
  5
603
100
AcDbEntity
  8
30530890_HL
100
AcDbLine
 62
6
  6
HIDDEN
 10
113.7870746527
 20
205.678529002
 11
113.7870746527
 21
201.578529002
  0
LINE
  5
604
100
AcDbEntity
  8
30530890_HL
100
AcDbLine
 62
6
  6
HIDDEN
 10
123.7870746527
 20
201.578529002
 11
123.4870746527
 21
201.278529002
  0
LINE
  5
605
100
AcDbEntity
  8
30530890_HL
100
AcDbLine
 62
6
  6
HIDDEN
 10
116.7370746527
 20
157.178529002
 11
116.7370746527
 21
155.178529002
  0
LINE
  5
606
100
AcDbEntity
  8
30530890_AXIS
100
AcDbLine
 62
3
  6
CENTER
 10
118.7870746527
 20
197.678529002
 11
118.7870746527
 21
210.678529002
  0
LINE
  5
607
100
AcDbEntity
  8
30530890_AXIS
100
AcDbLine
 62
3
  6
CENTER
 10
120.2870746527
 20
112.778529002
 11
120.2870746527
 21
102.688529002
  0
LINE
  5
608
100
AcDbEntity
  8
30530890_HL
100
AcDbLine
 62
6
  6
HIDDEN
 10
121.0870746527
 20
182.678529002
 11
121.0870746527
 21
129.678529002
  0
LINE
  5
609
100
AcDbEntity
  8
30530890_HL
100
AcDbLine
 62
6
  6
HIDDEN
 10
123.7870746527
 20
205.678529002
 11
123.7870746527
 21
201.578529002
  0
LINE
  5
60A
100
AcDbEntity
  8
30530890_HL
100
AcDbLine
 62
6
  6
HIDDEN
 10
124.2870746527
 20
181.074470565
 11
124.2870746527
 21
131.2825874389
  0
LINE
  5
60B
100
AcDbEntity
  8
30530890_HL
100
AcDbLine
 62
6
  6
HIDDEN
 10
124.2870746527
 20
131.2825874389
 11
124.2870746527
 21
131.2785307984
  0
LINE
  5
60C
100
AcDbEntity
  8
30530890_HL
100
AcDbLine
 62
6
  6
HIDDEN
 10
124.2870746527
 20
181.074470565
 11
124.2870746527
 21
181.0785272056
  0
LINE
  5
60D
100
AcDbEntity
  8
30530890_HL
100
AcDbLine
 62
6
  6
HIDDEN
 10
111.7870746527
 20
116.7148137147
 11
111.8773427214
 21
117.357104398
  0
LINE
  5
60E
100
AcDbEntity
  8
30530890_CL
100
AcDbLine
 62
7
  6
CONTINUOUS
 10
135.0346699169
 20
206.178529002
 11
133.6620746527
 21
203.8011242662
  0
LINE
  5
60F
100
AcDbEntity
  8
30530890_CL
100
AcDbLine
 62
7
  6
CONTINUOUS
 10
135.0346699169
 20
106.178529002
 11
133.6620746527
 21
108.5559337378
  0
LINE
  5
610
100
AcDbEntity
  8
30530890_HL
100
AcDbLine
 62
6
  6
HIDDEN
 10
111.7870746527
 20
195.6422442892
 11
111.8773427214
 21
194.999953606
  0
LINE
  5
611
100
AcDbEntity
  8
30530890_AXIS
100
AcDbLine
 62
3
  6
CENTER
 10
126.7870746527
 20
156.178529002
 11
126.7870746527
 21
146.978529002
  0
LINE
  5
612
100
AcDbEntity
  8
30530890_AXIS
100
AcDbLine
 62
3
  6
CENTER
 10
126.7870746527
 20
156.178529002
 11
126.7870746527
 21
165.378529002
  0
LINE
  5
613
100
AcDbEntity
  8
30530890_CL
100
AcDbLine
 62
7
  6
CONTINUOUS
 10
128.5394793885
 20
206.178529002
 11
128.5394793885
 21
166.178529002
  0
LINE
  5
614
100
AcDbEntity
  8
30530890_CL
100
AcDbLine
 62
7
  6
CONTINUOUS
 10
128.5394793885
 20
146.178529002
 11
128.5394793885
 21
124.678529002
  0
LINE
  5
615
100
AcDbEntity
  8
30530890_CL
100
AcDbLine
 62
7
  6
CONTINUOUS
 10
128.5394793885
 20
117.3487723713
 11
128.5394793885
 21
106.178529002
  0
LINE
  5
616
100
AcDbEntity
  8
30530890_HL
100
AcDbLine
 62
6
  6
HIDDEN
 10
128.5394793885
 20
117.3487723713
 11
128.5394793885
 21
124.678529002
  0
LINE
  5
617
100
AcDbEntity
  8
30530890_CL
100
AcDbLine
 62
7
  6
CONTINUOUS
 10
129.9120746527
 20
203.8011236161
 11
129.9120746527
 21
166.178529002
  0
LINE
  5
618
100
AcDbEntity
  8
30530890_CL
100
AcDbLine
 62
7
  6
CONTINUOUS
 10
129.9120746527
 20
146.178529002
 11
129.9120746527
 21
124.678529002
  0
LINE
  5
619
100
AcDbEntity
  8
30530890_HL
100
AcDbLine
 62
6
  6
HIDDEN
 10
129.9120746527
 20
121.6341734573
 11
129.9120746527
 21
124.678529002
  0
LINE
  5
61A
100
AcDbEntity
  8
30530890_CL
100
AcDbLine
 62
7
  6
CONTINUOUS
 10
129.9120746527
 20
108.5559349292
 11
129.9120746527
 21
121.6341734573
  0
LINE
  5
61B
100
AcDbEntity
  8
30530890_CL
100
AcDbLine
 62
9
  6
CONTINUOUS
 10
130.6620746527
 20
110.178529002
 11
130.6620746527
 21
146.178529002
  0
LINE
  5
61C
100
AcDbEntity
  8
30530890_CL
100
AcDbLine
 62
9
  6
CONTINUOUS
 10
130.6620746527
 20
166.178529002
 11
130.6620746527
 21
202.178529002
  0
LINE
  5
61D
100
AcDbEntity
  8
30530890_CL
100
AcDbLine
 62
9
  6
CONTINUOUS
 10
132.9120746527
 20
110.178529002
 11
132.9120746527
 21
146.178529002
  0
LINE
  5
61E
100
AcDbEntity
  8
30530890_CL
100
AcDbLine
 62
9
  6
CONTINUOUS
 10
132.9120746527
 20
166.178529002
 11
132.9120746527
 21
202.178529002
  0
LINE
  5
61F
100
AcDbEntity
  8
30530890_HL
100
AcDbLine
 62
6
  6
HIDDEN
 10
133.6620746527
 20
121.6341734573
 11
133.6620746527
 21
124.678529002
  0
LINE
  5
620
100
AcDbEntity
  8
30530890_CL
100
AcDbLine
 62
7
  6
CONTINUOUS
 10
133.6620746527
 20
108.5559349292
 11
133.6620746527
 21
121.6341734573
  0
LINE
  5
621
100
AcDbEntity
  8
30530890_CL
100
AcDbLine
 62
7
  6
CONTINUOUS
 10
133.6620746527
 20
124.678529002
 11
133.6620746527
 21
146.178529002
  0
LINE
  5
622
100
AcDbEntity
  8
30530890_HL
100
AcDbLine
 62
6
  6
HIDDEN
 10
133.6620746527
 20
202.9281855546
 11
133.6620746527
 21
202.9285284065
  0
LINE
  5
623
100
AcDbEntity
  8
30530890_CL
100
AcDbLine
 62
7
  6
CONTINUOUS
 10
133.6620746527
 20
166.178529002
 11
133.6620746527
 21
203.8011236161
  0
LINE
  5
624
100
AcDbEntity
  8
30530890_HL
100
AcDbLine
 62
6
  6
HIDDEN
 10
134.6870746527
 20
143.178529002
 11
134.6870746527
 21
169.178529002
  0
LINE
  5
625
100
AcDbEntity
  8
30530890_CL
100
AcDbLine
 62
7
  6
CONTINUOUS
 10
135.0346699169
 20
206.178529002
 11
135.0346699169
 21
166.178529002
  0
LINE
  5
626
100
AcDbEntity
  8
30530890_CL
100
AcDbLine
 62
7
  6
CONTINUOUS
 10
135.0346699169
 20
146.178529002
 11
135.0346699169
 21
124.678529002
  0
LINE
  5
627
100
AcDbEntity
  8
30530890_CL
100
AcDbLine
 62
7
  6
CONTINUOUS
 10
135.0346699169
 20
117.3487723713
 11
135.0346699169
 21
106.178529002
  0
LINE
  5
628
100
AcDbEntity
  8
30530890_HL
100
AcDbLine
 62
6
  6
HIDDEN
 10
135.0346699169
 20
117.3487723713
 11
135.0346699169
 21
124.678529002
  0
LINE
  5
629
100
AcDbEntity
  8
30530890_HL
100
AcDbLine
 62
6
  6
HIDDEN
 10
140.2870746527
 20
143.178529002
 11
140.2870746527
 21
169.178529002
  0
LINE
  5
62A
100
AcDbEntity
  8
30530890_CL
100
AcDbLine
 62
7
  6
CONTINUOUS
 10
140.7370746527
 20
106.1785296582
 11
140.7370746527
 21
206.1785283154
  0
LINE
  5
62B
100
AcDbEntity
  8
30530890_HL
100
AcDbLine
 62
6
  6
HIDDEN
 10
140.7870746527
 20
161.678529002
 11
140.7870746527
 21
150.678529002
  0
LINE
  5
62C
100
AcDbEntity
  8
30530890_CL
100
AcDbLine
 62
7
  6
CONTINUOUS
 10
111.9870746527
 20
106.178529002
 11
116.6770731827
 21
106.178529002
  0
LINE
  5
62D
100
AcDbEntity
  8
30530890_HL
100
AcDbLine
 62
6
  6
HIDDEN
 10
116.6770731827
 20
106.178529002
 11
116.6790010911
 21
106.178529002
  0
LINE
  5
62E
100
AcDbEntity
  8
30530890_HL
100
AcDbLine
 62
6
  6
HIDDEN
 10
123.8951482015
 20
106.178529002
 11
123.8970761226
 21
106.178529002
  0
LINE
  5
62F
100
AcDbEntity
  8
30530890_CL
100
AcDbLine
 62
7
  6
CONTINUOUS
 10
123.8970761226
 20
106.178529002
 11
128.5394793885
 21
106.178529002
  0
LINE
  5
630
100
AcDbEntity
  8
30530890_CL
100
AcDbLine
 62
7
  6
CONTINUOUS
 10
135.0346699169
 20
106.178529002
 11
140.7370746527
 21
106.178529002
  0
LINE
  5
631
100
AcDbEntity
  8
30530890_HL
100
AcDbLine
 62
6
  6
HIDDEN
 10
120.2770746527
 20
109.778529002
 11
120.2970746527
 21
109.778529002
  0
LINE
  5
632
100
AcDbEntity
  8
30530890_CL
100
AcDbLine
 62
7
  6
CONTINUOUS
 10
132.9120746527
 20
110.178529002
 11
130.6620746527
 21
110.178529002
  0
LINE
  5
633
100
AcDbEntity
  8
30530890_CL
100
AcDbLine
 62
9
  6
CONTINUOUS
 10
150.7370746527
 20
172.178529002
 11
150.7370746527
 21
140.178529002
  0
LINE
  5
634
100
AcDbEntity
  8
30530890_HL
100
AcDbLine
 62
6
  6
HIDDEN
 10
63.3870746527
 20
129.678529002
 11
61.8870746527
 21
128.8125035982
  0
LINE
  5
635
100
AcDbEntity
  8
30530890_CL
100
AcDbLine
 62
7
  6
CONTINUOUS
 10
117.1001767935
 20
117.3487723713
 11
128.5394793885
 21
117.3487723713
  0
LINE
  5
636
100
AcDbEntity
  8
30530890_CL
100
AcDbLine
 62
7
  6
CONTINUOUS
 10
135.0346699169
 20
117.3487723713
 11
140.7370746527
 21
117.3487723713
  0
LINE
  5
637
100
AcDbEntity
  8
30530890_CL
100
AcDbLine
 62
7
  6
CONTINUOUS
 10
110.1651373118
 20
118.4962774989
 11
110.8870746527
 21
118.4962774989
  0
LINE
  5
638
100
AcDbEntity
  8
30530890_CL
100
AcDbLine
 62
7
  6
CONTINUOUS
 10
63.7869997686
 20
120.5758403691
 11
109.2870746527
 21
118.2962774989
  0
LINE
  5
639
100
AcDbEntity
  8
30530890_HL
100
AcDbLine
 62
6
  6
HIDDEN
 10
63.3870746527
 20
182.678529002
 11
61.8870746527
 21
183.5445544058
  0
LINE
  5
63A
100
AcDbEntity
  8
30530890_HL
100
AcDbLine
 62
6
  6
HIDDEN
 10
140.7870746527
 20
150.678529002
 11
140.2870746527
 21
150.178529002
  0
LINE
  5
63B
100
AcDbEntity
  8
30530890_CL
100
AcDbLine
 62
7
  6
CONTINUOUS
 10
132.9120746527
 20
122.6561484183
 11
130.6620746527
 21
122.6561484183
  0
LINE
  5
63C
100
AcDbEntity
  8
30530890_HL
100
AcDbLine
 62
6
  6
HIDDEN
 10
85.2478005949
 20
124.678529002
 11
102.0402803079
 21
124.678529002
  0
LINE
  5
63D
100
AcDbEntity
  8
30530890_CL
100
AcDbLine
 62
7
  6
CONTINUOUS
 10
126.7370746527
 20
124.678529002
 11
140.7370746527
 21
124.678529002
  0
LINE
  5
63E
100
AcDbEntity
  8
30530890_HL
100
AcDbLine
 62
6
  6
HIDDEN
 10
63.3870746527
 20
129.678529002
 11
81.7836989797
 21
129.678529002
  0
LINE
  5
63F
100
AcDbEntity
  8
30530890_HL
100
AcDbLine
 62
6
  6
HIDDEN
 10
111.7870746527
 20
129.678529002
 11
121.0870746527
 21
129.678529002
  0
LINE
  5
640
100
AcDbEntity
  8
30530890_HL
100
AcDbLine
 62
6
  6
HIDDEN
 10
140.7870746527
 20
161.678529002
 11
140.2870746527
 21
162.178529002
  0
LINE
  5
641
100
AcDbEntity
  8
30530890_CL
100
AcDbLine
 62
7
  6
CONTINUOUS
 10
129.9120746527
 20
108.5559337378
 11
128.5394793885
 21
106.178529002
  0
LINE
  5
642
100
AcDbEntity
  8
30530890_CL
100
AcDbLine
 62
7
  6
CONTINUOUS
 10
260.962255708
 20
140.178529002
 11
310.8655337484
 21
144.1060021599
  0
LINE
  5
643
100
AcDbEntity
  8
30530890_HL
100
AcDbLine
 62
6
  6
HIDDEN
 10
113.7870746527
 20
201.578529002
 11
114.0870746527
 21
201.278529002
  0
LINE
  5
644
100
AcDbEntity
  8
30530890_CL
100
AcDbLine
 62
7
  6
CONTINUOUS
 10
129.9120746527
 20
203.8011242662
 11
128.5394793885
 21
206.178529002
  0
LINE
  5
645
100
AcDbEntity
  8
30530890_HL
100
AcDbLine
 62
6
  6
HIDDEN
 10
116.6772043412
 20
106.1786586905
 11
120.2770746527
 21
109.778529002
  0
LINE
  5
646
100
AcDbEntity
  8
30530890_CL
100
AcDbLine
 62
7
  6
CONTINUOUS
 10
109.2870746527
 20
118.2962774989
 11
109.9063182667
 21
118.4622033252
  0
LINE
  5
647
100
AcDbEntity
  8
30530890_CL
100
AcDbLine
 62
7
  6
CONTINUOUS
 10
150.7370746527
 20
140.178529002
 11
249.7870746527
 21
140.178529002
  0
LINE
  5
648
100
AcDbEntity
  8
30530890_CL
100
AcDbLine
 62
7
  6
CONTINUOUS
 10
257.7870746527
 20
140.178529002
 11
260.962255708
 21
140.178529002
  0
LINE
  5
649
100
AcDbEntity
  8
30530890_CL
100
AcDbLine
 62
7
  6
CONTINUOUS
 10
249.7870746527
 20
140.328529002
 11
251.2870746527
 21
140.328529002
  0
LINE
  5
64A
100
AcDbEntity
  8
30530890_CL
100
AcDbLine
 62
7
  6
CONTINUOUS
 10
256.2870746527
 20
140.328529002
 11
257.7870746527
 21
140.328529002
  0
LINE
  5
64B
100
AcDbEntity
  8
30530890_HL
100
AcDbLine
 62
6
  6
HIDDEN
 10
140.2870746527
 20
143.178529002
 11
134.6870746527
 21
143.178529002
  0
LINE
  5
64C
100
AcDbEntity
  8
30530890_HL
100
AcDbLine
 62
6
  6
HIDDEN
 10
134.6870746527
 20
144.178529002
 11
124.2870746527
 21
144.178529002
  0
LINE
  5
64D
100
AcDbEntity
  8
30530890_HL
100
AcDbLine
 62
6
  6
HIDDEN
 10
134.6870746527
 20
144.928529002
 11
124.2870746527
 21
144.928529002
  0
LINE
  5
64E
100
AcDbEntity
  8
30530890_HL
100
AcDbLine
 62
6
  6
HIDDEN
 10
126.7370746527
 20
145.178529002
 11
140.7370746527
 21
145.178529002
  0
LINE
  5
64F
100
AcDbEntity
  8
30530890_CL
100
AcDbLine
 62
7
  6
CONTINUOUS
 10
63.3870746527
 20
146.168529002
 11
69.8870746527
 21
146.168529002
  0
LINE
  5
650
100
AcDbEntity
  8
30530890_CL
100
AcDbLine
 62
7
  6
CONTINUOUS
 10
126.7370746527
 20
146.178529002
 11
140.7370746527
 21
146.178529002
  0
LINE
  5
651
100
AcDbEntity
  8
30530890_HL
100
AcDbLine
 62
6
  6
HIDDEN
 10
256.7870746527
 20
146.828529002
 11
250.7870746527
 21
146.828529002
  0
LINE
  5
652
100
AcDbEntity
  8
30530890_HL
100
AcDbLine
 62
6
  6
HIDDEN
 10
113.2870746527
 20
206.178529002
 11
113.7870746527
 21
205.678529002
  0
LINE
  5
653
100
AcDbEntity
  8
30530890_HL
100
AcDbLine
 62
6
  6
HIDDEN
 10
118.1870746527
 20
201.278529002
 11
118.7870746527
 21
200.678529002
  0
LINE
  5
654
100
AcDbEntity
  8
30530890_HL
100
AcDbLine
 62
6
  6
HIDDEN
 10
308.7870746527
 20
162.178529002
 11
310.8742303954
 21
162.3611314685
  0
LINE
  5
655
100
AcDbEntity
  8
30530890_HL
100
AcDbLine
 62
6
  6
HIDDEN
 10
256.2870746527
 20
148.828529002
 11
251.2870746527
 21
148.828529002
  0
LINE
  5
656
100
AcDbEntity
  8
30530890_HL
100
AcDbLine
 62
6
  6
HIDDEN
 10
263.2870746527
 20
150.028529002
 11
275.7870746527
 21
150.028529002
  0
LINE
  5
657
100
AcDbEntity
  8
30530890_HL
100
AcDbLine
 62
6
  6
HIDDEN
 10
275.7870746527
 20
150.178529002
 11
308.7870746527
 21
150.178529002
  0
LINE
  5
658
100
AcDbEntity
  8
30530890_HL
100
AcDbLine
 62
6
  6
HIDDEN
 10
140.7870746527
 20
150.678529002
 11
246.3870746527
 21
150.678529002
  0
LINE
  5
659
100
AcDbEntity
  8
30530890_HL
100
AcDbLine
 62
6
  6
HIDDEN
 10
263.2870746527
 20
151.178529002
 11
246.7870746527
 21
151.178529002
  0
LINE
  5
65A
100
AcDbEntity
  8
30252542_HP_HL
100
AcDbLine
 62
6
  6
HIDDEN
 10
251.9020746527
 20
151.178529002
 11
258.0870746527
 21
151.178529002
  0
LINE
  5
65B
100
AcDbEntity
  8
30252542_HP_HL
100
AcDbLine
 62
6
  6
HIDDEN
 10
263.2870746527
 20
151.278529002
 11
264.7870746527
 21
151.278529002
  0
LINE
  5
65C
100
AcDbEntity
  8
30530890_HL
100
AcDbLine
 62
6
  6
HIDDEN
 10
246.9879352717
 20
151.678529002
 11
262.6870746527
 21
151.678529002
  0
LINE
  5
65D
100
AcDbEntity
  8
30252542_HP_HL
100
AcDbLine
 62
6
  6
HIDDEN
 10
251.2870746527
 20
151.793529002
 11
259.1522858993
 21
151.793529002
  0
LINE
  5
65E
100
AcDbEntity
  8
30252542_HP_HL
100
AcDbLine
 62
6
  6
HIDDEN
 10
260.2932924353
 20
152.328529002
 11
262.4870746527
 21
152.328529002
  0
LINE
  5
65F
100
AcDbEntity
  8
30252542_HP_HL
100
AcDbLine
 62
6
  6
HIDDEN
 10
251.4103233067
 20
153.678529002
 11
264.6638259986
 21
153.678529002
  0
LINE
  5
660
100
AcDbEntity
  8
30252542_HP_HL
100
AcDbLine
 62
6
  6
HIDDEN
 10
264.6638259986
 20
156.178529002
 11
259.7870746527
 21
156.178529002
  0
LINE
  5
661
100
AcDbEntity
  8
30530890_AXIS
100
AcDbLine
 62
3
  6
CENTER
 10
253.7870746527
 20
156.178529002
 11
248.2870746527
 21
156.178529002
  0
LINE
  5
662
100
AcDbEntity
  8
30530890_AXIS
100
AcDbLine
 62
3
  6
CENTER
 10
126.7870746527
 20
156.178529002
 11
117.5870746527
 21
156.178529002
  0
LINE
  5
663
100
AcDbEntity
  8
30530890_AXIS
100
AcDbLine
 62
3
  6
CENTER
 10
96.7870746527
 20
156.178529002
 11
87.7870746527
 21
156.178529002
  0
LINE
  5
664
100
AcDbEntity
  8
30530890_AXIS
100
AcDbLine
 62
3
  6
CENTER
 10
87.7870746527
 20
156.178529002
 11
85.7870746527
 21
156.178529002
  0
LINE
  5
665
100
AcDbEntity
  8
30530890_AXIS
100
AcDbLine
 62
3
  6
CENTER
 10
316.7870746527
 20
156.178529002
 11
56.8870746527
 21
156.178529002
  0
LINE
  5
666
100
AcDbEntity
  8
30530890_AXIS
100
AcDbLine
 62
3
  6
CENTER
 10
96.7870746527
 20
156.178529002
 11
105.7870746527
 21
156.178529002
  0
LINE
  5
667
100
AcDbEntity
  8
30530890_AXIS
100
AcDbLine
 62
3
  6
CENTER
 10
105.7870746527
 20
156.178529002
 11
107.7870746527
 21
156.178529002
  0
LINE
  5
668
100
AcDbEntity
  8
30530890_AXIS
100
AcDbLine
 62
3
  6
CENTER
 10
126.7870746527
 20
156.178529002
 11
135.9870746527
 21
156.178529002
  0
LINE
  5
669
100
AcDbEntity
  8
30252542_HP_HL
100
AcDbLine
 62
6
  6
HIDDEN
 10
251.4103233067
 20
156.178529002
 11
256.2870746527
 21
156.178529002
  0
LINE
  5
66A
100
AcDbEntity
  8
30530890_AXIS
100
AcDbLine
 62
3
  6
CENTER
 10
253.7870746527
 20
156.178529002
 11
259.2870746527
 21
156.178529002
  0
LINE
  5
66B
100
AcDbEntity
  8
30252542_HP_HL
100
AcDbLine
 62
6
  6
HIDDEN
 10
251.4103233067
 20
158.678529002
 11
264.6638259986
 21
158.678529002
  0
LINE
  5
66C
100
AcDbEntity
  8
30252542_HP_HL
100
AcDbLine
 62
6
  6
HIDDEN
 10
260.2932924353
 20
160.028529002
 11
262.4870746527
 21
160.028529002
  0
LINE
  5
66D
100
AcDbEntity
  8
30252542_HP_HL
100
AcDbLine
 62
6
  6
HIDDEN
 10
251.2870746527
 20
160.563529002
 11
259.1522858993
 21
160.563529002
  0
LINE
  5
66E
100
AcDbEntity
  8
30530890_HL
100
AcDbLine
 62
6
  6
HIDDEN
 10
246.9879352717
 20
160.678529002
 11
262.6870746527
 21
160.678529002
  0
LINE
  5
66F
100
AcDbEntity
  8
30252542_HP_HL
100
AcDbLine
 62
6
  6
HIDDEN
 10
263.2870746527
 20
161.078529002
 11
264.7870746527
 21
161.078529002
  0
LINE
  5
670
100
AcDbEntity
  8
30530890_HL
100
AcDbLine
 62
6
  6
HIDDEN
 10
263.2870746527
 20
161.178529002
 11
246.7870746527
 21
161.178529002
  0
LINE
  5
671
100
AcDbEntity
  8
30252542_HP_HL
100
AcDbLine
 62
6
  6
HIDDEN
 10
251.9020746527
 20
161.178529002
 11
258.0870746527
 21
161.178529002
  0
LINE
  5
672
100
AcDbEntity
  8
30530890_HL
100
AcDbLine
 62
6
  6
HIDDEN
 10
140.7870746527
 20
161.678529002
 11
246.3870746527
 21
161.678529002
  0
LINE
  5
673
100
AcDbEntity
  8
30530890_HL
100
AcDbLine
 62
6
  6
HIDDEN
 10
275.7870746527
 20
162.178529002
 11
308.7870746527
 21
162.178529002
  0
LINE
  5
674
100
AcDbEntity
  8
30530890_HL
100
AcDbLine
 62
6
  6
HIDDEN
 10
263.2870746527
 20
162.328529002
 11
275.7870746527
 21
162.328529002
  0
LINE
  5
675
100
AcDbEntity
  8
30530890_HL
100
AcDbLine
 62
6
  6
HIDDEN
 10
256.2870746527
 20
163.528529002
 11
251.2870746527
 21
163.528529002
  0
LINE
  5
676
100
AcDbEntity
  8
30530890_HL
100
AcDbLine
 62
6
  6
HIDDEN
 10
256.7870746527
 20
165.528529002
 11
250.7870746527
 21
165.528529002
  0
LINE
  5
677
100
AcDbEntity
  8
30530890_CL
100
AcDbLine
 62
7
  6
CONTINUOUS
 10
126.7370746527
 20
166.178529002
 11
140.7370746527
 21
166.178529002
  0
LINE
  5
678
100
AcDbEntity
  8
30530890_CL
100
AcDbLine
 62
7
  6
CONTINUOUS
 10
69.8870746527
 20
166.188529002
 11
63.3870746527
 21
166.188529002
  0
LINE
  5
679
100
AcDbEntity
  8
30530890_HL
100
AcDbLine
 62
6
  6
HIDDEN
 10
308.7870746527
 20
150.178529002
 11
310.8742303954
 21
149.9959265355
  0
LINE
  5
67A
100
AcDbEntity
  8
30530890_HL
100
AcDbLine
 62
6
  6
HIDDEN
 10
140.7370746527
 20
167.178529002
 11
126.7370746527
 21
167.178529002
  0
LINE
  5
67B
100
AcDbEntity
  8
30530890_HL
100
AcDbLine
 62
6
  6
HIDDEN
 10
134.6870746527
 20
167.428529002
 11
124.2870746527
 21
167.428529002
  0
LINE
  5
67C
100
AcDbEntity
  8
30530890_HL
100
AcDbLine
 62
6
  6
HIDDEN
 10
134.6870746527
 20
168.178529002
 11
124.2870746527
 21
168.178529002
  0
LINE
  5
67D
100
AcDbEntity
  8
30530890_HL
100
AcDbLine
 62
6
  6
HIDDEN
 10
140.2870746527
 20
169.178529002
 11
134.6870746527
 21
169.178529002
  0
LINE
  5
67E
100
AcDbEntity
  8
30530890_CL
100
AcDbLine
 62
7
  6
CONTINUOUS
 10
249.7870746527
 20
172.028529002
 11
251.2870746527
 21
172.028529002
  0
LINE
  5
67F
100
AcDbEntity
  8
30530890_CL
100
AcDbLine
 62
7
  6
CONTINUOUS
 10
256.2870746527
 20
172.028529002
 11
257.7870746527
 21
172.028529002
  0
LINE
  5
680
100
AcDbEntity
  8
30530890_CL
100
AcDbLine
 62
7
  6
CONTINUOUS
 10
150.7370746527
 20
172.178529002
 11
249.7870746527
 21
172.178529002
  0
LINE
  5
681
100
AcDbEntity
  8
30530890_CL
100
AcDbLine
 62
7
  6
CONTINUOUS
 10
257.7870746527
 20
172.178529002
 11
260.962255708
 21
172.178529002
  0
LINE
  5
682
100
AcDbEntity
  8
30530890_CL
100
AcDbLine
 62
7
  6
CONTINUOUS
 10
109.2870746527
 20
194.060780505
 11
109.9063182667
 21
193.8948546787
  0
LINE
  5
683
100
AcDbEntity
  8
30530890_HL
100
AcDbLine
 62
6
  6
HIDDEN
 10
63.3870746527
 20
182.678529002
 11
81.7836989797
 21
182.678529002
  0
LINE
  5
684
100
AcDbEntity
  8
30530890_HL
100
AcDbLine
 62
6
  6
HIDDEN
 10
111.7870746527
 20
182.678529002
 11
121.0870746527
 21
182.678529002
  0
LINE
  5
685
100
AcDbEntity
  8
30530890_CL
100
AcDbLine
 62
7
  6
CONTINUOUS
 10
260.962255708
 20
172.178529002
 11
310.8655337484
 21
168.251055844
  0
LINE
  5
686
100
AcDbEntity
  8
30530890_HL
100
AcDbLine
 62
6
  6
HIDDEN
 10
256.2870746527
 20
163.528529002
 11
253.7870746527
 21
162.0263774544
  0
LINE
  5
687
100
AcDbEntity
  8
30530890_HL
100
AcDbLine
 62
6
  6
HIDDEN
 10
85.2478005949
 20
187.678529002
 11
102.0402803079
 21
187.678529002
  0
LINE
  5
688
100
AcDbEntity
  8
30530890_HL
100
AcDbLine
 62
6
  6
HIDDEN
 10
256.2870746527
 20
148.828529002
 11
253.7870746527
 21
150.3306805495
  0
LINE
  5
689
100
AcDbEntity
  8
30252542_HP_HL
100
AcDbLine
 62
6
  6
HIDDEN
 10
251.2870746527
 20
160.563529002
 11
251.9020746527
 21
161.178529002
  0
LINE
  5
68A
100
AcDbEntity
  8
30530890_HL
100
AcDbLine
 62
6
  6
HIDDEN
 10
251.2870746527
 20
148.828529002
 11
253.7870746527
 21
150.3306805495
  0
LINE
  5
68B
100
AcDbEntity
  8
30252542_HP_HL
100
AcDbLine
 62
6
  6
HIDDEN
 10
258.0870746527
 20
151.178529002
 11
259.8932924353
 21
152.221349325
  0
LINE
  5
68C
100
AcDbEntity
  8
30530890_CL
100
AcDbLine
 62
7
  6
CONTINUOUS
 10
63.7869997686
 20
191.7812176348
 11
109.2870746527
 21
194.060780505
  0
LINE
  5
68D
100
AcDbEntity
  8
30530890_CL
100
AcDbLine
 62
7
  6
CONTINUOUS
 10
110.1651373118
 20
193.860780505
 11
110.8870746527
 21
193.860780505
  0
LINE
  5
68E
100
AcDbEntity
  8
30530890_HL
100
AcDbLine
 62
6
  6
HIDDEN
 10
114.0870746527
 20
201.278529002
 11
123.4870746527
 21
201.278529002
  0
LINE
  5
68F
100
AcDbEntity
  8
30530890_HL
100
AcDbLine
 62
6
  6
HIDDEN
 10
113.7870746527
 20
201.578529002
 11
123.7870746527
 21
201.578529002
  0
LINE
  5
690
100
AcDbEntity
  8
30530890_CL
100
AcDbLine
 62
7
  6
CONTINUOUS
 10
132.9120746527
 20
202.178529002
 11
130.6620746527
 21
202.178529002
  0
LINE
  5
691
100
AcDbEntity
  8
30252542_HP_HL
100
AcDbLine
 62
6
  6
HIDDEN
 10
258.0870746527
 20
161.178529002
 11
259.8932924353
 21
160.1357086789
  0
LINE
  5
692
100
AcDbEntity
  8
30530890_HL
100
AcDbLine
 62
6
  6
HIDDEN
 10
251.2870746527
 20
163.528529002
 11
253.7870746527
 21
162.0263774544
  0
LINE
  5
693
100
AcDbEntity
  8
30252542_HP_HL
100
AcDbLine
 62
6
  6
HIDDEN
 10
251.2870746527
 20
151.793529002
 11
251.9020746527
 21
151.178529002
  0
LINE
  5
694
100
AcDbEntity
  8
30530890_HL
100
AcDbLine
 62
6
  6
HIDDEN
 10
246.3870746527
 20
150.678529002
 11
246.9879352717
 21
151.678529002
  0
LINE
  5
695
100
AcDbEntity
  8
30252542_HP_HL
100
AcDbLine
 62
6
  6
HIDDEN
 10
251.2870746527
 20
153.168529002
 11
251.7970672051
 21
153.6785215543
  0
LINE
  5
696
100
AcDbEntity
  8
30252542_HP_HL
100
AcDbLine
 62
6
  6
HIDDEN
 10
264.2770821003
 20
158.6785364496
 11
264.7870746527
 21
159.188529002
  0
LINE
  5
697
100
AcDbEntity
  8
30530890_HL
100
AcDbLine
 62
6
  6
HIDDEN
 10
113.7870746527
 20
205.678529002
 11
123.7870746527
 21
205.678529002
  0
LINE
  5
698
100
AcDbEntity
  8
30530890_CL
100
AcDbLine
 62
7
  6
CONTINUOUS
 10
111.9870746527
 20
206.178529002
 11
113.2870746527
 21
206.178529002
  0
LINE
  5
699
100
AcDbEntity
  8
30530890_CL
100
AcDbLine
 62
7
  6
CONTINUOUS
 10
124.2870746527
 20
206.178529002
 11
128.5394793885
 21
206.178529002
  0
LINE
  5
69A
100
AcDbEntity
  8
30530890_CL
100
AcDbLine
 62
7
  6
CONTINUOUS
 10
135.0346699169
 20
206.178529002
 11
140.7370746527
 21
206.178529002
  0
LINE
  5
69B
100
AcDbEntity
  8
30252542_HP_HL
100
AcDbLine
 62
6
  6
HIDDEN
 10
251.2870746527
 20
159.188529002
 11
251.7970672051
 21
158.6785364496
  0
LINE
  5
69C
100
AcDbEntity
  8
30252542_HP_HL
100
AcDbLine
 62
6
  6
HIDDEN
 10
264.2770821003
 20
153.6785215543
 11
264.7870746527
 21
153.168529002
  0
LINE
  5
69D
100
AcDbEntity
  8
30530890_HL
100
AcDbLine
 62
6
  6
HIDDEN
 10
246.3870746527
 20
161.678529002
 11
246.9879352717
 21
160.678529002
  0
LINE
  5
69E
100
AcDbEntity
  8
30530890_HL
100
AcDbLine
 62
6
  6
HIDDEN
 10
246.3870746527
 20
161.678529002
 11
246.3870746527
 21
150.678529002
  0
LINE
  5
69F
100
AcDbEntity
  8
30530890_HL
100
AcDbLine
 62
6
  6
HIDDEN
 10
246.7870746527
 20
161.178529002
 11
246.7870746527
 21
151.178529002
  0
LINE
  5
6A0
100
AcDbEntity
  8
30530890_HL
100
AcDbLine
 62
6
  6
HIDDEN
 10
246.9879352717
 20
160.678529002
 11
246.9879352717
 21
151.678529002
  0
LINE
  5
6A1
100
AcDbEntity
  8
30530890_CL
100
AcDbLine
 62
7
  6
CONTINUOUS
 10
249.7870746527
 20
172.178529002
 11
249.7870746527
 21
140.178529002
  0
LINE
  5
6A2
100
AcDbEntity
  8
30530890_HL
100
AcDbLine
 62
6
  6
HIDDEN
 10
250.7870746527
 20
146.828529002
 11
250.7870746527
 21
140.3287944723
  0
LINE
  5
6A3
100
AcDbEntity
  8
30530890_HL
100
AcDbLine
 62
6
  6
HIDDEN
 10
250.7870746527
 20
165.528529002
 11
250.7870746527
 21
172.0282635316
  0
LINE
  5
6A4
100
AcDbEntity
  8
30530890_HL
100
AcDbLine
 62
6
  6
HIDDEN
 10
262.6870746527
 20
160.678529002
 11
263.2870746527
 21
161.7177594865
  0
LINE
  5
6A5
100
AcDbEntity
  8
30530890_HL
100
AcDbLine
 62
6
  6
HIDDEN
 10
262.6870746527
 20
151.678529002
 11
263.2870746527
 21
150.6392985174
  0
LINE
  5
6A6
100
AcDbEntity
  8
30530890_HL
100
AcDbLine
 62
6
  6
HIDDEN
 10
251.2870746527
 20
172.028529002
 11
251.2870746527
 21
163.528529002
  0
LINE
  5
6A7
100
AcDbEntity
  8
30252542_HP_HL
100
AcDbLine
 62
6
  6
HIDDEN
 10
251.2870746527
 20
160.563529002
 11
251.2870746527
 21
151.793529002
  0
LINE
  5
6A8
100
AcDbEntity
  8
30530890_HL
100
AcDbLine
 62
6
  6
HIDDEN
 10
251.2870746527
 20
140.328529002
 11
251.2870746527
 21
148.828529002
  0
LINE
  5
6A9
100
AcDbEntity
  8
30252542_HP_HL
100
AcDbLine
 62
6
  6
HIDDEN
 10
251.9020746527
 20
161.178529002
 11
251.9020746527
 21
151.178529002
  0
LINE
  5
6AA
100
AcDbEntity
  8
30530890_AXIS
100
AcDbLine
 62
3
  6
CENTER
 10
253.7870746527
 20
156.178529002
 11
253.7870746527
 21
150.678529002
  0
LINE
  5
6AB
100
AcDbEntity
  8
30530890_AXIS
100
AcDbLine
 62
3
  6
CENTER
 10
253.7870746527
 20
150.678529002
 11
253.7870746527
 21
135.338529002
  0
LINE
  5
6AC
100
AcDbEntity
  8
30530890_CL
100
AcDbLine
 62
30
  6
CONTINUOUS
 10
253.7870746527
 20
140.5260582413
 11
253.7870746527
 21
141.1361729867
  0
LINE
  5
6AD
100
AcDbEntity
  8
30530890_CL
100
AcDbLine
 62
30
  6
CONTINUOUS
 10
253.7870746527
 20
151.183529002
 11
253.7870746527
 21
161.1735289698
  0
LINE
  5
6AE
100
AcDbEntity
  8
30530890_AXIS
100
AcDbLine
 62
3
  6
CENTER
 10
253.7870746527
 20
156.178529002
 11
253.7870746527
 21
161.678529002
  0
LINE
  5
6AF
100
AcDbEntity
  8
30530890_CL
100
AcDbLine
 62
30
  6
CONTINUOUS
 10
253.7870746527
 20
171.2208850342
 11
253.7870746527
 21
171.8309997624
  0
LINE
  5
6B0
100
AcDbEntity
  8
30530890_AXIS
100
AcDbLine
 62
3
  6
CENTER
 10
253.7870746527
 20
161.678529002
 11
253.7870746527
 21
177.018529002
  0
LINE
  5
6B1
100
AcDbEntity
  8
30530890_HL
100
AcDbLine
 62
6
  6
HIDDEN
 10
256.2870746527
 20
172.028529002
 11
256.2870746527
 21
163.528529002
  0
LINE
  5
6B2
100
AcDbEntity
  8
30530890_HL
100
AcDbLine
 62
6
  6
HIDDEN
 10
256.2870746527
 20
140.328529002
 11
256.2870746527
 21
148.828529002
  0
LINE
  5
6B3
100
AcDbEntity
  8
30252542_HP_HL
100
AcDbLine
 62
6
  6
HIDDEN
 10
256.2870746527
 20
153.678529002
 11
256.2870746527
 21
158.678529002
  0
LINE
  5
6B4
100
AcDbEntity
  8
30530890_HL
100
AcDbLine
 62
6
  6
HIDDEN
 10
256.7870746527
 20
146.828529002
 11
256.7870746527
 21
140.3287944723
  0
LINE
  5
6B5
100
AcDbEntity
  8
30530890_HL
100
AcDbLine
 62
6
  6
HIDDEN
 10
256.7870746527
 20
165.528529002
 11
256.7870746527
 21
172.0282635316
  0
LINE
  5
6B6
100
AcDbEntity
  8
30530890_CL
100
AcDbLine
 62
7
  6
CONTINUOUS
 10
257.7870746527
 20
172.178529002
 11
257.7870746527
 21
140.178529002
  0
LINE
  5
6B7
100
AcDbEntity
  8
30252542_HP_HL
100
AcDbLine
 62
6
  6
HIDDEN
 10
258.0870746527
 20
161.178529002
 11
258.0870746527
 21
151.178529002
  0
LINE
  5
6B8
100
AcDbEntity
  8
30252542_HP_HL
100
AcDbLine
 62
6
  6
HIDDEN
 10
259.1522858993
 20
160.563529002
 11
259.1522858993
 21
151.793529002
  0
LINE
  5
6B9
100
AcDbEntity
  8
30252542_HP_HL
100
AcDbLine
 62
6
  6
HIDDEN
 10
259.7870746527
 20
158.678529002
 11
259.7870746527
 21
153.678529002
  0
LINE
  5
6BA
100
AcDbEntity
  8
30252542_HP_CL
100
AcDbLine
 62
9
  6
CONTINUOUS
 10
259.8932924353
 20
152.221349325
 11
259.8932924353
 21
160.1357086789
  0
LINE
  5
6BB
100
AcDbEntity
  8
30252542_HP_CL
100
AcDbLine
 62
9
  6
CONTINUOUS
 10
260.2932924353
 20
152.328529002
 11
260.2932924353
 21
160.028529002
  0
LINE
  5
6BC
100
AcDbEntity
  8
30530890_CL
100
AcDbLine
 62
7
  6
CONTINUOUS
 10
260.962255708
 20
172.178529002
 11
260.962255708
 21
140.178529002
  0
LINE
  5
6BD
100
AcDbEntity
  8
30252542_HP_CL
100
AcDbLine
 62
9
  6
CONTINUOUS
 10
262.4870746527
 20
152.328529002
 11
262.4870746527
 21
160.028529002
  0
LINE
  5
6BE
100
AcDbEntity
  8
30530890_HL
100
AcDbLine
 62
6
  6
HIDDEN
 10
262.6870746527
 20
151.678529002
 11
262.6870746527
 21
160.678529002
  0
LINE
  5
6BF
100
AcDbEntity
  8
30530890_HL
100
AcDbLine
 62
6
  6
HIDDEN
 10
263.2870746527
 20
162.328529002
 11
263.2870746527
 21
150.028529002
  0
LINE
  5
6C0
100
AcDbEntity
  8
30252542_HP_HL
100
AcDbLine
 62
6
  6
HIDDEN
 10
263.2870746527
 20
151.2785500282
 11
263.2870746527
 21
161.0785079757
  0
LINE
  5
6C1
100
AcDbEntity
  8
30252542_HP_HL
100
AcDbLine
 62
6
  6
HIDDEN
 10
264.7870746527
 20
151.2785500282
 11
264.7870746527
 21
161.0785079757
  0
LINE
  5
6C2
100
AcDbEntity
  8
30530890_HL
100
AcDbLine
 62
6
  6
HIDDEN
 10
275.7870746527
 20
162.328529002
 11
275.7870746527
 21
150.028529002
  0
LINE
  5
6C3
100
AcDbEntity
  8
30530890_HL
100
AcDbLine
 62
6
  6
HIDDEN
 10
308.7870746527
 20
162.178529002
 11
308.7870746527
 21
150.178529002
  0
LINE
  5
6C4
100
AcDbEntity
  8
30530890_CL
100
AcDbLine
 62
9
  6
CONTINUOUS
 10
310.8655337484
 20
168.251055844
 11
310.8655337484
 21
144.1060021599
  0
LINE
  5
6C5
100
AcDbEntity
  8
30530890_CL
100
AcDbLine
 62
9
  6
CONTINUOUS
 10
310.8742303954
 20
162.3611314685
 11
310.8742303954
 21
149.9959265355
  0
LINE
  5
6C6
100
AcDbEntity
  8
30530890_CL
100
AcDbLine
 62
7
  6
CONTINUOUS
 10
311.7870746527
 20
167.2541385103
 11
311.7870746527
 21
145.1029194936
  0
CIRCLE
  5
6C7
100
AcDbEntity
  8
30530890_CL
100
AcDbCircle
 62
7
  6
CONTINUOUS
 10
96.7870746527
 20
156.178529002
 40
6.0
  0
ARC
  5
6C8
100
AcDbEntity
  8
30530890_HL
100
AcDbCircle
 62
6
  6
HIDDEN
 10
69.8870746527
 20
148.168529002
 40
2.0
100
AcDbArc
 50
358.5898866155
 51
360.0
  0
ARC
  5
6C9
100
AcDbEntity
  8
30530890_CL
100
AcDbCircle
 62
7
  6
CONTINUOUS
 10
69.8870746527
 20
148.168529002
 40
2.0
100
AcDbArc
 50
270.0
 51
358.5898866155
  0
ARC
  5
6CA
100
AcDbEntity
  8
30530890_CL
100
AcDbCircle
 62
7
  6
CONTINUOUS
 10
63.8870746527
 20
122.5733350544
 40
2.0
100
AcDbArc
 50
180.0
 51
267.131868059
  0
ARC
  5
6CB
100
AcDbEntity
  8
30530890_HL
100
AcDbCircle
 62
6
  6
HIDDEN
 10
85.2478005949
 20
125.678529002
 40
1.0
100
AcDbArc
 50
210.0
 51
270.0
  0
ARC
  5
6CC
100
AcDbEntity
  8
30530890_HL
100
AcDbCircle
 62
6
  6
HIDDEN
 10
120.2768840942
 20
52.4710514394
 40
53.8293424347
100
AcDbArc
 50
86.2996935232
 51
89.7276167152
  0
ARC
  5
6CD
100
AcDbEntity
  8
30530890_HL
100
AcDbCircle
 62
6
  6
HIDDEN
 10
120.2911165809
 20
52.6364223284
 40
53.6639399694
100
AcDbArc
 50
90.179351922
 51
93.8594969029
  0
ARC
  5
6CE
100
AcDbEntity
  8
30530890_HL
100
AcDbCircle
 62
6
  6
HIDDEN
 10
120.2870229785
 20
52.9107005959
 40
53.389650653
100
AcDbArc
 50
89.7362542711
 51
89.9999445452
  0
ARC
  5
6CF
100
AcDbEntity
  8
30530890_HL
100
AcDbCircle
 62
6
  6
HIDDEN
 10
120.2871095208
 20
52.9229333542
 40
53.3774178947
100
AcDbArc
 50
90.0000374278
 51
90.1760134262
  0
ARC
  5
6D0
100
AcDbEntity
  8
30530890_HL
100
AcDbCircle
 62
6
  6
HIDDEN
 10
102.0402803079
 20
136.678529002
 40
12.0
100
AcDbArc
 50
270.0
 51
324.3146652873
  0
ARC
  5
6D1
100
AcDbEntity
  8
30530890_HL
100
AcDbCircle
 62
6
  6
HIDDEN
 10
126.7370746527
 20
157.178529002
 40
10.0
100
AcDbArc
 50
90.0
 51
180.0
  0
ARC
  5
6D2
100
AcDbEntity
  8
30530890_HL
100
AcDbCircle
 62
6
  6
HIDDEN
 10
126.7370746527
 20
155.178529002
 40
10.0
100
AcDbArc
 50
180.0
 51
270.0
  0
ARC
  5
6D3
100
AcDbEntity
  8
30530890_CL
100
AcDbCircle
 62
7
  6
CONTINUOUS
 10
126.7370746527
 20
156.178529002
 40
10.0
100
AcDbArc
 50
90.0
 51
270.0
  0
ARC
  5
6D4
100
AcDbEntity
  8
30530890_CL
100
AcDbCircle
 62
7
  6
CONTINUOUS
 10
126.7370746527
 20
114.678529002
 40
10.0
100
AcDbArc
 50
90.0
 51
164.5127260012
  0
CIRCLE
  5
6D5
100
AcDbEntity
  8
30530890_CL
100
AcDbCircle
 62
7
  6
CONTINUOUS
 10
126.7870746527
 20
156.178529002
 40
6.2
  0
CIRCLE
  5
6D6
100
AcDbEntity
  8
30530890_CL
100
AcDbCircle
 62
7
  6
CONTINUOUS
 10
126.7870746527
 20
156.178529002
 40
6.0
  0
ARC
  5
6D7
100
AcDbEntity
  8
30530890_HL
100
AcDbCircle
 62
6
  6
HIDDEN
 10
122.2870746527
 20
131.278529002
 40
2.0
100
AcDbArc
 50
233.1301023542
 51
360.0
  0
ARC
  5
6D8
100
AcDbEntity
  8
30530890_HL
100
AcDbCircle
 62
6
  6
HIDDEN
 10
110.8870746527
 20
117.4962774989
 40
1.0
100
AcDbArc
 50
352.0
 51
25.833744097
  0
ARC
  5
6D9
100
AcDbEntity
  8
30530890_CL
100
AcDbCircle
 62
7
  6
CONTINUOUS
 10
110.1651373118
 20
117.4962774989
 40
1.0
100
AcDbArc
 50
90.0
 51
105.0
  0
ARC
  5
6DA
100
AcDbEntity
  8
30530890_CL
100
AcDbCircle
 62
7
  6
CONTINUOUS
 10
110.8870746527
 20
117.4962774989
 40
1.0
100
AcDbArc
 50
25.833744097
 51
90.0
  0
ARC
  5
6DB
100
AcDbEntity
  8
30530890_CL
100
AcDbCircle
 62
7
  6
CONTINUOUS
 10
130.6620746527
 20
109.428529002
 40
0.75
100
AcDbArc
 50
90.0
 51
180.0
  0
CIRCLE
  5
6DC
100
AcDbEntity
  8
30530890_CL
100
AcDbCircle
 62
7
  6
CONTINUOUS
 10
126.7870746527
 20
156.178529002
 40
0.1
  0
ARC
  5
6DD
100
AcDbEntity
  8
30530890_CL
100
AcDbCircle
 62
7
  6
CONTINUOUS
 10
-112.8107052305
 20
225.6129965927
 40
264.520422391
100
AcDbArc
 50
335.8400764706
 51
336.5770705491
  0
ARC
  5
6DE
100
AcDbEntity
  8
30530890_HL
100
AcDbCircle
 62
6
  6
HIDDEN
 10
118.9184070487
 20
263.0015295382
 40
57.1013598305
100
AcDbArc
 50
264.3402942583
 51
265.4673246234
  0
ARC
  5
6DF
100
AcDbEntity
  8
30530890_HL
100
AcDbCircle
 62
6
  6
HIDDEN
 10
118.6830287695
 20
262.6979639359
 40
56.7965831324
100
AcDbArc
 50
274.1695522364
 51
275.6625143361
  0
ARC
  5
6E0
100
AcDbEntity
  8
30530890_HL
100
AcDbCircle
 62
6
  6
HIDDEN
 10
102.0402803079
 20
175.678529002
 40
12.0
100
AcDbArc
 50
35.6853347127
 51
90.0
  0
ARC
  5
6E1
100
AcDbEntity
  8
30530890_HL
100
AcDbCircle
 62
6
  6
HIDDEN
 10
122.2870746527
 20
181.078529002
 40
2.0
100
AcDbArc
 50
0.0
 51
126.8698976458
  0
ARC
  5
6E2
100
AcDbEntity
  8
30530890_HL
100
AcDbCircle
 62
6
  6
HIDDEN
 10
69.8870746527
 20
164.188529002
 40
2.0
100
AcDbArc
 50
0.0
 51
1.410113523
  0
ARC
  5
6E3
100
AcDbEntity
  8
30530890_CL
100
AcDbCircle
 62
7
  6
CONTINUOUS
 10
69.8870746527
 20
164.188529002
 40
2.0
100
AcDbArc
 50
1.410113523
 51
90.0
  0
ARC
  5
6E4
100
AcDbEntity
  8
30530890_CL
100
AcDbCircle
 62
7
  6
CONTINUOUS
 10
63.8870746527
 20
189.7837229496
 40
2.0
100
AcDbArc
 50
92.868131941
 51
180.0
  0
ARC
  5
6E5
100
AcDbEntity
  8
30530890_HL
100
AcDbCircle
 62
6
  6
HIDDEN
 10
85.2478005949
 20
186.678529002
 40
1.0
100
AcDbArc
 50
90.0
 51
150.0
  0
ARC
  5
6E6
100
AcDbEntity
  8
30530890_HL
100
AcDbCircle
 62
6
  6
HIDDEN
 10
110.8870746527
 20
194.860780505
 40
1.0
100
AcDbArc
 50
334.166255903
 51
8.0
  0
ARC
  5
6E7
100
AcDbEntity
  8
30530890_CL
100
AcDbCircle
 62
7
  6
CONTINUOUS
 10
110.1651373118
 20
194.860780505
 40
1.0
100
AcDbArc
 50
255.0
 51
270.0
  0
ARC
  5
6E8
100
AcDbEntity
  8
30530890_CL
100
AcDbCircle
 62
7
  6
CONTINUOUS
 10
110.8870746527
 20
194.860780505
 40
1.0
100
AcDbArc
 50
270.0
 51
334.166255903
  0
ARC
  5
6E9
100
AcDbEntity
  8
30530890_CL
100
AcDbCircle
 62
7
  6
CONTINUOUS
 10
130.6620746527
 20
202.928529002
 40
0.75
100
AcDbArc
 50
180.0
 51
270.0
  0
ARC
  5
6EA
100
AcDbEntity
  8
30530890_HL
100
AcDbCircle
 62
6
  6
HIDDEN
 10
253.7870746527
 20
156.178529002
 40
3.0
100
AcDbArc
 50
194.9090008877
 51
195.0
  0
ARC
  5
6EB
100
AcDbEntity
  8
30530890_HL
100
AcDbCircle
 62
6
  6
HIDDEN
 10
253.6798901246
 20
123.7996774274
 40
16.7332108556
100
AcDbArc
 50
81.0362825131
 51
82.3784485086
  0
ARC
  5
6EC
100
AcDbEntity
  8
30530890_HL
100
AcDbCircle
 62
6
  6
HIDDEN
 10
253.8858046034
 20
123.8576836501
 40
16.6745957661
100
AcDbArc
 50
97.6191922826
 51
98.9660766081
  0
ARC
  5
6ED
100
AcDbEntity
  8
30530890_HL
100
AcDbCircle
 62
6
  6
HIDDEN
 10
253.7982550451
 20
124.5776869073
 40
15.9493435953
100
AcDbArc
 50
90.6009961363
 51
97.6504008625
  0
ARC
  5
6EE
100
AcDbEntity
  8
30530890_HL
100
AcDbCircle
 62
6
  6
HIDDEN
 10
253.7767906782
 20
124.5871963487
 40
15.9397994651
100
AcDbArc
 50
82.3482419867
 51
89.5887289999
  0
ARC
  5
6EF
100
AcDbEntity
  8
30530890_HL
100
AcDbCircle
 62
6
  6
HIDDEN
 10
253.7870532233
 20
124.8718088358
 40
15.6551228036
100
AcDbArc
 50
89.618810753
 51
89.9999215713
  0
ARC
  5
6F0
100
AcDbEntity
  8
30530890_HL
100
AcDbCircle
 62
6
  6
HIDDEN
 10
253.7870826194
 20
124.8729582658
 40
15.6539733736
100
AcDbArc
 50
90.0000291594
 51
90.5714417261
  0
ARC
  5
6F1
100
AcDbEntity
  8
30530890_CL
100
AcDbCircle
 62
7
  6
CONTINUOUS
 10
150.7370746527
 20
130.178529002
 40
10.0
100
AcDbArc
 50
90.0
 51
180.0
  0
ARC
  5
6F2
100
AcDbEntity
  8
30530890_HL
100
AcDbCircle
 62
6
  6
HIDDEN
 10
253.7870746527
 20
156.178529002
 40
3.0
100
AcDbArc
 50
255.0
 51
255.0971219892
  0
ARC
  5
6F3
100
AcDbEntity
  8
30530890_CL
100
AcDbCircle
 62
3
  6
CONTINUOUS
 10
253.7870738443
 20
156.1785306235
 40
2.9999983784
100
AcDbArc
 50
255.0971219892
 51
194.9090008877
  0
CIRCLE
  5
6F4
100
AcDbEntity
  8
30530890_CL
100
AcDbCircle
 62
7
  6
CONTINUOUS
 10
253.7870746527
 20
156.178529002
 40
2.5
  0
ARC
  5
6F5
100
AcDbEntity
  8
30530890_HL
100
AcDbCircle
 62
6
  6
HIDDEN
 10
310.7870746527
 20
148.9997318374
 40
1.0
100
AcDbArc
 50
0.0
 51
85.0
  0
ARC
  5
6F6
100
AcDbEntity
  8
30530890_CL
100
AcDbCircle
 62
7
  6
CONTINUOUS
 10
310.7870746527
 20
145.1029194936
 40
1.0
100
AcDbArc
 50
274.5
 51
360.0
  0
ARC
  5
6F7
100
AcDbEntity
  8
30252542_HP_HL
100
AcDbCircle
 62
6
  6
HIDDEN
 10
260.2932924353
 20
151.528529002
 40
0.8
100
AcDbArc
 50
90.0
 51
120.0
  0
ARC
  5
6F8
100
AcDbEntity
  8
30252542_HP_HL
100
AcDbCircle
 62
6
  6
HIDDEN
 10
262.4870746527
 20
151.528529002
 40
0.8
100
AcDbArc
 50
0.0
 51
90.0
  0
ARC
  5
6F9
100
AcDbEntity
  8
30530890_CL
100
AcDbCircle
 62
7
  6
CONTINUOUS
 10
132.9120746527
 20
109.428529002
 40
0.75
100
AcDbArc
 50
0.0
 51
90.0
  0
ARC
  5
6FA
100
AcDbEntity
  8
30530890_CL
100
AcDbCircle
 62
7
  6
CONTINUOUS
 10
376.3848545359
 20
225.6129965927
 40
264.520422391
100
AcDbArc
 50
203.4229294509
 51
204.1599235294
  0
ARC
  5
6FB
100
AcDbEntity
  8
30530890_HL
100
AcDbCircle
 62
6
  6
HIDDEN
 10
253.8942591638
 20
188.5573804601
 40
16.7332107379
100
AcDbArc
 50
261.0362825086
 51
262.3784485852
  0
ARC
  5
6FC
100
AcDbEntity
  8
30530890_HL
100
AcDbCircle
 62
6
  6
HIDDEN
 10
253.6883446968
 20
188.4993743894
 40
16.674595802
100
AcDbArc
 50
277.6191923534
 51
278.9660766068
  0
ARC
  5
6FD
100
AcDbEntity
  8
30530890_HL
100
AcDbCircle
 62
6
  6
HIDDEN
 10
253.7982550448
 20
187.7793710933
 40
15.949343592
100
AcDbArc
 50
262.3495991211
 51
269.3990038645
  0
ARC
  5
6FE
100
AcDbEntity
  8
30530890_HL
100
AcDbCircle
 62
6
  6
HIDDEN
 10
253.7767906784
 20
187.7698616537
 40
15.9397994636
100
AcDbArc
 50
270.4112709996
 51
277.651757995
  0
ARC
  5
6FF
100
AcDbEntity
  8
30530890_HL
100
AcDbCircle
 62
6
  6
HIDDEN
 10
253.7870532216
 20
187.4852491217
 40
15.6551227572
100
AcDbArc
 50
270.000078435
 51
270.3811892544
  0
ARC
  5
700
100
AcDbEntity
  8
30530890_HL
100
AcDbCircle
 62
6
  6
HIDDEN
 10
253.7870826157
 20
187.4840990401
 40
15.6539726756
100
AcDbArc
 50
269.428558262
 51
269.9999708542
  0
ARC
  5
701
100
AcDbEntity
  8
30530890_CL
100
AcDbCircle
 62
7
  6
CONTINUOUS
 10
150.7370746527
 20
182.178529002
 40
10.0
100
AcDbArc
 50
180.0
 51
270.0
  0
ARC
  5
702
100
AcDbEntity
  8
30530890_HL
100
AcDbCircle
 62
6
  6
HIDDEN
 10
310.7870746527
 20
163.3573261666
 40
1.0
100
AcDbArc
 50
275.0
 51
360.0
  0
ARC
  5
703
100
AcDbEntity
  8
30530890_CL
100
AcDbCircle
 62
7
  6
CONTINUOUS
 10
310.7870746527
 20
167.2541385103
 40
1.0
100
AcDbArc
 50
0.0
 51
85.5
  0
ARC
  5
704
100
AcDbEntity
  8
30252542_HP_HL
100
AcDbCircle
 62
6
  6
HIDDEN
 10
260.2932924353
 20
160.828529002
 40
0.8
100
AcDbArc
 50
240.0
 51
270.0
  0
ARC
  5
705
100
AcDbEntity
  8
30252542_HP_HL
100
AcDbCircle
 62
6
  6
HIDDEN
 10
262.4870746527
 20
160.828529002
 40
0.8
100
AcDbArc
 50
270.0
 51
360.0
  0
ARC
  5
706
100
AcDbEntity
  8
30530890_CL
100
AcDbCircle
 62
7
  6
CONTINUOUS
 10
132.9120746527
 20
202.928529002
 40
0.75
100
AcDbArc
 50
270.0
 51
360.0
  0
SPLINE
  5
707
100
AcDbEntity
  8
30252542_HP_HL
100
AcDbSpline
 62
6
  6
HIDDEN
 70
0
 71
3
 72
15
 73
11
 74
0
 42
0.0000001
 43
0.0000001
 44
0.0000000001
 40
0.0
 40
0.0
 40
0.0
 40
0.0
 40
0.126812495
 40
0.2523288371
 40
0.3765810707
 40
0.5000000582
 40
0.6234190356
 40
0.7476712706
 40
0.8731875969
 40
1.0
 40
1.0
 40
1.0
 40
1.0
 10
264.6638259986
 20
153.678529002
 30
0.0
 10
264.6079039471
 20
153.7753888365
 30
0.0
 10
264.5037689413
 20
153.9724279243
 30
0.0
 10
264.3787782156
 20
154.2809273535
 30
0.0
 10
264.2964577112
 20
154.6008727818
 30
0.0
 10
264.2674157109
 20
154.9285291491
 30
0.0
 10
264.2964577851
 20
155.2561855079
 30
0.0
 10
264.3787782939
 20
155.5761309107
 30
0.0
 10
264.5037690018
 20
155.8846302476
 30
0.0
 10
264.6079039876
 20
156.0816692376
 30
0.0
 10
264.6638259986
 20
156.178529002
 30
0.0
  0
SPLINE
  5
708
100
AcDbEntity
  8
30252542_HP_HL
100
AcDbSpline
 62
6
  6
HIDDEN
 70
0
 71
3
 72
15
 73
11
 74
0
 42
0.0000001
 43
0.0000001
 44
0.0000000001
 40
0.0
 40
0.0
 40
0.0
 40
0.0
 40
0.1268123969
 40
0.2523287379
 40
0.3765809926
 40
0.4999999925
 40
0.6234189813
 40
0.7476712065
 40
0.8731875237
 40
1.0
 40
1.0
 40
1.0
 40
1.0
 10
264.6638259986
 20
156.178529002
 30
0.0
 10
264.6079039903
 20
156.2753887616
 30
0.0
 10
264.5037689977
 20
156.4724277565
 30
0.0
 10
264.3787782846
 20
156.7809271185
 30
0.0
 10
264.2964577691
 20
157.1008725715
 30
0.0
 10
264.2674157064
 20
157.4285289716
 30
0.0
 10
264.2964577436
 20
157.7561853485
 30
0.0
 10
264.3787782442
 20
158.0761307476
 30
0.0
 10
264.5037689668
 20
158.3846301288
 30
0.0
 10
264.6079039553
 20
158.5816691817
 30
0.0
 10
264.6638259986
 20
158.678529002
 30
0.0
  0
SPLINE
  5
709
100
AcDbEntity
  8
30252542_HP_HL
100
AcDbSpline
 62
6
  6
HIDDEN
 70
0
 71
3
 72
15
 73
11
 74
0
 42
0.0000001
 43
0.0000001
 44
0.0000000001
 40
0.0
 40
0.0
 40
0.0
 40
0.0
 40
0.126812495
 40
0.2523288371
 40
0.3765810707
 40
0.5000000582
 40
0.6234190356
 40
0.7476712706
 40
0.8731875969
 40
1.0
 40
1.0
 40
1.0
 40
1.0
 10
251.4103233067
 20
153.678529002
 30
0.0
 10
251.4662453583
 20
153.7753888365
 30
0.0
 10
251.5703803641
 20
153.9724279243
 30
0.0
 10
251.6953710898
 20
154.2809273535
 30
0.0
 10
251.7776915942
 20
154.6008727818
 30
0.0
 10
251.8067335944
 20
154.9285291491
 30
0.0
 10
251.7776915203
 20
155.2561855079
 30
0.0
 10
251.6953710115
 20
155.5761309107
 30
0.0
 10
251.5703803036
 20
155.8846302476
 30
0.0
 10
251.4662453178
 20
156.0816692376
 30
0.0
 10
251.4103233067
 20
156.178529002
 30
0.0
  0
SPLINE
  5
70A
100
AcDbEntity
  8
30252542_HP_HL
100
AcDbSpline
 62
6
  6
HIDDEN
 70
0
 71
3
 72
15
 73
11
 74
0
 42
0.0000001
 43
0.0000001
 44
0.0000000001
 40
0.0
 40
0.0
 40
0.0
 40
0.0
 40
0.1268123969
 40
0.2523287379
 40
0.3765809926
 40
0.4999999925
 40
0.6234189813
 40
0.7476712065
 40
0.8731875237
 40
1.0
 40
1.0
 40
1.0
 40
1.0
 10
251.4103233067
 20
156.178529002
 30
0.0
 10
251.4662453151
 20
156.2753887616
 30
0.0
 10
251.5703803077
 20
156.4724277565
 30
0.0
 10
251.6953710208
 20
156.7809271185
 30
0.0
 10
251.7776915363
 20
157.1008725715
 30
0.0
 10
251.806733599
 20
157.4285289716
 30
0.0
 10
251.7776915618
 20
157.7561853485
 30
0.0
 10
251.6953710611
 20
158.0761307476
 30
0.0
 10
251.5703803386
 20
158.3846301288
 30
0.0
 10
251.46624535
 20
158.5816691817
 30
0.0
 10
251.4103233067
 20
158.678529002
 30
0.0
  0
SPLINE
  5
70B
100
AcDbEntity
  8
30530890_HL
100
AcDbSpline
 62
6
  6
HIDDEN
 70
0
 71
3
 72
33
 73
29
 74
0
 42
0.0000001
 43
0.0000001
 44
0.0000000001
 40
0.0
 40
0.0
 40
0.0
 40
0.0
 40
0.0392156771
 40
0.0784313542
 40
0.1176470313
 40
0.1568627084
 40
0.1960783856
 40
0.2352940627
 40
0.2745097398
 40
0.3137254169
 40
0.352941094
 40
0.3921567711
 40
0.4313724482
 40
0.4705881253
 40
0.5098038025
 40
0.5490194796
 40
0.5882351567
 40
0.6274508338
 40
0.6666665109
 40
0.705882188
 40
0.7450978651
 40
0.7843135422
 40
0.8235292193
 40
0.8627448965
 40
0.9019605736
 40
0.9411762507
 40
0.9803919278
 40
1.0
 40
1.0
 40
1.0
 40
1.0
 10
253.7870746527
 20
140.6150300381
 30
0.0
 10
253.8481780097
 20
140.6150276854
 30
0.0
 10
253.9704205601
 20
140.6143105132
 30
0.0
 10
254.1531968459
 20
140.6110793249
 30
0.0
 10
254.334729683
 20
140.6057467943
 30
0.0
 10
254.5144932248
 20
140.5983804599
 30
0.0
 10
254.69174164
 20
140.5890887121
 30
0.0
 10
254.8659812772
 20
140.5779944645
 30
0.0
 10
255.0363714922
 20
140.5652699655
 30
0.0
 10
255.2024360369
 20
140.5510882502
 30
0.0
 10
255.3632803371
 20
140.5356815228
 30
0.0
 10
255.5184456578
 20
140.5192652177
 30
0.0
 10
255.6670282187
 20
140.5021198717
 30
0.0
 10
255.8086093372
 20
140.4844891946
 30
0.0
 10
255.9423314323
 20
140.4666820892
 30
0.0
 10
256.0678478721
 20
140.4489503764
 30
0.0
 10
256.1843962501
 20
140.4316064173
 30
0.0
 10
256.2917284294
 20
140.4148878048
 30
0.0
 10
256.3892093891
 20
140.3990855817
 30
0.0
 10
256.476697103
 20
140.3844040543
 30
0.0
 10
256.553695563
 20
140.3710929687
 30
0.0
 10
256.6201533742
 20
140.359311604
 30
0.0
 10
256.6757100437
 20
140.3492551199
 30
0.0
 10
256.7203716441
 20
140.3410340899
 30
0.0
 10
256.7539040479
 20
140.334781603
 30
0.0
 10
256.7763318343
 20
140.3305614963
 30
0.0
 10
256.785671747
 20
140.3287944763
 30
0.0
 10
256.7870727397
 20
140.3285294222
 30
0.0
 10
256.7870727394
 20
140.3285294222
 30
0.0
  0
SPLINE
  5
70C
100
AcDbEntity
  8
30530890_HL
100
AcDbSpline
 62
6
  6
HIDDEN
 70
0
 71
3
 72
33
 73
29
 74
0
 42
0.0000001
 43
0.0000001
 44
0.0000000001
 40
0.0
 40
0.0
 40
0.0
 40
0.0
 40
0.0196076141
 40
0.0588233095
 40
0.0980390049
 40
0.1372547004
 40
0.1764703958
 40
0.2156860913
 40
0.2549017867
 40
0.2941174821
 40
0.3333331776
 40
0.372548873
 40
0.4117645684
 40
0.4509802639
 40
0.4901959593
 40
0.5294116548
 40
0.5686273502
 40
0.6078430456
 40
0.6470587411
 40
0.6862744365
 40
0.7254901319
 40
0.7647058274
 40
0.8039215228
 40
0.8431372183
 40
0.8823529137
 40
0.9215686091
 40
0.9607843046
 40
1.0
 40
1.0
 40
1.0
 40
1.0
 10
250.7870765659
 20
140.3285294222
 30
0.0
 10
250.7870765663
 20
140.3285294223
 30
0.0
 10
250.7884775164
 20
140.3287944684
 30
0.0
 10
250.7978172233
 20
140.3305614496
 30
0.0
 10
250.8202449976
 20
140.3347815541
 30
0.0
 10
250.8537770242
 20
140.341033972
 30
0.0
 10
250.8984388794
 20
140.3492550496
 30
0.0
 10
250.9539948494
 20
140.3593114106
 30
0.0
 10
251.0204532956
 20
140.3710928897
 30
0.0
 10
251.0974506659
 20
140.3844037932
 30
0.0
 10
251.1849394365
 20
140.3990855016
 30
0.0
 10
251.2824189197
 20
140.4148874946
 30
0.0
 10
251.3897525548
 20
140.43160634
 30
0.0
 10
251.5062991277
 20
140.4489500428
 30
0.0
 10
251.6318173559
 20
140.4666820172
 30
0.0
 10
251.7655374096
 20
140.4844888656
 30
0.0
 10
251.9071205598
 20
140.5021198078
 30
0.0
 10
252.0557009569
 20
140.5192649207
 30
0.0
 10
252.2108684523
 20
140.5356814705
 30
0.0
 10
252.3717105978
 20
140.5510880085
 30
0.0
 10
252.537777342
 20
140.5652699283
 30
0.0
 10
252.7081655847
 20
140.5779942953
 30
0.0
 10
252.8824072926
 20
140.589088692
 30
0.0
 10
253.0596541184
 20
140.5983803676
 30
0.0
 10
253.2394193645
 20
140.605746788
 30
0.0
 10
253.4209513246
 20
140.6110792973
 30
0.0
 10
253.6037287008
 20
140.614310516
 30
0.0
 10
253.7259712859
 20
140.6150276869
 30
0.0
 10
253.7870746527
 20
140.6150300381
 30
0.0
  0
LINE
  5
70D
100
AcDbEntity
  8
30530890_HL
100
AcDbLine
 62
6
  6
HIDDEN
 10
116.6789968706
 20
106.1786584065
 11
116.6772875247
 21
106.1785433632
  0
SPLINE
  5
70E
100
AcDbEntity
  8
30530890_HL
100
AcDbSpline
 62
6
  6
HIDDEN
 70
0
 71
3
 72
33
 73
29
 74
0
 42
0.0000001
 43
0.0000001
 44
0.0000000001
 40
0.0
 40
0.0
 40
0.0
 40
0.0
 40
0.0196076141
 40
0.0588233095
 40
0.0980390049
 40
0.1372547004
 40
0.1764703958
 40
0.2156860913
 40
0.2549017867
 40
0.2941174821
 40
0.3333331776
 40
0.372548873
 40
0.4117645684
 40
0.4509802639
 40
0.4901959593
 40
0.5294116548
 40
0.5686273502
 40
0.6078430456
 40
0.6470587411
 40
0.6862744365
 40
0.7254901319
 40
0.7647058274
 40
0.8039215228
 40
0.8431372183
 40
0.8823529137
 40
0.9215686091
 40
0.9607843046
 40
1.0
 40
1.0
 40
1.0
 40
1.0
 10
256.7870727394
 20
172.0285285817
 30
0.0
 10
256.7870727391
 20
172.0285285816
 30
0.0
 10
256.7856717889
 20
172.0282635356
 30
0.0
 10
256.7763320821
 20
172.0264965543
 30
0.0
 10
256.7539043078
 20
172.0222764498
 30
0.0
 10
256.7203722812
 20
172.0160240319
 30
0.0
 10
256.675710426
 20
172.0078029543
 30
0.0
 10
256.620154456
 20
171.9977465933
 30
0.0
 10
256.5536960098
 20
171.9859651142
 30
0.0
 10
256.4766986395
 20
171.9726542107
 30
0.0
 10
256.3892098688
 20
171.9579725024
 30
0.0
 10
256.2917303857
 20
171.9421705093
 30
0.0
 10
256.1843967505
 20
171.9254516639
 30
0.0
 10
256.0678501777
 20
171.9081079612
 30
0.0
 10
255.9423319495
 20
171.8903759867
 30
0.0
 10
255.8086118958
 20
171.8725691383
 30
0.0
 10
255.6670287456
 20
171.8549381962
 30
0.0
 10
255.5184483485
 20
171.8377930833
 30
0.0
 10
255.3632808531
 20
171.8213765334
 30
0.0
 10
255.2024387075
 20
171.8059699955
 30
0.0
 10
255.0363719634
 20
171.7917880756
 30
0.0
 10
254.8659837207
 20
171.7790637086
 30
0.0
 10
254.6917420128
 20
171.7679693119
 30
0.0
 10
254.514495187
 20
171.7586776363
 30
0.0
 10
254.3347299409
 20
171.751311216
 30
0.0
 10
254.1531979807
 20
171.7459787067
 30
0.0
 10
253.9704206046
 20
171.7427474879
 30
0.0
 10
253.8481780195
 20
171.7420303171
 30
0.0
 10
253.7870746527
 20
171.7420279659
 30
0.0
  0
SPLINE
  5
70F
100
AcDbEntity
  8
30530890_HL
100
AcDbSpline
 62
6
  6
HIDDEN
 70
0
 71
3
 72
33
 73
29
 74
0
 42
0.0000001
 43
0.0000001
 44
0.0000000001
 40
0.0
 40
0.0
 40
0.0
 40
0.0
 40
0.0392156771
 40
0.0784313542
 40
0.1176470313
 40
0.1568627084
 40
0.1960783856
 40
0.2352940627
 40
0.2745097398
 40
0.3137254169
 40
0.352941094
 40
0.3921567711
 40
0.4313724482
 40
0.4705881253
 40
0.5098038025
 40
0.5490194796
 40
0.5882351567
 40
0.6274508338
 40
0.6666665109
 40
0.705882188
 40
0.7450978651
 40
0.7843135422
 40
0.8235292193
 40
0.8627448965
 40
0.9019605736
 40
0.9411762507
 40
0.9803919278
 40
1.0
 40
1.0
 40
1.0
 40
1.0
 10
253.7870746527
 20
171.7420279659
 30
0.0
 10
253.7259712957
 20
171.7420303185
 30
0.0
 10
253.6037287453
 20
171.7427474908
 30
0.0
 10
253.4209524594
 20
171.7459786791
 30
0.0
 10
253.2394196224
 20
171.7513112097
 30
0.0
 10
253.0596560806
 20
171.758677544
 30
0.0
 10
252.8824076653
 20
171.7679692918
 30
0.0
 10
252.7081680281
 20
171.7790635395
 30
0.0
 10
252.5377778131
 20
171.7917880384
 30
0.0
 10
252.3717132685
 20
171.8059697538
 30
0.0
 10
252.2108689683
 20
171.8213764812
 30
0.0
 10
252.0557036476
 20
171.8377927862
 30
0.0
 10
251.9071210867
 20
171.8549381323
 30
0.0
 10
251.7655399682
 20
171.8725688093
 30
0.0
 10
251.631817873
 20
171.8903759148
 30
0.0
 10
251.5063014333
 20
171.9081076275
 30
0.0
 10
251.3897530552
 20
171.9254515866
 30
0.0
 10
251.282420876
 20
171.9421701992
 30
0.0
 10
251.1849399162
 20
171.9579724222
 30
0.0
 10
251.0974522024
 20
171.9726539496
 30
0.0
 10
251.0204537423
 20
171.9859650352
 30
0.0
 10
250.9539959311
 20
171.9977463999
 30
0.0
 10
250.8984392617
 20
172.0078028841
 30
0.0
 10
250.8537776613
 20
172.0160239141
 30
0.0
 10
250.8202452575
 20
172.0222764009
 30
0.0
 10
250.7978174711
 20
172.0264965076
 30
0.0
 10
250.7884775584
 20
172.0282635276
 30
0.0
 10
250.7870765656
 20
172.0285285818
 30
0.0
 10
250.7870765659
 20
172.0285285817
 30
0.0
  0
LINE
  5
710
100
AcDbEntity
  8
30530890_HL
100
AcDbLine
 62
6
  6
HIDDEN
 10
123.8970744274
 20
106.1785290516
 11
123.8865845377
 21
106.1792343975
  0
LINE
  5
711
100
AcDbEntity
  8
30530890_HL
100
AcDbLine
 62
6
  6
HIDDEN
 10
123.8865845377
 20
106.1792343975
 11
123.7509031478
 21
106.1881743944
  0
SPLINE
  5
712
100
AcDbEntity
  8
30530890_CL
100
AcDbSpline
 62
3
  6
CONTINUOUS
 70
0
 71
3
 72
33
 73
29
 74
0
 42
0.0000001
 43
0.0000001
 44
0.0000000001
 40
0.0
 40
0.0
 40
0.0
 40
0.0
 40
0.0196076141
 40
0.0588233095
 40
0.0980390049
 40
0.1372547004
 40
0.1764703958
 40
0.2156860913
 40
0.2549017867
 40
0.2941174821
 40
0.3333331776
 40
0.372548873
 40
0.4117645684
 40
0.4509802639
 40
0.4901959593
 40
0.5294116548
 40
0.5686273502
 40
0.6078430456
 40
0.6470587411
 40
0.6862744365
 40
0.7254901319
 40
0.7647058274
 40
0.8039215228
 40
0.8431372183
 40
0.8823529137
 40
0.9215686091
 40
0.9607843046
 40
1.0
 40
1.0
 40
1.0
 40
1.0
 10
256.7870727394
 20
140.3285294222
 30
0.0
 10
256.7870727391
 20
140.3285294223
 30
0.0
 10
256.7856717889
 20
140.3287944684
 30
0.0
 10
256.7763320821
 20
140.3305614496
 30
0.0
 10
256.7539043078
 20
140.3347815541
 30
0.0
 10
256.7203722812
 20
140.341033972
 30
0.0
 10
256.675710426
 20
140.3492550496
 30
0.0
 10
256.620154456
 20
140.3593114106
 30
0.0
 10
256.5536960098
 20
140.3710928897
 30
0.0
 10
256.4766986395
 20
140.3844037932
 30
0.0
 10
256.3892098688
 20
140.3990855016
 30
0.0
 10
256.2917303857
 20
140.4148874946
 30
0.0
 10
256.1843967505
 20
140.43160634
 30
0.0
 10
256.0678501777
 20
140.4489500428
 30
0.0
 10
255.9423319495
 20
140.4666820172
 30
0.0
 10
255.8086118958
 20
140.4844888656
 30
0.0
 10
255.6670287456
 20
140.5021198078
 30
0.0
 10
255.5184483485
 20
140.5192649207
 30
0.0
 10
255.3632808531
 20
140.5356814705
 30
0.0
 10
255.2024387075
 20
140.5510880085
 30
0.0
 10
255.0363719634
 20
140.5652699283
 30
0.0
 10
254.8659837207
 20
140.5779942953
 30
0.0
 10
254.6917420128
 20
140.589088692
 30
0.0
 10
254.514495187
 20
140.5983803676
 30
0.0
 10
254.3347299409
 20
140.605746788
 30
0.0
 10
254.1531979807
 20
140.6110792973
 30
0.0
 10
253.9704206046
 20
140.614310516
 30
0.0
 10
253.8481780195
 20
140.6150276869
 30
0.0
 10
253.7870746527
 20
140.6150300381
 30
0.0
  0
SPLINE
  5
713
100
AcDbEntity
  8
30530890_CL
100
AcDbSpline
 62
3
  6
CONTINUOUS
 70
0
 71
3
 72
33
 73
29
 74
0
 42
0.0000001
 43
0.0000001
 44
0.0000000001
 40
0.0
 40
0.0
 40
0.0
 40
0.0
 40
0.0392156771
 40
0.0784313542
 40
0.1176470313
 40
0.1568627084
 40
0.1960783856
 40
0.2352940627
 40
0.2745097398
 40
0.3137254169
 40
0.352941094
 40
0.3921567711
 40
0.4313724482
 40
0.4705881253
 40
0.5098038025
 40
0.5490194796
 40
0.5882351567
 40
0.6274508338
 40
0.6666665109
 40
0.705882188
 40
0.7450978651
 40
0.7843135422
 40
0.8235292193
 40
0.8627448965
 40
0.9019605736
 40
0.9411762507
 40
0.9803919278
 40
1.0
 40
1.0
 40
1.0
 40
1.0
 10
253.7870746527
 20
140.6150300381
 30
0.0
 10
253.7259712957
 20
140.6150276854
 30
0.0
 10
253.6037287453
 20
140.6143105132
 30
0.0
 10
253.4209524594
 20
140.6110793249
 30
0.0
 10
253.2394196224
 20
140.6057467943
 30
0.0
 10
253.0596560806
 20
140.5983804599
 30
0.0
 10
252.8824076653
 20
140.5890887121
 30
0.0
 10
252.7081680281
 20
140.5779944645
 30
0.0
 10
252.5377778131
 20
140.5652699655
 30
0.0
 10
252.3717132685
 20
140.5510882502
 30
0.0
 10
252.2108689683
 20
140.5356815228
 30
0.0
 10
252.0557036476
 20
140.5192652177
 30
0.0
 10
251.9071210867
 20
140.5021198717
 30
0.0
 10
251.7655399682
 20
140.4844891946
 30
0.0
 10
251.631817873
 20
140.4666820892
 30
0.0
 10
251.5063014333
 20
140.4489503764
 30
0.0
 10
251.3897530552
 20
140.4316064173
 30
0.0
 10
251.282420876
 20
140.4148878048
 30
0.0
 10
251.1849399162
 20
140.3990855817
 30
0.0
 10
251.0974522024
 20
140.3844040543
 30
0.0
 10
251.0204537423
 20
140.3710929687
 30
0.0
 10
250.9539959311
 20
140.359311604
 30
0.0
 10
250.8984392617
 20
140.3492551199
 30
0.0
 10
250.8537776613
 20
140.3410340899
 30
0.0
 10
250.8202452575
 20
140.334781603
 30
0.0
 10
250.7978174711
 20
140.3305614963
 30
0.0
 10
250.7884775584
 20
140.3287944763
 30
0.0
 10
250.7870765656
 20
140.3285294222
 30
0.0
 10
250.7870765659
 20
140.3285294222
 30
0.0
  0
SPLINE
  5
714
100
AcDbEntity
  8
30530890_CL
100
AcDbSpline
 62
3
  6
CONTINUOUS
 70
0
 71
3
 72
33
 73
29
 74
0
 42
0.0000001
 43
0.0000001
 44
0.0000000001
 40
0.0
 40
0.0
 40
0.0
 40
0.0
 40
0.0392156771
 40
0.0784313542
 40
0.1176470313
 40
0.1568627084
 40
0.1960783856
 40
0.2352940627
 40
0.2745097398
 40
0.3137254169
 40
0.352941094
 40
0.3921567711
 40
0.4313724482
 40
0.4705881253
 40
0.5098038025
 40
0.5490194796
 40
0.5882351567
 40
0.6274508338
 40
0.6666665109
 40
0.705882188
 40
0.7450978651
 40
0.7843135422
 40
0.8235292193
 40
0.8627448965
 40
0.9019605736
 40
0.9411762507
 40
0.9803919278
 40
1.0
 40
1.0
 40
1.0
 40
1.0
 10
253.7870746527
 20
171.7420279659
 30
0.0
 10
253.8481780097
 20
171.7420303185
 30
0.0
 10
253.9704205601
 20
171.7427474908
 30
0.0
 10
254.1531968459
 20
171.7459786791
 30
0.0
 10
254.334729683
 20
171.7513112097
 30
0.0
 10
254.5144932248
 20
171.758677544
 30
0.0
 10
254.69174164
 20
171.7679692918
 30
0.0
 10
254.8659812772
 20
171.7790635395
 30
0.0
 10
255.0363714922
 20
171.7917880384
 30
0.0
 10
255.2024360369
 20
171.8059697538
 30
0.0
 10
255.3632803371
 20
171.8213764812
 30
0.0
 10
255.5184456578
 20
171.8377927862
 30
0.0
 10
255.6670282187
 20
171.8549381323
 30
0.0
 10
255.8086093372
 20
171.8725688093
 30
0.0
 10
255.9423314323
 20
171.8903759148
 30
0.0
 10
256.0678478721
 20
171.9081076275
 30
0.0
 10
256.1843962501
 20
171.9254515866
 30
0.0
 10
256.2917284294
 20
171.9421701992
 30
0.0
 10
256.3892093891
 20
171.9579724222
 30
0.0
 10
256.476697103
 20
171.9726539496
 30
0.0
 10
256.553695563
 20
171.9859650352
 30
0.0
 10
256.6201533742
 20
171.9977463999
 30
0.0
 10
256.6757100437
 20
172.0078028841
 30
0.0
 10
256.7203716441
 20
172.0160239141
 30
0.0
 10
256.7539040479
 20
172.0222764009
 30
0.0
 10
256.7763318343
 20
172.0264965076
 30
0.0
 10
256.785671747
 20
172.0282635276
 30
0.0
 10
256.7870727397
 20
172.0285285818
 30
0.0
 10
256.7870727394
 20
172.0285285817
 30
0.0
  0
SPLINE
  5
715
100
AcDbEntity
  8
30530890_CL
100
AcDbSpline
 62
3
  6
CONTINUOUS
 70
0
 71
3
 72
33
 73
29
 74
0
 42
0.0000001
 43
0.0000001
 44
0.0000000001
 40
0.0
 40
0.0
 40
0.0
 40
0.0
 40
0.0196076141
 40
0.0588233095
 40
0.0980390049
 40
0.1372547004
 40
0.1764703958
 40
0.2156860913
 40
0.2549017867
 40
0.2941174821
 40
0.3333331776
 40
0.372548873
 40
0.4117645684
 40
0.4509802639
 40
0.4901959593
 40
0.5294116548
 40
0.5686273502
 40
0.6078430456
 40
0.6470587411
 40
0.6862744365
 40
0.7254901319
 40
0.7647058274
 40
0.8039215228
 40
0.8431372183
 40
0.8823529137
 40
0.9215686091
 40
0.9607843046
 40
1.0
 40
1.0
 40
1.0
 40
1.0
 10
250.7870765659
 20
172.0285285817
 30
0.0
 10
250.7870765663
 20
172.0285285816
 30
0.0
 10
250.7884775164
 20
172.0282635356
 30
0.0
 10
250.7978172233
 20
172.0264965543
 30
0.0
 10
250.8202449976
 20
172.0222764498
 30
0.0
 10
250.8537770242
 20
172.0160240319
 30
0.0
 10
250.8984388794
 20
172.0078029543
 30
0.0
 10
250.9539948494
 20
171.9977465933
 30
0.0
 10
251.0204532956
 20
171.9859651142
 30
0.0
 10
251.0974506659
 20
171.9726542107
 30
0.0
 10
251.1849394365
 20
171.9579725024
 30
0.0
 10
251.2824189197
 20
171.9421705093
 30
0.0
 10
251.3897525548
 20
171.9254516639
 30
0.0
 10
251.5062991277
 20
171.9081079612
 30
0.0
 10
251.6318173559
 20
171.8903759867
 30
0.0
 10
251.7655374096
 20
171.8725691383
 30
0.0
 10
251.9071205598
 20
171.8549381962
 30
0.0
 10
252.0557009569
 20
171.8377930833
 30
0.0
 10
252.2108684523
 20
171.8213765334
 30
0.0
 10
252.3717105978
 20
171.8059699955
 30
0.0
 10
252.537777342
 20
171.7917880756
 30
0.0
 10
252.7081655847
 20
171.7790637086
 30
0.0
 10
252.8824072926
 20
171.7679693119
 30
0.0
 10
253.0596541184
 20
171.7586776363
 30
0.0
 10
253.2394193645
 20
171.751311216
 30
0.0
 10
253.4209513246
 20
171.7459787067
 30
0.0
 10
253.6037287008
 20
171.7427474879
 30
0.0
 10
253.7259712859
 20
171.7420303171
 30
0.0
 10
253.7870746527
 20
171.7420279659
 30
0.0
  0
SPLINE
  5
716
100
AcDbEntity
  8
30530890_CL
100
AcDbSpline
 62
7
  6
CONTINUOUS
 70
0
 71
3
 72
25
 73
21
 74
0
 42
0.0000001
 43
0.0000001
 44
0.0000000001
 40
0.0
 40
0.0
 40
0.0
 40
0.0
 40
0.1918259322
 40
0.3769388938
 40
0.5487018041
 40
0.700656462
 40
0.767275612
 40
0.8266908569
 40
0.8782377752
 40
0.921315296
 40
0.9395114783
 40
0.9554016053
 40
0.9689353284
 40
0.9800692728
 40
0.9887672955
 40
0.9950008131
 40
0.9971865665
 40
0.9987491719
 40
0.9996872743
 40
1.0
 40
1.0
 40
1.0
 40
1.0
 10
120.2870746527
 20
106.3003512489
 30
0.0
 10
120.5180791454
 20
106.3003512489
 30
0.0
 10
120.9720096852
 20
106.2974034426
 30
0.0
 10
121.6326725344
 20
106.2846876547
 30
0.0
 10
122.2451404429
 20
106.2655171006
 30
0.0
 10
122.7147903017
 20
106.2456950544
 30
0.0
 10
123.049146491
 20
106.2291290373
 30
0.0
 10
123.2626894861
 20
106.2176464092
 30
0.0
 10
123.4478838093
 20
106.2070000383
 30
0.0
 10
123.5835005319
 20
106.1987748887
 30
0.0
 10
123.6762379162
 20
106.1929603684
 30
0.0
 10
123.7334776111
 20
106.1893068415
 30
0.0
 10
123.7821865222
 20
106.1861486462
 30
0.0
 10
123.8223645837
 20
106.1835145557
 30
0.0
 10
123.8534681405
 20
106.1814441625
 30
0.0
 10
123.874486803
 20
106.1800574739
 30
0.0
 10
123.8858726387
 20
106.1792702306
 30
0.0
 10
123.8925042479
 20
106.1788635
 30
0.0
 10
123.8941162767
 20
106.1786860505
 30
0.0
 10
123.8974510031
 20
106.1785330414
 30
0.0
 10
123.8970744274
 20
106.1785290516
 30
0.0
  0
SPLINE
  5
717
100
AcDbEntity
  8
30530890_CL
100
AcDbSpline
 62
7
  6
CONTINUOUS
 70
0
 71
3
 72
13
 73
9
 74
0
 42
0.0000001
 43
0.0000001
 44
0.0000000001
 40
0.0
 40
0.0
 40
0.0
 40
0.0
 40
0.1513672505
 40
0.3129717935
 40
0.5000000002
 40
0.6870282068
 40
0.8486327496
 40
1.0
 40
1.0
 40
1.0
 40
1.0
 10
124.2870746527
 20
206.178529002
 30
0.0
 10
123.7338693365
 20
206.1236810391
 30
0.0
 10
122.5883729997
 20
206.0269792974
 30
0.0
 10
120.7544314287
 20
205.9286893445
 30
0.0
 10
118.7870746508
 20
205.8917614924
 30
0.0
 10
116.8197178736
 20
205.9286893446
 30
0.0
 10
114.9857763038
 20
206.0269792975
 30
0.0
 10
113.8402799684
 20
206.1236810392
 30
0.0
 10
113.2870746527
 20
206.178529002
 30
0.0
  0
SPLINE
  5
718
100
AcDbEntity
  8
30530890_CL
100
AcDbSpline
 62
7
  6
CONTINUOUS
 70
0
 71
3
 72
22
 73
18
 74
0
 42
0.0000001
 43
0.0000001
 44
0.0000000001
 40
0.0
 40
0.0
 40
0.0
 40
0.0
 40
0.0012508303
 40
0.0049991912
 40
0.0112327109
 40
0.0199307353
 40
0.0310646815
 40
0.0445984062
 40
0.0786847126
 40
0.1217622353
 40
0.1733091551
 40
0.2327244006
 40
0.2993435509
 40
0.4512982079
 40
0.6230611158
 40
0.8081740735
 40
1.0
 40
1.0
 40
1.0
 40
1.0
 10
116.677074878
 20
106.1785290516
 30
0.0
 10
116.6785733947
 20
106.1786819824
 30
0.0
 10
116.684590696
 20
106.1789602961
 30
0.0
 10
116.6980769192
 20
106.1799877512
 30
0.0
 10
116.720527839
 20
106.181417992
 30
0.0
 10
116.7518456152
 20
106.1835249328
 30
0.0
 10
116.7919406427
 20
106.1861449347
 30
0.0
 10
116.8625459274
 20
106.1907268114
 30
0.0
 10
116.9715502944
 20
106.1976153719
 30
0.0
 10
117.1262647337
 20
106.2070004179
 30
0.0
 10
117.3114601516
 20
106.2176462863
 30
0.0
 10
117.5250027886
 20
106.2291290801
 30
0.0
 10
117.8593591219
 20
106.2456950295
 30
0.0
 10
118.3290088907
 20
106.2655171135
 30
0.0
 10
118.9414768185
 20
106.2846876523
 30
0.0
 10
119.6021396401
 20
106.2974034439
 30
0.0
 10
120.0560701681
 20
106.3003512489
 30
0.0
 10
120.2870746527
 20
106.3003512489
 30
0.0
  0
SPLINE
  5
719
100
AcDbEntity
  8
30530890_CL
100
AcDbSpline
 62
7
  6
CONTINUOUS
 70
0
 71
3
 72
11
 73
7
 74
0
 42
0.0000001
 43
0.0000001
 44
0.0000000001
 40
0.0
 40
0.0
 40
0.0
 40
0.0
 40
0.3816702293
 40
0.7056264496
 40
0.9231664817
 40
1.0
 40
1.0
 40
1.0
 40
1.0
 10
253.7870746527
 20
140.5269316394
 30
0.0
 10
254.1064269875
 20
140.5269316394
 30
0.0
 10
254.6970088943
 20
140.5088136047
 30
0.0
 10
255.4668516802
 20
140.4418796179
 30
0.0
 10
255.9800493768
 20
140.3755295734
 30
0.0
 10
256.2235720957
 20
140.3385455412
 30
0.0
 10
256.2870746527
 20
140.328529002
 30
0.0
  0
SPLINE
  5
71A
100
AcDbEntity
  8
30530890_CL
100
AcDbSpline
 62
7
  6
CONTINUOUS
 70
0
 71
3
 72
11
 73
7
 74
0
 42
0.0000001
 43
0.0000001
 44
0.0000000001
 40
0.0
 40
0.0
 40
0.0
 40
0.0
 40
0.0768335191
 40
0.2943735515
 40
0.618329772
 40
1.0
 40
1.0
 40
1.0
 40
1.0
 10
251.2870746527
 20
140.328529002
 30
0.0
 10
251.3505772102
 20
140.3385455413
 30
0.0
 10
251.5940999301
 20
140.3755295736
 30
0.0
 10
252.1072976277
 20
140.4418796182
 30
0.0
 10
252.877140413
 20
140.5088136047
 30
0.0
 10
253.4677223189
 20
140.5269316394
 30
0.0
 10
253.7870746527
 20
140.5269316394
 30
0.0
  0
SPLINE
  5
71B
100
AcDbEntity
  8
30530890_CL
100
AcDbSpline
 62
7
  6
CONTINUOUS
 70
0
 71
3
 72
11
 73
7
 74
0
 42
0.0000001
 43
0.0000001
 44
0.0000000001
 40
0.0
 40
0.0
 40
0.0
 40
0.0
 40
0.3816702292
 40
0.7056264495
 40
0.9231664816
 40
1.0
 40
1.0
 40
1.0
 40
1.0
 10
253.7870746527
 20
171.8301263645
 30
0.0
 10
253.4677223179
 20
171.8301263645
 30
0.0
 10
252.8771404111
 20
171.8482443993
 30
0.0
 10
252.1072976253
 20
171.915178386
 30
0.0
 10
251.5940999287
 20
171.9815284306
 30
0.0
 10
251.3505772097
 20
172.0185124628
 30
0.0
 10
251.2870746527
 20
172.028529002
 30
0.0
  0
SPLINE
  5
71C
100
AcDbEntity
  8
30530890_CL
100
AcDbSpline
 62
7
  6
CONTINUOUS
 70
0
 71
3
 72
11
 73
7
 74
0
 42
0.0000001
 43
0.0000001
 44
0.0000000001
 40
0.0
 40
0.0
 40
0.0
 40
0.0
 40
0.0768335191
 40
0.2943735516
 40
0.618329772
 40
1.0
 40
1.0
 40
1.0
 40
1.0
 10
256.2870746527
 20
172.028529002
 30
0.0
 10
256.2235720951
 20
172.0185124627
 30
0.0
 10
255.9800493752
 20
171.9815284303
 30
0.0
 10
255.4668516775
 20
171.9151783857
 30
0.0
 10
254.6970088923
 20
171.8482443992
 30
0.0
 10
254.1064269864
 20
171.8301263645
 30
0.0
 10
253.7870746527
 20
171.8301263645
 30
0.0
  0
SPLINE
  5
71D
100
AcDbEntity
  8
30530890_CL
100
AcDbSpline
 62
7
  6
CONTINUOUS
 70
0
 71
3
 72
21
 73
17
 74
0
 42
0.0000001
 43
0.0000001
 44
0.0000000001
 40
0.0
 40
0.0
 40
0.0
 40
0.0
 40
0.0627012962
 40
0.1253451328
 40
0.1879220963
 40
0.2504282583
 40
0.3751141303
 40
0.4996328927
 40
0.5619631373
 40
0.6243282261
 40
0.6867523801
 40
0.7492534724
 40
0.8118394914
 40
0.8745060235
 40
0.9372356674
 40
1.0
 40
1.0
 40
1.0
 40
1.0
 10
96.7870746527
 20
162.678529002
 30
0.0
 10
97.0171864609
 20
162.6884749397
 30
0.0
 10
97.4783656086
 20
162.6876298154
 30
0.0
 10
98.166645764
 20
162.6243349012
 30
0.0
 10
98.8458681695
 20
162.4995781542
 30
0.0
 10
99.7306387283
 20
162.2528291033
 30
0.0
 10
100.7878006159
 20
161.7953158884
 30
0.0
 10
101.740816203
 20
161.1481643543
 30
0.0
 10
102.4153764605
 20
160.5273409754
 30
0.0
 10
102.8724263249
 20
160.0122738729
 30
0.0
 10
103.273811668
 20
159.4519411756
 30
0.0
 10
103.6133359332
 20
158.8510619236
 30
0.0
 10
103.8849924919
 20
158.2155635859
 30
0.0
 10
104.0834292816
 20
157.5525632655
 30
0.0
 10
104.2043577984
 20
156.8705309691
 30
0.0
 10
104.2314436993
 20
156.4090872102
 30
0.0
 10
104.2314436993
 20
156.178529002
 30
0.0
  0
SPLINE
  5
71E
100
AcDbEntity
  8
30530890_CL
100
AcDbSpline
 62
7
  6
CONTINUOUS
 70
0
 71
3
 72
21
 73
17
 74
0
 42
0.0000001
 43
0.0000001
 44
0.0000000001
 40
0.0
 40
0.0
 40
0.0
 40
0.0
 40
0.0625435103
 40
0.125078605
 40
0.1875991205
 40
0.250102116
 40
0.3125886874
 40
0.3750636069
 40
0.4375342774
 40
0.5000091643
 40
0.5624960101
 40
0.6250003343
 40
0.6875241945
 40
0.7500654856
 40
0.8750548612
 40
1.0
 40
1.0
 40
1.0
 40
1.0
 10
90.053046164
 20
156.178529002
 30
0.0
 10
90.053046164
 20
156.3937960669
 30
0.0
 10
90.076346359
 20
156.8246623816
 30
0.0
 10
90.180574926
 20
157.4630854114
 30
0.0
 10
90.352257419
 20
158.0866677557
 30
0.0
 10
90.5885176564
 20
158.6885145693
 30
0.0
 10
90.8856306524
 20
159.2625421092
 30
0.0
 10
91.2392488119
 20
159.8034019656
 30
0.0
 10
91.6446128466
 20
160.3065323549
 30
0.0
 10
92.0967250061
 20
160.7681010011
 30
0.0
 10
92.5904830443
 20
161.1849345781
 30
0.0
 10
93.1207418294
 20
161.5544296793
 30
0.0
 10
93.6824395901
 20
161.8744976739
 30
0.0
 10
94.4659728728
 20
162.2329147663
 30
0.0
 10
95.4994513982
 20
162.5502660231
 30
0.0
 10
96.3574299971
 20
162.6599588163
 30
0.0
 10
96.7870746527
 20
162.678529002
 30
0.0
  0
SPLINE
  5
71F
100
AcDbEntity
  8
30530890_CL
100
AcDbSpline
 62
7
  6
CONTINUOUS
 70
0
 71
3
 72
26
 73
22
 74
0
 42
0.0000001
 43
0.0000001
 44
0.0000000001
 40
0.0
 40
0.0
 40
0.0
 40
0.0
 40
0.0167534364
 40
0.0334785667
 40
0.0500830523
 40
0.0665121926
 40
0.0988045723
 40
0.1305849684
 40
0.1620363751
 40
0.1932803517
 40
0.2243906235
 40
0.255412414
 40
0.3172894975
 40
0.3790595589
 40
0.4407933289
 40
0.5025351609
 40
0.5643173844
 40
0.6261670857
 40
0.7501298243
 40
0.8746651062
 40
1.0
 40
1.0
 40
1.0
 40
1.0
 10
69.8870746527
 20
172.2747093374
 30
0.0
 10
69.9113979772
 20
172.2802424477
 30
0.0
 10
69.9608928775
 20
172.2878229491
 30
0.0
 10
70.0357715218
 20
172.2873518595
 30
0.0
 10
70.109151365
 20
172.2752195274
 30
0.0
 10
70.2021711899
 20
172.2459056899
 30
0.0
 10
70.3091878155
 20
172.1900613793
 30
0.0
 10
70.4240810326
 20
172.1057355812
 30
0.0
 10
70.5287263588
 20
172.0114767262
 30
0.0
 10
70.6256812314
 20
171.9108282525
 30
0.0
 10
70.716707561
 20
171.8056698766
 30
0.0
 10
70.8315343711
 20
171.6610241354
 30
0.0
 10
70.9650954886
 20
171.4732134093
 30
0.0
 10
71.1124265925
 20
171.2396706068
 30
0.0
 10
71.2479997628
 20
170.9993491563
 30
0.0
 10
71.3722019081
 20
170.7529500663
 30
0.0
 10
71.4849018365
 20
170.5008800203
 30
0.0
 10
71.6192823804
 20
170.1574783752
 30
0.0
 10
71.7557506105
 20
169.7150635354
 30
0.0
 10
71.8614487779
 20
169.1674463815
 30
0.0
 10
71.8870746527
 20
168.7950257969
 30
0.0
 10
71.8870746527
 20
168.6084106641
 30
0.0
  0
SPLINE
  5
720
100
AcDbEntity
  8
30530890_CL
100
AcDbSpline
 62
7
  6
CONTINUOUS
 70
0
 71
3
 72
10
 73
6
 74
0
 42
0.0000001
 43
0.0000001
 44
0.0000000001
 40
0.0
 40
0.0
 40
0.0
 40
0.0
 40
0.4997944526
 40
0.7499121152
 40
1.0
 40
1.0
 40
1.0
 40
1.0
 10
63.3870746527
 20
171.1172232883
 30
0.0
 10
63.44790161
 20
171.1554118959
 30
0.0
 10
63.5440453218
 20
171.205910819
 30
0.0
 10
63.6806240123
 20
171.2514212625
 30
0.0
 10
63.7513600345
 20
171.2655532939
 30
0.0
 10
63.7869997686
 20
171.2701738972
 30
0.0
  0
SPLINE
  5
721
100
AcDbEntity
  8
30530890_CL
100
AcDbSpline
 62
7
  6
CONTINUOUS
 70
0
 71
3
 72
13
 73
9
 74
0
 42
0.0000001
 43
0.0000001
 44
0.0000000001
 40
0.0
 40
0.0
 40
0.0
 40
0.0
 40
0.2500860425
 40
0.5001475588
 40
0.6251609675
 40
0.7501523058
 40
0.8751074508
 40
1.0
 40
1.0
 40
1.0
 40
1.0
 10
63.7869997686
 20
171.2701738972
 30
0.0
 10
64.2982507176
 20
171.3364563169
 30
0.0
 10
65.3200128831
 20
171.474411677
 30
0.0
 10
66.5947150471
 20
171.6643631581
 30
0.0
 10
67.6120133514
 20
171.831020907
 30
0.0
 10
68.3732720239
 20
171.965066579
 30
0.0
 10
69.1321844381
 20
172.1105321632
 30
0.0
 10
69.6360334799
 20
172.2176020747
 30
0.0
 10
69.8870746527
 20
172.2747093374
 30
0.0
  0
SPLINE
  5
722
100
AcDbEntity
  8
30530890_CL
100
AcDbSpline
 62
7
  6
CONTINUOUS
 70
0
 71
3
 72
13
 73
9
 74
0
 42
0.0000001
 43
0.0000001
 44
0.0000000001
 40
0.0
 40
0.0
 40
0.0
 40
0.0
 40
0.2500860425
 40
0.5001475588
 40
0.6251609675
 40
0.7501523058
 40
0.8751074508
 40
1.0
 40
1.0
 40
1.0
 40
1.0
 10
63.7869997686
 20
141.0868841068
 30
0.0
 10
64.2982507176
 20
141.0206016871
 30
0.0
 10
65.3200128831
 20
140.8826463269
 30
0.0
 10
66.5947150471
 20
140.6926948458
 30
0.0
 10
67.6120133514
 20
140.5260370969
 30
0.0
 10
68.3732720239
 20
140.3919914249
 30
0.0
 10
69.1321844381
 20
140.2465258407
 30
0.0
 10
69.6360334799
 20
140.1394559292
 30
0.0
 10
69.8870746527
 20
140.0823486665
 30
0.0
  0
SPLINE
  5
723
100
AcDbEntity
  8
30530890_CL
100
AcDbSpline
 62
7
  6
CONTINUOUS
 70
0
 71
3
 72
26
 73
22
 74
0
 42
0.0000001
 43
0.0000001
 44
0.0000000001
 40
0.0
 40
0.0
 40
0.0
 40
0.0
 40
0.1253352375
 40
0.2498707536
 40
0.3738335216
 40
0.4356831862
 40
0.4974653407
 40
0.5592070976
 40
0.6209407941
 40
0.682710778
 40
0.7445877707
 40
0.7756095086
 40
0.8067197168
 40
0.8379636093
 40
0.8694148968
 40
0.9011950433
 40
0.9334870111
 40
0.949915912
 40
0.9665206331
 40
0.9832462382
 40
1.0
 40
1.0
 40
1.0
 40
1.0
 10
71.8870746527
 20
143.7486473398
 30
0.0
 10
71.8870746527
 20
143.5620316959
 30
0.0
 10
71.8614486439
 20
143.1896102506
 30
0.0
 10
71.7557501083
 20
142.6419922462
 30
0.0
 10
71.6192816122
 20
142.1995771353
 30
0.0
 10
71.4849009304
 20
141.8561756661
 30
0.0
 10
71.3722009698
 20
141.6041059328
 30
0.0
 10
71.2479989704
 20
141.3577071332
 30
0.0
 10
71.1124258347
 20
141.1173860493
 30
0.0
 10
70.9650948004
 20
140.8838436293
 30
0.0
 10
70.8315337479
 20
140.6960332637
 30
0.0
 10
70.7167071155
 20
140.5513877776
 30
0.0
 10
70.6256809956
 20
140.4462296145
 30
0.0
 10
70.5287264247
 20
140.3455814088
 30
0.0
 10
70.4240816979
 20
140.2513228873
 30
0.0
 10
70.309189333
 20
140.1669979037
 30
0.0
 10
70.2021741806
 20
140.1111538083
 30
0.0
 10
70.1091552238
 20
140.0818393389
 30
0.0
 10
70.0357747719
 20
140.0697062277
 30
0.0
 10
69.9608945722
 20
140.0692350217
 30
0.0
 10
69.9113984496
 20
140.0768154488
 30
0.0
 10
69.8870746527
 20
140.0823486665
 30
0.0
  0
SPLINE
  5
724
100
AcDbEntity
  8
30530890_CL
100
AcDbSpline
 62
7
  6
CONTINUOUS
 70
0
 71
3
 72
21
 73
17
 74
0
 42
0.0000001
 43
0.0000001
 44
0.0000000001
 40
0.0
 40
0.0
 40
0.0
 40
0.0
 40
0.1249451374
 40
0.24993452
 40
0.312475815
 40
0.3749996787
 40
0.4375040047
 40
0.4999908515
 40
0.5624657378
 40
0.6249364063
 40
0.6874113226
 40
0.749897891
 40
0.8124008844
 40
0.8749213982
 40
0.9374564911
 40
1.0
 40
1.0
 40
1.0
 40
1.0
 10
96.7870746527
 20
149.678529002
 30
0.0
 10
96.357430002
 20
149.6970991874
 30
0.0
 10
95.4994513841
 20
149.8067919825
 30
0.0
 10
94.4659728273
 20
150.1241432512
 30
0.0
 10
93.6824395037
 20
150.4825603736
 30
0.0
 10
93.1207417201
 20
150.8026283928
 30
0.0
 10
92.590482924
 20
151.1721235162
 30
0.0
 10
92.0967248909
 20
151.5889571116
 30
0.0
 10
91.6446127452
 20
152.0505257634
 30
0.0
 10
91.2392487333
 20
152.5536561457
 30
0.0
 10
90.8856306014
 20
153.0945159857
 30
0.0
 10
90.5885176262
 20
153.6685435038
 30
0.0
 10
90.352257403
 20
154.2703902978
 30
0.0
 10
90.1805749193
 20
154.8939726247
 30
0.0
 10
90.0763463579
 20
155.532395638
 30
0.0
 10
90.053046164
 20
155.9632619417
 30
0.0
 10
90.053046164
 20
156.178529002
 30
0.0
  0
SPLINE
  5
725
100
AcDbEntity
  8
30530890_CL
100
AcDbSpline
 62
7
  6
CONTINUOUS
 70
0
 71
3
 72
21
 73
17
 74
0
 42
0.0000001
 43
0.0000001
 44
0.0000000001
 40
0.0
 40
0.0
 40
0.0
 40
0.0
 40
0.062764332
 40
0.125493976
 40
0.1881605081
 40
0.250746527
 40
0.3132476194
 40
0.3756717735
 40
0.4380368624
 40
0.5003671069
 40
0.6248858695
 40
0.7495717416
 40
0.8120779037
 40
0.8746548671
 40
0.9372987043
 40
1.0
 40
1.0
 40
1.0
 40
1.0
 10
104.2314436993
 20
156.178529002
 30
0.0
 10
104.2314436993
 20
155.9479707957
 30
0.0
 10
104.2043577987
 20
155.4865270389
 30
0.0
 10
104.083429283
 20
154.8044947442
 30
0.0
 10
103.8849924939
 20
154.1414944237
 30
0.0
 10
103.6133359357
 20
153.5059960855
 30
0.0
 10
103.2738116709
 20
152.9051168328
 30
0.0
 10
102.8724263278
 20
152.3447841345
 30
0.0
 10
102.4153764633
 20
151.8297170314
 30
0.0
 10
101.7408162058
 20
151.2088936518
 30
0.0
 10
100.7878006184
 20
150.5617421167
 30
0.0
 10
99.7306387298
 20
150.1042289012
 30
0.0
 10
98.8458681703
 20
149.8574798499
 30
0.0
 10
98.1666457626
 20
149.7327231025
 30
0.0
 10
97.4783656071
 20
149.6694281884
 30
0.0
 10
97.0171864592
 20
149.6685830643
 30
0.0
 10
96.7870746527
 20
149.678529002
 30
0.0
  0
SPLINE
  5
726
100
AcDbEntity
  8
30530890_CL
100
AcDbSpline
 62
7
  6
CONTINUOUS
 70
0
 71
3
 72
34
 73
30
 74
0
 42
0.0000001
 43
0.0000001
 44
0.0000000001
 40
0.0
 40
0.0
 40
0.0
 40
0.0
 40
0.0614460994
 40
0.1215860203
 40
0.1802164097
 40
0.2088756237
 40
0.2370260726
 40
0.2645914777
 40
0.2914671298
 40
0.317513533
 40
0.3425862532
 40
0.3547934748
 40
0.3668911691
 40
0.3791381235
 40
0.3919508206
 40
0.4057103318
 40
0.4205004756
 40
0.4361295079
 40
0.4523400437
 40
0.4857491676
 40
0.5198353653
 40
0.5542218104
 40
0.5887435957
 40
0.6578912895
 40
0.7269529333
 40
0.7957694461
 40
0.8642462183
 40
0.9323283973
 40
1.0
 40
1.0
 40
1.0
 40
1.0
 10
63.3870746527
 20
141.2398347156
 30
0.0
 10
63.3485898223
 20
141.1790816849
 30
0.0
 10
63.2715844402
 20
141.0594028583
 30
0.0
 10
63.1541382356
 20
140.8841844435
 30
0.0
 10
63.054333529
 20
140.7433796101
 30
0.0
 10
62.9728085918
 20
140.6356210218
 30
0.0
 10
62.9110864999
 20
140.5585113151
 30
0.0
 10
62.8479065774
 20
140.4853159887
 30
0.0
 10
62.7826062558
 20
140.4173123825
 30
0.0
 10
62.7142140884
 20
140.3567037222
 30
0.0
 10
62.6523578518
 20
140.3149886213
 30
0.0
 10
62.5991990678
 20
140.2918336696
 30
0.0
 10
62.5574224867
 20
140.2814624055
 30
0.0
 10
62.5135145685
 20
140.2804334722
 30
0.0
 10
62.4688268479
 20
140.2911412252
 30
0.0
 10
62.4256075466
 20
140.313861962
 30
0.0
 10
62.3852831293
 20
140.3466166643
 30
0.0
 10
62.3481960999
 20
140.3868341514
 30
0.0
 10
62.3024281391
 20
140.4480833093
 30
0.0
 10
62.2527486298
 20
140.5328145072
 30
0.0
 10
62.2014001487
 20
140.6405100034
 30
0.0
 10
62.155957746
 20
140.7522228464
 30
0.0
 10
62.1016916136
 20
140.9044560424
 30
0.0
 10
62.0439470477
 20
141.0983526015
 30
0.0
 10
61.9876660663
 20
141.3341319822
 30
0.0
 10
61.9435059279
 20
141.5716820648
 30
0.0
 10
61.9113797469
 20
141.8100009647
 30
0.0
 10
61.8916318855
 20
142.0483199878
 30
0.0
 10
61.8870746527
 20
142.2072387894
 30
0.0
 10
61.8870746527
 20
142.2864418463
 30
0.0
  0
SPLINE
  5
727
100
AcDbEntity
  8
30530890_CL
100
AcDbSpline
 62
7
  6
CONTINUOUS
 70
0
 71
3
 72
10
 73
6
 74
0
 42
0.0000001
 43
0.0000001
 44
0.0000000001
 40
0.0
 40
0.0
 40
0.0
 40
0.0
 40
0.2500909485
 40
0.5002094871
 40
1.0
 40
1.0
 40
1.0
 40
1.0
 10
63.7869997686
 20
141.0868841068
 30
0.0
 10
63.7513596034
 20
141.0915047659
 30
0.0
 10
63.6806230859
 20
141.1056372318
 30
0.0
 10
63.5440445484
 20
141.1511479693
 30
0.0
 10
63.4479011212
 20
141.2016464149
 30
0.0
 10
63.3870746527
 20
141.2398347156
 30
0.0
  0
SPLINE
  5
728
100
AcDbEntity
  8
30530890_CL
100
AcDbSpline
 62
7
  6
CONTINUOUS
 70
0
 71
3
 72
15
 73
11
 74
0
 42
0.0000001
 43
0.0000001
 44
0.0000000001
 40
0.0
 40
0.0
 40
0.0
 40
0.0
 40
0.0625620363
 40
0.1251265436
 40
0.2499780371
 40
0.3749500898
 40
0.5000039912
 40
0.6251057005
 40
0.7502342696
 40
1.0
 40
1.0
 40
1.0
 40
1.0
 10
130.6620746527
 20
122.6561484183
 30
0.0
 10
130.6329512452
 20
122.6561484183
 30
0.0
 10
130.5745922257
 20
122.6514504031
 30
0.0
 10
130.4611103992
 20
122.6239682984
 30
0.0
 10
130.3290826729
 20
122.5581771901
 30
0.0
 10
130.1962654205
 20
122.4427678347
 30
0.0
 10
130.0899948136
 20
122.3029186595
 30
0.0
 10
130.0093743706
 20
122.1470605837
 30
0.0
 10
129.934223393
 20
121.9261674205
 30
0.0
 10
129.9120746527
 20
121.7504425169
 30
0.0
 10
129.9120746527
 20
121.6341734573
 30
0.0
  0
SPLINE
  5
729
100
AcDbEntity
  8
30530890_CL
100
AcDbSpline
 62
7
  6
CONTINUOUS
 70
0
 71
3
 72
34
 73
30
 74
0
 42
0.0000001
 43
0.0000001
 44
0.0000000001
 40
0.0
 40
0.0
 40
0.0
 40
0.0
 40
0.0676716408
 40
0.135753831
 40
0.2042305973
 40
0.2730471009
 40
0.3421087359
 40
0.4112564189
 40
0.4457782007
 40
0.480164643
 40
0.5142507497
 40
0.5476596414
 40
0.5638701086
 40
0.5794991429
 40
0.5942893713
 40
0.6080486971
 40
0.6208609333
 40
0.6331076469
 40
0.6452056292
 40
0.6574130619
 40
0.6824859075
 40
0.7085324926
 40
0.7354081631
 40
0.7629736429
 40
0.7911241388
 40
0.8197833864
 40
0.8784138377
 40
0.9385538301
 40
1.0
 40
1.0
 40
1.0
 40
1.0
 10
61.8870746527
 20
170.0706161577
 30
0.0
 10
61.8870746527
 20
170.1498192608
 30
0.0
 10
61.8916318917
 20
170.3087381232
 30
0.0
 10
61.9113797604
 20
170.5470572024
 30
0.0
 10
61.9435059778
 20
170.7853760971
 30
0.0
 10
61.9876660726
 20
171.0229261652
 30
0.0
 10
62.043947126
 20
171.2587054999
 30
0.0
 10
62.1016917164
 20
171.4526020292
 30
0.0
 10
62.1559578632
 20
171.6048351978
 30
0.0
 10
62.2013999685
 20
171.7165480422
 30
0.0
 10
62.2527485698
 20
171.8242430833
 30
0.0
 10
62.302427974
 20
171.9089737622
 30
0.0
 10
62.3481954044
 20
171.9702229077
 30
0.0
 10
62.3852823577
 20
172.0104404186
 30
0.0
 10
62.4256062358
 20
172.0431957791
 30
0.0
 10
62.4688252262
 20
172.0659153721
 30
0.0
 10
62.5135113705
 20
172.0766251718
 30
0.0
 10
62.5574188829
 20
172.0755957633
 30
0.0
 10
62.5991959519
 20
172.0652254501
 30
0.0
 10
62.6523554757
 20
172.0420702601
 30
0.0
 10
62.7142130574
 20
172.0003560999
 30
0.0
 10
62.7826048553
 20
171.9397463458
 30
0.0
 10
62.8479060833
 20
171.8717432208
 30
0.0
 10
62.9110857763
 20
171.7985474406
 30
0.0
 10
62.9728080496
 20
171.7214376595
 30
0.0
 10
63.0543331131
 20
171.6136789483
 30
0.0
 10
63.1541380243
 20
171.4728740181
 30
0.0
 10
63.2715842776
 20
171.2976553413
 30
0.0
 10
63.3485897773
 20
171.1779763901
 30
0.0
 10
63.3870746527
 20
171.1172232883
 30
0.0
  0
SPLINE
  5
72A
100
AcDbEntity
  8
30530890_CL
100
AcDbSpline
 62
7
  6
CONTINUOUS
 70
0
 71
3
 72
15
 73
11
 74
0
 42
0.0000001
 43
0.0000001
 44
0.0000000001
 40
0.0
 40
0.0
 40
0.0
 40
0.0
 40
0.2497657348
 40
0.3748943018
 40
0.499996009
 40
0.6250499133
 40
0.7500219648
 40
0.8748734576
 40
0.9374379647
 40
1.0
 40
1.0
 40
1.0
 40
1.0
 10
133.6620746527
 20
121.6341734573
 30
0.0
 10
133.6620746527
 20
121.750442519
 30
0.0
 10
133.6399259116
 20
121.9261674236
 30
0.0
 10
133.5647749334
 20
122.1470605866
 30
0.0
 10
133.4841544904
 20
122.3029186617
 30
0.0
 10
133.3778838833
 20
122.4427678366
 30
0.0
 10
133.24506663
 20
122.5581771917
 30
0.0
 10
133.1130389043
 20
122.6239682992
 30
0.0
 10
132.9995570785
 20
122.6514504029
 30
0.0
 10
132.9411980597
 20
122.6561484183
 30
0.0
 10
132.9120746527
 20
122.6561484183
 30
0.0
  0
ENDSEC
  0
SECTION
  2
OBJECTS
  0
DICTIONARY
  5
C
100
AcDbDictionary
280
0
281
1
  3
ACAD_GROUP
350
D
  3
ACAD_MLINESTYLE
350
17
  3
ACAD_LAYOUT
350
1A
  3
ACAD_PLOTSETTINGS
350
19
  3
ACAD_PLOTSTYLENAME
350
E
  0
DICTIONARY
  5
D
102
{ACAD_REACTORS
330
C
102
}
100
AcDbDictionary
280
0
281
1
  0
ACDBDICTIONARYWDFLT
  5
E
102
{ACAD_REACTORS
330
C
102
}
100
AcDbDictionary
281
1
  3
Normal
350
F
100
AcDbDictionaryWithDefault
340
F
  0
DICTIONARY
  5
17
102
{ACAD_REACTORS
330
C
102
}
100
AcDbDictionary
280
0
281
1
  3
Standard
350
18
  0
DICTIONARY
  5
19
102
{ACAD_REACTORS
330
C
102
}
100
AcDbDictionary
281
1
  0
DICTIONARY
  5
1A
102
{ACAD_REACTORS
330
C
102
}
100
AcDbDictionary
281
1
  3
Model
350
72B
  3
Layout1
350
72C
  0
ACDBPLACEHOLDER
  5
F
102
{ACAD_REACTORS
330
E
102
}
  0
MLINESTYLE
  5
18
102
{ACAD_REACTORS
330
17
102
}
100
AcDbMlineStyle
  2
STANDARD
 70
0
  3

 62
256
 51
90.0
 52
90.0
 71
2
 49
0.5
 62
256
  6
BYLAYER
 49
-0.5
 62
256
  6
BYLAYER
  0
LAYOUT
  5
72B
102
{ACAD_REACTORS
330
1A
102
}
100
AcDbPlotSettings
  1

  2
none_device
  4
ISO_A3_(420.00_x_297.00_MM)
  6

 40
0.0
 41
0.0
 42
0.0
 43
0.0
 44
420.0
 45
297.0
 46
0.0
 47
0.0
 48
0.0
 49
0.0
140
0.0
141
0.0
142
1.0
143
1.0
 70
1024
 72
1
 73
0
 74
0
  7

 75
0
147
1.0
148
0.0
149
0.0
100
AcDbLayout
  1
Model
 70
0
 71
0
 10
0.0
 20
0.0
 11
420.0
 21
297.0
 12
0.0
 22
0.0
 32
0.0
 14
0.0
 24
0.0
 34
0.0
 15
0.0
 25
0.0
 35
0.0
146
0.0
 13
0.0
 23
0.0
 33
0.0
 16
1.0
 26
0.0
 36
0.0
 17
0.0
 27
1.0
 37
0.0
 76
0
330
218
345
0
346
0
  0
LAYOUT
  5
72C
102
{ACAD_REACTORS
330
1A
102
}
100
AcDbPlotSettings
  1

  2
none_device
  4
ISO_A3_(420.00_x_297.00_MM)
  6

 40
0.0
 41
0.0
 42
0.0
 43
0.0
 44
420.0
 45
297.0
 46
0.0
 47
0.0
 48
0.0
 49
0.0
140
0.0
141
0.0
142
1.0
143
1.0
 70
0
 72
1
 73
0
 74
0
  7

 75
0
147
1.0
148
0.0
149
0.0
100
AcDbLayout
  1
Layout1
 70
0
 71
1
 10
0.0
 20
0.0
 11
420.0
 21
297.0
 12
0.0
 22
0.0
 32
0.0
 14
0.0
 24
0.0
 34
0.0
 15
0.0
 25
0.0
 35
0.0
146
0.0
 13
0.0
 23
0.0
 33
0.0
 16
1.0
 26
0.0
 36
0.0
 17
0.0
 27
1.0
 37
0.0
 76
0
330
219
345
0
346
0
  0
ENDSEC
  0
EOF
