999
DXF file: 606772173-000-00-ed1.dxf
999
Pro/ENGINEER 2011220 by Parametric Technology Corporation
  0
SECTION
  2
HEADER
  9
$ACADVER
  1
AC1015
  9
$DWGCODEPAGE
  3
ANSI_1252
  9
$EXTMAX
 10
420.0
 20
297.0
 30
0.0
  9
$EXTMIN
 10
0.0
 20
0.0
 30
0.0
  9
$LIMMIN
 10
0.0
 20
0.0
  9
$LIMMAX
 10
420.0
 20
297.0
  9
$VIEWCTR
 10
210.0
 20
148.5
  9
$VIEWSIZE
 40
297.0
  9
$CLAYER
  8
0
  9
$LTSCALE
 40
23.1
  9
$CELTYPE
  6
BYLAYER
  9
$DIMSCALE
 40
1.0
  9
$DIMASZ
 40
3.5
  9
$DIMEXO
 40
2.625
  9
$DIMDLI
 40
15.96
  9
$DIMEXE
 40
7.56
  9
$DIMCEN
 40
3.78
  9
$DIMLFAC
 40
1.0
  9
$DIMBLK
  1
_FILLED
  9
$DIMTXT
 40
3.5
  9
$DIMTOL
 70
1
  9
$DIMLIM
 70
0
  9
$DIMTFAC
 40
1.0
  9
$DIMTP
 40
0.005
  9
$DIMTM
 40
0.005
  9
$PDMODE
 70
3
  9
$PDSIZE
 40
0.3125
  9
$HANDSEED
  5
74D
  9
$TILEMODE
 70
1
  9
$MEASUREMENT
 70
1
  9
$INSUNITS
 70
4
  0
ENDSEC
  0
SECTION
  2
CLASSES
  0
CLASS
  1
ACDBDICTIONARYWDFLT
  2
AcDbDictionaryWithDefault
  3
AutoCAD 2000
 90
0
280
0
281
0
  0
CLASS
  1
ACDBPLACEHOLDER
  2
AcDbPlaceHolder
  3
AutoCAD 2000
 90
0
280
0
281
0
  0
CLASS
  1
LAYOUT
  2
AcDbLayout
  3
AutoCAD 2000
 90
0
280
0
281
0
  0
ENDSEC
  0
SECTION
  2
TABLES
  0
TABLE
  2
VPORT
  5
8
100
AcDbSymbolTable
 70
2
  0
VPORT
  5
1F4
100
AcDbSymbolTableRecord
100
AcDbViewportTableRecord
  2
*ACTIVE
 70
0
 10
0.0
 20
0.0
 11
1.0
 21
1.0
 12
210.0
 22
148.5
 13
0.0
 23
0.0
 14
1.0
 24
1.0
 15
0.0
 25
0.0
 16
0.0
 26
0.0
 36
1.0
 17
0.0
 27
0.0
 37
0.0
 40
297.0
 41
1.4141414141
 42
50.0
 43
0.0
 44
0.0
 50
0.0
 51
0.0
 71
0
 72
100
 73
1
 74
1
 75
0
 76
0
 77
0
 78
0
  0
ENDTAB
  0
TABLE
  2
LTYPE
  5
5
100
AcDbSymbolTable
 70
6
  0
LTYPE
  5
14
100
AcDbSymbolTableRecord
100
AcDbLinetypeTableRecord
  2
BYBLOCK
 70
0
  3

 72
65
 73
0
 40
0.0
  0
LTYPE
  5
15
100
AcDbSymbolTableRecord
100
AcDbLinetypeTableRecord
  2
BYLAYER
 70
0
  3

 72
65
 73
0
 40
0.0
  0
LTYPE
  5
16
100
AcDbSymbolTableRecord
100
AcDbLinetypeTableRecord
  2
CONTINUOUS
 70
64
  3
Solid line
 72
65
 73
0
 40
0.0
  0
LTYPE
  5
1F5
100
AcDbSymbolTableRecord
100
AcDbLinetypeTableRecord
  2
CENTER
 70
64
  3
____ _ ____ _ ____ _ ____ _ ____ _ ____ _ ____
 72
65
 73
4
 40
0.6
 49
0.375
 74
0
 49
-0.075
 74
0
 49
0.075
 74
0
 49
-0.075
 74
0
  0
LTYPE
  5
1F6
100
AcDbSymbolTableRecord
100
AcDbLinetypeTableRecord
  2
HIDDEN
 70
64
  3
- - - - - - - - - - - - - - - - - - - -
 72
65
 73
2
 40
0.2
 49
0.1
 74
0
 49
-0.1
 74
0
  0
LTYPE
  5
1F7
100
AcDbSymbolTableRecord
100
AcDbLinetypeTableRecord
  2
PHANTOM
 70
64
  3
_____ _ _ _____ _ _ _____ _ _ _____
 72
65
 73
6
 40
0.8
 49
0.45
 74
0
 49
-0.05
 74
0
 49
0.1
 74
0
 49
-0.05
 74
0
 49
0.1
 74
0
 49
-0.05
 74
0
  0
LTYPE
  5
1F8
100
AcDbSymbolTableRecord
100
AcDbLinetypeTableRecord
  2
DOT
 70
64
  3
. . . . . . . . . . . . . . . . . . . .
 72
65
 73
2
 40
0.2
 49
0.1
 74
0
 49
-0.1
 74
0
  0
LTYPE
  5
1F9
100
AcDbSymbolTableRecord
100
AcDbLinetypeTableRecord
  2
DASHED
 70
64
  3
- - - - - - - - - - - - - - - - - - - -
 72
65
 73
2
 40
0.2
 49
0.1
 74
0
 49
-0.1
 74
0
  0
ENDTAB
  0
TABLE
  2
LAYER
  5
2
100
AcDbSymbolTable
 70
36
  0
LAYER
  5
10
100
AcDbSymbolTableRecord
100
AcDbLayerTableRecord
  2
0
 70
0
 62
7
  6
CONTINUOUS
370
-3
390
F
  0
LAYER
  5
1FA
100
AcDbSymbolTableRecord
100
AcDbLayerTableRecord
  2
DEFAULT_1
 70
0
 62
7
  6
CENTER
370
-3
390
F
  0
LAYER
  5
1FB
100
AcDbSymbolTableRecord
100
AcDbLayerTableRecord
  2
DEFAULT_2
 70
0
 62
6
  6
HIDDEN
370
-3
390
F
  0
LAYER
  5
1FC
100
AcDbSymbolTableRecord
100
AcDbLayerTableRecord
  2
DEFAULT_3
 70
0
 62
7
  6
PHANTOM
370
-3
390
F
  0
LAYER
  5
1FD
100
AcDbSymbolTableRecord
100
AcDbLayerTableRecord
  2
COLLECTION01
 70
0
 62
7
  6
CONTINUOUS
370
-3
390
F
  0
LAYER
  5
1FE
100
AcDbSymbolTableRecord
100
AcDbLayerTableRecord
  2
COLLECTION02
 70
0
 62
7
  6
CONTINUOUS
370
-3
390
F
  0
LAYER
  5
1FF
100
AcDbSymbolTableRecord
100
AcDbLayerTableRecord
  2
COLLECTION03
 70
0
 62
7
  6
CONTINUOUS
370
-3
390
F
  0
LAYER
  5
200
100
AcDbSymbolTableRecord
100
AcDbLayerTableRecord
  2
COLLECTION12
 70
0
 62
7
  6
CONTINUOUS
370
-3
390
F
  0
LAYER
  5
201
100
AcDbSymbolTableRecord
100
AcDbLayerTableRecord
  2
COLLECTION04
 70
0
 62
7
  6
CONTINUOUS
370
-3
390
F
  0
LAYER
  5
202
100
AcDbSymbolTableRecord
100
AcDbLayerTableRecord
  2
COLLECTION06
 70
0
 62
7
  6
CONTINUOUS
370
-3
390
F
  0
LAYER
  5
203
100
AcDbSymbolTableRecord
100
AcDbLayerTableRecord
  2
COLLECTION07
 70
0
 62
7
  6
CONTINUOUS
370
-3
390
F
  0
LAYER
  5
204
100
AcDbSymbolTableRecord
100
AcDbLayerTableRecord
  2
COLLECTION09
 70
0
 62
7
  6
CONTINUOUS
370
-3
390
F
  0
LAYER
  5
205
100
AcDbSymbolTableRecord
100
AcDbLayerTableRecord
  2
COLLECTION10
 70
0
 62
7
  6
CONTINUOUS
370
-3
390
F
  0
LAYER
  5
206
100
AcDbSymbolTableRecord
100
AcDbLayerTableRecord
  2
COLLECTION13
 70
0
 62
7
  6
CONTINUOUS
370
-3
390
F
  0
LAYER
  5
207
100
AcDbSymbolTableRecord
100
AcDbLayerTableRecord
  2
COLLECTION15
 70
0
 62
7
  6
CONTINUOUS
370
-3
390
F
  0
LAYER
  5
208
100
AcDbSymbolTableRecord
100
AcDbLayerTableRecord
  2
COLLECTION16
 70
0
 62
7
  6
CONTINUOUS
370
-3
390
F
  0
LAYER
  5
209
100
AcDbSymbolTableRecord
100
AcDbLayerTableRecord
  2
606772173-000-00-ED1_FORMAT
 70
0
 62
7
  6
CONTINUOUS
370
-3
390
F
  0
LAYER
  5
20A
100
AcDbSymbolTableRecord
100
AcDbLayerTableRecord
  2
606772173-000-00-ED1_DIM
 70
0
 62
7
  6
CONTINUOUS
370
-3
390
F
  0
LAYER
  5
20B
100
AcDbSymbolTableRecord
100
AcDbLayerTableRecord
  2
30660231_DIM
 70
0
 62
7
  6
CONTINUOUS
370
-3
390
F
  0
LAYER
  5
20C
100
AcDbSymbolTableRecord
100
AcDbLayerTableRecord
  2
30656081_DIM
 70
0
 62
7
  6
CONTINUOUS
370
-3
390
F
  0
LAYER
  5
20D
100
AcDbSymbolTableRecord
100
AcDbLayerTableRecord
  2
606772173-000-00-ED1_CL
 70
0
 62
7
  6
CONTINUOUS
370
-3
390
F
  0
LAYER
  5
20E
100
AcDbSymbolTableRecord
100
AcDbLayerTableRecord
  2
606772173-000-00-ED1_TEXT
 70
0
 62
7
  6
CONTINUOUS
370
-3
390
F
  0
LAYER
  5
20F
100
AcDbSymbolTableRecord
100
AcDbLayerTableRecord
  2
30656081_CL
 70
0
 62
7
  6
CONTINUOUS
370
-3
390
F
  0
LAYER
  5
210
100
AcDbSymbolTableRecord
100
AcDbLayerTableRecord
  2
30656081_HL
 70
0
 62
7
  6
CONTINUOUS
370
-3
390
F
  0
LAYER
  5
211
100
AcDbSymbolTableRecord
100
AcDbLayerTableRecord
  2
30252537_HP_HL
 70
0
 62
7
  6
CONTINUOUS
370
-3
390
F
  0
LAYER
  5
212
100
AcDbSymbolTableRecord
100
AcDbLayerTableRecord
  2
30656081_AXIS
 70
0
 62
7
  6
CONTINUOUS
370
-3
390
F
  0
ENDTAB
  0
TABLE
  2
STYLE
  5
3
100
AcDbSymbolTable
 70
1
  0
STYLE
  5
11
100
AcDbSymbolTableRecord
100
AcDbTextStyleTableRecord
  2
STANDARD
 70
0
 40
0.0
 41
0.7
 50
0.0
 71
0
 42
0.2
  3
TXT.SHX
  4

  0
STYLE
  5
213
100
AcDbSymbolTableRecord
100
AcDbTextStyleTableRecord
  2
TEXTSTYLE_1
 70
0
 40
0.0
 41
0.8
 50
0.0
 71
0
 42
0.2
  3
gdt
  4

  0
STYLE
  5
214
100
AcDbSymbolTableRecord
100
AcDbTextStyleTableRecord
  2
TEXTSTYLE_2
 70
0
 40
0.0
 41
0.675
 50
0.0
 71
0
 42
0.2
  3
TXT.SHX
  4

  0
STYLE
  5
215
100
AcDbSymbolTableRecord
100
AcDbTextStyleTableRecord
  2
TEXTSTYLE_3
 70
0
 40
0.0
 41
0.7
 50
0.0
 71
0
 42
0.2
  3
gdt
  4

  0
ENDTAB
  0
TABLE
  2
VIEW
  5
6
100
AcDbSymbolTable
 70
0
  0
ENDTAB
  0
TABLE
  2
UCS
  5
7
100
AcDbSymbolTable
 70
0
  0
ENDTAB
  0
TABLE
  2
APPID
  5
9
100
AcDbSymbolTable
 70
1
  0
APPID
  5
216
100
AcDbSymbolTableRecord
100
AcDbRegAppTableRecord
  2
ACAD
 70
0
  0
ENDTAB
  0
TABLE
  2
BLOCK_RECORD
  5
1
100
AcDbSymbolTable
 70
0
  0
BLOCK_RECORD
  5
217
100
AcDbSymbolTableRecord
100
AcDbBlockTableRecord
  2
*Model_Space
  0
BLOCK_RECORD
  5
218
100
AcDbSymbolTableRecord
100
AcDbBlockTableRecord
  2
*Paper_Space
  0
BLOCK_RECORD
  5
219
100
AcDbSymbolTableRecord
100
AcDbBlockTableRecord
  2
_FILLED
  0
BLOCK_RECORD
  5
21A
100
AcDbSymbolTableRecord
100
AcDbBlockTableRecord
  2
_DOT
  0
BLOCK_RECORD
  5
21B
100
AcDbSymbolTableRecord
100
AcDbBlockTableRecord
  2
*D0
  0
BLOCK_RECORD
  5
21C
100
AcDbSymbolTableRecord
100
AcDbBlockTableRecord
  2
*D1
  0
BLOCK_RECORD
  5
21D
100
AcDbSymbolTableRecord
100
AcDbBlockTableRecord
  2
*D2
  0
BLOCK_RECORD
  5
21E
100
AcDbSymbolTableRecord
100
AcDbBlockTableRecord
  2
*D3
  0
BLOCK_RECORD
  5
21F
100
AcDbSymbolTableRecord
100
AcDbBlockTableRecord
  2
*D4
  0
BLOCK_RECORD
  5
220
100
AcDbSymbolTableRecord
100
AcDbBlockTableRecord
  2
*D5
  0
BLOCK_RECORD
  5
221
100
AcDbSymbolTableRecord
100
AcDbBlockTableRecord
  2
*D6
  0
BLOCK_RECORD
  5
222
100
AcDbSymbolTableRecord
100
AcDbBlockTableRecord
  2
*D7
  0
BLOCK_RECORD
  5
223
100
AcDbSymbolTableRecord
100
AcDbBlockTableRecord
  2
*D8
  0
BLOCK_RECORD
  5
224
100
AcDbSymbolTableRecord
100
AcDbBlockTableRecord
  2
*D9
  0
BLOCK_RECORD
  5
225
100
AcDbSymbolTableRecord
100
AcDbBlockTableRecord
  2
BOMBALLOON_BL4
  0
BLOCK_RECORD
  5
226
100
AcDbSymbolTableRecord
100
AcDbBlockTableRecord
  2
GEOM_TOLERANCE_SYMBOLS_BL3
  0
BLOCK_RECORD
  5
227
100
AcDbSymbolTableRecord
100
AcDbBlockTableRecord
  2
GEOM_TOLERANCE_SYMBOLS_BL2
  0
BLOCK_RECORD
  5
228
100
AcDbSymbolTableRecord
100
AcDbBlockTableRecord
  2
GEOM_TOLERANCE_SYMBOLS_BL1
  0
BLOCK_RECORD
  5
229
100
AcDbSymbolTableRecord
100
AcDbBlockTableRecord
  2
BARCODEBOX_BL0
  0
ENDTAB
  0
TABLE
  2
DIMSTYLE
  5
A
100
AcDbSymbolTable
 70
1
100
AcDbDimStyleTable
 71
0
  0
DIMSTYLE
105
22A
100
AcDbSymbolTableRecord
100
AcDbDimStyleTableRecord
  2
STANDARD
 70
0
  3

  4

 40
1.0
 41
3.5
 42
0.0625
 43
0.38
 44
0.18
 45
0.0
 46
0.0
 47
0.005
 48
0.005
140
3.5
141
0.09
142
0.0
143
25.4
144
1.0
145
0.0
146
1.0
147
0.09
 71
1.0
 72
0.0
 73
0
 74
0
 75
0
 76
0
 77
1
 78
8
170
0
171
2
172
0
173
0
174
0
175
0
176
0
177
0
178
2
270
2
271
3
272
3
273
2
274
2
275
0
280
0
281
0
282
0
283
1
284
8
285
0
286
0
287
3
288
0
340
11
341
219
342
219
343
219
344
219
  0
DIMSTYLE
105
22B
100
AcDbSymbolTableRecord
100
AcDbDimStyleTableRecord
  2
DIMSTYLE_1
 70
0
  3

  4

 40
1.0
 41
3.5
 42
0.0625
 43
0.38
 44
0.18
 45
0.0
 46
0.0
 47
0.05
 48
0.05
140
3.5
141
0.09
142
0.0
143
25.4
144
1.0
145
0.0
146
1.0
147
0.09
 71
0.0
 72
0.0
 73
0
 74
0
 75
0
 76
0
 77
1
 78
8
170
0
171
2
172
0
173
0
174
0
175
0
176
0
177
0
178
2
270
2
271
3
272
3
273
2
274
2
275
0
280
0
281
0
282
0
283
1
284
8
285
0
286
0
287
3
288
0
340
11
341
219
342
219
343
219
344
219
  0
DIMSTYLE
105
22C
100
AcDbSymbolTableRecord
100
AcDbDimStyleTableRecord
  2
DIMSTYLE_2
 70
0
  3

  4

 40
1.0
 41
3.5
 42
0.0625
 43
0.38
 44
0.18
 45
0.0
 46
0.0
 47
0.25
 48
0.25
140
3.5
141
0.09
142
0.0
143
25.4
144
1.0
145
0.0
146
1.0
147
0.09
 71
1.0
 72
0.0
 73
0
 74
0
 75
0
 76
0
 77
1
 78
8
170
0
171
2
172
0
173
0
174
0
175
0
176
0
177
0
178
2
270
2
271
2
272
2
273
2
274
2
275
0
280
0
281
0
282
0
283
1
284
8
285
0
286
0
287
3
288
0
340
11
341
219
342
219
343
219
344
219
  0
DIMSTYLE
105
22D
100
AcDbSymbolTableRecord
100
AcDbDimStyleTableRecord
  2
DIMSTYLE_3
 70
0
  3

  4

 40
1.0
 41
3.5
 42
0.0625
 43
0.38
 44
0.18
 45
0.0
 46
0.0
 47
0.1
 48
0.1
140
3.5
141
0.09
142
0.0
143
25.4
144
1.0
145
0.0
146
1.0
147
0.09
 71
0.0
 72
0.0
 73
0
 74
0
 75
0
 76
0
 77
1
 78
8
170
0
171
2
172
0
173
0
174
0
175
0
176
0
177
0
178
2
270
2
271
3
272
3
273
2
274
2
275
0
280
0
281
0
282
0
283
1
284
8
285
0
286
0
287
3
288
0
340
11
341
219
342
219
343
219
344
219
  0
DIMSTYLE
105
22E
100
AcDbSymbolTableRecord
100
AcDbDimStyleTableRecord
  2
DIMSTYLE_4
 70
0
  3

  4

 40
1.0
 41
3.5
 42
0.0625
 43
0.38
 44
0.18
 45
0.0
 46
0.0
 47
0.15
 48
0.15
140
3.5
141
0.09
142
0.0
143
25.4
144
1.0
145
0.0
146
1.0
147
0.09
 71
0.0
 72
0.0
 73
0
 74
0
 75
0
 76
0
 77
1
 78
8
170
0
171
2
172
0
173
0
174
0
175
0
176
0
177
0
178
2
270
2
271
3
272
3
273
2
274
2
275
0
280
0
281
0
282
0
283
1
284
8
285
0
286
0
287
3
288
0
340
11
341
219
342
219
343
219
344
219
  0
DIMSTYLE
105
22F
100
AcDbSymbolTableRecord
100
AcDbDimStyleTableRecord
  2
DIMSTYLE_5
 70
0
  3

  4

 40
1.0
 41
3.5
 42
0.0625
 43
0.38
 44
0.18
 45
0.0
 46
0.0
 47
0.05
 48
0.05
140
3.5
141
0.09
142
0.0
143
25.4
144
1.0
145
0.0
146
1.0
147
0.09
 71
0.0
 72
0.0
 73
0
 74
0
 75
0
 76
0
 77
1
 78
8
170
0
171
2
172
0
173
0
174
0
175
0
176
0
177
0
178
2
270
2
271
3
272
3
273
2
274
2
275
0
280
0
281
0
282
0
283
1
284
8
285
0
286
0
287
3
288
0
340
11
341
219
342
219
343
219
344
219
  0
DIMSTYLE
105
230
100
AcDbSymbolTableRecord
100
AcDbDimStyleTableRecord
  2
DIMSTYLE_6
 70
0
  3

  4

 40
1.0
 41
3.5
 42
0.0625
 43
0.38
 44
0.18
 45
0.0
 46
0.0
 47
0.15
 48
0.15
140
3.5
141
0.09
142
0.0
143
25.4
144
1.0
145
0.0
146
1.0
147
0.09
 71
0.0
 72
0.0
 73
0
 74
0
 75
0
 76
0
 77
1
 78
8
170
0
171
2
172
0
173
0
174
0
175
0
176
0
177
0
178
2
270
2
271
2
272
2
273
2
274
2
275
0
280
0
281
0
282
0
283
1
284
8
285
0
286
0
287
3
288
0
340
11
341
219
342
219
343
219
344
219
  0
ENDTAB
  0
ENDSEC
  0
SECTION
  2
BLOCKS
  0
BLOCK
  5
20
100
AcDbEntity
  8
0
100
AcDbBlockBegin
  2
*Model_Space
 70
0
 10
0.0
 20
0.0
 30
0.0
  3
*Model_Space
  1

  0
ENDBLK
  5
21
100
AcDbEntity
  8
0
100
AcDbBlockEnd
  0
BLOCK
  5
1C
100
AcDbEntity
  8
0
100
AcDbBlockBegin
  2
*Paper_Space
 70
0
 10
0.0
 20
0.0
 30
0.0
  3
*Paper_Space
  1

  0
ENDBLK
  5
1D
100
AcDbEntity
  8
0
100
AcDbBlockEnd
  0
BLOCK
  5
231
100
AcDbEntity
  8
606772173-000-00-ED1_CL
100
AcDbBlockBegin
 62
3
  6
CONTINUOUS
  2
BOMBALLOON_BL4
 70
64
 10
221.919140625
 20
185.8838743636
  3
BOMBALLOON_BL4
  1

  0
CIRCLE
  5
232
100
AcDbEntity
  8
606772173-000-00-ED1_CL
100
AcDbCircle
 62
3
  6
CONTINUOUS
 10
221.919140625
 20
185.8838743636
 40
6.125
  0
LINE
  5
233
100
AcDbEntity
  8
606772173-000-00-ED1_CL
100
AcDbLine
 62
3
  6
CONTINUOUS
 10
215.794140625
 20
185.8838743636
 11
228.044140625
 21
185.8838743636
  0
MTEXT
  5
234
100
AcDbEntity
  8
606772173-000-00-ED1_CL
100
AcDbMText
 62
2
  6
CONTINUOUS
  7
STANDARD
 71
1
 72
1
 10
220.8143229167
 20
190.3226764469
 30
0.0
 11
1.0
 21
0.0
 31
0.0
 44
0.9
  1
1\P1
 40
3.5
 41
2.0
  0
ENDBLK
  5
235
100
AcDbEntity
  8
0
  6
BYBLOCK
 62
0
100
AcDbBlockEnd
  0
BLOCK
  5
236
100
AcDbEntity
  8
606772173-000-00-ED1_CL
100
AcDbBlockBegin
 62
3
  6
CONTINUOUS
  2
GEOM_TOLERANCE_SYMBOLS_BL3
 70
64
 10
126.0221506232
 20
182.0934793137
  3
GEOM_TOLERANCE_SYMBOLS_BL3
  1

  0
LINE
  5
237
100
AcDbEntity
  8
606772173-000-00-ED1_CL
100
AcDbLine
 62
3
  6
CONTINUOUS
 10
128.8079831645
 20
175.9816571372
 11
125.8393847883
 21
175.5487325706
  0
LINE
  5
238
100
AcDbEntity
  8
606772173-000-00-ED1_CL
100
AcDbLine
 62
3
  6
CONTINUOUS
 10
122.0537071898
 20
187.6288736408
 11
128.9804367344
 21
188.639030963
  0
LINE
  5
239
100
AcDbEntity
  8
606772173-000-00-ED1_CL
100
AcDbLine
 62
3
  6
CONTINUOUS
 10
128.9804367344
 20
188.639030963
 11
129.9905940566
 21
181.7123014184
  0
LINE
  5
23A
100
AcDbEntity
  8
606772173-000-00-ED1_CL
100
AcDbLine
 62
3
  6
CONTINUOUS
 10
129.9905940566
 20
181.7123014184
 11
123.063864512
 21
180.7021440961
  0
LINE
  5
23B
100
AcDbEntity
  8
606772173-000-00-ED1_CL
100
AcDbLine
 62
3
  6
CONTINUOUS
 10
123.063864512
 20
180.7021440961
 11
122.0537071898
 21
187.6288736408
  0
LINE
  5
23C
100
AcDbEntity
  8
606772173-000-00-ED1_CL
100
AcDbLine
 62
3
  6
CONTINUOUS
 10
125.8338654819
 20
175.5479276643
 11
126.960153851
 21
178.238624381
  0
LINE
  5
23D
100
AcDbEntity
  8
606772173-000-00-ED1_CL
100
AcDbLine
 62
3
  6
CONTINUOUS
 10
126.960153851
 20
178.238624381
 11
128.8024638581
 21
175.980852231
  0
LINE
  5
23E
100
AcDbEntity
  8
606772173-000-00-ED1_CL
100
AcDbLine
 62
3
  6
CONTINUOUS
 10
126.960153851
 20
178.238624381
 11
126.5272292843
 21
181.2072227573
  0
LINE
  5
23F
100
AcDbEntity
  8
606772173-000-00-ED1_CL
100
AcDbLine
 62
3
  6
CONTINUOUS
 10
125.9355784143
 20
175.5627609363
 11
125.9109021731
 21
175.7319678957
  0
LINE
  5
240
100
AcDbEntity
  8
606772173-000-00-ED1_CL
100
AcDbLine
 62
3
  6
CONTINUOUS
 10
126.0345316935
 20
175.5771917552
 11
125.9858487215
 21
175.9110147875
  0
LINE
  5
241
100
AcDbEntity
  8
606772173-000-00-ED1_CL
100
AcDbLine
 62
3
  6
CONTINUOUS
 10
126.1334849727
 20
175.5916225741
 11
126.0607952699
 21
176.0900616793
  0
LINE
  5
242
100
AcDbEntity
  8
606772173-000-00-ED1_CL
100
AcDbLine
 62
3
  6
CONTINUOUS
 10
126.2324382519
 20
175.606053393
 11
126.1357418183
 21
176.2691085711
  0
LINE
  5
243
100
AcDbEntity
  8
606772173-000-00-ED1_CL
100
AcDbLine
 62
3
  6
CONTINUOUS
 10
126.3313915311
 20
175.6204842119
 11
126.2106883667
 21
176.448155463
  0
LINE
  5
244
100
AcDbEntity
  8
606772173-000-00-ED1_CL
100
AcDbLine
 62
3
  6
CONTINUOUS
 10
126.4303448103
 20
175.6349150308
 11
126.2856349152
 21
176.6272023548
  0
LINE
  5
245
100
AcDbEntity
  8
606772173-000-00-ED1_CL
100
AcDbLine
 62
3
  6
CONTINUOUS
 10
126.5292980895
 20
175.6493458497
 11
126.3605814636
 21
176.8062492466
  0
LINE
  5
246
100
AcDbEntity
  8
606772173-000-00-ED1_CL
100
AcDbLine
 62
3
  6
CONTINUOUS
 10
126.6282513687
 20
175.6637766685
 11
126.435528012
 21
176.9852961384
  0
LINE
  5
247
100
AcDbEntity
  8
606772173-000-00-ED1_CL
100
AcDbLine
 62
3
  6
CONTINUOUS
 10
126.7272046479
 20
175.6782074874
 11
126.5104745604
 21
177.1643430302
  0
LINE
  5
248
100
AcDbEntity
  8
606772173-000-00-ED1_CL
100
AcDbLine
 62
3
  6
CONTINUOUS
 10
126.8261579271
 20
175.6926383063
 11
126.5854211089
 21
177.343389922
  0
LINE
  5
249
100
AcDbEntity
  8
606772173-000-00-ED1_CL
100
AcDbLine
 62
3
  6
CONTINUOUS
 10
126.9251112064
 20
175.7070691252
 11
126.6603676573
 21
177.5224368138
  0
LINE
  5
24A
100
AcDbEntity
  8
606772173-000-00-ED1_CL
100
AcDbLine
 62
3
  6
CONTINUOUS
 10
127.0240644856
 20
175.7214999441
 11
126.7353142057
 21
177.7014837056
  0
LINE
  5
24B
100
AcDbEntity
  8
606772173-000-00-ED1_CL
100
AcDbLine
 62
3
  6
CONTINUOUS
 10
127.1230177648
 20
175.735930763
 11
126.8102607541
 21
177.8805305974
  0
LINE
  5
24C
100
AcDbEntity
  8
606772173-000-00-ED1_CL
100
AcDbLine
 62
3
  6
CONTINUOUS
 10
127.221971044
 20
175.7503615819
 11
126.8852073025
 21
178.0595774892
  0
LINE
  5
24D
100
AcDbEntity
  8
606772173-000-00-ED1_CL
100
AcDbLine
 62
3
  6
CONTINUOUS
 10
127.3209243232
 20
175.7647924008
 11
126.960153851
 21
178.238624381
  0
LINE
  5
24E
100
AcDbEntity
  8
606772173-000-00-ED1_CL
100
AcDbLine
 62
3
  6
CONTINUOUS
 10
127.4198776024
 20
175.7792232197
 11
127.0832032953
 21
178.0878258686
  0
LINE
  5
24F
100
AcDbEntity
  8
606772173-000-00-ED1_CL
100
AcDbLine
 62
3
  6
CONTINUOUS
 10
127.5188308816
 20
175.7936540385
 11
127.2062527396
 21
177.9370273562
  0
LINE
  5
250
100
AcDbEntity
  8
606772173-000-00-ED1_CL
100
AcDbLine
 62
3
  6
CONTINUOUS
 10
127.6177841608
 20
175.8080848574
 11
127.329302184
 21
177.7862288437
  0
LINE
  5
251
100
AcDbEntity
  8
606772173-000-00-ED1_CL
100
AcDbLine
 62
3
  6
CONTINUOUS
 10
127.71673744
 20
175.8225156763
 11
127.4523516283
 21
177.6354303313
  0
LINE
  5
252
100
AcDbEntity
  8
606772173-000-00-ED1_CL
100
AcDbLine
 62
3
  6
CONTINUOUS
 10
127.8156907192
 20
175.8369464952
 11
127.5754010726
 21
177.4846318189
  0
LINE
  5
253
100
AcDbEntity
  8
606772173-000-00-ED1_CL
100
AcDbLine
 62
3
  6
CONTINUOUS
 10
127.9146439984
 20
175.8513773141
 11
127.698450517
 21
177.3338333065
  0
LINE
  5
254
100
AcDbEntity
  8
606772173-000-00-ED1_CL
100
AcDbLine
 62
3
  6
CONTINUOUS
 10
128.0135972777
 20
175.865808133
 11
127.8214999613
 21
177.1830347941
  0
LINE
  5
255
100
AcDbEntity
  8
606772173-000-00-ED1_CL
100
AcDbLine
 62
3
  6
CONTINUOUS
 10
128.1125505569
 20
175.8802389519
 11
127.9445494056
 21
177.0322362817
  0
LINE
  5
256
100
AcDbEntity
  8
606772173-000-00-ED1_CL
100
AcDbLine
 62
3
  6
CONTINUOUS
 10
128.2115038361
 20
175.8946697708
 11
128.0675988499
 21
176.8814377693
  0
LINE
  5
257
100
AcDbEntity
  8
606772173-000-00-ED1_CL
100
AcDbLine
 62
3
  6
CONTINUOUS
 10
128.3104571153
 20
175.9091005897
 11
128.1906482943
 21
176.7306392569
  0
LINE
  5
258
100
AcDbEntity
  8
606772173-000-00-ED1_CL
100
AcDbLine
 62
3
  6
CONTINUOUS
 10
128.4094103945
 20
175.9235314085
 11
128.3136977386
 21
176.5798407444
  0
LINE
  5
259
100
AcDbEntity
  8
606772173-000-00-ED1_CL
100
AcDbLine
 62
3
  6
CONTINUOUS
 10
128.5083636737
 20
175.9379622274
 11
128.4367471829
 21
176.429042232
  0
LINE
  5
25A
100
AcDbEntity
  8
606772173-000-00-ED1_CL
100
AcDbLine
 62
3
  6
CONTINUOUS
 10
128.6073169529
 20
175.9523930463
 11
128.5597966273
 21
176.2782437196
  0
LINE
  5
25B
100
AcDbEntity
  8
606772173-000-00-ED1_CL
100
AcDbLine
 62
3
  6
CONTINUOUS
 10
128.7062702321
 20
175.9668238652
 11
128.6828460716
 21
176.1274452072
  0
TEXT
  5
25C
100
AcDbEntity
  8
606772173-000-00-ED1_CL
100
AcDbText
 62
2
  6
CONTINUOUS
 10
125.1897803086
 20
182.7778192056
  7
STANDARD
 40
3.5
  1
A
 50
8.29722
 41
0.8571428571
 72
0
100
AcDbText
  0
ENDBLK
  5
25D
100
AcDbEntity
  8
0
  6
BYBLOCK
 62
0
100
AcDbBlockEnd
  0
BLOCK
  5
25E
100
AcDbEntity
  8
606772173-000-00-ED1_CL
100
AcDbBlockBegin
 62
3
  6
CONTINUOUS
  2
GEOM_TOLERANCE_SYMBOLS_BL2
 70
64
 10
290.4841811661
 20
121.8841354509
  3
GEOM_TOLERANCE_SYMBOLS_BL2
  1

  0
LINE
  5
25F
100
AcDbEntity
  8
606772173-000-00-ED1_CL
100
AcDbLine
 62
3
  6
CONTINUOUS
 10
274.9657637711
 20
125.3838745876
 11
274.9657637711
 21
118.3838743636
  0
LINE
  5
260
100
AcDbEntity
  8
606772173-000-00-ED1_CL
100
AcDbLine
 62
3
  6
CONTINUOUS
 10
274.9657637711
 20
118.3838743636
 11
296.9657644751
 21
118.3838743636
  0
LINE
  5
261
100
AcDbEntity
  8
606772173-000-00-ED1_CL
100
AcDbLine
 62
3
  6
CONTINUOUS
 10
303.9657646991
 20
118.3838743636
 11
303.9657646991
 21
125.3838745876
  0
LINE
  5
262
100
AcDbEntity
  8
606772173-000-00-ED1_CL
100
AcDbLine
 62
3
  6
CONTINUOUS
 10
296.9657644751
 20
125.3838745876
 11
274.9657637711
 21
125.3838745876
  0
LINE
  5
263
100
AcDbEntity
  8
606772173-000-00-ED1_CL
100
AcDbLine
 62
3
  6
CONTINUOUS
 10
281.9657639951
 20
125.3838745876
 11
281.9657639951
 21
118.3838743636
  0
LINE
  5
264
100
AcDbEntity
  8
606772173-000-00-ED1_CL
100
AcDbLine
 62
3
  6
CONTINUOUS
 10
296.9657644751
 20
125.3838745876
 11
296.9657644751
 21
118.3838743636
  0
LINE
  5
265
100
AcDbEntity
  8
606772173-000-00-ED1_CL
100
AcDbLine
 62
3
  6
CONTINUOUS
 10
296.9657644751
 20
125.3838745876
 11
303.9657646991
 21
125.3838745876
  0
LINE
  5
266
100
AcDbEntity
  8
606772173-000-00-ED1_CL
100
AcDbLine
 62
3
  6
CONTINUOUS
 10
296.9657644751
 20
118.3838743636
 11
303.9657646991
 21
118.3838743636
  0
LINE
  5
267
100
AcDbEntity
  8
606772173-000-00-ED1_CL
100
AcDbLine
 62
3
  6
CONTINUOUS
 10
269.9657637711
 20
121.8838743636
 11
274.9657637711
 21
121.8838743636
  0
LINE
  5
268
100
AcDbEntity
  8
606772173-000-00-ED1_CL
100
AcDbLine
 62
3
  6
CONTINUOUS
 10
304.002598337
 20
125.3843965381
 11
311.002598561
 21
125.3843965381
  0
LINE
  5
269
100
AcDbEntity
  8
606772173-000-00-ED1_CL
100
AcDbLine
 62
3
  6
CONTINUOUS
 10
311.002598337
 20
125.3843965381
 11
311.002598337
 21
118.3843963141
  0
LINE
  5
26A
100
AcDbEntity
  8
606772173-000-00-ED1_CL
100
AcDbLine
 62
3
  6
CONTINUOUS
 10
304.002598337
 20
118.3843965381
 11
311.002598561
 21
118.3843965381
  0
TEXT
  5
26B
100
AcDbEntity
  8
606772173-000-00-ED1_CL
100
AcDbText
 62
2
  6
CONTINUOUS
 10
275.1157637759
 20
120.6838744372
  7
TEXTSTYLE_3
 40
2.4000000768
  1
t
 41
1.0
 72
0
100
AcDbText
  0
TEXT
  5
26C
100
AcDbEntity
  8
606772173-000-00-ED1_CL
100
AcDbText
 62
2
  6
CONTINUOUS
 10
283.0907640311
 20
120.1338744196
  7
STANDARD
 40
3.500000112
  1
0.003
 41
0.7285714286
 72
0
100
AcDbText
  0
TEXT
  5
26D
100
AcDbEntity
  8
606772173-000-00-ED1_CL
100
AcDbText
 62
2
  6
CONTINUOUS
 10
298.9657645391
 20
120.1338744196
  7
STANDARD
 40
3.500000112
  1
A
 41
0.8571428571
 72
0
100
AcDbText
  0
TEXT
  5
26E
100
AcDbEntity
  8
606772173-000-00-ED1_CL
100
AcDbText
 62
2
  6
CONTINUOUS
 10
306.127598449
 20
120.1343964586
  7
STANDARD
 40
3.5
  1
B
 41
0.7857142857
 72
0
100
AcDbText
  0
ENDBLK
  5
26F
100
AcDbEntity
  8
0
  6
BYBLOCK
 62
0
100
AcDbBlockEnd
  0
BLOCK
  5
270
100
AcDbEntity
  8
606772173-000-00-ED1_CL
100
AcDbBlockBegin
 62
3
  6
CONTINUOUS
  2
GEOM_TOLERANCE_SYMBOLS_BL1
 70
64
 10
158.7157217291
 20
192.3859905769
  3
GEOM_TOLERANCE_SYMBOLS_BL1
  1

  0
LINE
  5
271
100
AcDbEntity
  8
606772173-000-00-ED1_CL
100
AcDbLine
 62
3
  6
CONTINUOUS
 10
164.9657217291
 20
190.8859905769
 11
162.4657217291
 21
192.3859905769
  0
LINE
  5
272
100
AcDbEntity
  8
606772173-000-00-ED1_CL
100
AcDbLine
 62
3
  6
CONTINUOUS
 10
162.4657217291
 20
192.3859905769
 11
164.9657217291
 21
193.8859905769
  0
LINE
  5
273
100
AcDbEntity
  8
606772173-000-00-ED1_CL
100
AcDbLine
 62
3
  6
CONTINUOUS
 10
164.9657217291
 20
193.8859905769
 11
164.9657217291
 21
190.8859905769
  0
LINE
  5
274
100
AcDbEntity
  8
606772173-000-00-ED1_CL
100
AcDbLine
 62
3
  6
CONTINUOUS
 10
162.4657217291
 20
192.3859905769
 11
159.4657217291
 21
192.3859905769
  0
LINE
  5
275
100
AcDbEntity
  8
606772173-000-00-ED1_CL
100
AcDbLine
 62
3
  6
CONTINUOUS
 10
159.4657217291
 20
188.8859905769
 11
159.4657217291
 21
195.8859905769
  0
LINE
  5
276
100
AcDbEntity
  8
606772173-000-00-ED1_CL
100
AcDbLine
 62
3
  6
CONTINUOUS
 10
159.4657217291
 20
195.8859905769
 11
152.4657217291
 21
195.8859905769
  0
LINE
  5
277
100
AcDbEntity
  8
606772173-000-00-ED1_CL
100
AcDbLine
 62
3
  6
CONTINUOUS
 10
152.4657217291
 20
195.8859905769
 11
152.4657217291
 21
188.8859905769
  0
LINE
  5
278
100
AcDbEntity
  8
606772173-000-00-ED1_CL
100
AcDbLine
 62
3
  6
CONTINUOUS
 10
152.4657217291
 20
188.8859905769
 11
159.4657217291
 21
188.8859905769
  0
LINE
  5
279
100
AcDbEntity
  8
606772173-000-00-ED1_CL
100
AcDbLine
 62
3
  6
CONTINUOUS
 10
164.9657217291
 20
193.7832017323
 11
164.794406988
 21
193.7832017323
  0
LINE
  5
27A
100
AcDbEntity
  8
606772173-000-00-ED1_CL
100
AcDbLine
 62
3
  6
CONTINUOUS
 10
164.9657217291
 20
193.6832017323
 11
164.6277403214
 21
193.6832017323
  0
LINE
  5
27B
100
AcDbEntity
  8
606772173-000-00-ED1_CL
100
AcDbLine
 62
3
  6
CONTINUOUS
 10
164.9657217291
 20
193.5832017323
 11
164.4610736547
 21
193.5832017323
  0
LINE
  5
27C
100
AcDbEntity
  8
606772173-000-00-ED1_CL
100
AcDbLine
 62
3
  6
CONTINUOUS
 10
164.9657217291
 20
193.4832017323
 11
164.294406988
 21
193.4832017323
  0
LINE
  5
27D
100
AcDbEntity
  8
606772173-000-00-ED1_CL
100
AcDbLine
 62
3
  6
CONTINUOUS
 10
164.9657217291
 20
193.3832017323
 11
164.1277403214
 21
193.3832017323
  0
LINE
  5
27E
100
AcDbEntity
  8
606772173-000-00-ED1_CL
100
AcDbLine
 62
3
  6
CONTINUOUS
 10
164.9657217291
 20
193.2832017323
 11
163.9610736547
 21
193.2832017323
  0
LINE
  5
27F
100
AcDbEntity
  8
606772173-000-00-ED1_CL
100
AcDbLine
 62
3
  6
CONTINUOUS
 10
164.9657217291
 20
193.1832017323
 11
163.794406988
 21
193.1832017323
  0
LINE
  5
280
100
AcDbEntity
  8
606772173-000-00-ED1_CL
100
AcDbLine
 62
3
  6
CONTINUOUS
 10
164.9657217291
 20
193.0832017323
 11
163.6277403214
 21
193.0832017323
  0
LINE
  5
281
100
AcDbEntity
  8
606772173-000-00-ED1_CL
100
AcDbLine
 62
3
  6
CONTINUOUS
 10
164.9657217291
 20
192.9832017323
 11
163.4610736547
 21
192.9832017323
  0
LINE
  5
282
100
AcDbEntity
  8
606772173-000-00-ED1_CL
100
AcDbLine
 62
3
  6
CONTINUOUS
 10
164.9657217291
 20
192.8832017323
 11
163.294406988
 21
192.8832017323
  0
LINE
  5
283
100
AcDbEntity
  8
606772173-000-00-ED1_CL
100
AcDbLine
 62
3
  6
CONTINUOUS
 10
164.9657217291
 20
192.7832017323
 11
163.1277403214
 21
192.7832017323
  0
LINE
  5
284
100
AcDbEntity
  8
606772173-000-00-ED1_CL
100
AcDbLine
 62
3
  6
CONTINUOUS
 10
164.9657217291
 20
192.6832017323
 11
162.9610736547
 21
192.6832017323
  0
LINE
  5
285
100
AcDbEntity
  8
606772173-000-00-ED1_CL
100
AcDbLine
 62
3
  6
CONTINUOUS
 10
164.9657217291
 20
192.5832017323
 11
162.794406988
 21
192.5832017323
  0
LINE
  5
286
100
AcDbEntity
  8
606772173-000-00-ED1_CL
100
AcDbLine
 62
3
  6
CONTINUOUS
 10
164.9657217291
 20
192.4832017323
 11
162.6277403214
 21
192.4832017323
  0
LINE
  5
287
100
AcDbEntity
  8
606772173-000-00-ED1_CL
100
AcDbLine
 62
3
  6
CONTINUOUS
 10
164.9657217291
 20
192.3832017323
 11
162.4703698035
 21
192.3832017323
  0
LINE
  5
288
100
AcDbEntity
  8
606772173-000-00-ED1_CL
100
AcDbLine
 62
3
  6
CONTINUOUS
 10
164.9657217291
 20
192.2832017323
 11
162.6370364701
 21
192.2832017323
  0
LINE
  5
289
100
AcDbEntity
  8
606772173-000-00-ED1_CL
100
AcDbLine
 62
3
  6
CONTINUOUS
 10
164.9657217291
 20
192.1832017323
 11
162.8037031368
 21
192.1832017323
  0
LINE
  5
28A
100
AcDbEntity
  8
606772173-000-00-ED1_CL
100
AcDbLine
 62
3
  6
CONTINUOUS
 10
164.9657217291
 20
192.0832017323
 11
162.9703698035
 21
192.0832017323
  0
LINE
  5
28B
100
AcDbEntity
  8
606772173-000-00-ED1_CL
100
AcDbLine
 62
3
  6
CONTINUOUS
 10
164.9657217291
 20
191.9832017323
 11
163.1370364701
 21
191.9832017323
  0
LINE
  5
28C
100
AcDbEntity
  8
606772173-000-00-ED1_CL
100
AcDbLine
 62
3
  6
CONTINUOUS
 10
164.9657217291
 20
191.8832017323
 11
163.3037031368
 21
191.8832017323
  0
LINE
  5
28D
100
AcDbEntity
  8
606772173-000-00-ED1_CL
100
AcDbLine
 62
3
  6
CONTINUOUS
 10
164.9657217291
 20
191.7832017323
 11
163.4703698035
 21
191.7832017323
  0
LINE
  5
28E
100
AcDbEntity
  8
606772173-000-00-ED1_CL
100
AcDbLine
 62
3
  6
CONTINUOUS
 10
164.9657217291
 20
191.6832017323
 11
163.6370364701
 21
191.6832017323
  0
LINE
  5
28F
100
AcDbEntity
  8
606772173-000-00-ED1_CL
100
AcDbLine
 62
3
  6
CONTINUOUS
 10
164.9657217291
 20
191.5832017323
 11
163.8037031368
 21
191.5832017323
  0
LINE
  5
290
100
AcDbEntity
  8
606772173-000-00-ED1_CL
100
AcDbLine
 62
3
  6
CONTINUOUS
 10
164.9657217291
 20
191.4832017323
 11
163.9703698035
 21
191.4832017323
  0
LINE
  5
291
100
AcDbEntity
  8
606772173-000-00-ED1_CL
100
AcDbLine
 62
3
  6
CONTINUOUS
 10
164.9657217291
 20
191.3832017323
 11
164.1370364701
 21
191.3832017323
  0
LINE
  5
292
100
AcDbEntity
  8
606772173-000-00-ED1_CL
100
AcDbLine
 62
3
  6
CONTINUOUS
 10
164.9657217291
 20
191.2832017323
 11
164.3037031368
 21
191.2832017323
  0
LINE
  5
293
100
AcDbEntity
  8
606772173-000-00-ED1_CL
100
AcDbLine
 62
3
  6
CONTINUOUS
 10
164.9657217291
 20
191.1832017323
 11
164.4703698035
 21
191.1832017323
  0
LINE
  5
294
100
AcDbEntity
  8
606772173-000-00-ED1_CL
100
AcDbLine
 62
3
  6
CONTINUOUS
 10
164.9657217291
 20
191.0832017323
 11
164.6370364701
 21
191.0832017323
  0
LINE
  5
295
100
AcDbEntity
  8
606772173-000-00-ED1_CL
100
AcDbLine
 62
3
  6
CONTINUOUS
 10
164.9657217291
 20
190.9832017323
 11
164.8037031368
 21
190.9832017323
  0
TEXT
  5
296
100
AcDbEntity
  8
606772173-000-00-ED1_CL
100
AcDbText
 62
2
  6
CONTINUOUS
 10
154.9907217291
 20
190.6359905769
  7
STANDARD
 40
3.5
  1
B
 41
0.7857142857
 72
0
100
AcDbText
  0
ENDBLK
  5
297
100
AcDbEntity
  8
0
  6
BYBLOCK
 62
0
100
AcDbBlockEnd
  0
BLOCK
  5
298
100
AcDbEntity
  8
606772173-000-00-ED1_FORMAT
100
AcDbBlockBegin
 62
3
  6
CONTINUOUS
  2
BARCODEBOX_BL0
 70
64
 10
87.5
 20
46.5
  3
BARCODEBOX_BL0
  1

  0
LINE
  5
299
100
AcDbEntity
  8
606772173-000-00-ED1_FORMAT
100
AcDbLine
 62
3
  6
CONTINUOUS
 10
48.0
 20
83.0
 11
53.0
 21
83.0
  0
LINE
  5
29A
100
AcDbEntity
  8
606772173-000-00-ED1_FORMAT
100
AcDbLine
 62
3
  6
CONTINUOUS
 10
53.0
 20
83.0
 11
53.0
 21
78.0
  0
LINE
  5
29B
100
AcDbEntity
  8
606772173-000-00-ED1_FORMAT
100
AcDbLine
 62
3
  6
CONTINUOUS
 10
135.0
 20
65.0
 11
140.0
 21
65.0
  0
LINE
  5
29C
100
AcDbEntity
  8
606772173-000-00-ED1_FORMAT
100
AcDbLine
 62
3
  6
CONTINUOUS
 10
140.0
 20
65.0
 11
140.0
 21
60.0
  0
LINE
  5
29D
100
AcDbEntity
  8
606772173-000-00-ED1_FORMAT
100
AcDbLine
 62
3
  6
CONTINUOUS
 10
91.5
 20
65.0
 11
101.5
 21
65.0
  0
LINE
  5
29E
100
AcDbEntity
  8
606772173-000-00-ED1_FORMAT
100
AcDbLine
 62
3
  6
CONTINUOUS
 10
140.0
 20
42.5
 11
140.0
 21
32.5
  0
LINE
  5
29F
100
AcDbEntity
  8
606772173-000-00-ED1_FORMAT
100
AcDbLine
 62
3
  6
CONTINUOUS
 10
140.0
 20
10.0
 11
140.0
 21
15.0
  0
LINE
  5
2A0
100
AcDbEntity
  8
606772173-000-00-ED1_FORMAT
100
AcDbLine
 62
3
  6
CONTINUOUS
 10
40.0
 20
83.0
 11
35.0
 21
83.0
  0
LINE
  5
2A1
100
AcDbEntity
  8
606772173-000-00-ED1_FORMAT
100
AcDbLine
 62
3
  6
CONTINUOUS
 10
58.0
 20
65.0
 11
48.0
 21
65.0
  0
LINE
  5
2A2
100
AcDbEntity
  8
606772173-000-00-ED1_FORMAT
100
AcDbLine
 62
3
  6
CONTINUOUS
 10
53.0
 20
65.0
 11
53.0
 21
70.0
  0
LINE
  5
2A3
100
AcDbEntity
  8
606772173-000-00-ED1_FORMAT
100
AcDbLine
 62
3
  6
CONTINUOUS
 10
35.0
 20
65.0
 11
40.0
 21
65.0
  0
TEXT
  5
2A4
100
AcDbEntity
  8
606772173-000-00-ED1_FORMAT
100
AcDbText
 62
2
  6
CONTINUOUS
 10
139.0
 20
11.0
  7
STANDARD
 40
2.0
  1
BARCODE-ZONE
 50
90.0
 41
0.7876984127
 72
0
100
AcDbText
  0
ENDBLK
  5
2A5
100
AcDbEntity
  8
0
  6
BYBLOCK
 62
0
100
AcDbBlockEnd
  0
BLOCK
  5
2A6
100
AcDbEntity
  8
0
100
AcDbBlockBegin
  2
_FILLED
 70
64
 10
0.0
 20
0.0
  3
_FILLED
  1

  0
SOLID
  5
2A7
100
AcDbEntity
  8
0
  6
BYBLOCK
 62
0
100
AcDbTrace
 10
0.0
 20
0.0
 11
-1.0
 21
0.125
 12
-1.0
 22
-0.125
 13
-1.0
 23
-0.125
  0
ENDBLK
  5
2A8
100
AcDbEntity
  8
0
  6
BYBLOCK
 62
0
100
AcDbBlockEnd
  0
BLOCK
  5
2A9
100
AcDbEntity
  8
0
100
AcDbBlockBegin
  2
_DOT
 70
64
 10
0.0
 20
0.0
  3
_DOT
  1

  0
LWPOLYLINE
  5
2AA
100
AcDbEntity
  8
0
  6
BYBLOCK
 62
0
100
AcDbPolyline
 90
2
 70
1
 43
0.125
 10
-0.0625
 20
0.0
 42
1.0
 10
0.0625
 20
0.0
 42
1.0
  0
LINE
  5
2AB
100
AcDbEntity
  8
0
  6
BYBLOCK
 62
0
100
AcDbLine
 10
-0.125
 20
0.0
 11
-1.0
 21
0.0
  0
ENDBLK
  5
2AC
100
AcDbEntity
  8
0
  6
BYBLOCK
 62
0
100
AcDbBlockEnd
  0
BLOCK
  5
2AD
100
AcDbEntity
  8
606772173-000-00-ED1_DIM
100
AcDbBlockBegin
 62
3
  6
CONTINUOUS
  2
*D0
 70
65
 10
0.0
 20
0.0
  3
*D0
  1

  0
MTEXT
  5
2AE
100
AcDbEntity
  8
606772173-000-00-ED1_DIM
100
AcDbMText
 62
2
  6
CONTINUOUS
  7
STANDARD
 71
1
 72
1
 10
201.7146255079
 20
142.5366431569
 30
0.0
 11
0.6543167367
 21
-0.7562206081
 31
0.0
 44
0.9
  1
R2.5
 40
3.5
 41
10.0
  0
LINE
  5
2AF
100
AcDbEntity
  8
606772173-000-00-ED1_DIM
100
AcDbLine
 62
3
  6
CONTINUOUS
 10
191.8299298874
 20
147.2744258838
 11
204.9493277143
 21
132.1118013531
  0
INSERT
  5
2B0
100
AcDbEntity
  8
606772173-000-00-ED1_DIM
100
AcDbBlockReference
 62
3
  6
CONTINUOUS
  2
_FILLED
 10
191.8299298874
 20
147.2744258838
 41
3.5
 42
3.5
 43
3.5
 50
130.8678615959
  0
ENDBLK
  5
2B1
100
AcDbEntity
  8
0
  6
BYBLOCK
 62
0
100
AcDbBlockEnd
  0
BLOCK
  5
2B2
100
AcDbEntity
  8
606772173-000-00-ED1_DIM
100
AcDbBlockBegin
 62
3
  6
CONTINUOUS
  2
*D1
 70
65
 10
0.0
 20
0.0
  3
*D1
  1

  0
TEXT
  5
2B3
100
AcDbEntity
  8
606772173-000-00-ED1_DIM
100
AcDbText
 62
2
  6
CONTINUOUS
 10
237.1485561501
 20
191.416080223
  7
STANDARD
 40
3.5
  1
4.5
 50
-68.9781922018
 41
0.6904761905
 72
1
 11
238.4489279711
 21
188.0323458766
100
AcDbText
  0
TEXT
  5
2B4
100
AcDbEntity
  8
606772173-000-00-ED1_DIM
100
AcDbText
 62
2
  6
CONTINUOUS
 10
239.7492997922
 20
184.6486115302
  7
TEXTSTYLE_3
 40
3.5
  1
~
 50
-68.9781922018
 41
1.0
 72
1
 11
240.1678102633
 21
183.5595935797
100
AcDbText
  0
TEXT
  5
2B5
100
AcDbEntity
  8
606772173-000-00-ED1_DIM
100
AcDbText
 62
2
  6
CONTINUOUS
 10
241.0763788122
 20
182.6589053411
  7
TEXTSTYLE_3
 40
2.45
  1
`
 50
-68.9781922018
 41
1.0
 72
1
 11
241.5890541394
 21
181.3248583517
100
AcDbText
  0
TEXT
  5
2B6
100
AcDbEntity
  8
606772173-000-00-ED1_DIM
100
AcDbText
 62
2
  6
CONTINUOUS
 10
242.1017294666
 20
179.9908113622
  7
STANDARD
 40
2.45
  1
0.25
 50
-68.9781922018
 41
0.7142857143
 72
1
 11
243.35726088
 21
176.7237575105
100
AcDbText
  0
TEXT
  5
2B7
100
AcDbEntity
  8
606772173-000-00-ED1_DIM
100
AcDbText
 62
2
  6
CONTINUOUS
 10
244.6127922934
 20
173.4567036588
  7
TEXTSTYLE_3
 40
2.45
  1
~
 50
-68.9781922018
 41
1.0
 72
1
 11
244.9057496232
 21
172.6943910935
100
AcDbText
  0
LINE
  5
2B8
100
AcDbEntity
  8
606772173-000-00-ED1_DIM
100
AcDbLine
 62
3
  6
CONTINUOUS
 10
213.3556502616
 20
169.6586580092
 11
241.0042939577
 21
167.4826625589
  0
LINE
  5
2B9
100
AcDbEntity
  8
606772173-000-00-ED1_DIM
100
AcDbLine
 62
3
  6
CONTINUOUS
 10
214.2250813762
 20
169.8838743636
 11
241.0986378265
 21
169.8838743636
  0
ARC
  5
2BA
100
AcDbEntity
  8
606772173-000-00-ED1_DIM
100
AcDbCircle
 62
3
  6
CONTINUOUS
 10
210.4940051525
 20
169.8838743636
 40
29.104632674
100
AcDbArc
 50
343.688317615
 51
355.5
  0
ARC
  5
2BB
100
AcDbEntity
  8
606772173-000-00-ED1_DIM
100
AcDbCircle
 62
3
  6
CONTINUOUS
 10
210.4940051525
 20
169.8838743636
 40
29.104632674
100
AcDbArc
 50
0.0
 51
21.0218077982
  0
ARC
  5
2BC
100
AcDbEntity
  8
606772173-000-00-ED1_DIM
100
AcDbCircle
 62
3
  6
CONTINUOUS
 10
210.4940051525
 20
169.8838743636
 40
29.104632674
100
AcDbArc
 50
355.5
 51
360.0
  0
SOLID
  5
2BD
100
AcDbEntity
  8
606772173-000-00-ED1_DIM
100
AcDbTrace
 62
3
  6
CONTINUOUS
 10
239.4584353616
 20
164.0734747151
 11
239.5089179571
 21
167.6003512025
 12
238.59183446
 22
164.1944204766
 13
238.59183446
 23
164.1944204766
  0
SOLID
  5
2BE
100
AcDbEntity
  8
606772173-000-00-ED1_DIM
100
AcDbTrace
 62
3
  6
CONTINUOUS
 10
238.9516076365
 20
173.3512592836
 11
239.5986378265
 21
169.8838743636
 12
239.8250263919
 22
173.4038394866
 13
239.8250263919
 23
173.4038394866
  0
ENDBLK
  5
2BF
100
AcDbEntity
  8
0
  6
BYBLOCK
 62
0
100
AcDbBlockEnd
  0
BLOCK
  5
2C0
100
AcDbEntity
  8
30660231_DIM
100
AcDbBlockBegin
 62
3
  6
CONTINUOUS
  2
*D2
 70
65
 10
0.0
 20
0.0
  3
*D2
  1

  0
MTEXT
  5
2C1
100
AcDbEntity
  8
30660231_DIM
100
AcDbMText
 62
2
  6
CONTINUOUS
  7
STANDARD
 71
3
 72
1
 10
220.0415193298
 20
116.2588743636
 30
0.0
 11
1.0
 21
0.0
 31
0.0
 44
0.9
  1
10\PVERSTELLWEG
 40
3.5
 41
30.9166666667
  0
LINE
  5
2C2
100
AcDbEntity
  8
30660231_DIM
100
AcDbLine
 62
3
  6
CONTINUOUS
 10
224.9657217291
 20
158.8838743636
 11
224.9657217291
 21
110.3838743636
  0
LINE
  5
2C3
100
AcDbEntity
  8
30660231_DIM
100
AcDbLine
 62
3
  6
CONTINUOUS
 10
234.9657217291
 20
157.6949426689
 11
234.9657217291
 21
110.3838743636
  0
LINE
  5
2C4
100
AcDbEntity
  8
30660231_DIM
100
AcDbLine
 62
3
  6
CONTINUOUS
 10
224.9657217291
 20
111.8838743636
 11
229.9657217291
 21
111.8838743636
  0
LINE
  5
2C5
100
AcDbEntity
  8
30660231_DIM
100
AcDbLine
 62
3
  6
CONTINUOUS
 10
229.9657217291
 20
111.8838743636
 11
189.1248526631
 21
111.8838743636
  0
LINE
  5
2C6
100
AcDbEntity
  8
30660231_DIM
100
AcDbLine
 62
3
  6
CONTINUOUS
 10
234.9657217291
 20
111.8838743636
 11
229.9657217291
 21
111.8838743636
  0
INSERT
  5
2C7
100
AcDbEntity
  8
30660231_DIM
100
AcDbBlockReference
 62
3
  6
CONTINUOUS
  2
_FILLED
 10
224.9657217291
 20
111.8838743636
 41
3.5
 42
3.5
 43
3.5
 50
180.0
  0
INSERT
  5
2C8
100
AcDbEntity
  8
30660231_DIM
100
AcDbBlockReference
 62
3
  6
CONTINUOUS
  2
_FILLED
 10
234.9657217291
 20
111.8838743636
 41
3.5
 42
3.5
 43
3.5
  0
ENDBLK
  5
2C9
100
AcDbEntity
  8
0
  6
BYBLOCK
 62
0
100
AcDbBlockEnd
  0
BLOCK
  5
2CA
100
AcDbEntity
  8
30656081_DIM
100
AcDbBlockBegin
 62
3
  6
CONTINUOUS
  2
*D3
 70
65
 10
0.0
 20
0.0
  3
*D3
  1

  0
MTEXT
  5
2CB
100
AcDbEntity
  8
30656081_DIM
100
AcDbMText
 62
2
  6
CONTINUOUS
  7
STANDARD
 71
2
 72
1
 10
239.9657217291
 20
106.2588743636
 30
0.0
 11
1.0
 21
0.0
 31
0.0
 44
0.9
  1
30
 40
3.5
 41
5.25
  0
LINE
  5
2CC
100
AcDbEntity
  8
30656081_DIM
100
AcDbLine
 62
3
  6
CONTINUOUS
 10
224.9657217291
 20
151.8460696094
 11
224.9657217291
 21
100.3838743636
  0
LINE
  5
2CD
100
AcDbEntity
  8
30656081_DIM
100
AcDbLine
 62
3
  6
CONTINUOUS
 10
254.9657217291
 20
151.9804504187
 11
254.9657217291
 21
100.3838743636
  0
LINE
  5
2CE
100
AcDbEntity
  8
30656081_DIM
100
AcDbLine
 62
3
  6
CONTINUOUS
 10
224.9657217291
 20
101.8838743636
 11
239.9657217291
 21
101.8838743636
  0
LINE
  5
2CF
100
AcDbEntity
  8
30656081_DIM
100
AcDbLine
 62
3
  6
CONTINUOUS
 10
254.9657217291
 20
101.8838743636
 11
239.9657217291
 21
101.8838743636
  0
INSERT
  5
2D0
100
AcDbEntity
  8
30656081_DIM
100
AcDbBlockReference
 62
3
  6
CONTINUOUS
  2
_FILLED
 10
224.9657217291
 20
101.8838743636
 41
3.5
 42
3.5
 43
3.5
 50
180.0
  0
INSERT
  5
2D1
100
AcDbEntity
  8
30656081_DIM
100
AcDbBlockReference
 62
3
  6
CONTINUOUS
  2
_FILLED
 10
254.9657217291
 20
101.8838743636
 41
3.5
 42
3.5
 43
3.5
  0
ENDBLK
  5
2D2
100
AcDbEntity
  8
0
  6
BYBLOCK
 62
0
100
AcDbBlockEnd
  0
BLOCK
  5
2D3
100
AcDbEntity
  8
30656081_DIM
100
AcDbBlockBegin
 62
3
  6
CONTINUOUS
  2
*D4
 70
65
 10
0.0
 20
0.0
  3
*D4
  1

  0
MTEXT
  5
2D4
100
AcDbEntity
  8
30656081_DIM
100
AcDbMText
 62
2
  6
CONTINUOUS
  7
STANDARD
 71
2
 72
1
 10
209.9657217291
 20
220.2588743636
 30
0.0
 11
1.0
 21
0.0
 31
0.0
 44
0.9
  1
90
 40
3.5
 41
5.5
  0
LINE
  5
2D5
100
AcDbEntity
  8
30656081_DIM
100
AcDbLine
 62
3
  6
CONTINUOUS
 10
254.9657217291
 20
162.1813015834
 11
254.9657217291
 21
217.3838743636
  0
LINE
  5
2D6
100
AcDbEntity
  8
30656081_DIM
100
AcDbLine
 62
3
  6
CONTINUOUS
 10
164.9657217291
 20
174.7041189361
 11
164.9657217291
 21
217.3838743636
  0
LINE
  5
2D7
100
AcDbEntity
  8
30656081_DIM
100
AcDbLine
 62
3
  6
CONTINUOUS
 10
254.9657217291
 20
215.8838743636
 11
209.9657217291
 21
215.8838743636
  0
LINE
  5
2D8
100
AcDbEntity
  8
30656081_DIM
100
AcDbLine
 62
3
  6
CONTINUOUS
 10
164.9657217291
 20
215.8838743636
 11
209.9657217291
 21
215.8838743636
  0
INSERT
  5
2D9
100
AcDbEntity
  8
30656081_DIM
100
AcDbBlockReference
 62
3
  6
CONTINUOUS
  2
_FILLED
 10
254.9657217291
 20
215.8838743636
 41
3.5
 42
3.5
 43
3.5
  0
INSERT
  5
2DA
100
AcDbEntity
  8
30656081_DIM
100
AcDbBlockReference
 62
3
  6
CONTINUOUS
  2
_FILLED
 10
164.9657217291
 20
215.8838743636
 41
3.5
 42
3.5
 43
3.5
 50
180.0
  0
ENDBLK
  5
2DB
100
AcDbEntity
  8
0
  6
BYBLOCK
 62
0
100
AcDbBlockEnd
  0
BLOCK
  5
2DC
100
AcDbEntity
  8
30656081_DIM
100
AcDbBlockBegin
 62
3
  6
CONTINUOUS
  2
*D5
 70
65
 10
0.0
 20
0.0
  3
*D5
  1

  0
MTEXT
  5
2DD
100
AcDbEntity
  8
30656081_DIM
100
AcDbMText
 62
2
  6
CONTINUOUS
  7
STANDARD
 71
3
 72
1
 10
84.1907217291
 20
151.906009212
 30
0.0
 11
0.0
 21
1.0
 31
0.0
 44
0.9
  1
M6
 40
3.5
 41
5.75
  0
LINE
  5
2DE
100
AcDbEntity
  8
30656081_DIM
100
AcDbLine
 62
3
  6
CONTINUOUS
 10
211.7882016145
 20
155.8838743636
 11
87.0657217291
 21
155.8838743636
  0
LINE
  5
2DF
100
AcDbEntity
  8
30656081_DIM
100
AcDbLine
 62
3
  6
CONTINUOUS
 10
211.6462874853
 20
161.8838743636
 11
87.0657217291
 21
161.8838743636
  0
LINE
  5
2E0
100
AcDbEntity
  8
30656081_DIM
100
AcDbLine
 62
3
  6
CONTINUOUS
 10
88.5657217291
 20
155.8838743636
 11
88.5657217291
 21
146.156009212
  0
LINE
  5
2E1
100
AcDbEntity
  8
30656081_DIM
100
AcDbLine
 62
3
  6
CONTINUOUS
 10
88.5657217291
 20
146.156009212
 11
88.5657217291
 21
158.8838743636
  0
LINE
  5
2E2
100
AcDbEntity
  8
30656081_DIM
100
AcDbLine
 62
3
  6
CONTINUOUS
 10
88.5657217291
 20
161.8838743636
 11
88.5657217291
 21
167.8838743636
  0
LINE
  5
2E3
100
AcDbEntity
  8
30656081_DIM
100
AcDbLine
 62
3
  6
CONTINUOUS
 10
88.5657217291
 20
167.8838743636
 11
88.5657217291
 21
158.8838743636
  0
INSERT
  5
2E4
100
AcDbEntity
  8
30656081_DIM
100
AcDbBlockReference
 62
3
  6
CONTINUOUS
  2
_FILLED
 10
88.5657217291
 20
155.8838743636
 41
3.5
 42
3.5
 43
3.5
 50
90.0
  0
INSERT
  5
2E5
100
AcDbEntity
  8
30656081_DIM
100
AcDbBlockReference
 62
3
  6
CONTINUOUS
  2
_FILLED
 10
88.5657217291
 20
161.8838743636
 41
3.5
 42
3.5
 43
3.5
 50
270.0
  0
ENDBLK
  5
2E6
100
AcDbEntity
  8
0
  6
BYBLOCK
 62
0
100
AcDbBlockEnd
  0
BLOCK
  5
2E7
100
AcDbEntity
  8
30656081_DIM
100
AcDbBlockBegin
 62
3
  6
CONTINUOUS
  2
*D6
 70
65
 10
0.0
 20
0.0
  3
*D6
  1

  0
MTEXT
  5
2E8
100
AcDbEntity
  8
30656081_DIM
100
AcDbMText
 62
2
  6
CONTINUOUS
  7
TEXTSTYLE_3
 71
3
 72
1
 10
265.5907217291
 20
142.8069944594
 30
0.0
 11
0.0
 21
1.0
 31
0.0
 44
0.9
  1
{\Fgdt;n}\FTXT.SHX;5
 40
3.5
 41
7.1666666667
  0
LINE
  5
2E9
100
AcDbEntity
  8
30656081_DIM
100
AcDbLine
 62
3
  6
CONTINUOUS
 10
253.8538562545
 20
156.3838743636
 11
271.4657217291
 21
156.3838743636
  0
LINE
  5
2EA
100
AcDbEntity
  8
30656081_DIM
100
AcDbLine
 62
3
  6
CONTINUOUS
 10
253.7845622462
 20
161.3838743636
 11
271.4657217291
 21
161.3838743636
  0
LINE
  5
2EB
100
AcDbEntity
  8
30656081_DIM
100
AcDbLine
 62
3
  6
CONTINUOUS
 10
269.9657217291
 20
156.3838743636
 11
269.9657217291
 21
135.6403277927
  0
LINE
  5
2EC
100
AcDbEntity
  8
30656081_DIM
100
AcDbLine
 62
3
  6
CONTINUOUS
 10
269.9657217291
 20
135.6403277927
 11
269.9657217291
 21
158.8838743636
  0
LINE
  5
2ED
100
AcDbEntity
  8
30656081_DIM
100
AcDbLine
 62
3
  6
CONTINUOUS
 10
269.9657217291
 20
161.3838743636
 11
269.9657217291
 21
167.3838743636
  0
LINE
  5
2EE
100
AcDbEntity
  8
30656081_DIM
100
AcDbLine
 62
3
  6
CONTINUOUS
 10
269.9657217291
 20
167.3838743636
 11
269.9657217291
 21
158.8838743636
  0
INSERT
  5
2EF
100
AcDbEntity
  8
30656081_DIM
100
AcDbBlockReference
 62
3
  6
CONTINUOUS
  2
_FILLED
 10
269.9657217291
 20
156.3838743636
 41
3.5
 42
3.5
 43
3.5
 50
90.0
  0
INSERT
  5
2F0
100
AcDbEntity
  8
30656081_DIM
100
AcDbBlockReference
 62
3
  6
CONTINUOUS
  2
_FILLED
 10
269.9657217291
 20
161.3838743636
 41
3.5
 42
3.5
 43
3.5
 50
270.0
  0
ENDBLK
  5
2F1
100
AcDbEntity
  8
0
  6
BYBLOCK
 62
0
100
AcDbBlockEnd
  0
BLOCK
  5
2F2
100
AcDbEntity
  8
30656081_DIM
100
AcDbBlockBegin
 62
3
  6
CONTINUOUS
  2
*D7
 70
65
 10
0.0
 20
0.0
  3
*D7
  1

  0
MTEXT
  5
2F3
100
AcDbEntity
  8
30656081_DIM
100
AcDbMText
 62
2
  6
CONTINUOUS
  7
STANDARD
 71
2
 72
1
 10
232.7298634408
 20
210.2588743636
 30
0.0
 11
1.0
 21
0.0
 31
0.0
 44
0.9
  1
(44.47)
 40
3.5
 41
16.0
  0
LINE
  5
2F4
100
AcDbEntity
  8
30656081_DIM
100
AcDbLine
 62
3
  6
CONTINUOUS
 10
254.9657217291
 20
207.3838743636
 11
254.9657217291
 21
179.9822545099
  0
LINE
  5
2F5
100
AcDbEntity
  8
30656081_DIM
100
AcDbLine
 62
3
  6
CONTINUOUS
 10
210.4940051525
 20
169.8838743636
 11
210.4940051525
 21
207.3838743636
  0
LINE
  5
2F6
100
AcDbEntity
  8
30656081_DIM
100
AcDbLine
 62
3
  6
CONTINUOUS
 10
254.9657217291
 20
205.8838743636
 11
232.7298634408
 21
205.8838743636
  0
LINE
  5
2F7
100
AcDbEntity
  8
30656081_DIM
100
AcDbLine
 62
3
  6
CONTINUOUS
 10
210.4940051525
 20
205.8838743636
 11
232.7298634408
 21
205.8838743636
  0
INSERT
  5
2F8
100
AcDbEntity
  8
30656081_DIM
100
AcDbBlockReference
 62
3
  6
CONTINUOUS
  2
_FILLED
 10
254.9657217291
 20
205.8838743636
 41
3.5
 42
3.5
 43
3.5
  0
INSERT
  5
2F9
100
AcDbEntity
  8
30656081_DIM
100
AcDbBlockReference
 62
3
  6
CONTINUOUS
  2
_FILLED
 10
210.4940051525
 20
205.8838743636
 41
3.5
 42
3.5
 43
3.5
 50
180.0
  0
ENDBLK
  5
2FA
100
AcDbEntity
  8
0
  6
BYBLOCK
 62
0
100
AcDbBlockEnd
  0
BLOCK
  5
2FB
100
AcDbEntity
  8
30656081_DIM
100
AcDbBlockBegin
 62
3
  6
CONTINUOUS
  2
*D8
 70
65
 10
0.0
 20
0.0
  3
*D8
  1

  0
MTEXT
  5
2FC
100
AcDbEntity
  8
30656081_DIM
100
AcDbMText
 62
2
  6
CONTINUOUS
  7
TEXTSTYLE_3
 71
2
 72
1
 10
285.5907217291
 20
158.8838743636
 30
0.0
 11
0.0
 21
1.0
 31
0.0
 44
0.9
  1
{\Fgdt;n}\FTXT.SHX;22
 40
3.5
 41
10.1666666667
  0
LINE
  5
2FD
100
AcDbEntity
  8
30656081_DIM
100
AcDbLine
 62
3
  6
CONTINUOUS
 10
210.4761760159
 20
147.8838743636
 11
291.4657217291
 21
147.8838743636
  0
LINE
  5
2FE
100
AcDbEntity
  8
30656081_DIM
100
AcDbLine
 62
3
  6
CONTINUOUS
 10
210.493446476
 20
169.8838743636
 11
291.4657217291
 21
169.8838743636
  0
LINE
  5
2FF
100
AcDbEntity
  8
30656081_DIM
100
AcDbLine
 62
3
  6
CONTINUOUS
 10
289.9657217291
 20
147.8838743636
 11
289.9657217291
 21
158.8838743636
  0
LINE
  5
300
100
AcDbEntity
  8
30656081_DIM
100
AcDbLine
 62
3
  6
CONTINUOUS
 10
289.9657217291
 20
169.8838743636
 11
289.9657217291
 21
158.8838743636
  0
INSERT
  5
301
100
AcDbEntity
  8
30656081_DIM
100
AcDbBlockReference
 62
3
  6
CONTINUOUS
  2
_FILLED
 10
289.9657217291
 20
147.8838743636
 41
3.5
 42
3.5
 43
3.5
 50
270.0
  0
INSERT
  5
302
100
AcDbEntity
  8
30656081_DIM
100
AcDbBlockReference
 62
3
  6
CONTINUOUS
  2
_FILLED
 10
289.9657217291
 20
169.8838743636
 41
3.5
 42
3.5
 43
3.5
 50
90.0
  0
ENDBLK
  5
303
100
AcDbEntity
  8
0
  6
BYBLOCK
 62
0
100
AcDbBlockEnd
  0
BLOCK
  5
304
100
AcDbEntity
  8
30656081_DIM
100
AcDbBlockBegin
 62
3
  6
CONTINUOUS
  2
*D9
 70
65
 10
0.0
 20
0.0
  3
*D9
  1

  0
MTEXT
  5
305
100
AcDbEntity
  8
30656081_DIM
100
AcDbMText
 62
2
  6
CONTINUOUS
  7
TEXTSTYLE_3
 71
2
 72
1
 10
275.5907217291
 20
158.8838743636
 30
0.0
 11
0.0
 21
1.0
 31
0.0
 44
0.9
  1
{\Fgdt;n}\FTXT.SHX;15
 40
3.5
 41
9.1666666667
  0
LINE
  5
306
100
AcDbEntity
  8
30656081_DIM
100
AcDbLine
 62
3
  6
CONTINUOUS
 10
254.9657217291
 20
151.3838743636
 11
281.4657217291
 21
151.3838743636
  0
LINE
  5
307
100
AcDbEntity
  8
30656081_DIM
100
AcDbLine
 62
3
  6
CONTINUOUS
 10
254.9657217291
 20
166.3838743636
 11
281.4657217291
 21
166.3838743636
  0
LINE
  5
308
100
AcDbEntity
  8
30656081_DIM
100
AcDbLine
 62
3
  6
CONTINUOUS
 10
279.9657217291
 20
151.3838743636
 11
279.9657217291
 21
158.8838743636
  0
LINE
  5
309
100
AcDbEntity
  8
30656081_DIM
100
AcDbLine
 62
3
  6
CONTINUOUS
 10
279.9657217291
 20
166.3838743636
 11
279.9657217291
 21
158.8838743636
  0
INSERT
  5
30A
100
AcDbEntity
  8
30656081_DIM
100
AcDbBlockReference
 62
3
  6
CONTINUOUS
  2
_FILLED
 10
279.9657217291
 20
151.3838743636
 41
3.5
 42
3.5
 43
3.5
 50
270.0
  0
INSERT
  5
30B
100
AcDbEntity
  8
30656081_DIM
100
AcDbBlockReference
 62
3
  6
CONTINUOUS
  2
_FILLED
 10
279.9657217291
 20
166.3838743636
 41
3.5
 42
3.5
 43
3.5
 50
90.0
  0
ENDBLK
  5
30C
100
AcDbEntity
  8
0
  6
BYBLOCK
 62
0
100
AcDbBlockEnd
  0
ENDSEC
  0
SECTION
  2
ENTITIES
  0
MTEXT
  5
30D
100
AcDbEntity
  8
606772173-000-00-ED1_FORMAT
100
AcDbMText
 62
90
  6
CONTINUOUS
  7
TEXTSTYLE_2
 71
2
 72
1
 10
35.0
 20
291.25
 30
0.0
 11
1.0
 21
0.0
 31
0.0
 44
0.9
  1
1
 40
3.5
 41
2.0
  0
MTEXT
  5
30E
100
AcDbEntity
  8
606772173-000-00-ED1_FORMAT
100
AcDbMText
 62
90
  6
CONTINUOUS
  7
TEXTSTYLE_2
 71
2
 72
1
 10
85.0
 20
291.25
 30
0.0
 11
1.0
 21
0.0
 31
0.0
 44
0.9
  1
2
 40
3.5
 41
2.75
  0
MTEXT
  5
30F
100
AcDbEntity
  8
606772173-000-00-ED1_FORMAT
100
AcDbMText
 62
90
  6
CONTINUOUS
  7
TEXTSTYLE_2
 71
2
 72
1
 10
135.0
 20
291.25
 30
0.0
 11
1.0
 21
0.0
 31
0.0
 44
0.9
  1
3
 40
3.5
 41
2.5
  0
MTEXT
  5
310
100
AcDbEntity
  8
606772173-000-00-ED1_FORMAT
100
AcDbMText
 62
90
  6
CONTINUOUS
  7
TEXTSTYLE_2
 71
2
 72
1
 10
185.0
 20
291.25
 30
0.0
 11
1.0
 21
0.0
 31
0.0
 44
0.9
  1
4
 40
3.5
 41
2.75
  0
MTEXT
  5
311
100
AcDbEntity
  8
606772173-000-00-ED1_FORMAT
100
AcDbMText
 62
90
  6
CONTINUOUS
  7
TEXTSTYLE_2
 71
2
 72
1
 10
235.0
 20
291.25
 30
0.0
 11
1.0
 21
0.0
 31
0.0
 44
0.9
  1
5
 40
3.5
 41
2.5
  0
MTEXT
  5
312
100
AcDbEntity
  8
606772173-000-00-ED1_FORMAT
100
AcDbMText
 62
90
  6
CONTINUOUS
  7
TEXTSTYLE_2
 71
2
 72
1
 10
285.0
 20
291.25
 30
0.0
 11
1.0
 21
0.0
 31
0.0
 44
0.9
  1
6
 40
3.5
 41
2.75
  0
MTEXT
  5
313
100
AcDbEntity
  8
606772173-000-00-ED1_FORMAT
100
AcDbMText
 62
90
  6
CONTINUOUS
  7
TEXTSTYLE_2
 71
2
 72
1
 10
335.0
 20
291.25
 30
0.0
 11
1.0
 21
0.0
 31
0.0
 44
0.9
  1
7
 40
3.5
 41
2.75
  0
MTEXT
  5
314
100
AcDbEntity
  8
606772173-000-00-ED1_FORMAT
100
AcDbMText
 62
90
  6
CONTINUOUS
  7
TEXTSTYLE_2
 71
2
 72
1
 10
385.0
 20
291.25
 30
0.0
 11
1.0
 21
0.0
 31
0.0
 44
0.9
  1
8
 40
3.5
 41
2.75
  0
MTEXT
  5
315
100
AcDbEntity
  8
606772173-000-00-ED1_FORMAT
100
AcDbMText
 62
90
  6
CONTINUOUS
  7
TEXTSTYLE_2
 71
2
 72
1
 10
135.0
 20
9.25
 30
0.0
 11
1.0
 21
0.0
 31
0.0
 44
0.9
  1
3
 40
3.5
 41
2.5
  0
MTEXT
  5
316
100
AcDbEntity
  8
606772173-000-00-ED1_FORMAT
100
AcDbMText
 62
90
  6
CONTINUOUS
  7
TEXTSTYLE_2
 71
2
 72
1
 10
85.0
 20
9.25
 30
0.0
 11
1.0
 21
0.0
 31
0.0
 44
0.9
  1
2
 40
3.5
 41
2.75
  0
MTEXT
  5
317
100
AcDbEntity
  8
606772173-000-00-ED1_FORMAT
100
AcDbMText
 62
90
  6
CONTINUOUS
  7
TEXTSTYLE_2
 71
2
 72
1
 10
35.0
 20
9.25
 30
0.0
 11
1.0
 21
0.0
 31
0.0
 44
0.9
  1
1
 40
3.5
 41
2.0
  0
MTEXT
  5
318
100
AcDbEntity
  8
606772173-000-00-ED1_FORMAT
100
AcDbMText
 62
90
  6
CONTINUOUS
  7
TEXTSTYLE_2
 71
2
 72
1
 10
20.5
 20
266.25
 30
0.0
 11
1.0
 21
0.0
 31
0.0
 44
0.9
  1
A
 40
3.5
 41
3.0
  0
MTEXT
  5
319
100
AcDbEntity
  8
606772173-000-00-ED1_FORMAT
100
AcDbMText
 62
90
  6
CONTINUOUS
  7
TEXTSTYLE_2
 71
2
 72
1
 10
412.5
 20
266.25
 30
0.0
 11
1.0
 21
0.0
 31
0.0
 44
0.9
  1
A
 40
3.5
 41
3.0
  0
MTEXT
  5
31A
100
AcDbEntity
  8
606772173-000-00-ED1_FORMAT
100
AcDbMText
 62
90
  6
CONTINUOUS
  7
TEXTSTYLE_2
 71
2
 72
1
 10
412.5
 20
225.25
 30
0.0
 11
1.0
 21
0.0
 31
0.0
 44
0.9
  1
B
 40
3.5
 41
2.75
  0
MTEXT
  5
31B
100
AcDbEntity
  8
606772173-000-00-ED1_FORMAT
100
AcDbMText
 62
90
  6
CONTINUOUS
  7
TEXTSTYLE_2
 71
2
 72
1
 10
20.5
 20
225.25
 30
0.0
 11
1.0
 21
0.0
 31
0.0
 44
0.9
  1
B
 40
3.5
 41
2.75
  0
MTEXT
  5
31C
100
AcDbEntity
  8
606772173-000-00-ED1_FORMAT
100
AcDbMText
 62
90
  6
CONTINUOUS
  7
TEXTSTYLE_2
 71
2
 72
1
 10
20.5
 20
175.25
 30
0.0
 11
1.0
 21
0.0
 31
0.0
 44
0.9
  1
C
 40
3.5
 41
2.9166666667
  0
MTEXT
  5
31D
100
AcDbEntity
  8
606772173-000-00-ED1_FORMAT
100
AcDbMText
 62
90
  6
CONTINUOUS
  7
TEXTSTYLE_2
 71
2
 72
1
 10
412.5
 20
175.25
 30
0.0
 11
1.0
 21
0.0
 31
0.0
 44
0.9
  1
C
 40
3.5
 41
2.9166666667
  0
MTEXT
  5
31E
100
AcDbEntity
  8
606772173-000-00-ED1_FORMAT
100
AcDbMText
 62
90
  6
CONTINUOUS
  7
TEXTSTYLE_2
 71
2
 72
1
 10
412.5
 20
125.25
 30
0.0
 11
1.0
 21
0.0
 31
0.0
 44
0.9
  1
D
 40
3.5
 41
3.1666666667
  0
MTEXT
  5
31F
100
AcDbEntity
  8
606772173-000-00-ED1_FORMAT
100
AcDbMText
 62
90
  6
CONTINUOUS
  7
TEXTSTYLE_2
 71
2
 72
1
 10
20.5
 20
125.25
 30
0.0
 11
1.0
 21
0.0
 31
0.0
 44
0.9
  1
D
 40
3.5
 41
3.1666666667
  0
MTEXT
  5
320
100
AcDbEntity
  8
606772173-000-00-ED1_FORMAT
100
AcDbMText
 62
90
  6
CONTINUOUS
  7
TEXTSTYLE_2
 71
2
 72
1
 10
20.5
 20
75.25
 30
0.0
 11
1.0
 21
0.0
 31
0.0
 44
0.9
  1
E
 40
3.5
 41
2.5
  0
MTEXT
  5
321
100
AcDbEntity
  8
606772173-000-00-ED1_FORMAT
100
AcDbMText
 62
90
  6
CONTINUOUS
  7
TEXTSTYLE_2
 71
2
 72
1
 10
412.5
 20
75.25
 30
0.0
 11
1.0
 21
0.0
 31
0.0
 44
0.9
  1
E
 40
3.5
 41
2.5
  0
MTEXT
  5
322
100
AcDbEntity
  8
606772173-000-00-ED1_FORMAT
100
AcDbMText
 62
90
  6
CONTINUOUS
  7
TEXTSTYLE_2
 71
2
 72
1
 10
412.5
 20
25.25
 30
0.0
 11
1.0
 21
0.0
 31
0.0
 44
0.9
  1
F
 40
3.5
 41
2.5
  0
MTEXT
  5
323
100
AcDbEntity
  8
606772173-000-00-ED1_FORMAT
100
AcDbMText
 62
90
  6
CONTINUOUS
  7
TEXTSTYLE_2
 71
2
 72
1
 10
20.5
 20
25.25
 30
0.0
 11
1.0
 21
0.0
 31
0.0
 44
0.9
  1
F
 40
3.5
 41
2.5
  0
MTEXT
  5
324
100
AcDbEntity
  8
606772173-000-00-ED1_FORMAT
100
AcDbMText
 62
2
  6
CONTINUOUS
  7
STANDARD
 71
1
 72
1
 10
266.0792011722
 20
285.4479125479
 30
0.0
 11
1.0
 21
0.0
 31
0.0
 44
0.9
  1
INDEX
 40
1.9999997015
 41
7.8095226439
  0
MTEXT
  5
325
100
AcDbEntity
  8
606772173-000-00-ED1_FORMAT
100
AcDbMText
 62
2
  6
CONTINUOUS
  7
STANDARD
 71
1
 72
1
 10
267.8411056711
 20
282.4479129957
 30
0.0
 11
1.0
 21
0.0
 31
0.0
 44
0.9
  1
NR.
 40
1.9999997015
 41
4.2857136461
  0
MTEXT
  5
326
100
AcDbEntity
  8
606772173-000-00-ED1_FORMAT
100
AcDbMText
 62
2
  6
CONTINUOUS
  7
STANDARD
 71
1
 72
1
 10
310.3389765087
 20
283.9588198861
 30
0.0
 11
1.0
 21
0.0
 31
0.0
 44
0.9
  1
ART DER AENDERUNG
 40
1.9999997015
 41
27.1904721322
  0
MTEXT
  5
327
100
AcDbEntity
  8
606772173-000-00-ED1_FORMAT
100
AcDbMText
 62
2
  6
CONTINUOUS
  7
STANDARD
 71
1
 72
1
 10
379.9980938591
 20
284.0962313599
 30
0.0
 11
1.0
 21
0.0
 31
0.0
 44
0.9
  1
DATUM
 40
1.9999997015
 41
8.5238082516
  0
MTEXT
  5
328
100
AcDbEntity
  8
606772173-000-00-ED1_FORMAT
100
AcDbMText
 62
2
  6
CONTINUOUS
  7
STANDARD
 71
1
 72
1
 10
397.8615854447
 20
284.0962313599
 30
0.0
 11
1.0
 21
0.0
 31
0.0
 44
0.9
  1
NAME
 40
1.9999997015
 41
6.4285704691
  0
MTEXT
  5
329
100
AcDbEntity
  8
606772173-000-00-ED1_FORMAT
100
AcDbMText
 62
2
  6
CONTINUOUS
  7
STANDARD
 71
1
 72
1
 10
24.6553587823
 20
149.7733961004
 30
0.0
 11
0.0
 21
1.0
 31
0.0
 44
0.9
  1
VORGANGS-NR.:
 40
3.0
 41
28.8571428571
  0
MTEXT
  5
32A
100
AcDbEntity
  8
606772173-000-00-ED1_FORMAT
100
AcDbMText
 62
2
  6
CONTINUOUS
  7
STANDARD
 71
1
 72
1
 10
24.9024680453
 20
94.666552576
 30
0.0
 11
0.0
 21
1.0
 31
0.0
 44
0.9
  1
PROJEKT-NR.:
 40
3.0
 41
25.7142857143
  0
MTEXT
  5
32B
100
AcDbEntity
  8
606772173-000-00-ED1_FORMAT
100
AcDbMText
 62
2
  6
CONTINUOUS
  7
STANDARD
 71
1
 72
1
 10
24.9024680453
 20
11.0873145846
 30
0.0
 11
0.0
 21
1.0
 31
0.0
 44
0.9
  1
KUNDE:
 40
3.0
 41
13.0
  0
MTEXT
  5
32C
100
AcDbEntity
  8
606772173-000-00-ED1_FORMAT
100
AcDbMText
 62
2
  6
CONTINUOUS
  7
STANDARD
 71
1
 72
1
 10
225.0528335394
 20
63.1772759023
 30
0.0
 11
1.0
 21
0.0
 31
0.0
 44
0.9
  1
DIE ZEICHNUNGEN,  MODELLE  ETC. BLEIBEN  UNSER  AUSSCHLIESSLICHES
 40
1.4000001944
 41
68.7000095378
  0
MTEXT
  5
32D
100
AcDbEntity
  8
606772173-000-00-ED1_FORMAT
100
AcDbMText
 62
2
  6
CONTINUOUS
  7
STANDARD
 71
1
 72
1
 10
225.0528335394
 20
60.3772755136
 30
0.0
 11
1.0
 21
0.0
 31
0.0
 44
0.9
  1
EIGENTUM. SIE WERDEN NUR ZU DEM VEREINBARTEN  ZWECK ANVERTRAUT
 40
1.4000001944
 41
69.2333429452
  0
MTEXT
  5
32E
100
AcDbEntity
  8
606772173-000-00-ED1_FORMAT
100
AcDbMText
 62
2
  6
CONTINUOUS
  7
STANDARD
 71
1
 72
1
 10
225.0528335394
 20
57.5772751248
 30
0.0
 11
1.0
 21
0.0
 31
0.0
 44
0.9
  1
UND DUERFEN ZU KEINEM ANDEREN  ZWECK VERWENDET WERDEN. KOPIEN
 40
1.4000001944
 41
68.6666761998
  0
MTEXT
  5
32F
100
AcDbEntity
  8
606772173-000-00-ED1_FORMAT
100
AcDbMText
 62
2
  6
CONTINUOUS
  7
STANDARD
 71
1
 72
1
 10
225.0528335394
 20
54.7772747361
 30
0.0
 11
1.0
 21
0.0
 31
0.0
 44
0.9
  1
ODER  SONSTIGE  VERVIELFAELTIGUNGEN  DUERFEN  NUR ZU DEM VEREIN-
 40
1.4000001944
 41
68.9000095655
  0
MTEXT
  5
330
100
AcDbEntity
  8
606772173-000-00-ED1_FORMAT
100
AcDbMText
 62
2
  6
CONTINUOUS
  7
STANDARD
 71
1
 72
1
 10
225.0528335394
 20
51.9772743474
 30
0.0
 11
1.0
 21
0.0
 31
0.0
 44
0.9
  1
BARTEN ZWECK ANGEFERTIGT WERDEN. WEDER ORIGINALE NOCH VERVIEL-
 40
1.4000001944
 41
69.0000095794
  0
MTEXT
  5
331
100
AcDbEntity
  8
606772173-000-00-ED1_FORMAT
100
AcDbMText
 62
2
  6
CONTINUOUS
  7
STANDARD
 71
1
 72
1
 10
225.0528335394
 20
49.1772739587
 30
0.0
 11
1.0
 21
0.0
 31
0.0
 44
0.9
  1
FAELTIGUNGEN  DUERFEN  DRITTEN  AUSGEHAENDIGT ODER IN SONSTIGER
 40
1.4000001944
 41
68.4666761721
  0
MTEXT
  5
332
100
AcDbEntity
  8
606772173-000-00-ED1_FORMAT
100
AcDbMText
 62
2
  6
CONTINUOUS
  7
STANDARD
 71
1
 72
1
 10
225.0528335394
 20
46.3772735699
 30
0.0
 11
1.0
 21
0.0
 31
0.0
 44
0.9
  1
WEISE ZUGAENGLICH GEMACHT WERDEN.
 40
1.4000001944
 41
37.1000051507
  0
MTEXT
  5
333
100
AcDbEntity
  8
606772173-000-00-ED1_FORMAT
100
AcDbMText
 62
2
  6
CONTINUOUS
  7
STANDARD
 71
1
 72
1
 10
225.1601630615
 20
41.1782728239
 30
0.0
 11
1.0
 21
0.0
 31
0.0
 44
0.9
  1
MASSE OHNE TOLERANZANGABE
 40
1.8000002499
 41
35.3571477659
  0
MTEXT
  5
334
100
AcDbEntity
  8
606772173-000-00-ED1_FORMAT
100
AcDbMText
 62
2
  6
CONTINUOUS
  7
STANDARD
 71
1
 72
1
 10
236.0244502841
 20
38.4782724491
 30
0.0
 11
1.0
 21
0.0
 31
0.0
 44
0.9
  1
ISO 2768-F
 40
1.8000002499
 41
13.6285733207
  0
MTEXT
  5
335
100
AcDbEntity
  8
606772173-000-00-ED1_FORMAT
100
AcDbMText
 62
2
  6
CONTINUOUS
  7
STANDARD
 71
1
 72
1
 10
262.1543713235
 20
41.3917732828
 30
0.0
 11
1.0
 21
0.0
 31
0.0
 44
0.9
  1
UNBEMASSTE EINZELHEITEN
 40
1.8000002499
 41
31.5000043732
  0
MTEXT
  5
336
100
AcDbEntity
  8
606772173-000-00-ED1_FORMAT
100
AcDbMText
 62
2
  6
CONTINUOUS
  7
STANDARD
 71
1
 72
1
 10
267.382943478
 20
38.691772908
 30
0.0
 11
1.0
 21
0.0
 31
0.0
 44
0.9
  1
NACH WERKSNORM
 40
1.8000002499
 41
21.0428600643
  0
MTEXT
  5
337
100
AcDbEntity
  8
606772173-000-00-ED1_FORMAT
100
AcDbMText
 62
2
  6
CONTINUOUS
  7
STANDARD
 71
2
 72
1
 10
185.3490183017
 20
40.7910868059
 30
0.0
 11
1.0
 21
0.0
 31
0.0
 44
0.9
  1
ZUSAETZLICH ZU VA-NR. 07.05.01 BESCHRIFTET MIT:
 40
2.0
 41
70.5714285714
  0
MTEXT
  5
338
100
AcDbEntity
  8
606772173-000-00-ED1_FORMAT
100
AcDbMText
 62
2
  6
CONTINUOUS
  7
STANDARD
 71
1
 72
1
 10
224.7601228044
 20
23.2999897947
 30
0.0
 11
1.0
 21
0.0
 31
0.0
 44
0.9
  1
TECHNISCHE SPEZIFIKATION:
 40
2.5
 41
46.6666666667
  0
MTEXT
  5
339
100
AcDbEntity
  8
606772173-000-00-ED1_FORMAT
100
AcDbMText
 62
2
  6
CONTINUOUS
  7
STANDARD
 71
1
 72
1
 10
224.8199471988
 20
34.2602174681
 30
0.0
 11
1.0
 21
0.0
 31
0.0
 44
0.9
  1
BENENNUNG:
 40
2.5
 41
18.2142857143
  0
MTEXT
  5
33A
100
AcDbEntity
  8
606772173-000-00-ED1_FORMAT
100
AcDbMText
 62
2
  6
CONTINUOUS
  7
STANDARD
 71
1
 72
1
 10
224.5262063004
 20
12.6903926445
 30
0.0
 11
1.0
 21
0.0
 31
0.0
 44
0.9
  1
ERSATZ F. ZCHNR.:
 40
1.6000002221
 41
20.0761932634
  0
MTEXT
  5
33B
100
AcDbEntity
  8
606772173-000-00-ED1_FORMAT
100
AcDbMText
 62
2
  6
CONTINUOUS
  7
STANDARD
 71
1
 72
1
 10
300.4889576042
 20
12.4414913058
 30
0.0
 11
1.0
 21
0.0
 31
0.0
 44
0.9
  1
ERSETZT D. ZCHNR.:
 40
1.6000002221
 41
21.523812512
  0
MTEXT
  5
33C
100
AcDbEntity
  8
606772173-000-00-ED1_FORMAT
100
AcDbMText
 62
2
  6
CONTINUOUS
  7
STANDARD
 71
1
 72
1
 10
379.498513208
 20
62.8149164596
 30
0.0
 11
1.0
 21
0.0
 31
0.0
 44
0.9
  1
DATUM
 40
2.0000002777
 41
8.5238107072
  0
MTEXT
  5
33D
100
AcDbEntity
  8
606772173-000-00-ED1_FORMAT
100
AcDbMText
 62
2
  6
CONTINUOUS
  7
STANDARD
 71
1
 72
1
 10
398.0389134502
 20
62.8149164596
 30
0.0
 11
1.0
 21
0.0
 31
0.0
 44
0.9
  1
NAME
 40
2.0000002777
 41
6.4285723211
  0
MTEXT
  5
33E
100
AcDbEntity
  8
606772173-000-00-ED1_FORMAT
100
AcDbMText
 62
2
  6
CONTINUOUS
  7
STANDARD
 71
1
 72
1
 10
366.6248819325
 20
56.9911799028
 30
0.0
 11
1.0
 21
0.0
 31
0.0
 44
0.9
  1
GEZ.
 40
2.0000002777
 41
5.7142865076
  0
MTEXT
  5
33F
100
AcDbEntity
  8
606772173-000-00-ED1_FORMAT
100
AcDbMText
 62
2
  6
CONTINUOUS
  7
STANDARD
 71
1
 72
1
 10
366.6248819325
 20
50.9031554343
 30
0.0
 11
1.0
 21
0.0
 31
0.0
 44
0.9
  1
GEPR.
 40
2.0
 41
7.2857142857
  0
MTEXT
  5
340
100
AcDbEntity
  8
606772173-000-00-ED1_FORMAT
100
AcDbMText
 62
2
  6
CONTINUOUS
  7
STANDARD
 71
1
 72
1
 10
366.6248819325
 20
44.8151311047
 30
0.0
 11
1.0
 21
0.0
 31
0.0
 44
0.9
  1
FREIG.
 40
2.0
 41
8.4285714286
  0
MTEXT
  5
341
100
AcDbEntity
  8
606772173-000-00-ED1_FORMAT
100
AcDbMText
 62
2
  6
CONTINUOUS
  7
STANDARD
 71
1
 72
1
 10
300.5448732723
 20
23.3921153842
 30
0.0
 11
1.0
 21
0.0
 31
0.0
 44
0.9
  1
MATERIALNUMMER:
 40
2.5
 41
28.3928571429
  0
MTEXT
  5
342
100
AcDbEntity
  8
606772173-000-00-ED1_FORMAT
100
AcDbMText
 62
2
  6
CONTINUOUS
  7
STANDARD
 71
1
 72
1
 10
345.5006276188
 20
23.3921153842
 30
0.0
 11
1.0
 21
0.0
 31
0.0
 44
0.9
  1
ZEICHNUNGSNUMMER:
 40
2.5
 41
32.0833333333
  0
MTEXT
  5
343
100
AcDbEntity
  8
606772173-000-00-ED1_FORMAT
100
AcDbMText
 62
2
  6
CONTINUOUS
  7
STANDARD
 71
1
 72
1
 10
400.7764463981
 20
34.1524019301
 30
0.0
 11
1.0
 21
0.0
 31
0.0
 44
0.9
  1
ORIGIN
 40
2.0
 41
8.8571428571
  0
MTEXT
  5
344
100
AcDbEntity
  8
606772173-000-00-ED1_FORMAT
100
AcDbMText
 62
2
  6
CONTINUOUS
  7
STANDARD
 71
1
 72
1
 10
400.4059589228
 20
23.6649440759
 30
0.0
 11
1.0
 21
0.0
 31
0.0
 44
0.9
  1
INDEX
 40
2.5
 41
9.7619047619
  0
MTEXT
  5
345
100
AcDbEntity
  8
606772173-000-00-ED1_FORMAT
100
AcDbMText
 62
2
  6
CONTINUOUS
  7
STANDARD
 71
1
 72
1
 10
366.825457919
 20
38.692244379
 30
0.0
 11
1.0
 21
0.0
 31
0.0
 44
0.9
  1
MASSSTAB: 
 40
2.0000002777
 41
15.4285735706
  0
MTEXT
  5
346
100
AcDbEntity
  8
606772173-000-00-ED1_FORMAT
100
AcDbMText
 62
2
  6
CONTINUOUS
  7
STANDARD
 71
1
 72
1
 10
382.2540314895
 20
38.692244379
 30
0.0
 11
1.0
 21
0.0
 31
0.0
 44
0.9
  1
1:1
 40
2.0000002777
 41
3.0000004165
  0
MTEXT
  5
347
100
AcDbEntity
  8
606772173-000-00-ED1_FORMAT
100
AcDbMText
 62
2
  6
CONTINUOUS
  7
STANDARD
 71
1
 72
1
 10
148.8802806988
 20
69.4938925053
 30
0.0
 11
1.0
 21
0.0
 31
0.0
 44
0.9
  1
POS
 40
2.0000002777
 41
4.7142863688
  0
MTEXT
  5
348
100
AcDbEntity
  8
606772173-000-00-ED1_FORMAT
100
AcDbMText
 62
2
  6
CONTINUOUS
  7
STANDARD
 71
1
 72
1
 10
156.2800350516
 20
69.4938925053
 30
0.0
 11
1.0
 21
0.0
 31
0.0
 44
0.9
  1
TYP
 40
2.0000002777
 41
5.0000006942
  0
MTEXT
  5
349
100
AcDbEntity
  8
606772173-000-00-ED1_FORMAT
100
AcDbMText
 62
2
  6
CONTINUOUS
  7
STANDARD
 71
1
 72
1
 10
163.3396899162
 20
69.5421775733
 30
0.0
 11
1.0
 21
0.0
 31
0.0
 44
0.9
  1
MENGE
 40
2.0000002777
 41
7.7142867853
  0
MTEXT
  5
34A
100
AcDbEntity
  8
606772173-000-00-ED1_FORMAT
100
AcDbMText
 62
2
  6
CONTINUOUS
  7
STANDARD
 71
1
 72
1
 10
172.6578100909
 20
69.5585026353
 30
0.0
 11
1.0
 21
0.0
 31
0.0
 44
0.9
  1
ME
 40
2.0000002777
 41
3.1428575792
  0
MTEXT
  5
34B
100
AcDbEntity
  8
606772173-000-00-ED1_FORMAT
100
AcDbMText
 62
2
  6
CONTINUOUS
  7
STANDARD
 71
1
 72
1
 10
181.2151302056
 20
69.5585026353
 30
0.0
 11
1.0
 21
0.0
 31
0.0
 44
0.9
  1
MATERIALNUMMER
 40
2.0000002777
 41
22.0000030543
  0
MTEXT
  5
34C
100
AcDbEntity
  8
606772173-000-00-ED1_FORMAT
100
AcDbMText
 62
2
  6
CONTINUOUS
  7
STANDARD
 71
1
 72
1
 10
257.4508902212
 20
69.647744181
 30
0.0
 11
1.0
 21
0.0
 31
0.0
 44
0.9
  1
BENENNUNG
 40
2.0000002777
 41
13.857144781
  0
MTEXT
  5
34D
100
AcDbEntity
  8
606772173-000-00-ED1_FORMAT
100
AcDbMText
 62
2
  6
CONTINUOUS
  7
STANDARD
 71
1
 72
1
 10
321.8093099266
 20
69.4559392017
 30
0.0
 11
1.0
 21
0.0
 31
0.0
 44
0.9
  1
TECHNISCHE SPEZIFIKATION
 40
2.0000002777
 41
36.619052703
  0
MTEXT
  5
34E
100
AcDbEntity
  8
606772173-000-00-ED1_FORMAT
100
AcDbMText
 62
2
  6
CONTINUOUS
  7
STANDARD
 71
1
 72
1
 10
378.8634420866
 20
69.8395491602
 30
0.0
 11
1.0
 21
0.0
 31
0.0
 44
0.9
  1
KUNDENNUMMER
 40
2.0000002777
 41
19.0952407463
  0
MTEXT
  5
34F
100
AcDbEntity
  8
606772173-000-00-ED1_FORMAT
100
AcDbMText
 62
2
  6
CONTINUOUS
  7
STANDARD
 71
1
 72
1
 10
378.2047936993
 20
12.5096736719
 30
0.0
 11
1.0
 21
0.0
 31
0.0
 44
0.9
  1
BLATT   V.   BLAETTERN
 40
1.6
 41
27.3904761905
  0
MTEXT
  5
350
100
AcDbEntity
  8
606772173-000-00-ED1_FORMAT
100
AcDbMText
 62
2
  6
CONTINUOUS
  7
STANDARD
 71
1
 72
1
 10
385.137224502
 20
12.4641703019
 30
0.0
 11
1.0
 21
0.0
 31
0.0
 44
0.9
  1
1
 40
1.6
 41
0.9142857143
  0
MTEXT
  5
351
100
AcDbEntity
  8
606772173-000-00-ED1_FORMAT
100
AcDbMText
 62
2
  6
CONTINUOUS
  7
STANDARD
 71
1
 72
1
 10
391.2747609807
 20
12.5140689725
 30
0.0
 11
1.0
 21
0.0
 31
0.0
 44
0.9
  1
1
 40
1.6
 41
0.9142857143
  0
MTEXT
  5
352
100
AcDbEntity
  8
606772173-000-00-ED1_FORMAT
100
AcDbMText
 62
2
  6
CONTINUOUS
  7
STANDARD
 71
1
 72
1
 10
398.7751202552
 20
38.7556960436
 30
0.0
 11
1.0
 21
0.0
 31
0.0
 44
0.9
  1
A3
 40
2.0
 41
3.1428571429
  0
MTEXT
  5
353
100
AcDbEntity
  8
606772173-000-00-ED1_FORMAT
100
AcDbMText
 62
2
  6
CONTINUOUS
  7
STANDARD
 71
1
 72
1
 10
23.9272382303
 20
284.7195206087
 30
0.0
 11
1.0
 21
0.0
 31
0.0
 44
0.9
  1
MASCH.-NR.:
 40
1.9999995576
 41
15.8095203122
  0
MTEXT
  5
354
100
AcDbEntity
  8
606772173-000-00-ED1_FORMAT
100
AcDbMText
 62
2
  6
CONTINUOUS
  7
STANDARD
 71
1
 72
1
 10
61.221262923
 20
284.744169308
 30
0.0
 11
1.0
 21
0.0
 31
0.0
 44
0.9
  1
STATION:
 40
1.9999995184
 41
11.8571400018
  0
MTEXT
  5
355
100
AcDbEntity
  8
606772173-000-00-ED1_FORMAT
100
AcDbMText
 62
2
  6
CONTINUOUS
  7
STANDARD
 71
1
 72
1
 10
99.2119750426
 20
284.744169308
 30
0.0
 11
1.0
 21
0.0
 31
0.0
 44
0.9
  1
SPINDEL:
 40
1.9999995184
 41
11.2380925318
  0
MTEXT
  5
356
100
AcDbEntity
  8
606772173-000-00-ED1_FORMAT
100
AcDbMText
 62
2
  6
CONTINUOUS
  7
STANDARD
 71
1
 72
1
 10
23.5637846434
 20
279.4328875232
 30
0.0
 11
1.0
 21
0.0
 31
0.0
 44
0.9
  1
WERKST.-BEN.:
 40
1.9999995576
 41
19.571424242
  0
MTEXT
  5
357
100
AcDbEntity
  8
606772173-000-00-ED1_FORMAT
100
AcDbMText
 62
2
  6
CONTINUOUS
  7
STANDARD
 71
1
 72
1
 10
23.7506774
 20
268.6578320544
 30
0.0
 11
1.0
 21
0.0
 31
0.0
 44
0.9
  1
WERKSTOFF:
 40
1.9999995184
 41
15.7142819301
  0
MTEXT
  5
358
100
AcDbEntity
  8
606772173-000-00-ED1_FORMAT
100
AcDbMText
 62
2
  6
CONTINUOUS
  7
STANDARD
 71
1
 72
1
 10
99.2058269153
 20
262.6643441521
 30
0.0
 11
1.0
 21
0.0
 31
0.0
 44
0.9
  1
BOHRUNGS-NR.:
 40
1.9999995184
 41
18.9999954245
  0
MTEXT
  5
359
100
AcDbEntity
  8
606772173-000-00-ED1_FORMAT
100
AcDbMText
 62
2
  6
CONTINUOUS
  7
STANDARD
 71
1
 72
1
 10
23.8681648642
 20
274.0622554286
 30
0.0
 11
1.0
 21
0.0
 31
0.0
 44
0.9
  1
WERKST.-NR.:
 40
1.9999995576
 41
18.1428531294
  0
MTEXT
  5
35A
100
AcDbEntity
  8
606772173-000-00-ED1_FORMAT
100
AcDbMText
 62
2
  6
CONTINUOUS
  7
STANDARD
 71
1
 72
1
 10
61.140009526
 20
262.6643443929
 30
0.0
 11
1.0
 21
0.0
 31
0.0
 44
0.9
  1
OP-NR.:
 40
2.0
 41
9.5714285714
  0
MTEXT
  5
35B
100
AcDbEntity
  8
606772173-000-00-ED1_FORMAT
100
AcDbMText
 62
2
  6
CONTINUOUS
  7
STANDARD
 71
1
 72
1
 10
23.9309790234
 20
262.9091406462
 30
0.0
 11
1.0
 21
0.0
 31
0.0
 44
0.9
  1
TOOL-NR.:
 40
2.0
 41
12.5714285714
  0
MTEXT
  5
35C
100
AcDbEntity
  8
606772173-000-00-ED1_FORMAT
100
AcDbMText
 62
2
  6
CONTINUOUS
  7
STANDARD
 71
1
 72
1
 10
326.44999432
 20
55.5000824065
 30
0.0
 11
1.0
 21
0.0
 31
0.0
 44
0.9
  1
Präzisionswerkzeuge
 40
2.5
 41
33.9523809524
  0
MTEXT
  5
35D
100
AcDbEntity
  8
606772173-000-00-ED1_FORMAT
100
AcDbMText
 62
2
  6
CONTINUOUS
  7
STANDARD
 71
1
 72
1
 10
326.44999432
 20
50.9000824065
 30
0.0
 11
1.0
 21
0.0
 31
0.0
 44
0.9
  1
Dr. Kress KG
 40
2.5
 41
22.5595238095
  0
MTEXT
  5
35E
100
AcDbEntity
  8
606772173-000-00-ED1_FORMAT
100
AcDbMText
 62
2
  6
CONTINUOUS
  7
STANDARD
 71
1
 72
1
 10
326.44999432
 20
60.1000824065
 30
0.0
 11
1.0
 21
0.0
 31
0.0
 44
0.9
  1
MAPAL
 40
2.5
 41
10.4761904762
  0
MTEXT
  5
35F
100
AcDbEntity
  8
606772173-000-00-ED1_FORMAT
100
AcDbMText
 62
90
  6
CONTINUOUS
  7
TEXTSTYLE_2
 71
2
 72
1
 10
185.0
 20
9.25
 30
0.0
 11
1.0
 21
0.0
 31
0.0
 44
0.9
  1
4
 40
3.5
 41
3.4166666667
  0
MTEXT
  5
360
100
AcDbEntity
  8
606772173-000-00-ED1_FORMAT
100
AcDbMText
 62
90
  6
CONTINUOUS
  7
TEXTSTYLE_2
 71
2
 72
1
 10
235.0
 20
9.25
 30
0.0
 11
1.0
 21
0.0
 31
0.0
 44
0.9
  1
5
 40
3.5
 41
3.1666666667
  0
MTEXT
  5
361
100
AcDbEntity
  8
606772173-000-00-ED1_FORMAT
100
AcDbMText
 62
90
  6
CONTINUOUS
  7
TEXTSTYLE_2
 71
2
 72
1
 10
285.0
 20
9.25
 30
0.0
 11
1.0
 21
0.0
 31
0.0
 44
0.9
  1
6
 40
3.5
 41
3.4166666667
  0
MTEXT
  5
362
100
AcDbEntity
  8
606772173-000-00-ED1_FORMAT
100
AcDbMText
 62
90
  6
CONTINUOUS
  7
TEXTSTYLE_2
 71
2
 72
1
 10
335.0
 20
9.25
 30
0.0
 11
1.0
 21
0.0
 31
0.0
 44
0.9
  1
7
 40
3.5
 41
3.4166666667
  0
MTEXT
  5
363
100
AcDbEntity
  8
606772173-000-00-ED1_FORMAT
100
AcDbMText
 62
90
  6
CONTINUOUS
  7
TEXTSTYLE_2
 71
2
 72
1
 10
385.0
 20
9.25
 30
0.0
 11
1.0
 21
0.0
 31
0.0
 44
0.9
  1
8
 40
3.5
 41
3.4166666667
  0
INSERT
  5
364
100
AcDbEntity
  8
606772173-000-00-ED1_FORMAT
100
AcDbBlockReference
 62
3
  6
CONTINUOUS
  2
BARCODEBOX_BL0
 10
87.5
 20
46.5
  0
DIMENSION
  5
365
100
AcDbEntity
  8
606772173-000-00-ED1_DIM
100
AcDbDimension
 62
3
  6
CONTINUOUS
  2
*D0
 10
193.4657217291
 20
145.3838743636
 11
203.6628231271
 21
137.6104858273
 70
164
 71
1
 42
2.5
  1
<>
  3
DIMSTYLE_1
100
AcDbRadialDimension
 15
191.8299298874
 25
147.2744258838
  0
DIMENSION
  5
366
100
AcDbEntity
  8
606772173-000-00-ED1_DIM
100
AcDbDimension
 62
3
  6
CONTINUOUS
  2
*D1
 10
241.0986378265
 20
169.8838743636
 11
240.1170292705
 21
181.9988801981
 70
162
 71
2
 42
0.0785398163
  3
DIMSTYLE_2
100
AcDb2LineAngularDimension
 13
241.0042939577
 23
167.4826625589
 14
213.3556502616
 24
169.6586580092
 15
214.2250813762
 25
169.8838743636
 16
239.5761992095
 26
168.7412318471
  0
DIMENSION
  5
367
100
AcDbEntity
  8
30660231_DIM
100
AcDbDimension
 62
3
  6
CONTINUOUS
  2
*D2
 10
234.9657217291
 20
111.8838743636
 11
186.7498526631
 21
111.4463743636
 70
160
 71
3
 42
10.0
  1
<>\PVERSTELLWEG
  3
DIMSTYLE_3
100
AcDbAlignedDimension
 13
224.9657217291
 23
158.8838743636
 14
234.9657217291
 24
157.6949426689
100
AcDbRotatedDimension
  0
DIMENSION
  5
368
100
AcDbEntity
  8
30656081_DIM
100
AcDbDimension
 62
3
  6
CONTINUOUS
  2
*D3
 10
254.9657217291
 20
101.8838743636
 11
237.3407217291
 21
104.5088743636
 70
160
 71
2
 42
30.0
  3
DIMSTYLE_3
100
AcDbAlignedDimension
 13
224.9657217291
 23
151.8460696094
 14
254.9657217291
 24
151.9804504187
100
AcDbRotatedDimension
  0
DIMENSION
  5
369
100
AcDbEntity
  8
30656081_DIM
100
AcDbDimension
 62
3
  6
CONTINUOUS
  2
*D4
 10
164.9657217291
 20
215.8838743636
 11
207.2157217291
 21
218.5088743636
 70
160
 71
2
 42
90.0
  3
DIMSTYLE_4
100
AcDbAlignedDimension
 13
254.9657217291
 23
162.1813015834
 14
164.9657217291
 24
174.7041189361
 50
180.0
100
AcDbRotatedDimension
  0
INSERT
  5
36A
100
AcDbEntity
  8
606772173-000-00-ED1_CL
100
AcDbBlockReference
 62
3
  6
CONTINUOUS
  2
GEOM_TOLERANCE_SYMBOLS_BL1
 10
158.7157217291
 20
192.3859905769
  0
DIMENSION
  5
36B
100
AcDbEntity
  8
30656081_DIM
100
AcDbDimension
 62
3
  6
CONTINUOUS
  2
*D5
 10
88.5657217291
 20
161.8838743636
 11
87.2289333755
 21
146.4607688041
 70
160
 71
3
 42
6.0
  1
M<>
  3
DIMSTYLE_5
100
AcDbAlignedDimension
 13
211.7882016145
 23
155.8838743636
 14
211.6462874853
 24
161.8838743636
 50
90.0
100
AcDbRotatedDimension
  0
DIMENSION
  5
36C
100
AcDbEntity
  8
30656081_DIM
100
AcDbDimension
 62
3
  6
CONTINUOUS
  2
*D6
 10
269.9657217291
 20
161.3838743636
 11
268.9463188535
 21
136.0201730815
 70
160
 71
3
 42
5.0
  1
%%c<>
  3
DIMSTYLE_5
100
AcDbAlignedDimension
 13
253.8538562545
 23
156.3838743636
 14
253.7845622462
 24
161.3838743636
 50
90.0
100
AcDbRotatedDimension
  0
LEADER
  5
36D
100
AcDbEntity
  8
606772173-000-00-ED1_CL
100
AcDbLeader
 62
3
  6
CONTINUOUS
  3
STANDARD
 71
1
 72
0
 73
2
 75
0
 76
3
 10
269.9657217291
 20
156.3838743636
 30
0.0
 10
269.9657217291
 20
121.8838743636
 30
0.0
 10
269.9657637711
 20
121.8838743636
 30
0.0
340
36E
1001
ACAD
1000
DSTYLE
1002
{
1070
77
1070
0
1002
}
  0
INSERT
  5
36E
102
{ACAD_REACTORS
330
36D
102
}
100
AcDbEntity
  8
606772173-000-00-ED1_CL
100
AcDbBlockReference
 62
3
  6
CONTINUOUS
  2
GEOM_TOLERANCE_SYMBOLS_BL2
 10
290.4841811661
 20
121.8841354509
  0
LEADER
  5
36F
100
AcDbEntity
  8
0
100
AcDbLeader
 62
3
  6
CONTINUOUS
  3
STANDARD
 71
1
 72
0
 73
0
 75
0
 40
3.5
 41
46.1666666667
 76
3
 10
269.9657217291
 20
156.3838743636
 30
0.0
 10
269.9657217291
 20
111.8838743636
 30
0.0
 10
274.9657217291
 20
111.8838743636
 30
0.0
340
370
1001
ACAD
1000
DSTYLE
1002
{
1070
77
1070
0
1002
}
  0
MTEXT
  5
370
102
{ACAD_REACTORS
330
36F
102
}
100
AcDbEntity
  8
0
100
AcDbMText
 62
2
  6
CONTINUOUS
  7
STANDARD
 71
1
 72
1
 10
274.9657217291
 20
113.6338743636
 30
0.0
 11
1.0
 21
0.0
 31
0.0
 44
0.9
  1
FUER SCHAEFTE MIT\PTOLERANZFELD h6
 40
3.5
 41
46.1666666667
  0
DIMENSION
  5
371
100
AcDbEntity
  8
30656081_DIM
100
AcDbDimension
 62
3
  6
CONTINUOUS
  2
*D7
 10
210.4940051525
 20
205.8838743636
 11
229.8548634408
 21
208.5088743636
 70
160
 71
2
 42
44.4717165766
  1
(<>)
  3
DIMSTYLE_6
100
AcDbAlignedDimension
 13
254.9657217291
 23
179.9822545099
 14
210.4940051525
 24
169.8838743636
 50
180.0
100
AcDbRotatedDimension
  0
DIMENSION
  5
372
100
AcDbEntity
  8
30656081_DIM
100
AcDbDimension
 62
3
  6
CONTINUOUS
  2
*D8
 10
289.9657217291
 20
169.8838743636
 11
288.4795755034
 21
156.6116328436
 70
160
 71
2
 42
22.0
  1
%%c<>
  3
DIMSTYLE_3
100
AcDbAlignedDimension
 13
210.4761760159
 23
147.8838743636
 14
210.493446476
 24
169.8838743636
 50
90.0
100
AcDbRotatedDimension
  0
DIMENSION
  5
373
100
AcDbEntity
  8
30656081_DIM
100
AcDbDimension
 62
3
  6
CONTINUOUS
  2
*D9
 10
279.9657217291
 20
166.3838743636
 11
278.3675570994
 21
156.8351320095
 70
160
 71
2
 42
15.0
  1
%%c<>
  3
DIMSTYLE_3
100
AcDbAlignedDimension
 13
254.9657217291
 23
151.3838743636
 14
254.9657217291
 24
166.3838743636
 50
90.0
100
AcDbRotatedDimension
  0
LINE
  5
374
100
AcDbEntity
  8
606772173-000-00-ED1_FORMAT
100
AcDbLine
 62
3
  6
CONTINUOUS
 10
264.9
 20
287.0000007463
 11
410.0
 21
287.0000007463
  0
LINE
  5
375
100
AcDbEntity
  8
606772173-000-00-ED1_FORMAT
100
AcDbLine
 62
3
  6
CONTINUOUS
 10
264.9
 20
287.0000007463
 11
264.9
 21
225.0000007463
  0
LINE
  5
376
100
AcDbEntity
  8
606772173-000-00-ED1_FORMAT
100
AcDbLine
 62
3
  6
CONTINUOUS
 10
264.9
 20
225.0000007463
 11
410.0
 21
225.0000007463
  0
LINE
  5
377
100
AcDbEntity
  8
606772173-000-00-ED1_FORMAT
100
AcDbLine
 62
3
  6
CONTINUOUS
 10
410.0
 20
287.0000007463
 11
410.0
 21
225.0000007463
  0
LINE
  5
378
100
AcDbEntity
  8
606772173-000-00-ED1_FORMAT
100
AcDbLine
 62
3
  6
CONTINUOUS
 10
23.0
 20
10.0
 11
23.0
 21
210.0
  0
LINE
  5
379
100
AcDbEntity
  8
606772173-000-00-ED1_FORMAT
100
AcDbLine
 62
3
  6
CONTINUOUS
 10
23.0
 20
10.0
 11
29.0
 21
10.0
  0
LINE
  5
37A
100
AcDbEntity
  8
606772173-000-00-ED1_FORMAT
100
AcDbLine
 62
3
  6
CONTINUOUS
 10
29.0
 20
10.0
 11
29.0
 21
210.0
  0
LINE
  5
37B
100
AcDbEntity
  8
606772173-000-00-ED1_FORMAT
100
AcDbLine
 62
3
  6
CONTINUOUS
 10
23.0
 20
210.0
 11
29.0
 21
210.0
  0
LINE
  5
37C
100
AcDbEntity
  8
606772173-000-00-ED1_FORMAT
100
AcDbLine
 62
3
  6
CONTINUOUS
 10
146.999991584
 20
65.00000176
 11
410.000001584
 21
65.00000176
  0
LINE
  5
37D
100
AcDbEntity
  8
606772173-000-00-ED1_FORMAT
100
AcDbLine
 62
3
  6
CONTINUOUS
 10
146.999991584
 20
65.00000176
 11
146.999991584
 21
78.50000176
  0
LINE
  5
37E
100
AcDbEntity
  8
606772173-000-00-ED1_FORMAT
100
AcDbLine
 62
3
  6
CONTINUOUS
 10
146.999991584
 20
72.50000176
 11
410.000001584
 21
72.50000176
  0
LINE
  5
37F
100
AcDbEntity
  8
606772173-000-00-ED1_FORMAT
100
AcDbLine
 62
3
  6
CONTINUOUS
 10
146.999991584
 20
78.50000176
 11
410.000001584
 21
78.50000176
  0
LINE
  5
380
100
AcDbEntity
  8
606772173-000-00-ED1_FORMAT
100
AcDbLine
 62
3
  6
CONTINUOUS
 10
154.499991584
 20
65.00000176
 11
154.499991584
 21
78.50000176
  0
LINE
  5
381
100
AcDbEntity
  8
606772173-000-00-ED1_FORMAT
100
AcDbLine
 62
3
  6
CONTINUOUS
 10
161.999991584
 20
65.00000176
 11
161.999991584
 21
78.50000176
  0
LINE
  5
382
100
AcDbEntity
  8
606772173-000-00-ED1_FORMAT
100
AcDbLine
 62
3
  6
CONTINUOUS
 10
171.398801584
 20
65.00000176
 11
171.398801584
 21
78.50000176
  0
LINE
  5
383
100
AcDbEntity
  8
606772173-000-00-ED1_FORMAT
100
AcDbLine
 62
3
  6
CONTINUOUS
 10
176.398801584
 20
65.00000176
 11
176.398801584
 21
78.50000176
  0
LINE
  5
384
100
AcDbEntity
  8
606772173-000-00-ED1_FORMAT
100
AcDbLine
 62
3
  6
CONTINUOUS
 10
208.000001584
 20
65.00000176
 11
208.000001584
 21
78.50000176
  0
LINE
  5
385
100
AcDbEntity
  8
606772173-000-00-ED1_FORMAT
100
AcDbLine
 62
3
  6
CONTINUOUS
 10
314.000001584
 20
65.00000176
 11
314.000001584
 21
78.50000176
  0
LINE
  5
386
100
AcDbEntity
  8
606772173-000-00-ED1_FORMAT
100
AcDbLine
 62
3
  6
CONTINUOUS
 10
366.000001584
 20
65.00000176
 11
366.000001584
 21
78.50000176
  0
LINE
  5
387
100
AcDbEntity
  8
606772173-000-00-ED1_FORMAT
100
AcDbLine
 62
3
  6
CONTINUOUS
 10
410.000001584
 20
65.00000176
 11
410.000001584
 21
78.50000176
  0
MTEXT
  5
388
100
AcDbEntity
  8
606772173-000-00-ED1_FORMAT
100
AcDbMText
 62
2
  6
CONTINUOUS
  7
STANDARD
 71
1
 72
1
 10
148.224991584
 20
76.25000176
 30
0.0
 11
1.0
 21
0.0
 31
0.0
 44
0.9
  1
1
 40
2.0
 41
1.1428571429
  0
MTEXT
  5
389
100
AcDbEntity
  8
606772173-000-00-ED1_FORMAT
100
AcDbMText
 62
2
  6
CONTINUOUS
  7
STANDARD
 71
1
 72
1
 10
163.224991584
 20
76.25000176
 30
0.0
 11
1.0
 21
0.0
 31
0.0
 44
0.9
  1
1
 40
2.0
 41
1.1428571429
  0
MTEXT
  5
38A
100
AcDbEntity
  8
606772173-000-00-ED1_FORMAT
100
AcDbMText
 62
2
  6
CONTINUOUS
  7
STANDARD
 71
1
 72
1
 10
177.623801584
 20
76.25000176
 30
0.0
 11
1.0
 21
0.0
 31
0.0
 44
0.9
  1
30252537
 40
2.0
 41
12.0
  0
MTEXT
  5
38B
100
AcDbEntity
  8
606772173-000-00-ED1_FORMAT
100
AcDbMText
 62
2
  6
CONTINUOUS
  7
STANDARD
 71
1
 72
1
 10
209.225001584
 20
76.25000176
 30
0.0
 11
1.0
 21
0.0
 31
0.0
 44
0.9
  1
LAENGENEINSTELLSCHRAUBE
 40
2.0
 41
34.8095238095
  0
MTEXT
  5
38C
100
AcDbEntity
  8
606772173-000-00-ED1_FORMAT
100
AcDbMText
 62
2
  6
CONTINUOUS
  7
STANDARD
 71
1
 72
1
 10
315.225001584
 20
76.25000176
 30
0.0
 11
1.0
 21
0.0
 31
0.0
 44
0.9
  1
M6X14 SW2
 40
2.0
 41
15.1428571429
  0
MTEXT
  5
38D
100
AcDbEntity
  8
606772173-000-00-ED1_FORMAT
100
AcDbMText
 62
2
  6
CONTINUOUS
  7
STANDARD
 71
3
 72
1
 10
406.775001584
 20
76.75000176
 30
0.0
 11
1.0
 21
0.0
 31
0.0
 44
0.9
  1
30252537_HP
 40
0.03
 41
0.2507142857
  0
MTEXT
  5
38E
100
AcDbEntity
  8
606772173-000-00-ED1_FORMAT
100
AcDbMText
 62
2
  6
CONTINUOUS
  7
STANDARD
 71
3
 72
1
 10
407.775001584
 20
76.75000176
 30
0.0
 11
1.0
 21
0.0
 31
0.0
 44
0.9
  1
KA
 40
0.03
 41
0.0492857143
  0
MTEXT
  5
38F
100
AcDbEntity
  8
606772173-000-00-ED1_FORMAT
100
AcDbMText
 62
2
  6
CONTINUOUS
  7
STANDARD
 71
3
 72
1
 10
408.775001584
 20
76.75000176
 30
0.0
 11
1.0
 21
0.0
 31
0.0
 44
0.9
  1
HP
 40
0.03
 41
0.0471428571
  0
LINE
  5
390
100
AcDbEntity
  8
606772173-000-00-ED1_FORMAT
100
AcDbLine
 62
3
  6
CONTINUOUS
 10
23.0
 20
287.0
 11
135.0
 21
287.0
  0
LINE
  5
391
100
AcDbEntity
  8
606772173-000-00-ED1_FORMAT
100
AcDbLine
 62
3
  6
CONTINUOUS
 10
23.0
 20
287.0
 11
23.0
 21
259.00001
  0
LINE
  5
392
100
AcDbEntity
  8
606772173-000-00-ED1_FORMAT
100
AcDbLine
 62
3
  6
CONTINUOUS
 10
23.0
 20
259.00001
 11
135.0
 21
259.00001
  0
LINE
  5
393
100
AcDbEntity
  8
606772173-000-00-ED1_FORMAT
100
AcDbLine
 62
3
  6
CONTINUOUS
 10
135.0
 20
287.0
 11
135.0
 21
259.00001
  0
LINE
  5
394
100
AcDbEntity
  8
606772173-000-00-ED1_FORMAT
100
AcDbLine
 62
3
  6
CONTINUOUS
 10
146.999991584
 20
65.00000176
 11
409.999961584
 21
65.00000176
  0
LINE
  5
395
100
AcDbEntity
  8
606772173-000-00-ED1_FORMAT
100
AcDbLine
 62
3
  6
CONTINUOUS
 10
146.999991584
 20
65.00000176
 11
146.999991584
 21
10.00000176
  0
LINE
  5
396
100
AcDbEntity
  8
606772173-000-00-ED1_FORMAT
100
AcDbLine
 62
3
  6
CONTINUOUS
 10
146.999991584
 20
10.00000176
 11
409.999961584
 21
10.00000176
  0
LINE
  5
397
100
AcDbEntity
  8
606772173-000-00-ED1_FORMAT
100
AcDbLine
 62
3
  6
CONTINUOUS
 10
409.999961584
 20
65.00000176
 11
409.999961584
 21
10.00000176
  0
MTEXT
  5
398
100
AcDbEntity
  8
606772173-000-00-ED1_FORMAT
100
AcDbMText
 62
2
  6
CONTINUOUS
  7
STANDARD
 71
2
 72
1
 10
185.499991584
 20
63.25000176
 30
0.0
 11
1.0
 21
0.0
 31
0.0
 44
0.60006
  1
 \PAUSWUCHTGUETE DIN ISO 1940-G 2.5
 40
2.5
 41
62.7380952381
  0
MTEXT
  5
399
100
AcDbEntity
  8
606772173-000-00-ED1_FORMAT
100
AcDbMText
 62
2
  6
CONTINUOUS
  7
STANDARD
 71
2
 72
1
 10
185.499991584
 20
59.07968176
 30
0.0
 11
1.0
 21
0.0
 31
0.0
 44
0.9
  1
 \P(KOMPLETT MONTIERT)
 40
2.5
 41
35.5357142857
  0
MTEXT
  5
39A
100
AcDbEntity
  8
606772173-000-00-ED1_FORMAT
100
AcDbMText
 62
2
  6
CONTINUOUS
  7
STANDARD
 71
1
 72
1
 10
378.122491584
 20
56.95468176
 30
0.0
 11
1.0
 21
0.0
 31
0.0
 44
0.9
  1
25.01.17
 40
2.0
 41
10.7142857143
  0
MTEXT
  5
39B
100
AcDbEntity
  8
606772173-000-00-ED1_FORMAT
100
AcDbMText
 62
2
  6
CONTINUOUS
  7
STANDARD
 71
2
 72
1
 10
400.948726584
 20
56.95468176
 30
0.0
 11
1.0
 21
0.0
 31
0.0
 44
0.9
  1
SJE
 40
2.0
 41
4.2857142857
  0
MTEXT
  5
39C
100
AcDbEntity
  8
606772173-000-00-ED1_FORMAT
100
AcDbMText
 62
2
  6
CONTINUOUS
  7
STANDARD
 71
2
 72
1
 10
183.8928487269
 20
49.32968176
 30
0.0
 11
1.0
 21
0.0
 31
0.0
 44
0.9
  1
FUER NENNDREHZAHL 25000 MIN\P-1
 40
2.5
 41
52.0833333333
  0
MTEXT
  5
39D
100
AcDbEntity
  8
606772173-000-00-ED1_FORMAT
100
AcDbMText
 62
2
  6
CONTINUOUS
  7
STANDARD
 71
1
 72
1
 10
378.122491584
 20
50.95468176
 30
0.0
 11
1.0
 21
0.0
 31
0.0
 44
0.9
  1
25.01.17
 40
2.0
 41
10.7142857143
  0
MTEXT
  5
39E
100
AcDbEntity
  8
606772173-000-00-ED1_FORMAT
100
AcDbMText
 62
2
  6
CONTINUOUS
  7
STANDARD
 71
2
 72
1
 10
400.948726584
 20
50.95468176
 30
0.0
 11
1.0
 21
0.0
 31
0.0
 44
0.9
  1
SJE
 40
2.0
 41
4.2857142857
  0
MTEXT
  5
39F
100
AcDbEntity
  8
606772173-000-00-ED1_FORMAT
100
AcDbMText
 62
7
  6
CONTINUOUS
  7
STANDARD
 71
1
 72
1
 10
225.224991584
 20
28.50000176
 30
0.0
 11
1.0
 21
0.0
 31
0.0
 44
0.9
  1
THERMOCHUCK, SK, MIT PLANANLAGE
 40
2.5
 41
59.880952381
  0
MTEXT
  5
3A0
100
AcDbEntity
  8
606772173-000-00-ED1_FORMAT
100
AcDbMText
 62
2
  6
CONTINUOUS
  7
STANDARD
 71
2
 72
1
 10
404.999961584
 20
28.00000176
 30
0.0
 11
1.0
 21
0.0
 31
0.0
 44
0.9
  1
EHD
 40
2.0
 41
4.8095238095
  0
MTEXT
  5
3A1
100
AcDbEntity
  8
606772173-000-00-ED1_FORMAT
100
AcDbMText
 62
7
  6
CONTINUOUS
  7
STANDARD
 71
1
 72
1
 10
225.224991584
 20
17.75000176
 30
0.0
 11
1.0
 21
0.0
 31
0.0
 44
0.9
  1
MTC-JD-FC040-05-090-1-0-A
 40
2.5
 41
47.6785714286
  0
MTEXT
  5
3A2
100
AcDbEntity
  8
606772173-000-00-ED1_FORMAT
100
AcDbMText
 62
7
  6
CONTINUOUS
  7
STANDARD
 71
1
 72
1
 10
301.224991584
 20
17.75000176
 30
0.0
 11
1.0
 21
0.0
 31
0.0
 44
0.9
  1
30660231
 40
2.5
 41
14.8214285714
  0
MTEXT
  5
3A3
100
AcDbEntity
  8
606772173-000-00-ED1_FORMAT
100
AcDbMText
 62
7
  6
CONTINUOUS
  7
STANDARD
 71
1
 72
1
 10
346.224991584
 20
17.75000176
 30
0.0
 11
1.0
 21
0.0
 31
0.0
 44
0.9
  1
606772173-000-00-ED1
 40
2.5
 41
37.619047619
  0
MTEXT
  5
3A4
100
AcDbEntity
  8
606772173-000-00-ED1_FORMAT
100
AcDbMText
 62
2
  6
CONTINUOUS
  7
STANDARD
 71
2
 72
1
 10
404.999961584
 20
17.75000176
 30
0.0
 11
1.0
 21
0.0
 31
0.0
 44
0.9
  1
00
 40
2.5
 41
3.9285714286
  0
LINE
  5
3A5
100
AcDbEntity
  8
606772173-000-00-ED1_FORMAT
100
AcDbLine
 62
3
  6
CONTINUOUS
 10
29.0
 20
10.0
 11
29.0
 21
145.0
  0
LINE
  5
3A6
100
AcDbEntity
  8
606772173-000-00-ED1_FORMAT
100
AcDbLine
 62
3
  6
CONTINUOUS
 10
29.0
 20
10.0
 11
35.0
 21
10.0
  0
LINE
  5
3A7
100
AcDbEntity
  8
606772173-000-00-ED1_FORMAT
100
AcDbLine
 62
3
  6
CONTINUOUS
 10
35.0
 20
10.0
 11
35.0
 21
145.0
  0
LINE
  5
3A8
100
AcDbEntity
  8
606772173-000-00-ED1_FORMAT
100
AcDbLine
 62
3
  6
CONTINUOUS
 10
29.0
 20
80.0
 11
35.0
 21
80.0
  0
LINE
  5
3A9
100
AcDbEntity
  8
606772173-000-00-ED1_FORMAT
100
AcDbLine
 62
3
  6
CONTINUOUS
 10
29.0
 20
145.0
 11
35.0
 21
145.0
  0
MTEXT
  5
3AA
100
AcDbEntity
  8
606772173-000-00-ED1_FORMAT
100
AcDbMText
 62
2
  6
CONTINUOUS
  7
STANDARD
 71
1
 72
1
 10
31.0
 20
11.225
 30
0.0
 11
0.0
 21
1.0
 31
0.0
 44
0.9
  1
AEHNLICH:
 40
3.0
 41
19.2142857143
  0
MTEXT
  5
3AB
100
AcDbEntity
  8
606772173-000-00-ED1_FORMAT
100
AcDbMText
 62
2
  6
CONTINUOUS
  7
STANDARD
 71
1
 72
1
 10
31.0
 20
81.225
 30
0.0
 11
0.0
 21
1.0
 31
0.0
 44
0.9
  1
SKIZZE:
 40
3.0
 41
14.5714285714
  0
LINE
  5
3AC
100
AcDbEntity
  8
606772173-000-00-ED1_FORMAT
100
AcDbLine
 62
3
  6
CONTINUOUS
 10
365.999998592
 20
35.0000008
 11
294.999998592
 21
35.0000008
  0
LINE
  5
3AD
100
AcDbEntity
  8
606772173-000-00-ED1_FORMAT
100
AcDbLine
 62
3
  6
CONTINUOUS
 10
365.999998592
 20
35.0000008
 11
365.999998592
 21
43.5000008
  0
LINE
  5
3AE
100
AcDbEntity
  8
606772173-000-00-ED1_FORMAT
100
AcDbLine
 62
3
  6
CONTINUOUS
 10
365.999998592
 20
43.5000008
 11
294.999998592
 21
43.5000008
  0
LINE
  5
3AF
100
AcDbEntity
  8
606772173-000-00-ED1_FORMAT
100
AcDbLine
 62
3
  6
CONTINUOUS
 10
294.999998592
 20
35.0000008
 11
294.999998592
 21
43.5000008
  0
MTEXT
  5
3B0
100
AcDbEntity
  8
606772173-000-00-ED1_FORMAT
100
AcDbMText
 62
2
  6
CONTINUOUS
  7
STANDARD
 71
2
 72
1
 10
330.499998592
 20
40.5000008
 30
0.0
 11
1.0
 21
0.0
 31
0.0
 44
0.9
  1
PATENTRECHTLICH GESCHUETZT
 40
2.5
 41
51.0714285714
  0
MTEXT
  5
3B1
100
AcDbEntity
  8
606772173-000-00-ED1_TEXT
100
AcDbMText
 62
2
  6
CONTINUOUS
  7
STANDARD
 71
1
 72
1
 10
76.2829663847
 20
233.1882814057
 30
0.0
 11
1.0
 21
0.0
 31
0.0
 44
0.9
  1
TRENNSTELLE STEILKEGEL 40-JD MIT PLANANLAGE\P(AEHNLICH ISO 7388-2)
 40
5.0
 41
164.0476190476
  0
INSERT
  5
3B2
100
AcDbEntity
  8
606772173-000-00-ED1_CL
100
AcDbBlockReference
 62
3
  6
CONTINUOUS
  2
GEOM_TOLERANCE_SYMBOLS_BL3
 10
126.0221506232
 20
182.0934793137
  0
LEADER
  5
3B3
100
AcDbEntity
  8
606772173-000-00-ED1_CL
100
AcDbLeader
 62
3
  6
CONTINUOUS
  3
STANDARD
 71
1
 72
0
 73
2
 75
0
 76
2
 10
218.1826052919
 20
161.8838743636
 30
0.0
 10
220.9768968465
 20
179.8317836784
 30
0.0
340
3B4
1001
ACAD
1000
DSTYLE
1002
{
1070
77
1070
0
1070
341
1005
21A
1002
}
  0
INSERT
  5
3B4
102
{ACAD_REACTORS
330
3B3
102
}
100
AcDbEntity
  8
606772173-000-00-ED1_CL
100
AcDbBlockReference
 62
3
  6
CONTINUOUS
  2
BOMBALLOON_BL4
 10
221.919140625
 20
185.8838743636
  0
LINE
  5
3B5
100
AcDbEntity
  8
606772173-000-00-ED1_FORMAT
100
AcDbLine
 62
6
  6
HIDDEN
 10
0.0
 20
297.0
 11
0.0
 21
0.0
  0
LINE
  5
3B6
100
AcDbEntity
  8
606772173-000-00-ED1_FORMAT
100
AcDbLine
 62
7
  6
CONTINUOUS
 10
18.0
 20
292.0
 11
18.0
 21
5.0
  0
LINE
  5
3B7
100
AcDbEntity
  8
606772173-000-00-ED1_FORMAT
100
AcDbLine
 62
3
  6
CONTINUOUS
 10
23.0
 20
259.0000097341
 11
23.0
 21
10.0
  0
LINE
  5
3B8
100
AcDbEntity
  8
606772173-000-00-ED1_FORMAT
100
AcDbLine
 62
7
  6
CONTINUOUS
 10
23.0
 20
259.0000097341
 11
23.0
 21
287.0
  0
LINE
  5
3B9
100
AcDbEntity
  8
606772173-000-00-ED1_FORMAT
100
AcDbLine
 62
3
  6
CONTINUOUS
 10
28.9999998068
 20
9.9999999122
 11
28.9999998068
 21
209.9999964
  0
LINE
  5
3BA
100
AcDbEntity
  8
606772173-000-00-ED1_FORMAT
100
AcDbLine
 62
3
  6
CONTINUOUS
 10
60.0
 20
10.0
 11
60.0
 21
5.0
  0
LINE
  5
3BB
100
AcDbEntity
  8
606772173-000-00-ED1_FORMAT
100
AcDbLine
 62
3
  6
CONTINUOUS
 10
60.0
 20
287.0
 11
60.0
 21
292.0
  0
LINE
  5
3BC
100
AcDbEntity
  8
606772173-000-00-ED1_FORMAT
100
AcDbLine
 62
7
  6
CONTINUOUS
 10
60.4999978194
 20
259.0000097341
 11
60.4999978194
 21
265.0000076482
  0
LINE
  5
3BD
100
AcDbEntity
  8
606772173-000-00-ED1_FORMAT
100
AcDbLine
 62
7
  6
CONTINUOUS
 10
60.500027184
 20
281.0047710842
 11
60.500027184
 21
287.0
  0
LINE
  5
3BE
100
AcDbEntity
  8
606772173-000-00-ED1_FORMAT
100
AcDbLine
 62
6
  6
HIDDEN
 10
0.0
 20
0.0
 11
420.0
 21
0.0
  0
LINE
  5
3BF
100
AcDbEntity
  8
606772173-000-00-ED1_FORMAT
100
AcDbLine
 62
7
  6
CONTINUOUS
 10
18.0
 20
5.0
 11
415.0
 21
5.0
  0
LINE
  5
3C0
100
AcDbEntity
  8
606772173-000-00-ED1_FORMAT
100
AcDbLine
 62
3
  6
CONTINUOUS
 10
23.0
 20
10.0
 11
146.999991584
 21
10.0
  0
LINE
  5
3C1
100
AcDbEntity
  8
606772173-000-00-ED1_FORMAT
100
AcDbLine
 62
7
  6
CONTINUOUS
 10
146.999991584
 20
10.0
 11
410.0
 21
10.0
  0
LINE
  5
3C2
100
AcDbEntity
  8
606772173-000-00-ED1_FORMAT
100
AcDbLine
 62
7
  6
CONTINUOUS
 10
410.0
 20
13.500000112
 11
223.999992048
 21
13.500000112
  0
LINE
  5
3C3
100
AcDbEntity
  8
606772173-000-00-ED1_FORMAT
100
AcDbLine
 62
2
  6
CONTINUOUS
 10
308.1737564759
 20
52.0267386374
 11
309.1516114228
 21
52.2473767493
  0
LINE
  5
3C4
100
AcDbEntity
  8
606772173-000-00-ED1_FORMAT
100
AcDbLine
 62
7
  6
CONTINUOUS
 10
410.0
 20
24.250000456
 11
223.999992048
 21
24.250000456
  0
LINE
  5
3C5
100
AcDbEntity
  8
606772173-000-00-ED1_FORMAT
100
AcDbLine
 62
7
  6
CONTINUOUS
 10
98.4999894133
 20
259.0000097341
 11
98.4999894133
 21
265.0000076482
  0
LINE
  5
3C6
100
AcDbEntity
  8
606772173-000-00-ED1_FORMAT
100
AcDbLine
 62
7
  6
CONTINUOUS
 10
98.5000134045
 20
281.0047710842
 11
98.5000134045
 21
287.0
  0
LINE
  5
3C7
100
AcDbEntity
  8
606772173-000-00-ED1_FORMAT
100
AcDbLine
 62
2
  6
CONTINUOUS
 10
316.811390075
 20
56.3655426444
 11
315.6581835473
 21
56.1055812919
  0
LINE
  5
3C8
100
AcDbEntity
  8
606772173-000-00-ED1_FORMAT
100
AcDbLine
 62
2
  6
CONTINUOUS
 10
313.8970140824
 20
54.0619609694
 11
313.770971016
 21
54.0347884704
  0
LINE
  5
3C9
100
AcDbEntity
  8
606772173-000-00-ED1_FORMAT
100
AcDbLine
 62
2
  6
CONTINUOUS
 10
314.0150648347
 20
53.2748724898
 11
314.125727646
 21
53.2985664359
  0
LINE
  5
3CA
100
AcDbEntity
  8
606772173-000-00-ED1_FORMAT
100
AcDbLine
 62
2
  6
CONTINUOUS
 10
309.4726377778
 20
52.3088992873
 11
309.7481381608
 21
52.3575829001
  0
LINE
  5
3CB
100
AcDbEntity
  8
606772173-000-00-ED1_FORMAT
100
AcDbLine
 62
2
  6
CONTINUOUS
 10
309.7481381608
 20
52.3575829001
 11
310.0106653611
 21
52.3954383742
  0
LINE
  5
3CC
100
AcDbEntity
  8
606772173-000-00-ED1_FORMAT
100
AcDbLine
 62
2
  6
CONTINUOUS
 10
310.0106653611
 20
52.3954383742
 11
310.2676594209
 21
52.4242614386
  0
LINE
  5
3CD
100
AcDbEntity
  8
606772173-000-00-ED1_FORMAT
100
AcDbLine
 62
2
  6
CONTINUOUS
 10
313.7760873475
 20
53.2488129126
 11
314.0150648347
 21
53.2748724898
  0
LINE
  5
3CE
100
AcDbEntity
  8
606772173-000-00-ED1_FORMAT
100
AcDbLine
 62
2
  6
CONTINUOUS
 10
310.2676594209
 20
52.4242614386
 11
310.5265291215
 21
52.4458639518
  0
LINE
  5
3CF
100
AcDbEntity
  8
606772173-000-00-ED1_FORMAT
100
AcDbLine
 62
2
  6
CONTINUOUS
 10
313.770971016
 20
54.0347884704
 11
313.62612986
 21
54.0232237601
  0
LINE
  5
3D0
100
AcDbEntity
  8
606772173-000-00-ED1_FORMAT
100
AcDbLine
 62
2
  6
CONTINUOUS
 10
310.6816029405
 20
53.1572307303
 11
311.3784660447
 21
53.2094789191
  0
LINE
  5
3D1
100
AcDbEntity
  8
606772173-000-00-ED1_FORMAT
100
AcDbLine
 62
2
  6
CONTINUOUS
 10
311.5221922364
 20
52.5294029883
 11
311.8167824754
 21
52.5503549529
  0
LINE
  5
3D2
100
AcDbEntity
  8
606772173-000-00-ED1_FORMAT
100
AcDbLine
 62
7
  6
CONTINUOUS
 10
223.999992048
 20
35.0000008
 11
410.0
 21
35.0000008
  0
LINE
  5
3D3
100
AcDbEntity
  8
606772173-000-00-ED1_FORMAT
100
AcDbLine
 62
7
  6
CONTINUOUS
 10
410.0
 20
40.9546819905
 11
365.999998592
 21
40.9546819905
  0
LINE
  5
3D4
100
AcDbEntity
  8
606772173-000-00-ED1_FORMAT
100
AcDbLine
 62
7
  6
CONTINUOUS
 10
365.999998592
 20
43.500001072
 11
146.999991584
 21
43.500001072
  0
LINE
  5
3D5
100
AcDbEntity
  8
606772173-000-00-ED1_FORMAT
100
AcDbLine
 62
7
  6
CONTINUOUS
 10
410.0
 20
46.9546821825
 11
365.999998592
 21
46.9546821825
  0
LINE
  5
3D6
100
AcDbEntity
  8
606772173-000-00-ED1_FORMAT
100
AcDbLine
 62
3
  6
CONTINUOUS
 10
110.0
 20
10.0
 11
110.0
 21
5.0
  0
LINE
  5
3D7
100
AcDbEntity
  8
606772173-000-00-ED1_FORMAT
100
AcDbLine
 62
3
  6
CONTINUOUS
 10
110.0
 20
287.0
 11
110.0
 21
292.0
  0
LINE
  5
3D8
100
AcDbEntity
  8
606772173-000-00-ED1_FORMAT
100
AcDbLine
 62
2
  6
CONTINUOUS
 10
311.2880080537
 20
53.9326200889
 11
310.7557428559
 21
53.9038776709
  0
LINE
  5
3D9
100
AcDbEntity
  8
606772173-000-00-ED1_FORMAT
100
AcDbLine
 62
2
  6
CONTINUOUS
 10
313.0830380463
 20
55.9298901709
 11
312.7687535783
 21
55.9176103949
  0
LINE
  5
3DA
100
AcDbEntity
  8
606772173-000-00-ED1_FORMAT
100
AcDbLine
 62
2
  6
CONTINUOUS
 10
311.8167824754
 20
52.5503549529
 11
311.9618945573
 21
52.5553174018
  0
LINE
  5
3DB
100
AcDbEntity
  8
606772173-000-00-ED1_FORMAT
100
AcDbLine
 62
2
  6
CONTINUOUS
 10
313.6478560334
 20
53.2465010459
 11
313.7760873475
 21
53.2488129126
  0
LINE
  5
3DC
100
AcDbEntity
  8
606772173-000-00-ED1_FORMAT
100
AcDbLine
 62
2
  6
CONTINUOUS
 10
311.9618945573
 20
52.5553174018
 11
312.2501805589
 21
52.5601884513
  0
LINE
  5
3DD
100
AcDbEntity
  8
606772173-000-00-ED1_FORMAT
100
AcDbLine
 62
2
  6
CONTINUOUS
 10
311.9618945573
 20
52.5553174018
 11
312.3943235597
 21
52.5618121345
  0
LINE
  5
3DE
100
AcDbEntity
  8
606772173-000-00-ED1_FORMAT
100
AcDbLine
 62
2
  6
CONTINUOUS
 10
312.2501805589
 20
52.5601884513
 11
312.3943235597
 21
52.5618121345
  0
LINE
  5
3DF
100
AcDbEntity
  8
606772173-000-00-ED1_FORMAT
100
AcDbLine
 62
2
  6
CONTINUOUS
 10
313.8726828523
 20
55.9364870559
 11
313.0830380463
 21
55.9298901709
  0
LINE
  5
3E0
100
AcDbEntity
  8
606772173-000-00-ED1_FORMAT
100
AcDbLine
 62
3
  6
CONTINUOUS
 10
23.0
 20
48.5
 11
18.0
 21
48.5
  0
LINE
  5
3E1
100
AcDbEntity
  8
606772173-000-00-ED1_FORMAT
100
AcDbLine
 62
3
  6
CONTINUOUS
 10
410.0
 20
48.5
 11
415.0
 21
48.5
  0
LINE
  5
3E2
100
AcDbEntity
  8
606772173-000-00-ED1_FORMAT
100
AcDbLine
 62
2
  6
CONTINUOUS
 10
312.5957904147
 20
49.4612169223
 11
312.6308094674
 21
49.4612169223
  0
LINE
  5
3E3
100
AcDbEntity
  8
606772173-000-00-ED1_FORMAT
100
AcDbLine
 62
2
  6
CONTINUOUS
 10
312.3970603564
 20
49.5612169223
 11
312.8368994729
 21
49.5612169223
  0
LINE
  5
3E4
100
AcDbEntity
  8
606772173-000-00-ED1_FORMAT
100
AcDbLine
 62
2
  6
CONTINUOUS
 10
312.1983302981
 20
49.6612169223
 11
313.0429894784
 21
49.6612169223
  0
LINE
  5
3E5
100
AcDbEntity
  8
606772173-000-00-ED1_FORMAT
100
AcDbLine
 62
2
  6
CONTINUOUS
 10
311.9996002398
 20
49.7612169223
 11
313.249079484
 21
49.7612169223
  0
LINE
  5
3E6
100
AcDbEntity
  8
606772173-000-00-ED1_FORMAT
100
AcDbLine
 62
2
  6
CONTINUOUS
 10
311.8008701816
 20
49.8612169223
 11
313.4551694895
 21
49.8612169223
  0
LINE
  5
3E7
100
AcDbEntity
  8
606772173-000-00-ED1_FORMAT
100
AcDbLine
 62
2
  6
CONTINUOUS
 10
311.6021401233
 20
49.9612169223
 11
313.661259495
 21
49.9612169223
  0
LINE
  5
3E8
100
AcDbEntity
  8
606772173-000-00-ED1_FORMAT
100
AcDbLine
 62
2
  6
CONTINUOUS
 10
311.403410065
 20
50.0612169223
 11
313.8673495005
 21
50.0612169223
  0
LINE
  5
3E9
100
AcDbEntity
  8
606772173-000-00-ED1_FORMAT
100
AcDbLine
 62
2
  6
CONTINUOUS
 10
311.2046800067
 20
50.1612169223
 11
314.073439506
 21
50.1612169223
  0
LINE
  5
3EA
100
AcDbEntity
  8
606772173-000-00-ED1_FORMAT
100
AcDbLine
 62
2
  6
CONTINUOUS
 10
311.0059499484
 20
50.2612169223
 11
314.2795295116
 21
50.2612169223
  0
LINE
  5
3EB
100
AcDbEntity
  8
606772173-000-00-ED1_FORMAT
100
AcDbLine
 62
2
  6
CONTINUOUS
 10
310.8072198901
 20
50.3612169223
 11
314.4856195171
 21
50.3612169223
  0
LINE
  5
3EC
100
AcDbEntity
  8
606772173-000-00-ED1_FORMAT
100
AcDbLine
 62
2
  6
CONTINUOUS
 10
310.6084898318
 20
50.4612169223
 11
314.6917095226
 21
50.4612169223
  0
LINE
  5
3ED
100
AcDbEntity
  8
606772173-000-00-ED1_FORMAT
100
AcDbLine
 62
2
  6
CONTINUOUS
 10
310.4097597735
 20
50.5612169223
 11
314.8977995281
 21
50.5612169223
  0
LINE
  5
3EE
100
AcDbEntity
  8
606772173-000-00-ED1_FORMAT
100
AcDbLine
 62
2
  6
CONTINUOUS
 10
320.1049530975
 20
50.5612169223
 11
320.2033331149
 21
50.5612169223
  0
LINE
  5
3EF
100
AcDbEntity
  8
606772173-000-00-ED1_FORMAT
100
AcDbLine
 62
2
  6
CONTINUOUS
 10
310.2110297152
 20
50.6612169223
 11
315.1038895337
 21
50.6612169223
  0
LINE
  5
3F0
100
AcDbEntity
  8
606772173-000-00-ED1_FORMAT
100
AcDbLine
 62
2
  6
CONTINUOUS
 10
319.9145646092
 20
50.6612169223
 11
320.3313136725
 21
50.6612169223
  0
LINE
  5
3F1
100
AcDbEntity
  8
606772173-000-00-ED1_FORMAT
100
AcDbLine
 62
2
  6
CONTINUOUS
 10
305.3807768328
 20
50.7612169223
 11
305.5908168656
 21
50.7612169223
  0
LINE
  5
3F2
100
AcDbEntity
  8
606772173-000-00-ED1_FORMAT
100
AcDbLine
 62
2
  6
CONTINUOUS
 10
310.012299657
 20
50.7612169223
 11
315.3099795392
 21
50.7612169223
  0
LINE
  5
3F3
100
AcDbEntity
  8
606772173-000-00-ED1_FORMAT
100
AcDbLine
 62
2
  6
CONTINUOUS
 10
319.724176121
 20
50.7612169223
 11
320.119060279
 21
50.7612169223
  0
LINE
  5
3F4
100
AcDbEntity
  8
606772173-000-00-ED1_FORMAT
100
AcDbLine
 62
2
  6
CONTINUOUS
 10
320.1383810082
 20
50.7612169223
 11
320.4592942301
 21
50.7612169223
  0
LINE
  5
3F5
100
AcDbEntity
  8
606772173-000-00-ED1_FORMAT
100
AcDbLine
 62
2
  6
CONTINUOUS
 10
305.1884579939
 20
50.8612169223
 11
305.7636453527
 21
50.8612169223
  0
LINE
  5
3F6
100
AcDbEntity
  8
606772173-000-00-ED1_FORMAT
100
AcDbLine
 62
2
  6
CONTINUOUS
 10
309.8135695987
 20
50.8612169223
 11
315.5160695447
 21
50.8612169223
  0
LINE
  5
3F7
100
AcDbEntity
  8
606772173-000-00-ED1_FORMAT
100
AcDbLine
 62
2
  6
CONTINUOUS
 10
319.5337876327
 20
50.8612169223
 11
319.9269830626
 21
50.8612169223
  0
LINE
  5
3F8
100
AcDbEntity
  8
606772173-000-00-ED1_FORMAT
100
AcDbLine
 62
2
  6
CONTINUOUS
 10
320.1383810082
 20
50.8612169223
 11
320.5409560601
 21
50.8612169223
  0
LINE
  5
3F9
100
AcDbEntity
  8
606772173-000-00-ED1_FORMAT
100
AcDbLine
 62
2
  6
CONTINUOUS
 10
305.0850031937
 20
50.9612169223
 11
305.4976754456
 21
50.9612169223
  0
LINE
  5
3FA
100
AcDbEntity
  8
606772173-000-00-ED1_FORMAT
100
AcDbLine
 62
2
  6
CONTINUOUS
 10
305.5651294594
 20
50.9612169223
 11
305.9364738399
 21
50.9612169223
  0
LINE
  5
3FB
100
AcDbEntity
  8
606772173-000-00-ED1_FORMAT
100
AcDbLine
 62
2
  6
CONTINUOUS
 10
309.6148395404
 20
50.9612169223
 11
315.7221595502
 21
50.9612169223
  0
LINE
  5
3FC
100
AcDbEntity
  8
606772173-000-00-ED1_FORMAT
100
AcDbLine
 62
2
  6
CONTINUOUS
 10
319.3433991445
 20
50.9612169223
 11
319.7349058461
 21
50.9612169223
  0
LINE
  5
3FD
100
AcDbEntity
  8
606772173-000-00-ED1_FORMAT
100
AcDbLine
 62
2
  6
CONTINUOUS
 10
320.1383810082
 20
50.9612169223
 11
320.5409560601
 21
50.9612169223
  0
LINE
  5
3FE
100
AcDbEntity
  8
606772173-000-00-ED1_FORMAT
100
AcDbLine
 62
2
  6
CONTINUOUS
 10
305.0850031937
 20
51.0612169223
 11
305.4976754456
 21
51.0612169223
  0
LINE
  5
3FF
100
AcDbEntity
  8
606772173-000-00-ED1_FORMAT
100
AcDbLine
 62
2
  6
CONTINUOUS
 10
305.7425043521
 20
51.0612169223
 11
306.109302327
 21
51.0612169223
  0
LINE
  5
400
100
AcDbEntity
  8
606772173-000-00-ED1_FORMAT
100
AcDbLine
 62
2
  6
CONTINUOUS
 10
309.4161094821
 20
51.0612169223
 11
315.9282495557
 21
51.0612169223
  0
LINE
  5
401
100
AcDbEntity
  8
606772173-000-00-ED1_FORMAT
100
AcDbLine
 62
2
  6
CONTINUOUS
 10
319.1530106562
 20
51.0612169223
 11
319.5428286297
 21
51.0612169223
  0
LINE
  5
402
100
AcDbEntity
  8
606772173-000-00-ED1_FORMAT
100
AcDbLine
 62
2
  6
CONTINUOUS
 10
320.1383810082
 20
51.0612169223
 11
320.5409560601
 21
51.0612169223
  0
LINE
  5
403
100
AcDbEntity
  8
606772173-000-00-ED1_FORMAT
100
AcDbLine
 62
2
  6
CONTINUOUS
 10
305.0850031937
 20
51.1612169223
 11
305.4976754456
 21
51.1612169223
  0
LINE
  5
404
100
AcDbEntity
  8
606772173-000-00-ED1_FORMAT
100
AcDbLine
 62
2
  6
CONTINUOUS
 10
305.9198792448
 20
51.1612169223
 11
306.2821308142
 21
51.1612169223
  0
LINE
  5
405
100
AcDbEntity
  8
606772173-000-00-ED1_FORMAT
100
AcDbLine
 62
2
  6
CONTINUOUS
 10
309.2173794238
 20
51.1612169223
 11
316.1343395613
 21
51.1612169223
  0
LINE
  5
406
100
AcDbEntity
  8
606772173-000-00-ED1_FORMAT
100
AcDbLine
 62
2
  6
CONTINUOUS
 10
318.9626221679
 20
51.1612169223
 11
319.3507514132
 21
51.1612169223
  0
LINE
  5
407
100
AcDbEntity
  8
606772173-000-00-ED1_FORMAT
100
AcDbLine
 62
2
  6
CONTINUOUS
 10
320.1383810082
 20
51.1612169223
 11
320.5409560601
 21
51.1612169223
  0
LINE
  5
408
100
AcDbEntity
  8
606772173-000-00-ED1_FORMAT
100
AcDbLine
 62
2
  6
CONTINUOUS
 10
305.0850031937
 20
51.2612169223
 11
305.4976754456
 21
51.2612169223
  0
LINE
  5
409
100
AcDbEntity
  8
606772173-000-00-ED1_FORMAT
100
AcDbLine
 62
2
  6
CONTINUOUS
 10
306.0972541374
 20
51.2612169223
 11
306.4549593013
 21
51.2612169223
  0
LINE
  5
40A
100
AcDbEntity
  8
606772173-000-00-ED1_FORMAT
100
AcDbLine
 62
2
  6
CONTINUOUS
 10
309.0186493655
 20
51.2612169223
 11
316.3404295668
 21
51.2612169223
  0
LINE
  5
40B
100
AcDbEntity
  8
606772173-000-00-ED1_FORMAT
100
AcDbLine
 62
2
  6
CONTINUOUS
 10
318.7722336797
 20
51.2612169223
 11
319.1586741968
 21
51.2612169223
  0
LINE
  5
40C
100
AcDbEntity
  8
606772173-000-00-ED1_FORMAT
100
AcDbLine
 62
2
  6
CONTINUOUS
 10
320.1383810082
 20
51.2612169223
 11
320.5409560601
 21
51.2612169223
  0
LINE
  5
40D
100
AcDbEntity
  8
606772173-000-00-ED1_FORMAT
100
AcDbLine
 62
2
  6
CONTINUOUS
 10
305.0850031937
 20
51.3612169223
 11
305.4976754456
 21
51.3612169223
  0
LINE
  5
40E
100
AcDbEntity
  8
606772173-000-00-ED1_FORMAT
100
AcDbLine
 62
2
  6
CONTINUOUS
 10
306.2746290301
 20
51.3612169223
 11
306.6277877884
 21
51.3612169223
  0
LINE
  5
40F
100
AcDbEntity
  8
606772173-000-00-ED1_FORMAT
100
AcDbLine
 62
2
  6
CONTINUOUS
 10
308.8199193072
 20
51.3612169223
 11
316.5465195723
 21
51.3612169223
  0
LINE
  5
410
100
AcDbEntity
  8
606772173-000-00-ED1_FORMAT
100
AcDbLine
 62
2
  6
CONTINUOUS
 10
318.5818451914
 20
51.3612169223
 11
318.9665969803
 21
51.3612169223
  0
LINE
  5
411
100
AcDbEntity
  8
606772173-000-00-ED1_FORMAT
100
AcDbLine
 62
2
  6
CONTINUOUS
 10
320.1383810082
 20
51.3612169223
 11
320.5409560601
 21
51.3612169223
  0
LINE
  5
412
100
AcDbEntity
  8
606772173-000-00-ED1_FORMAT
100
AcDbLine
 62
2
  6
CONTINUOUS
 10
305.0850031937
 20
51.4612169223
 11
305.4976754456
 21
51.4612169223
  0
LINE
  5
413
100
AcDbEntity
  8
606772173-000-00-ED1_FORMAT
100
AcDbLine
 62
2
  6
CONTINUOUS
 10
306.4520039228
 20
51.4612169223
 11
306.7262247592
 21
51.4612169223
  0
LINE
  5
414
100
AcDbEntity
  8
606772173-000-00-ED1_FORMAT
100
AcDbLine
 62
2
  6
CONTINUOUS
 10
308.6211892489
 20
51.4612169223
 11
316.7526095778
 21
51.4612169223
  0
LINE
  5
415
100
AcDbEntity
  8
606772173-000-00-ED1_FORMAT
100
AcDbLine
 62
2
  6
CONTINUOUS
 10
318.3914567032
 20
51.4612169223
 11
318.7745197639
 21
51.4612169223
  0
LINE
  5
416
100
AcDbEntity
  8
606772173-000-00-ED1_FORMAT
100
AcDbLine
 62
2
  6
CONTINUOUS
 10
320.1383810082
 20
51.4612169223
 11
320.5409560601
 21
51.4612169223
  0
LINE
  5
417
100
AcDbEntity
  8
606772173-000-00-ED1_FORMAT
100
AcDbLine
 62
2
  6
CONTINUOUS
 10
305.0850031937
 20
51.5612169223
 11
305.4976754456
 21
51.5612169223
  0
LINE
  5
418
100
AcDbEntity
  8
606772173-000-00-ED1_FORMAT
100
AcDbLine
 62
2
  6
CONTINUOUS
 10
306.5876624558
 20
51.5612169223
 11
306.72608996
 21
51.5612169223
  0
LINE
  5
419
100
AcDbEntity
  8
606772173-000-00-ED1_FORMAT
100
AcDbLine
 62
2
  6
CONTINUOUS
 10
308.4224591907
 20
51.5612169223
 11
316.9586995833
 21
51.5612169223
  0
LINE
  5
41A
100
AcDbEntity
  8
606772173-000-00-ED1_FORMAT
100
AcDbLine
 62
2
  6
CONTINUOUS
 10
318.2010682149
 20
51.5612169223
 11
318.5824425474
 21
51.5612169223
  0
LINE
  5
41B
100
AcDbEntity
  8
606772173-000-00-ED1_FORMAT
100
AcDbLine
 62
2
  6
CONTINUOUS
 10
320.1383810082
 20
51.5612169223
 11
320.5409560601
 21
51.5612169223
  0
LINE
  5
41C
100
AcDbEntity
  8
606772173-000-00-ED1_FORMAT
100
AcDbLine
 62
2
  6
CONTINUOUS
 10
305.0850031937
 20
51.6612169223
 11
305.4976754456
 21
51.6612169223
  0
LINE
  5
41D
100
AcDbEntity
  8
606772173-000-00-ED1_FORMAT
100
AcDbLine
 62
2
  6
CONTINUOUS
 10
306.5876624558
 20
51.6612169223
 11
306.7259551609
 21
51.6612169223
  0
LINE
  5
41E
100
AcDbEntity
  8
606772173-000-00-ED1_FORMAT
100
AcDbLine
 62
2
  6
CONTINUOUS
 10
308.2237291324
 20
51.6612169223
 11
317.1647895889
 21
51.6612169223
  0
LINE
  5
41F
100
AcDbEntity
  8
606772173-000-00-ED1_FORMAT
100
AcDbLine
 62
2
  6
CONTINUOUS
 10
318.0106797267
 20
51.6612169223
 11
318.390365331
 21
51.6612169223
  0
LINE
  5
420
100
AcDbEntity
  8
606772173-000-00-ED1_FORMAT
100
AcDbLine
 62
2
  6
CONTINUOUS
 10
320.1383810082
 20
51.6612169223
 11
320.5409560601
 21
51.6612169223
  0
LINE
  5
421
100
AcDbEntity
  8
606772173-000-00-ED1_FORMAT
100
AcDbLine
 62
2
  6
CONTINUOUS
 10
305.0850031937
 20
51.7612169223
 11
305.4976754456
 21
51.7612169223
  0
LINE
  5
422
100
AcDbEntity
  8
606772173-000-00-ED1_FORMAT
100
AcDbLine
 62
2
  6
CONTINUOUS
 10
306.5876624558
 20
51.7612169223
 11
306.7258203617
 21
51.7612169223
  0
LINE
  5
423
100
AcDbEntity
  8
606772173-000-00-ED1_FORMAT
100
AcDbLine
 62
2
  6
CONTINUOUS
 10
308.0249990741
 20
51.7612169223
 11
317.3708795944
 21
51.7612169223
  0
LINE
  5
424
100
AcDbEntity
  8
606772173-000-00-ED1_FORMAT
100
AcDbLine
 62
2
  6
CONTINUOUS
 10
317.9768299493
 20
51.7612169223
 11
318.1982881145
 21
51.7612169223
  0
LINE
  5
425
100
AcDbEntity
  8
606772173-000-00-ED1_FORMAT
100
AcDbLine
 62
2
  6
CONTINUOUS
 10
320.1383810082
 20
51.7612169223
 11
320.5409560601
 21
51.7612169223
  0
LINE
  5
426
100
AcDbEntity
  8
606772173-000-00-ED1_FORMAT
100
AcDbLine
 62
2
  6
CONTINUOUS
 10
305.0850031937
 20
51.8612169223
 11
305.4976754456
 21
51.8612169223
  0
LINE
  5
427
100
AcDbEntity
  8
606772173-000-00-ED1_FORMAT
100
AcDbLine
 62
2
  6
CONTINUOUS
 10
306.5876624558
 20
51.8612169223
 11
306.7256855626
 21
51.8612169223
  0
LINE
  5
428
100
AcDbEntity
  8
606772173-000-00-ED1_FORMAT
100
AcDbLine
 62
2
  6
CONTINUOUS
 10
307.8262690158
 20
51.8612169223
 11
317.5769695999
 21
51.8612169223
  0
LINE
  5
429
100
AcDbEntity
  8
606772173-000-00-ED1_FORMAT
100
AcDbLine
 62
2
  6
CONTINUOUS
 10
317.9768299493
 20
51.8612169223
 11
318.1654360589
 21
51.8612169223
  0
LINE
  5
42A
100
AcDbEntity
  8
606772173-000-00-ED1_FORMAT
100
AcDbLine
 62
2
  6
CONTINUOUS
 10
320.1383810082
 20
51.8612169223
 11
320.5409560601
 21
51.8612169223
  0
LINE
  5
42B
100
AcDbEntity
  8
606772173-000-00-ED1_FORMAT
100
AcDbLine
 62
2
  6
CONTINUOUS
 10
305.0850031937
 20
51.9612169223
 11
305.4976754456
 21
51.9612169223
  0
LINE
  5
42C
100
AcDbEntity
  8
606772173-000-00-ED1_FORMAT
100
AcDbLine
 62
2
  6
CONTINUOUS
 10
306.5876624558
 20
51.9612169223
 11
306.7255507634
 21
51.9612169223
  0
LINE
  5
42D
100
AcDbEntity
  8
606772173-000-00-ED1_FORMAT
100
AcDbLine
 62
2
  6
CONTINUOUS
 10
307.6275389575
 20
51.9612169223
 11
317.4415652387
 21
51.9612169223
  0
LINE
  5
42E
100
AcDbEntity
  8
606772173-000-00-ED1_FORMAT
100
AcDbLine
 62
2
  6
CONTINUOUS
 10
317.6038131628
 20
51.9612169223
 11
317.7830596054
 21
51.9612169223
  0
LINE
  5
42F
100
AcDbEntity
  8
606772173-000-00-ED1_FORMAT
100
AcDbLine
 62
2
  6
CONTINUOUS
 10
317.9768299493
 20
51.9612169223
 11
318.1654360589
 21
51.9612169223
  0
LINE
  5
430
100
AcDbEntity
  8
606772173-000-00-ED1_FORMAT
100
AcDbLine
 62
2
  6
CONTINUOUS
 10
320.1117998511
 20
51.9612169223
 11
320.5409560601
 21
51.9612169223
  0
LINE
  5
431
100
AcDbEntity
  8
606772173-000-00-ED1_FORMAT
100
AcDbLine
 62
2
  6
CONTINUOUS
 10
305.0850031937
 20
52.0612169223
 11
305.4976754456
 21
52.0612169223
  0
LINE
  5
432
100
AcDbEntity
  8
606772173-000-00-ED1_FORMAT
100
AcDbLine
 62
2
  6
CONTINUOUS
 10
306.5876624558
 20
52.0612169223
 11
306.7254159642
 21
52.0612169223
  0
LINE
  5
433
100
AcDbEntity
  8
606772173-000-00-ED1_FORMAT
100
AcDbLine
 62
2
  6
CONTINUOUS
 10
307.4288088992
 20
52.0612169223
 11
308.1737564759
 21
52.0612169223
  0
LINE
  5
434
100
AcDbEntity
  8
606772173-000-00-ED1_FORMAT
100
AcDbLine
 62
2
  6
CONTINUOUS
 10
308.326562177
 20
52.0612169223
 11
316.9400481234
 21
52.0612169223
  0
LINE
  5
435
100
AcDbEntity
  8
606772173-000-00-ED1_FORMAT
100
AcDbLine
 62
2
  6
CONTINUOUS
 10
317.5858212353
 20
52.0612169223
 11
318.1654360589
 21
52.0612169223
  0
LINE
  5
436
100
AcDbEntity
  8
606772173-000-00-ED1_FORMAT
100
AcDbLine
 62
2
  6
CONTINUOUS
 10
319.8719349704
 20
52.0612169223
 11
320.5409560601
 21
52.0612169223
  0
LINE
  5
437
100
AcDbEntity
  8
606772173-000-00-ED1_FORMAT
100
AcDbLine
 62
2
  6
CONTINUOUS
 10
305.0850031937
 20
52.1612169223
 11
305.4976754456
 21
52.1612169223
  0
LINE
  5
438
100
AcDbEntity
  8
606772173-000-00-ED1_FORMAT
100
AcDbLine
 62
2
  6
CONTINUOUS
 10
306.5876624558
 20
52.1612169223
 11
306.7252811651
 21
52.1612169223
  0
LINE
  5
439
100
AcDbEntity
  8
606772173-000-00-ED1_FORMAT
100
AcDbLine
 62
2
  6
CONTINUOUS
 10
307.2343142672
 20
52.1612169223
 11
307.3763373641
 21
52.1612169223
  0
LINE
  5
43A
100
AcDbEntity
  8
606772173-000-00-ED1_FORMAT
100
AcDbLine
 62
2
  6
CONTINUOUS
 10
307.4487604473
 20
52.1612169223
 11
308.1737564759
 21
52.1612169223
  0
LINE
  5
43B
100
AcDbEntity
  8
606772173-000-00-ED1_FORMAT
100
AcDbLine
 62
2
  6
CONTINUOUS
 10
308.7697562103
 20
52.1612169223
 11
316.510623604
 21
52.1612169223
  0
LINE
  5
43C
100
AcDbEntity
  8
606772173-000-00-ED1_FORMAT
100
AcDbLine
 62
2
  6
CONTINUOUS
 10
317.5678293079
 20
52.1612169223
 11
318.1654360589
 21
52.1612169223
  0
LINE
  5
43D
100
AcDbEntity
  8
606772173-000-00-ED1_FORMAT
100
AcDbLine
 62
2
  6
CONTINUOUS
 10
319.6320700897
 20
52.1612169223
 11
320.2983439148
 21
52.1612169223
  0
LINE
  5
43E
100
AcDbEntity
  8
606772173-000-00-ED1_FORMAT
100
AcDbLine
 62
2
  6
CONTINUOUS
 10
305.0850031937
 20
52.2612169223
 11
305.4976754456
 21
52.2612169223
  0
LINE
  5
43F
100
AcDbEntity
  8
606772173-000-00-ED1_FORMAT
100
AcDbLine
 62
2
  6
CONTINUOUS
 10
306.5876624558
 20
52.2612169223
 11
306.7251463659
 21
52.2612169223
  0
LINE
  5
440
100
AcDbEntity
  8
606772173-000-00-ED1_FORMAT
100
AcDbLine
 62
2
  6
CONTINUOUS
 10
307.0339179266
 20
52.2612169223
 11
307.3358574011
 21
52.2612169223
  0
LINE
  5
441
100
AcDbEntity
  8
606772173-000-00-ED1_FORMAT
100
AcDbLine
 62
2
  6
CONTINUOUS
 10
307.4899857745
 20
52.2612169223
 11
308.1737564759
 21
52.2612169223
  0
LINE
  5
442
100
AcDbEntity
  8
606772173-000-00-ED1_FORMAT
100
AcDbLine
 62
2
  6
CONTINUOUS
 10
309.1516114228
 20
52.2612169223
 11
316.5030757086
 21
52.2612169223
  0
LINE
  5
443
100
AcDbEntity
  8
606772173-000-00-ED1_FORMAT
100
AcDbLine
 62
2
  6
CONTINUOUS
 10
317.5498373805
 20
52.2612169223
 11
318.1654360589
 21
52.2612169223
  0
LINE
  5
444
100
AcDbEntity
  8
606772173-000-00-ED1_FORMAT
100
AcDbLine
 62
2
  6
CONTINUOUS
 10
319.392205209
 20
52.2612169223
 11
320.0495911282
 21
52.2612169223
  0
LINE
  5
445
100
AcDbEntity
  8
606772173-000-00-ED1_FORMAT
100
AcDbLine
 62
2
  6
CONTINUOUS
 10
305.0850031937
 20
52.3612169223
 11
305.4976754456
 21
52.3612169223
  0
LINE
  5
446
100
AcDbEntity
  8
606772173-000-00-ED1_FORMAT
100
AcDbLine
 62
2
  6
CONTINUOUS
 10
306.5876624558
 20
52.3612169223
 11
306.7250115668
 21
52.3612169223
  0
LINE
  5
447
100
AcDbEntity
  8
606772173-000-00-ED1_FORMAT
100
AcDbLine
 62
2
  6
CONTINUOUS
 10
306.833521586
 20
52.3612169223
 11
307.2953774381
 21
52.3612169223
  0
LINE
  5
448
100
AcDbEntity
  8
606772173-000-00-ED1_FORMAT
100
AcDbLine
 62
2
  6
CONTINUOUS
 10
307.5312111018
 20
52.3612169223
 11
308.1737564759
 21
52.3612169223
  0
LINE
  5
449
100
AcDbEntity
  8
606772173-000-00-ED1_FORMAT
100
AcDbLine
 62
2
  6
CONTINUOUS
 10
309.1516114228
 20
52.3612169223
 11
309.4866702568
 21
52.3612169223
  0
LINE
  5
44A
100
AcDbEntity
  8
606772173-000-00-ED1_FORMAT
100
AcDbLine
 62
2
  6
CONTINUOUS
 10
309.7733400551
 20
52.3612169223
 11
315.1266453693
 21
52.3612169223
  0
LINE
  5
44B
100
AcDbEntity
  8
606772173-000-00-ED1_FORMAT
100
AcDbLine
 62
2
  6
CONTINUOUS
 10
315.8559823799
 20
52.3612169223
 11
316.4955278133
 21
52.3612169223
  0
LINE
  5
44C
100
AcDbEntity
  8
606772173-000-00-ED1_FORMAT
100
AcDbLine
 62
2
  6
CONTINUOUS
 10
317.5318454531
 20
52.3612169223
 11
318.1654360589
 21
52.3612169223
  0
LINE
  5
44D
100
AcDbEntity
  8
606772173-000-00-ED1_FORMAT
100
AcDbLine
 62
2
  6
CONTINUOUS
 10
319.2068127099
 20
52.3612169223
 11
319.8008383416
 21
52.3612169223
  0
LINE
  5
44E
100
AcDbEntity
  8
606772173-000-00-ED1_FORMAT
100
AcDbLine
 62
2
  6
CONTINUOUS
 10
305.0850031937
 20
52.4612169223
 11
305.4976754456
 21
52.4612169223
  0
LINE
  5
44F
100
AcDbEntity
  8
606772173-000-00-ED1_FORMAT
100
AcDbLine
 62
2
  6
CONTINUOUS
 10
306.5876624558
 20
52.4612169223
 11
307.2548974752
 21
52.4612169223
  0
LINE
  5
450
100
AcDbEntity
  8
606772173-000-00-ED1_FORMAT
100
AcDbLine
 62
2
  6
CONTINUOUS
 10
307.5724364291
 20
52.4612169223
 11
308.1737564759
 21
52.4612169223
  0
LINE
  5
451
100
AcDbEntity
  8
606772173-000-00-ED1_FORMAT
100
AcDbLine
 62
2
  6
CONTINUOUS
 10
309.1516114228
 20
52.4612169223
 11
309.5134919565
 21
52.4612169223
  0
LINE
  5
452
100
AcDbEntity
  8
606772173-000-00-ED1_FORMAT
100
AcDbLine
 62
2
  6
CONTINUOUS
 10
310.5298759797
 20
52.4612169223
 11
314.8545938863
 21
52.4612169223
  0
LINE
  5
453
100
AcDbEntity
  8
606772173-000-00-ED1_FORMAT
100
AcDbLine
 62
2
  6
CONTINUOUS
 10
315.8741814988
 20
52.4612169223
 11
316.487979918
 21
52.4612169223
  0
LINE
  5
454
100
AcDbEntity
  8
606772173-000-00-ED1_FORMAT
100
AcDbLine
 62
2
  6
CONTINUOUS
 10
317.5138535256
 20
52.4612169223
 11
318.1654360589
 21
52.4612169223
  0
LINE
  5
455
100
AcDbEntity
  8
606772173-000-00-ED1_FORMAT
100
AcDbLine
 62
2
  6
CONTINUOUS
 10
319.2068127099
 20
52.4612169223
 11
319.559328991
 21
52.4612169223
  0
LINE
  5
456
100
AcDbEntity
  8
606772173-000-00-ED1_FORMAT
100
AcDbLine
 62
2
  6
CONTINUOUS
 10
305.0850031937
 20
52.5612169223
 11
305.4976754456
 21
52.5612169223
  0
LINE
  5
457
100
AcDbEntity
  8
606772173-000-00-ED1_FORMAT
100
AcDbLine
 62
2
  6
CONTINUOUS
 10
306.5876624558
 20
52.5612169223
 11
307.2144175122
 21
52.5612169223
  0
LINE
  5
458
100
AcDbEntity
  8
606772173-000-00-ED1_FORMAT
100
AcDbLine
 62
2
  6
CONTINUOUS
 10
307.6136617564
 20
52.5612169223
 11
308.1737564759
 21
52.5612169223
  0
LINE
  5
459
100
AcDbEntity
  8
606772173-000-00-ED1_FORMAT
100
AcDbLine
 62
2
  6
CONTINUOUS
 10
309.1516114228
 20
52.5612169223
 11
309.5403136563
 21
52.5612169223
  0
LINE
  5
45A
100
AcDbEntity
  8
606772173-000-00-ED1_FORMAT
100
AcDbLine
 62
2
  6
CONTINUOUS
 10
310.5516753979
 20
52.5612169223
 11
311.515468729
 21
52.5612169223
  0
LINE
  5
45B
100
AcDbEntity
  8
606772173-000-00-ED1_FORMAT
100
AcDbLine
 62
2
  6
CONTINUOUS
 10
312.3546934437
 20
52.5612169223
 11
312.7687535783
 21
52.5612169223
  0
LINE
  5
45C
100
AcDbEntity
  8
606772173-000-00-ED1_FORMAT
100
AcDbLine
 62
2
  6
CONTINUOUS
 10
313.6490428391
 20
52.5612169223
 11
314.8766440871
 21
52.5612169223
  0
LINE
  5
45D
100
AcDbEntity
  8
606772173-000-00-ED1_FORMAT
100
AcDbLine
 62
2
  6
CONTINUOUS
 10
315.8923806178
 20
52.5612169223
 11
316.4804320227
 21
52.5612169223
  0
LINE
  5
45E
100
AcDbEntity
  8
606772173-000-00-ED1_FORMAT
100
AcDbLine
 62
2
  6
CONTINUOUS
 10
317.4958615982
 20
52.5612169223
 11
318.1654360589
 21
52.5612169223
  0
LINE
  5
45F
100
AcDbEntity
  8
606772173-000-00-ED1_FORMAT
100
AcDbLine
 62
2
  6
CONTINUOUS
 10
319.2068127099
 20
52.5612169223
 11
319.559328991
 21
52.5612169223
  0
LINE
  5
460
100
AcDbEntity
  8
606772173-000-00-ED1_FORMAT
100
AcDbLine
 62
2
  6
CONTINUOUS
 10
312.3943235597
 20
52.5618121345
 11
312.5391021943
 21
52.5618121345
  0
LINE
  5
461
100
AcDbEntity
  8
606772173-000-00-ED1_FORMAT
100
AcDbLine
 62
2
  6
CONTINUOUS
 10
305.0850031937
 20
52.6612169223
 11
305.4976754456
 21
52.6612169223
  0
LINE
  5
462
100
AcDbEntity
  8
606772173-000-00-ED1_FORMAT
100
AcDbLine
 62
2
  6
CONTINUOUS
 10
306.5876624558
 20
52.6612169223
 11
307.1739375492
 21
52.6612169223
  0
LINE
  5
463
100
AcDbEntity
  8
606772173-000-00-ED1_FORMAT
100
AcDbLine
 62
2
  6
CONTINUOUS
 10
307.6548870837
 20
52.6612169223
 11
308.1737564759
 21
52.6612169223
  0
LINE
  5
464
100
AcDbEntity
  8
606772173-000-00-ED1_FORMAT
100
AcDbLine
 62
2
  6
CONTINUOUS
 10
309.1516114228
 20
52.6612169223
 11
309.567135356
 21
52.6612169223
  0
LINE
  5
465
100
AcDbEntity
  8
606772173-000-00-ED1_FORMAT
100
AcDbLine
 62
2
  6
CONTINUOUS
 10
310.5734748161
 20
52.6612169223
 11
311.4943348842
 21
52.6612169223
  0
LINE
  5
466
100
AcDbEntity
  8
606772173-000-00-ED1_FORMAT
100
AcDbLine
 62
2
  6
CONTINUOUS
 10
312.514745064
 20
52.6612169223
 11
312.7687535783
 21
52.6612169223
  0
LINE
  5
467
100
AcDbEntity
  8
606772173-000-00-ED1_FORMAT
100
AcDbLine
 62
2
  6
CONTINUOUS
 10
313.6488696546
 20
52.6612169223
 11
314.8986942879
 21
52.6612169223
  0
LINE
  5
468
100
AcDbEntity
  8
606772173-000-00-ED1_FORMAT
100
AcDbLine
 62
2
  6
CONTINUOUS
 10
315.9105797367
 20
52.6612169223
 11
316.0647338538
 21
52.6612169223
  0
LINE
  5
469
100
AcDbEntity
  8
606772173-000-00-ED1_FORMAT
100
AcDbLine
 62
2
  6
CONTINUOUS
 10
317.4778696708
 20
52.6612169223
 11
318.1654360589
 21
52.6612169223
  0
LINE
  5
46A
100
AcDbEntity
  8
606772173-000-00-ED1_FORMAT
100
AcDbLine
 62
2
  6
CONTINUOUS
 10
319.2068127099
 20
52.6612169223
 11
319.559328991
 21
52.6612169223
  0
LINE
  5
46B
100
AcDbEntity
  8
606772173-000-00-ED1_FORMAT
100
AcDbLine
 62
2
  6
CONTINUOUS
 10
305.0850031937
 20
52.7612169223
 11
305.4976754456
 21
52.7612169223
  0
LINE
  5
46C
100
AcDbEntity
  8
606772173-000-00-ED1_FORMAT
100
AcDbLine
 62
2
  6
CONTINUOUS
 10
306.5876624558
 20
52.7612169223
 11
307.1334575862
 21
52.7612169223
  0
LINE
  5
46D
100
AcDbEntity
  8
606772173-000-00-ED1_FORMAT
100
AcDbLine
 62
2
  6
CONTINUOUS
 10
307.696112411
 20
52.7612169223
 11
308.1737564759
 21
52.7612169223
  0
LINE
  5
46E
100
AcDbEntity
  8
606772173-000-00-ED1_FORMAT
100
AcDbLine
 62
2
  6
CONTINUOUS
 10
309.1516114228
 20
52.7612169223
 11
309.5939570558
 21
52.7612169223
  0
LINE
  5
46F
100
AcDbEntity
  8
606772173-000-00-ED1_FORMAT
100
AcDbLine
 62
2
  6
CONTINUOUS
 10
310.5952742343
 20
52.7612169223
 11
311.4732010394
 21
52.7612169223
  0
LINE
  5
470
100
AcDbEntity
  8
606772173-000-00-ED1_FORMAT
100
AcDbLine
 62
2
  6
CONTINUOUS
 10
312.490242089
 20
52.7612169223
 11
312.7687535783
 21
52.7612169223
  0
LINE
  5
471
100
AcDbEntity
  8
606772173-000-00-ED1_FORMAT
100
AcDbLine
 62
2
  6
CONTINUOUS
 10
313.6486964701
 20
52.7612169223
 11
314.9207444887
 21
52.7612169223
  0
LINE
  5
472
100
AcDbEntity
  8
606772173-000-00-ED1_FORMAT
100
AcDbLine
 62
2
  6
CONTINUOUS
 10
317.4598777433
 20
52.7612169223
 11
318.1654360589
 21
52.7612169223
  0
LINE
  5
473
100
AcDbEntity
  8
606772173-000-00-ED1_FORMAT
100
AcDbLine
 62
2
  6
CONTINUOUS
 10
319.2068127099
 20
52.7612169223
 11
319.559328991
 21
52.7612169223
  0
LINE
  5
474
100
AcDbEntity
  8
606772173-000-00-ED1_FORMAT
100
AcDbLine
 62
2
  6
CONTINUOUS
 10
305.0850031937
 20
52.8612169223
 11
305.4976754456
 21
52.8612169223
  0
LINE
  5
475
100
AcDbEntity
  8
606772173-000-00-ED1_FORMAT
100
AcDbLine
 62
2
  6
CONTINUOUS
 10
306.5876624558
 20
52.8612169223
 11
307.0929776233
 21
52.8612169223
  0
LINE
  5
476
100
AcDbEntity
  8
606772173-000-00-ED1_FORMAT
100
AcDbLine
 62
2
  6
CONTINUOUS
 10
307.7373377383
 20
52.8612169223
 11
308.1737564759
 21
52.8612169223
  0
LINE
  5
477
100
AcDbEntity
  8
606772173-000-00-ED1_FORMAT
100
AcDbLine
 62
2
  6
CONTINUOUS
 10
309.1516114228
 20
52.8612169223
 11
309.6207787556
 21
52.8612169223
  0
LINE
  5
478
100
AcDbEntity
  8
606772173-000-00-ED1_FORMAT
100
AcDbLine
 62
2
  6
CONTINUOUS
 10
310.6170736525
 20
52.8612169223
 11
311.4520671946
 21
52.8612169223
  0
LINE
  5
479
100
AcDbEntity
  8
606772173-000-00-ED1_FORMAT
100
AcDbLine
 62
2
  6
CONTINUOUS
 10
312.465739114
 20
52.8612169223
 11
312.7687535783
 21
52.8612169223
  0
LINE
  5
47A
100
AcDbEntity
  8
606772173-000-00-ED1_FORMAT
100
AcDbLine
 62
2
  6
CONTINUOUS
 10
313.6485232857
 20
52.8612169223
 11
314.9427946895
 21
52.8612169223
  0
LINE
  5
47B
100
AcDbEntity
  8
606772173-000-00-ED1_FORMAT
100
AcDbLine
 62
2
  6
CONTINUOUS
 10
317.4418858159
 20
52.8612169223
 11
318.1654360589
 21
52.8612169223
  0
LINE
  5
47C
100
AcDbEntity
  8
606772173-000-00-ED1_FORMAT
100
AcDbLine
 62
2
  6
CONTINUOUS
 10
319.2068127099
 20
52.8612169223
 11
319.6369745096
 21
52.8612169223
  0
LINE
  5
47D
100
AcDbEntity
  8
606772173-000-00-ED1_FORMAT
100
AcDbLine
 62
7
  6
CONTINUOUS
 10
410.0
 20
52.9546823745
 11
365.999998592
 21
52.9546823745
  0
LINE
  5
47E
100
AcDbEntity
  8
606772173-000-00-ED1_FORMAT
100
AcDbLine
 62
2
  6
CONTINUOUS
 10
305.0850031937
 20
52.9612169223
 11
305.4976754456
 21
52.9612169223
  0
LINE
  5
47F
100
AcDbEntity
  8
606772173-000-00-ED1_FORMAT
100
AcDbLine
 62
2
  6
CONTINUOUS
 10
306.5876624558
 20
52.9612169223
 11
307.0524976603
 21
52.9612169223
  0
LINE
  5
480
100
AcDbEntity
  8
606772173-000-00-ED1_FORMAT
100
AcDbLine
 62
2
  6
CONTINUOUS
 10
307.7785630656
 20
52.9612169223
 11
308.1737564759
 21
52.9612169223
  0
LINE
  5
481
100
AcDbEntity
  8
606772173-000-00-ED1_FORMAT
100
AcDbLine
 62
2
  6
CONTINUOUS
 10
309.1516114228
 20
52.9612169223
 11
309.6476004553
 21
52.9612169223
  0
LINE
  5
482
100
AcDbEntity
  8
606772173-000-00-ED1_FORMAT
100
AcDbLine
 62
2
  6
CONTINUOUS
 10
310.6388730707
 20
52.9612169223
 11
311.4309333498
 21
52.9612169223
  0
LINE
  5
483
100
AcDbEntity
  8
606772173-000-00-ED1_FORMAT
100
AcDbLine
 62
2
  6
CONTINUOUS
 10
312.441236139
 20
52.9612169223
 11
312.7687535783
 21
52.9612169223
  0
LINE
  5
484
100
AcDbEntity
  8
606772173-000-00-ED1_FORMAT
100
AcDbLine
 62
2
  6
CONTINUOUS
 10
313.6483501012
 20
52.9612169223
 11
314.9648448903
 21
52.9612169223
  0
LINE
  5
485
100
AcDbEntity
  8
606772173-000-00-ED1_FORMAT
100
AcDbLine
 62
2
  6
CONTINUOUS
 10
317.4238938885
 20
52.9612169223
 11
318.1654360589
 21
52.9612169223
  0
LINE
  5
486
100
AcDbEntity
  8
606772173-000-00-ED1_FORMAT
100
AcDbLine
 62
2
  6
CONTINUOUS
 10
319.2068127099
 20
52.9612169223
 11
319.8430403031
 21
52.9612169223
  0
LINE
  5
487
100
AcDbEntity
  8
606772173-000-00-ED1_FORMAT
100
AcDbLine
 62
2
  6
CONTINUOUS
 10
305.0850031937
 20
53.0612169223
 11
305.4976754456
 21
53.0612169223
  0
LINE
  5
488
100
AcDbEntity
  8
606772173-000-00-ED1_FORMAT
100
AcDbLine
 62
2
  6
CONTINUOUS
 10
306.5876624558
 20
53.0612169223
 11
307.0120176973
 21
53.0612169223
  0
LINE
  5
489
100
AcDbEntity
  8
606772173-000-00-ED1_FORMAT
100
AcDbLine
 62
2
  6
CONTINUOUS
 10
307.8197883929
 20
53.0612169223
 11
308.1737564759
 21
53.0612169223
  0
LINE
  5
48A
100
AcDbEntity
  8
606772173-000-00-ED1_FORMAT
100
AcDbLine
 62
2
  6
CONTINUOUS
 10
309.1516114228
 20
53.0612169223
 11
309.6744221551
 21
53.0612169223
  0
LINE
  5
48B
100
AcDbEntity
  8
606772173-000-00-ED1_FORMAT
100
AcDbLine
 62
2
  6
CONTINUOUS
 10
310.6606724889
 20
53.0612169223
 11
311.409799505
 21
53.0612169223
  0
LINE
  5
48C
100
AcDbEntity
  8
606772173-000-00-ED1_FORMAT
100
AcDbLine
 62
2
  6
CONTINUOUS
 10
312.416733164
 20
53.0612169223
 11
312.7687535783
 21
53.0612169223
  0
LINE
  5
48D
100
AcDbEntity
  8
606772173-000-00-ED1_FORMAT
100
AcDbLine
 62
2
  6
CONTINUOUS
 10
313.6481769167
 20
53.0612169223
 11
314.9868950911
 21
53.0612169223
  0
LINE
  5
48E
100
AcDbEntity
  8
606772173-000-00-ED1_FORMAT
100
AcDbLine
 62
2
  6
CONTINUOUS
 10
317.405901961
 20
53.0612169223
 11
318.1654360589
 21
53.0612169223
  0
LINE
  5
48F
100
AcDbEntity
  8
606772173-000-00-ED1_FORMAT
100
AcDbLine
 62
2
  6
CONTINUOUS
 10
319.2068127099
 20
53.0612169223
 11
320.0491060967
 21
53.0612169223
  0
LINE
  5
490
100
AcDbEntity
  8
606772173-000-00-ED1_FORMAT
100
AcDbLine
 62
2
  6
CONTINUOUS
 10
305.0850031937
 20
53.1612169223
 11
305.4976754456
 21
53.1612169223
  0
LINE
  5
491
100
AcDbEntity
  8
606772173-000-00-ED1_FORMAT
100
AcDbLine
 62
2
  6
CONTINUOUS
 10
306.5876624558
 20
53.1612169223
 11
306.9715377343
 21
53.1612169223
  0
LINE
  5
492
100
AcDbEntity
  8
606772173-000-00-ED1_FORMAT
100
AcDbLine
 62
2
  6
CONTINUOUS
 10
307.8610137202
 20
53.1612169223
 11
308.1737564759
 21
53.1612169223
  0
LINE
  5
493
100
AcDbEntity
  8
606772173-000-00-ED1_FORMAT
100
AcDbLine
 62
2
  6
CONTINUOUS
 10
309.1516114228
 20
53.1612169223
 11
309.7012438548
 21
53.1612169223
  0
LINE
  5
494
100
AcDbEntity
  8
606772173-000-00-ED1_FORMAT
100
AcDbLine
 62
2
  6
CONTINUOUS
 10
310.7347689956
 20
53.1612169223
 11
311.3886656602
 21
53.1612169223
  0
LINE
  5
495
100
AcDbEntity
  8
606772173-000-00-ED1_FORMAT
100
AcDbLine
 62
2
  6
CONTINUOUS
 10
312.3922301889
 20
53.1612169223
 11
312.7687535783
 21
53.1612169223
  0
LINE
  5
496
100
AcDbEntity
  8
606772173-000-00-ED1_FORMAT
100
AcDbLine
 62
2
  6
CONTINUOUS
 10
313.6480037323
 20
53.1612169223
 11
315.0089452919
 21
53.1612169223
  0
LINE
  5
497
100
AcDbEntity
  8
606772173-000-00-ED1_FORMAT
100
AcDbLine
 62
2
  6
CONTINUOUS
 10
317.3879100336
 20
53.1612169223
 11
318.1654360589
 21
53.1612169223
  0
LINE
  5
498
100
AcDbEntity
  8
606772173-000-00-ED1_FORMAT
100
AcDbLine
 62
2
  6
CONTINUOUS
 10
319.2068127099
 20
53.1612169223
 11
320.2551718903
 21
53.1612169223
  0
LINE
  5
499
100
AcDbEntity
  8
606772173-000-00-ED1_FORMAT
100
AcDbLine
 62
2
  6
CONTINUOUS
 10
305.0440585598
 20
53.2612169223
 11
305.4976754456
 21
53.2612169223
  0
LINE
  5
49A
100
AcDbEntity
  8
606772173-000-00-ED1_FORMAT
100
AcDbLine
 62
2
  6
CONTINUOUS
 10
306.5876624558
 20
53.2612169223
 11
306.9310577713
 21
53.2612169223
  0
LINE
  5
49B
100
AcDbEntity
  8
606772173-000-00-ED1_FORMAT
100
AcDbLine
 62
2
  6
CONTINUOUS
 10
307.9022390474
 20
53.2612169223
 11
308.1737564759
 21
53.2612169223
  0
LINE
  5
49C
100
AcDbEntity
  8
606772173-000-00-ED1_FORMAT
100
AcDbLine
 62
2
  6
CONTINUOUS
 10
309.1516114228
 20
53.2612169223
 11
309.7280655546
 21
53.2612169223
  0
LINE
  5
49D
100
AcDbEntity
  8
606772173-000-00-ED1_FORMAT
100
AcDbLine
 62
2
  6
CONTINUOUS
 10
312.3677272139
 20
53.2612169223
 11
312.7687535783
 21
53.2612169223
  0
LINE
  5
49E
100
AcDbEntity
  8
606772173-000-00-ED1_FORMAT
100
AcDbLine
 62
2
  6
CONTINUOUS
 10
313.8898374299
 20
53.2612169223
 11
315.0309954927
 21
53.2612169223
  0
LINE
  5
49F
100
AcDbEntity
  8
606772173-000-00-ED1_FORMAT
100
AcDbLine
 62
2
  6
CONTINUOUS
 10
317.3699181062
 20
53.2612169223
 11
318.1654360589
 21
53.2612169223
  0
LINE
  5
4A0
100
AcDbEntity
  8
606772173-000-00-ED1_FORMAT
100
AcDbLine
 62
2
  6
CONTINUOUS
 10
319.2068127099
 20
53.2612169223
 11
320.4612376839
 21
53.2612169223
  0
LINE
  5
4A1
100
AcDbEntity
  8
606772173-000-00-ED1_FORMAT
100
AcDbLine
 62
2
  6
CONTINUOUS
 10
304.8453278365
 20
53.3612169223
 11
305.4976754456
 21
53.3612169223
  0
LINE
  5
4A2
100
AcDbEntity
  8
606772173-000-00-ED1_FORMAT
100
AcDbLine
 62
2
  6
CONTINUOUS
 10
306.5876624558
 20
53.3612169223
 11
306.8905778084
 21
53.3612169223
  0
LINE
  5
4A3
100
AcDbEntity
  8
606772173-000-00-ED1_FORMAT
100
AcDbLine
 62
2
  6
CONTINUOUS
 10
307.9434643747
 20
53.3612169223
 11
308.1737564759
 21
53.3612169223
  0
LINE
  5
4A4
100
AcDbEntity
  8
606772173-000-00-ED1_FORMAT
100
AcDbLine
 62
2
  6
CONTINUOUS
 10
309.1516114228
 20
53.3612169223
 11
309.7548872544
 21
53.3612169223
  0
LINE
  5
4A5
100
AcDbEntity
  8
606772173-000-00-ED1_FORMAT
100
AcDbLine
 62
2
  6
CONTINUOUS
 10
312.3432242389
 20
53.3612169223
 11
312.7687535783
 21
53.3612169223
  0
LINE
  5
4A6
100
AcDbEntity
  8
606772173-000-00-ED1_FORMAT
100
AcDbLine
 62
2
  6
CONTINUOUS
 10
314.3042703099
 20
53.3612169223
 11
315.0530456934
 21
53.3612169223
  0
LINE
  5
4A7
100
AcDbEntity
  8
606772173-000-00-ED1_FORMAT
100
AcDbLine
 62
2
  6
CONTINUOUS
 10
317.3519261787
 20
53.3612169223
 11
318.1654360589
 21
53.3612169223
  0
LINE
  5
4A8
100
AcDbEntity
  8
606772173-000-00-ED1_FORMAT
100
AcDbLine
 62
2
  6
CONTINUOUS
 10
319.2068127099
 20
53.3612169223
 11
320.6673034775
 21
53.3612169223
  0
LINE
  5
4A9
100
AcDbEntity
  8
606772173-000-00-ED1_FORMAT
100
AcDbLine
 62
2
  6
CONTINUOUS
 10
304.6465971132
 20
53.4612169223
 11
305.4976754456
 21
53.4612169223
  0
LINE
  5
4AA
100
AcDbEntity
  8
606772173-000-00-ED1_FORMAT
100
AcDbLine
 62
2
  6
CONTINUOUS
 10
306.5876624558
 20
53.4612169223
 11
306.8500978454
 21
53.4612169223
  0
LINE
  5
4AB
100
AcDbEntity
  8
606772173-000-00-ED1_FORMAT
100
AcDbLine
 62
2
  6
CONTINUOUS
 10
307.984689702
 20
53.4612169223
 11
308.1737564759
 21
53.4612169223
  0
LINE
  5
4AC
100
AcDbEntity
  8
606772173-000-00-ED1_FORMAT
100
AcDbLine
 62
2
  6
CONTINUOUS
 10
309.1516114228
 20
53.4612169223
 11
309.7817089541
 21
53.4612169223
  0
LINE
  5
4AD
100
AcDbEntity
  8
606772173-000-00-ED1_FORMAT
100
AcDbLine
 62
2
  6
CONTINUOUS
 10
312.3187212639
 20
53.4612169223
 11
312.7687535783
 21
53.4612169223
  0
LINE
  5
4AE
100
AcDbEntity
  8
606772173-000-00-ED1_FORMAT
100
AcDbLine
 62
2
  6
CONTINUOUS
 10
314.4961822423
 20
53.4612169223
 11
315.0750958942
 21
53.4612169223
  0
LINE
  5
4AF
100
AcDbEntity
  8
606772173-000-00-ED1_FORMAT
100
AcDbLine
 62
2
  6
CONTINUOUS
 10
317.3339342513
 20
53.4612169223
 11
318.1654360589
 21
53.4612169223
  0
LINE
  5
4B0
100
AcDbEntity
  8
606772173-000-00-ED1_FORMAT
100
AcDbLine
 62
2
  6
CONTINUOUS
 10
319.2068127099
 20
53.4612169223
 11
320.873369271
 21
53.4612169223
  0
LINE
  5
4B1
100
AcDbEntity
  8
606772173-000-00-ED1_FORMAT
100
AcDbLine
 62
2
  6
CONTINUOUS
 10
304.4478663899
 20
53.5612169223
 11
305.4976754456
 21
53.5612169223
  0
LINE
  5
4B2
100
AcDbEntity
  8
606772173-000-00-ED1_FORMAT
100
AcDbLine
 62
2
  6
CONTINUOUS
 10
306.5876624558
 20
53.5612169223
 11
306.8096178824
 21
53.5612169223
  0
LINE
  5
4B3
100
AcDbEntity
  8
606772173-000-00-ED1_FORMAT
100
AcDbLine
 62
2
  6
CONTINUOUS
 10
308.0259150293
 20
53.5612169223
 11
308.1737564759
 21
53.5612169223
  0
LINE
  5
4B4
100
AcDbEntity
  8
606772173-000-00-ED1_FORMAT
100
AcDbLine
 62
2
  6
CONTINUOUS
 10
309.1516114228
 20
53.5612169223
 11
309.8085306539
 21
53.5612169223
  0
LINE
  5
4B5
100
AcDbEntity
  8
606772173-000-00-ED1_FORMAT
100
AcDbLine
 62
2
  6
CONTINUOUS
 10
312.2942182889
 20
53.5612169223
 11
312.7687535783
 21
53.5612169223
  0
LINE
  5
4B6
100
AcDbEntity
  8
606772173-000-00-ED1_FORMAT
100
AcDbLine
 62
2
  6
CONTINUOUS
 10
314.6285894584
 20
53.5612169223
 11
315.097146095
 21
53.5612169223
  0
LINE
  5
4B7
100
AcDbEntity
  8
606772173-000-00-ED1_FORMAT
100
AcDbLine
 62
2
  6
CONTINUOUS
 10
317.3159423239
 20
53.5612169223
 11
318.1654360589
 21
53.5612169223
  0
LINE
  5
4B8
100
AcDbEntity
  8
606772173-000-00-ED1_FORMAT
100
AcDbLine
 62
2
  6
CONTINUOUS
 10
319.2068127099
 20
53.5612169223
 11
321.0794350646
 21
53.5612169223
  0
LINE
  5
4B9
100
AcDbEntity
  8
606772173-000-00-ED1_FORMAT
100
AcDbLine
 62
2
  6
CONTINUOUS
 10
304.2491356666
 20
53.6612169223
 11
305.4976754456
 21
53.6612169223
  0
LINE
  5
4BA
100
AcDbEntity
  8
606772173-000-00-ED1_FORMAT
100
AcDbLine
 62
2
  6
CONTINUOUS
 10
306.5876624558
 20
53.6612169223
 11
306.7691379194
 21
53.6612169223
  0
LINE
  5
4BB
100
AcDbEntity
  8
606772173-000-00-ED1_FORMAT
100
AcDbLine
 62
2
  6
CONTINUOUS
 10
308.0671403566
 20
53.6612169223
 11
308.1737564759
 21
53.6612169223
  0
LINE
  5
4BC
100
AcDbEntity
  8
606772173-000-00-ED1_FORMAT
100
AcDbLine
 62
2
  6
CONTINUOUS
 10
309.1516114228
 20
53.6612169223
 11
309.8353523536
 21
53.6612169223
  0
LINE
  5
4BD
100
AcDbEntity
  8
606772173-000-00-ED1_FORMAT
100
AcDbLine
 62
2
  6
CONTINUOUS
 10
312.2697153139
 20
53.6612169223
 11
312.7687535783
 21
53.6612169223
  0
LINE
  5
4BE
100
AcDbEntity
  8
606772173-000-00-ED1_FORMAT
100
AcDbLine
 62
2
  6
CONTINUOUS
 10
314.7313458744
 20
53.6612169223
 11
315.1191962958
 21
53.6612169223
  0
LINE
  5
4BF
100
AcDbEntity
  8
606772173-000-00-ED1_FORMAT
100
AcDbLine
 62
2
  6
CONTINUOUS
 10
316.0266224027
 20
53.6612169223
 11
316.4071912766
 21
53.6612169223
  0
LINE
  5
4C0
100
AcDbEntity
  8
606772173-000-00-ED1_FORMAT
100
AcDbLine
 62
2
  6
CONTINUOUS
 10
317.2979503964
 20
53.6612169223
 11
318.1654360589
 21
53.6612169223
  0
LINE
  5
4C1
100
AcDbEntity
  8
606772173-000-00-ED1_FORMAT
100
AcDbLine
 62
2
  6
CONTINUOUS
 10
319.2068127099
 20
53.6612169223
 11
321.2855008582
 21
53.6612169223
  0
LINE
  5
4C2
100
AcDbEntity
  8
606772173-000-00-ED1_FORMAT
100
AcDbLine
 62
2
  6
CONTINUOUS
 10
304.0504049433
 20
53.7612169223
 11
305.4976754456
 21
53.7612169223
  0
LINE
  5
4C3
100
AcDbEntity
  8
606772173-000-00-ED1_FORMAT
100
AcDbLine
 62
2
  6
CONTINUOUS
 10
306.5876624558
 20
53.7612169223
 11
306.7286579565
 21
53.7612169223
  0
LINE
  5
4C4
100
AcDbEntity
  8
606772173-000-00-ED1_FORMAT
100
AcDbLine
 62
2
  6
CONTINUOUS
 10
308.1083656839
 20
53.7612169223
 11
308.1737564759
 21
53.7612169223
  0
LINE
  5
4C5
100
AcDbEntity
  8
606772173-000-00-ED1_FORMAT
100
AcDbLine
 62
2
  6
CONTINUOUS
 10
309.1516114228
 20
53.7612169223
 11
309.8621740534
 21
53.7612169223
  0
LINE
  5
4C6
100
AcDbEntity
  8
606772173-000-00-ED1_FORMAT
100
AcDbLine
 62
2
  6
CONTINUOUS
 10
312.2452123389
 20
53.7612169223
 11
312.7687535783
 21
53.7612169223
  0
LINE
  5
4C7
100
AcDbEntity
  8
606772173-000-00-ED1_FORMAT
100
AcDbLine
 62
2
  6
CONTINUOUS
 10
314.8062069384
 20
53.7612169223
 11
315.1412464966
 21
53.7612169223
  0
LINE
  5
4C8
100
AcDbEntity
  8
606772173-000-00-ED1_FORMAT
100
AcDbLine
 62
2
  6
CONTINUOUS
 10
316.0181043406
 20
53.7612169223
 11
316.3923233886
 21
53.7612169223
  0
LINE
  5
4C9
100
AcDbEntity
  8
606772173-000-00-ED1_FORMAT
100
AcDbLine
 62
2
  6
CONTINUOUS
 10
317.279958469
 20
53.7612169223
 11
318.1654360589
 21
53.7612169223
  0
LINE
  5
4CA
100
AcDbEntity
  8
606772173-000-00-ED1_FORMAT
100
AcDbLine
 62
2
  6
CONTINUOUS
 10
319.2068127099
 20
53.7612169223
 11
321.4915666518
 21
53.7612169223
  0
LINE
  5
4CB
100
AcDbEntity
  8
606772173-000-00-ED1_FORMAT
100
AcDbLine
 62
2
  6
CONTINUOUS
 10
303.85167422
 20
53.8612169223
 11
305.4976754456
 21
53.8612169223
  0
LINE
  5
4CC
100
AcDbEntity
  8
606772173-000-00-ED1_FORMAT
100
AcDbLine
 62
2
  6
CONTINUOUS
 10
306.5876624558
 20
53.8612169223
 11
306.6881779935
 21
53.8612169223
  0
LINE
  5
4CD
100
AcDbEntity
  8
606772173-000-00-ED1_FORMAT
100
AcDbLine
 62
2
  6
CONTINUOUS
 10
308.1495910112
 20
53.8612169223
 11
308.1737564759
 21
53.8612169223
  0
LINE
  5
4CE
100
AcDbEntity
  8
606772173-000-00-ED1_FORMAT
100
AcDbLine
 62
2
  6
CONTINUOUS
 10
309.1516114228
 20
53.8612169223
 11
309.8889957532
 21
53.8612169223
  0
LINE
  5
4CF
100
AcDbEntity
  8
606772173-000-00-ED1_FORMAT
100
AcDbLine
 62
2
  6
CONTINUOUS
 10
312.2207093639
 20
53.8612169223
 11
312.7687535783
 21
53.8612169223
  0
LINE
  5
4D0
100
AcDbEntity
  8
606772173-000-00-ED1_FORMAT
100
AcDbLine
 62
2
  6
CONTINUOUS
 10
314.8663911181
 20
53.8612169223
 11
315.1632966974
 21
53.8612169223
  0
LINE
  5
4D1
100
AcDbEntity
  8
606772173-000-00-ED1_FORMAT
100
AcDbLine
 62
2
  6
CONTINUOUS
 10
316.0320994653
 20
53.8612169223
 11
316.3774555006
 21
53.8612169223
  0
LINE
  5
4D2
100
AcDbEntity
  8
606772173-000-00-ED1_FORMAT
100
AcDbLine
 62
2
  6
CONTINUOUS
 10
317.2619665416
 20
53.8612169223
 11
318.1654360589
 21
53.8612169223
  0
LINE
  5
4D3
100
AcDbEntity
  8
606772173-000-00-ED1_FORMAT
100
AcDbLine
 62
2
  6
CONTINUOUS
 10
319.2068127099
 20
53.8612169223
 11
321.6976324454
 21
53.8612169223
  0
LINE
  5
4D4
100
AcDbEntity
  8
606772173-000-00-ED1_FORMAT
100
AcDbLine
 62
2
  6
CONTINUOUS
 10
303.6529434967
 20
53.9612169223
 11
305.4976754456
 21
53.9612169223
  0
LINE
  5
4D5
100
AcDbEntity
  8
606772173-000-00-ED1_FORMAT
100
AcDbLine
 62
2
  6
CONTINUOUS
 10
306.5876624558
 20
53.9612169223
 11
306.6476980305
 21
53.9612169223
  0
LINE
  5
4D6
100
AcDbEntity
  8
606772173-000-00-ED1_FORMAT
100
AcDbLine
 62
2
  6
CONTINUOUS
 10
309.1516114228
 20
53.9612169223
 11
309.9158174529
 21
53.9612169223
  0
LINE
  5
4D7
100
AcDbEntity
  8
606772173-000-00-ED1_FORMAT
100
AcDbLine
 62
2
  6
CONTINUOUS
 10
310.768326453
 20
53.9612169223
 11
311.2820181671
 21
53.9612169223
  0
LINE
  5
4D8
100
AcDbEntity
  8
606772173-000-00-ED1_FORMAT
100
AcDbLine
 62
2
  6
CONTINUOUS
 10
312.1962063889
 20
53.9612169223
 11
312.7687535783
 21
53.9612169223
  0
LINE
  5
4D9
100
AcDbEntity
  8
606772173-000-00-ED1_FORMAT
100
AcDbLine
 62
2
  6
CONTINUOUS
 10
314.9130254495
 20
53.9612169223
 11
315.1853468982
 21
53.9612169223
  0
LINE
  5
4DA
100
AcDbEntity
  8
606772173-000-00-ED1_FORMAT
100
AcDbLine
 62
2
  6
CONTINUOUS
 10
316.0460945899
 20
53.9612169223
 11
316.3625876126
 21
53.9612169223
  0
LINE
  5
4DB
100
AcDbEntity
  8
606772173-000-00-ED1_FORMAT
100
AcDbLine
 62
2
  6
CONTINUOUS
 10
317.2439746141
 20
53.9612169223
 11
318.1654360589
 21
53.9612169223
  0
LINE
  5
4DC
100
AcDbEntity
  8
606772173-000-00-ED1_FORMAT
100
AcDbLine
 62
2
  6
CONTINUOUS
 10
319.2068127099
 20
53.9612169223
 11
321.9036982389
 21
53.9612169223
  0
LINE
  5
4DD
100
AcDbEntity
  8
606772173-000-00-ED1_FORMAT
100
AcDbLine
 62
2
  6
CONTINUOUS
 10
303.4542127734
 20
54.0612169223
 11
305.4976754456
 21
54.0612169223
  0
LINE
  5
4DE
100
AcDbEntity
  8
606772173-000-00-ED1_FORMAT
100
AcDbLine
 62
2
  6
CONTINUOUS
 10
306.5876624558
 20
54.0612169223
 11
306.6072180675
 21
54.0612169223
  0
LINE
  5
4DF
100
AcDbEntity
  8
606772173-000-00-ED1_FORMAT
100
AcDbLine
 62
2
  6
CONTINUOUS
 10
309.1516114228
 20
54.0612169223
 11
309.9426391527
 21
54.0612169223
  0
LINE
  5
4E0
100
AcDbEntity
  8
606772173-000-00-ED1_FORMAT
100
AcDbLine
 62
2
  6
CONTINUOUS
 10
310.7902723221
 20
54.0612169223
 11
311.2610721888
 21
54.0612169223
  0
LINE
  5
4E1
100
AcDbEntity
  8
606772173-000-00-ED1_FORMAT
100
AcDbLine
 62
2
  6
CONTINUOUS
 10
312.1717034139
 20
54.0612169223
 11
312.7687535783
 21
54.0612169223
  0
LINE
  5
4E2
100
AcDbEntity
  8
606772173-000-00-ED1_FORMAT
100
AcDbLine
 62
2
  6
CONTINUOUS
 10
313.625958211
 20
54.0612169223
 11
313.8935627257
 21
54.0612169223
  0
LINE
  5
4E3
100
AcDbEntity
  8
606772173-000-00-ED1_FORMAT
100
AcDbLine
 62
2
  6
CONTINUOUS
 10
314.9511286237
 20
54.0612169223
 11
315.207397099
 21
54.0612169223
  0
LINE
  5
4E4
100
AcDbEntity
  8
606772173-000-00-ED1_FORMAT
100
AcDbLine
 62
2
  6
CONTINUOUS
 10
316.0600897146
 20
54.0612169223
 11
316.3477197245
 21
54.0612169223
  0
LINE
  5
4E5
100
AcDbEntity
  8
606772173-000-00-ED1_FORMAT
100
AcDbLine
 62
2
  6
CONTINUOUS
 10
317.2259826867
 20
54.0612169223
 11
318.1654360589
 21
54.0612169223
  0
LINE
  5
4E6
100
AcDbEntity
  8
606772173-000-00-ED1_FORMAT
100
AcDbLine
 62
2
  6
CONTINUOUS
 10
319.2068127099
 20
54.0612169223
 11
322.1097640325
 21
54.0612169223
  0
LINE
  5
4E7
100
AcDbEntity
  8
606772173-000-00-ED1_FORMAT
100
AcDbLine
 62
2
  6
CONTINUOUS
 10
303.2554820501
 20
54.1612169223
 11
305.4976754456
 21
54.1612169223
  0
LINE
  5
4E8
100
AcDbEntity
  8
606772173-000-00-ED1_FORMAT
100
AcDbLine
 62
2
  6
CONTINUOUS
 10
309.1516114228
 20
54.1612169223
 11
309.9694608525
 21
54.1612169223
  0
LINE
  5
4E9
100
AcDbEntity
  8
606772173-000-00-ED1_FORMAT
100
AcDbLine
 62
2
  6
CONTINUOUS
 10
310.8122181913
 20
54.1612169223
 11
311.2401262105
 21
54.1612169223
  0
LINE
  5
4EA
100
AcDbEntity
  8
606772173-000-00-ED1_FORMAT
100
AcDbLine
 62
2
  6
CONTINUOUS
 10
312.1472004389
 20
54.1612169223
 11
312.7687535783
 21
54.1612169223
  0
LINE
  5
4EB
100
AcDbEntity
  8
606772173-000-00-ED1_FORMAT
100
AcDbLine
 62
2
  6
CONTINUOUS
 10
313.6255064219
 20
54.1612169223
 11
314.0790479951
 21
54.1612169223
  0
LINE
  5
4EC
100
AcDbEntity
  8
606772173-000-00-ED1_FORMAT
100
AcDbLine
 62
2
  6
CONTINUOUS
 10
314.9838524179
 20
54.1612169223
 11
315.2294472997
 21
54.1612169223
  0
LINE
  5
4ED
100
AcDbEntity
  8
606772173-000-00-ED1_FORMAT
100
AcDbLine
 62
2
  6
CONTINUOUS
 10
316.0740848392
 20
54.1612169223
 11
316.3328518365
 21
54.1612169223
  0
LINE
  5
4EE
100
AcDbEntity
  8
606772173-000-00-ED1_FORMAT
100
AcDbLine
 62
2
  6
CONTINUOUS
 10
317.2079907593
 20
54.1612169223
 11
318.1654360589
 21
54.1612169223
  0
LINE
  5
4EF
100
AcDbEntity
  8
606772173-000-00-ED1_FORMAT
100
AcDbLine
 62
2
  6
CONTINUOUS
 10
319.2068127099
 20
54.1612169223
 11
322.3158298261
 21
54.1612169223
  0
LINE
  5
4F0
100
AcDbEntity
  8
606772173-000-00-ED1_FORMAT
100
AcDbLine
 62
2
  6
CONTINUOUS
 10
303.1527285403
 20
54.2612169223
 11
305.4976754456
 21
54.2612169223
  0
LINE
  5
4F1
100
AcDbEntity
  8
606772173-000-00-ED1_FORMAT
100
AcDbLine
 62
2
  6
CONTINUOUS
 10
309.1516114228
 20
54.2612169223
 11
309.9962825522
 21
54.2612169223
  0
LINE
  5
4F2
100
AcDbEntity
  8
606772173-000-00-ED1_FORMAT
100
AcDbLine
 62
2
  6
CONTINUOUS
 10
310.8341640604
 20
54.2612169223
 11
311.2191802322
 21
54.2612169223
  0
LINE
  5
4F3
100
AcDbEntity
  8
606772173-000-00-ED1_FORMAT
100
AcDbLine
 62
2
  6
CONTINUOUS
 10
312.1226974639
 20
54.2612169223
 11
312.7687535783
 21
54.2612169223
  0
LINE
  5
4F4
100
AcDbEntity
  8
606772173-000-00-ED1_FORMAT
100
AcDbLine
 62
2
  6
CONTINUOUS
 10
313.6250546327
 20
54.2612169223
 11
314.1633385198
 21
54.2612169223
  0
LINE
  5
4F5
100
AcDbEntity
  8
606772173-000-00-ED1_FORMAT
100
AcDbLine
 62
2
  6
CONTINUOUS
 10
315.0064005294
 20
54.2612169223
 11
315.2514975005
 21
54.2612169223
  0
LINE
  5
4F6
100
AcDbEntity
  8
606772173-000-00-ED1_FORMAT
100
AcDbLine
 62
2
  6
CONTINUOUS
 10
316.0880799638
 20
54.2612169223
 11
316.3179839485
 21
54.2612169223
  0
LINE
  5
4F7
100
AcDbEntity
  8
606772173-000-00-ED1_FORMAT
100
AcDbLine
 62
2
  6
CONTINUOUS
 10
317.1899988319
 20
54.2612169223
 11
318.1654360589
 21
54.2612169223
  0
LINE
  5
4F8
100
AcDbEntity
  8
606772173-000-00-ED1_FORMAT
100
AcDbLine
 62
2
  6
CONTINUOUS
 10
319.2068127099
 20
54.2612169223
 11
322.4223775784
 21
54.2612169223
  0
LINE
  5
4F9
100
AcDbEntity
  8
606772173-000-00-ED1_FORMAT
100
AcDbLine
 62
2
  6
CONTINUOUS
 10
303.3670363022
 20
54.3612169223
 11
305.4976754456
 21
54.3612169223
  0
LINE
  5
4FA
100
AcDbEntity
  8
606772173-000-00-ED1_FORMAT
100
AcDbLine
 62
2
  6
CONTINUOUS
 10
309.1516114228
 20
54.3612169223
 11
310.023104252
 21
54.3612169223
  0
LINE
  5
4FB
100
AcDbEntity
  8
606772173-000-00-ED1_FORMAT
100
AcDbLine
 62
2
  6
CONTINUOUS
 10
310.8561099295
 20
54.3612169223
 11
311.1982342538
 21
54.3612169223
  0
LINE
  5
4FC
100
AcDbEntity
  8
606772173-000-00-ED1_FORMAT
100
AcDbLine
 62
2
  6
CONTINUOUS
 10
312.0981944889
 20
54.3612169223
 11
312.7687535783
 21
54.3612169223
  0
LINE
  5
4FD
100
AcDbEntity
  8
606772173-000-00-ED1_FORMAT
100
AcDbLine
 62
2
  6
CONTINUOUS
 10
313.6246028436
 20
54.3612169223
 11
314.2089542591
 21
54.3612169223
  0
LINE
  5
4FE
100
AcDbEntity
  8
606772173-000-00-ED1_FORMAT
100
AcDbLine
 62
2
  6
CONTINUOUS
 10
315.0288327876
 20
54.3612169223
 11
315.2735477013
 21
54.3612169223
  0
LINE
  5
4FF
100
AcDbEntity
  8
606772173-000-00-ED1_FORMAT
100
AcDbLine
 62
2
  6
CONTINUOUS
 10
316.1020750885
 20
54.3612169223
 11
316.3031160605
 21
54.3612169223
  0
LINE
  5
500
100
AcDbEntity
  8
606772173-000-00-ED1_FORMAT
100
AcDbLine
 62
2
  6
CONTINUOUS
 10
317.1720069044
 20
54.3612169223
 11
318.1654360589
 21
54.3612169223
  0
LINE
  5
501
100
AcDbEntity
  8
606772173-000-00-ED1_FORMAT
100
AcDbLine
 62
2
  6
CONTINUOUS
 10
319.2068127099
 20
54.3612169223
 11
322.2001669143
 21
54.3612169223
  0
LINE
  5
502
100
AcDbEntity
  8
606772173-000-00-ED1_FORMAT
100
AcDbLine
 62
2
  6
CONTINUOUS
 10
303.581344064
 20
54.4612169223
 11
305.4976754456
 21
54.4612169223
  0
LINE
  5
503
100
AcDbEntity
  8
606772173-000-00-ED1_FORMAT
100
AcDbLine
 62
2
  6
CONTINUOUS
 10
309.1516114228
 20
54.4612169223
 11
310.0499259517
 21
54.4612169223
  0
LINE
  5
504
100
AcDbEntity
  8
606772173-000-00-ED1_FORMAT
100
AcDbLine
 62
2
  6
CONTINUOUS
 10
310.8780557987
 20
54.4612169223
 11
311.1772882755
 21
54.4612169223
  0
LINE
  5
505
100
AcDbEntity
  8
606772173-000-00-ED1_FORMAT
100
AcDbLine
 62
2
  6
CONTINUOUS
 10
312.0736915139
 20
54.4612169223
 11
312.7687535783
 21
54.4612169223
  0
LINE
  5
506
100
AcDbEntity
  8
606772173-000-00-ED1_FORMAT
100
AcDbLine
 62
2
  6
CONTINUOUS
 10
313.6241510544
 20
54.4612169223
 11
314.2323556081
 21
54.4612169223
  0
LINE
  5
507
100
AcDbEntity
  8
606772173-000-00-ED1_FORMAT
100
AcDbLine
 62
2
  6
CONTINUOUS
 10
315.0389016175
 20
54.4612169223
 11
315.2955979021
 21
54.4612169223
  0
LINE
  5
508
100
AcDbEntity
  8
606772173-000-00-ED1_FORMAT
100
AcDbLine
 62
2
  6
CONTINUOUS
 10
316.1160702131
 20
54.4612169223
 11
316.2882481725
 21
54.4612169223
  0
LINE
  5
509
100
AcDbEntity
  8
606772173-000-00-ED1_FORMAT
100
AcDbLine
 62
2
  6
CONTINUOUS
 10
317.154014977
 20
54.4612169223
 11
318.1654360589
 21
54.4612169223
  0
LINE
  5
50A
100
AcDbEntity
  8
606772173-000-00-ED1_FORMAT
100
AcDbLine
 62
2
  6
CONTINUOUS
 10
319.2068127099
 20
54.4612169223
 11
321.9779562502
 21
54.4612169223
  0
LINE
  5
50B
100
AcDbEntity
  8
606772173-000-00-ED1_FORMAT
100
AcDbLine
 62
2
  6
CONTINUOUS
 10
303.7956518259
 20
54.5612169223
 11
305.4976754456
 21
54.5612169223
  0
LINE
  5
50C
100
AcDbEntity
  8
606772173-000-00-ED1_FORMAT
100
AcDbLine
 62
2
  6
CONTINUOUS
 10
309.1516114228
 20
54.5612169223
 11
310.0767476515
 21
54.5612169223
  0
LINE
  5
50D
100
AcDbEntity
  8
606772173-000-00-ED1_FORMAT
100
AcDbLine
 62
2
  6
CONTINUOUS
 10
310.9000016678
 20
54.5612169223
 11
311.1563422972
 21
54.5612169223
  0
LINE
  5
50E
100
AcDbEntity
  8
606772173-000-00-ED1_FORMAT
100
AcDbLine
 62
2
  6
CONTINUOUS
 10
312.0491885388
 20
54.5612169223
 11
312.7687535783
 21
54.5612169223
  0
LINE
  5
50F
100
AcDbEntity
  8
606772173-000-00-ED1_FORMAT
100
AcDbLine
 62
2
  6
CONTINUOUS
 10
313.6236992653
 20
54.5612169223
 11
314.2449481092
 21
54.5612169223
  0
LINE
  5
510
100
AcDbEntity
  8
606772173-000-00-ED1_FORMAT
100
AcDbLine
 62
2
  6
CONTINUOUS
 10
315.0489704474
 20
54.5612169223
 11
315.3176481029
 21
54.5612169223
  0
LINE
  5
511
100
AcDbEntity
  8
606772173-000-00-ED1_FORMAT
100
AcDbLine
 62
2
  6
CONTINUOUS
 10
316.1300653377
 20
54.5612169223
 11
316.2733802845
 21
54.5612169223
  0
LINE
  5
512
100
AcDbEntity
  8
606772173-000-00-ED1_FORMAT
100
AcDbLine
 62
2
  6
CONTINUOUS
 10
317.1360230496
 20
54.5612169223
 11
318.1654360589
 21
54.5612169223
  0
LINE
  5
513
100
AcDbEntity
  8
606772173-000-00-ED1_FORMAT
100
AcDbLine
 62
2
  6
CONTINUOUS
 10
319.2068127099
 20
54.5612169223
 11
321.755745586
 21
54.5612169223
  0
LINE
  5
514
100
AcDbEntity
  8
606772173-000-00-ED1_FORMAT
100
AcDbLine
 62
2
  6
CONTINUOUS
 10
304.0099595877
 20
54.6612169223
 11
305.4976754456
 21
54.6612169223
  0
LINE
  5
515
100
AcDbEntity
  8
606772173-000-00-ED1_FORMAT
100
AcDbLine
 62
2
  6
CONTINUOUS
 10
309.1516114228
 20
54.6612169223
 11
310.1035693513
 21
54.6612169223
  0
LINE
  5
516
100
AcDbEntity
  8
606772173-000-00-ED1_FORMAT
100
AcDbLine
 62
2
  6
CONTINUOUS
 10
310.9219475369
 20
54.6612169223
 11
311.1353963189
 21
54.6612169223
  0
LINE
  5
517
100
AcDbEntity
  8
606772173-000-00-ED1_FORMAT
100
AcDbLine
 62
2
  6
CONTINUOUS
 10
312.0246855638
 20
54.6612169223
 11
312.7687535783
 21
54.6612169223
  0
LINE
  5
518
100
AcDbEntity
  8
606772173-000-00-ED1_FORMAT
100
AcDbLine
 62
2
  6
CONTINUOUS
 10
313.6232474762
 20
54.6612169223
 11
314.2513308978
 21
54.6612169223
  0
LINE
  5
519
100
AcDbEntity
  8
606772173-000-00-ED1_FORMAT
100
AcDbLine
 62
2
  6
CONTINUOUS
 10
315.0549566033
 20
54.6612169223
 11
315.3396983037
 21
54.6612169223
  0
LINE
  5
51A
100
AcDbEntity
  8
606772173-000-00-ED1_FORMAT
100
AcDbLine
 62
2
  6
CONTINUOUS
 10
316.1440604624
 20
54.6612169223
 11
316.2585123965
 21
54.6612169223
  0
LINE
  5
51B
100
AcDbEntity
  8
606772173-000-00-ED1_FORMAT
100
AcDbLine
 62
2
  6
CONTINUOUS
 10
317.1180311221
 20
54.6612169223
 11
318.1654360589
 21
54.6612169223
  0
LINE
  5
51C
100
AcDbEntity
  8
606772173-000-00-ED1_FORMAT
100
AcDbLine
 62
2
  6
CONTINUOUS
 10
319.2068127099
 20
54.6612169223
 11
321.5335349219
 21
54.6612169223
  0
LINE
  5
51D
100
AcDbEntity
  8
606772173-000-00-ED1_FORMAT
100
AcDbLine
 62
2
  6
CONTINUOUS
 10
304.2242673496
 20
54.7612169223
 11
305.4976754456
 21
54.7612169223
  0
LINE
  5
51E
100
AcDbEntity
  8
606772173-000-00-ED1_FORMAT
100
AcDbLine
 62
2
  6
CONTINUOUS
 10
309.1516114228
 20
54.7612169223
 11
310.130391051
 21
54.7612169223
  0
LINE
  5
51F
100
AcDbEntity
  8
606772173-000-00-ED1_FORMAT
100
AcDbLine
 62
2
  6
CONTINUOUS
 10
310.9438934061
 20
54.7612169223
 11
311.1144503405
 21
54.7612169223
  0
LINE
  5
520
100
AcDbEntity
  8
606772173-000-00-ED1_FORMAT
100
AcDbLine
 62
2
  6
CONTINUOUS
 10
312.0001825888
 20
54.7612169223
 11
312.7687535783
 21
54.7612169223
  0
LINE
  5
521
100
AcDbEntity
  8
606772173-000-00-ED1_FORMAT
100
AcDbLine
 62
2
  6
CONTINUOUS
 10
313.622795687
 20
54.7612169223
 11
314.243276854
 21
54.7612169223
  0
LINE
  5
522
100
AcDbEntity
  8
606772173-000-00-ED1_FORMAT
100
AcDbLine
 62
2
  6
CONTINUOUS
 10
315.0549566033
 20
54.7612169223
 11
315.3617485045
 21
54.7612169223
  0
LINE
  5
523
100
AcDbEntity
  8
606772173-000-00-ED1_FORMAT
100
AcDbLine
 62
2
  6
CONTINUOUS
 10
316.158055587
 20
54.7612169223
 11
316.2436445084
 21
54.7612169223
  0
LINE
  5
524
100
AcDbEntity
  8
606772173-000-00-ED1_FORMAT
100
AcDbLine
 62
2
  6
CONTINUOUS
 10
317.1000391947
 20
54.7612169223
 11
318.1654360589
 21
54.7612169223
  0
LINE
  5
525
100
AcDbEntity
  8
606772173-000-00-ED1_FORMAT
100
AcDbLine
 62
2
  6
CONTINUOUS
 10
319.2068127099
 20
54.7612169223
 11
321.3113242578
 21
54.7612169223
  0
LINE
  5
526
100
AcDbEntity
  8
606772173-000-00-ED1_FORMAT
100
AcDbLine
 62
2
  6
CONTINUOUS
 10
304.4385751114
 20
54.8612169223
 11
305.4976754456
 21
54.8612169223
  0
LINE
  5
527
100
AcDbEntity
  8
606772173-000-00-ED1_FORMAT
100
AcDbLine
 62
2
  6
CONTINUOUS
 10
307.3074853576
 20
54.8612169223
 11
307.3805938489
 21
54.8612169223
  0
LINE
  5
528
100
AcDbEntity
  8
606772173-000-00-ED1_FORMAT
100
AcDbLine
 62
2
  6
CONTINUOUS
 10
309.1516114228
 20
54.8612169223
 11
310.1572127508
 21
54.8612169223
  0
LINE
  5
529
100
AcDbEntity
  8
606772173-000-00-ED1_FORMAT
100
AcDbLine
 62
2
  6
CONTINUOUS
 10
310.9658392752
 20
54.8612169223
 11
311.0935043622
 21
54.8612169223
  0
LINE
  5
52A
100
AcDbEntity
  8
606772173-000-00-ED1_FORMAT
100
AcDbLine
 62
2
  6
CONTINUOUS
 10
311.9756796138
 20
54.8612169223
 11
312.7687535783
 21
54.8612169223
  0
LINE
  5
52B
100
AcDbEntity
  8
606772173-000-00-ED1_FORMAT
100
AcDbLine
 62
2
  6
CONTINUOUS
 10
313.6223438979
 20
54.8612169223
 11
314.2224299404
 21
54.8612169223
  0
LINE
  5
52C
100
AcDbEntity
  8
606772173-000-00-ED1_FORMAT
100
AcDbLine
 62
2
  6
CONTINUOUS
 10
315.0544618239
 20
54.8612169223
 11
315.3837987053
 21
54.8612169223
  0
LINE
  5
52D
100
AcDbEntity
  8
606772173-000-00-ED1_FORMAT
100
AcDbLine
 62
2
  6
CONTINUOUS
 10
316.1720507117
 20
54.8612169223
 11
316.2287766204
 21
54.8612169223
  0
LINE
  5
52E
100
AcDbEntity
  8
606772173-000-00-ED1_FORMAT
100
AcDbLine
 62
2
  6
CONTINUOUS
 10
317.0820472673
 20
54.8612169223
 11
318.1654360589
 21
54.8612169223
  0
LINE
  5
52F
100
AcDbEntity
  8
606772173-000-00-ED1_FORMAT
100
AcDbLine
 62
2
  6
CONTINUOUS
 10
319.2068127099
 20
54.8612169223
 11
321.0891135937
 21
54.8612169223
  0
LINE
  5
530
100
AcDbEntity
  8
606772173-000-00-ED1_FORMAT
100
AcDbLine
 62
2
  6
CONTINUOUS
 10
304.6528828733
 20
54.9612169223
 11
305.4976754456
 21
54.9612169223
  0
LINE
  5
531
100
AcDbEntity
  8
606772173-000-00-ED1_FORMAT
100
AcDbLine
 62
2
  6
CONTINUOUS
 10
307.2747904084
 20
54.9612169223
 11
307.4465769883
 21
54.9612169223
  0
LINE
  5
532
100
AcDbEntity
  8
606772173-000-00-ED1_FORMAT
100
AcDbLine
 62
2
  6
CONTINUOUS
 10
309.1516114228
 20
54.9612169223
 11
310.1840344505
 21
54.9612169223
  0
LINE
  5
533
100
AcDbEntity
  8
606772173-000-00-ED1_FORMAT
100
AcDbLine
 62
2
  6
CONTINUOUS
 10
310.9877851444
 20
54.9612169223
 11
311.0725583839
 21
54.9612169223
  0
LINE
  5
534
100
AcDbEntity
  8
606772173-000-00-ED1_FORMAT
100
AcDbLine
 62
2
  6
CONTINUOUS
 10
311.9511766388
 20
54.9612169223
 11
312.7687535783
 21
54.9612169223
  0
LINE
  5
535
100
AcDbEntity
  8
606772173-000-00-ED1_FORMAT
100
AcDbLine
 62
2
  6
CONTINUOUS
 10
313.6218921087
 20
54.9612169223
 11
314.1772743447
 21
54.9612169223
  0
LINE
  5
536
100
AcDbEntity
  8
606772173-000-00-ED1_FORMAT
100
AcDbLine
 62
2
  6
CONTINUOUS
 10
315.0419741551
 20
54.9612169223
 11
315.4058489061
 21
54.9612169223
  0
LINE
  5
537
100
AcDbEntity
  8
606772173-000-00-ED1_FORMAT
100
AcDbLine
 62
2
  6
CONTINUOUS
 10
316.1860458363
 20
54.9612169223
 11
316.2139087324
 21
54.9612169223
  0
LINE
  5
538
100
AcDbEntity
  8
606772173-000-00-ED1_FORMAT
100
AcDbLine
 62
2
  6
CONTINUOUS
 10
317.0640553398
 20
54.9612169223
 11
318.1654360589
 21
54.9612169223
  0
LINE
  5
539
100
AcDbEntity
  8
606772173-000-00-ED1_FORMAT
100
AcDbLine
 62
2
  6
CONTINUOUS
 10
319.2068127099
 20
54.9612169223
 11
320.8669029295
 21
54.9612169223
  0
LINE
  5
53A
100
AcDbEntity
  8
606772173-000-00-ED1_FORMAT
100
AcDbLine
 62
2
  6
CONTINUOUS
 10
304.8671906351
 20
55.0612169223
 11
305.4976754456
 21
55.0612169223
  0
LINE
  5
53B
100
AcDbEntity
  8
606772173-000-00-ED1_FORMAT
100
AcDbLine
 62
2
  6
CONTINUOUS
 10
307.2420954592
 20
55.0612169223
 11
307.5125601276
 21
55.0612169223
  0
LINE
  5
53C
100
AcDbEntity
  8
606772173-000-00-ED1_FORMAT
100
AcDbLine
 62
2
  6
CONTINUOUS
 10
309.1516114228
 20
55.0612169223
 11
310.2108561503
 21
55.0612169223
  0
LINE
  5
53D
100
AcDbEntity
  8
606772173-000-00-ED1_FORMAT
100
AcDbLine
 62
2
  6
CONTINUOUS
 10
311.0097310135
 20
55.0612169223
 11
311.0516124055
 21
55.0612169223
  0
LINE
  5
53E
100
AcDbEntity
  8
606772173-000-00-ED1_FORMAT
100
AcDbLine
 62
2
  6
CONTINUOUS
 10
311.9266736638
 20
55.0612169223
 11
312.7687535783
 21
55.0612169223
  0
LINE
  5
53F
100
AcDbEntity
  8
606772173-000-00-ED1_FORMAT
100
AcDbLine
 62
2
  6
CONTINUOUS
 10
313.6214403196
 20
55.0612169223
 11
314.0823675722
 21
55.0612169223
  0
LINE
  5
540
100
AcDbEntity
  8
606772173-000-00-ED1_FORMAT
100
AcDbLine
 62
2
  6
CONTINUOUS
 10
315.0186315978
 20
55.0612169223
 11
315.4278991068
 21
55.0612169223
  0
LINE
  5
541
100
AcDbEntity
  8
606772173-000-00-ED1_FORMAT
100
AcDbLine
 62
2
  6
CONTINUOUS
 10
317.0460634124
 20
55.0612169223
 11
318.1654360589
 21
55.0612169223
  0
LINE
  5
542
100
AcDbEntity
  8
606772173-000-00-ED1_FORMAT
100
AcDbLine
 62
2
  6
CONTINUOUS
 10
319.2068127099
 20
55.0612169223
 11
320.6446922654
 21
55.0612169223
  0
LINE
  5
543
100
AcDbEntity
  8
606772173-000-00-ED1_FORMAT
100
AcDbLine
 62
2
  6
CONTINUOUS
 10
305.081498397
 20
55.1612169223
 11
305.4976754456
 21
55.1612169223
  0
LINE
  5
544
100
AcDbEntity
  8
606772173-000-00-ED1_FORMAT
100
AcDbLine
 62
2
  6
CONTINUOUS
 10
307.20940051
 20
55.1612169223
 11
307.578543267
 21
55.1612169223
  0
LINE
  5
545
100
AcDbEntity
  8
606772173-000-00-ED1_FORMAT
100
AcDbLine
 62
2
  6
CONTINUOUS
 10
309.1516114228
 20
55.1612169223
 11
310.2376778501
 21
55.1612169223
  0
LINE
  5
546
100
AcDbEntity
  8
606772173-000-00-ED1_FORMAT
100
AcDbLine
 62
2
  6
CONTINUOUS
 10
311.9021706888
 20
55.1612169223
 11
312.7687535783
 21
55.1612169223
  0
LINE
  5
547
100
AcDbEntity
  8
606772173-000-00-ED1_FORMAT
100
AcDbLine
 62
2
  6
CONTINUOUS
 10
313.6209885304
 20
55.1612169223
 11
313.648597506
 21
55.1612169223
  0
LINE
  5
548
100
AcDbEntity
  8
606772173-000-00-ED1_FORMAT
100
AcDbLine
 62
2
  6
CONTINUOUS
 10
314.9929590246
 20
55.1612169223
 11
315.4499493076
 21
55.1612169223
  0
LINE
  5
549
100
AcDbEntity
  8
606772173-000-00-ED1_FORMAT
100
AcDbLine
 62
2
  6
CONTINUOUS
 10
317.028071485
 20
55.1612169223
 11
318.1654360589
 21
55.1612169223
  0
LINE
  5
54A
100
AcDbEntity
  8
606772173-000-00-ED1_FORMAT
100
AcDbLine
 62
2
  6
CONTINUOUS
 10
319.2068127099
 20
55.1612169223
 11
320.4224816013
 21
55.1612169223
  0
LINE
  5
54B
100
AcDbEntity
  8
606772173-000-00-ED1_FORMAT
100
AcDbLine
 62
2
  6
CONTINUOUS
 10
305.0855867265
 20
55.2612169223
 11
305.4976754456
 21
55.2612169223
  0
LINE
  5
54C
100
AcDbEntity
  8
606772173-000-00-ED1_FORMAT
100
AcDbLine
 62
2
  6
CONTINUOUS
 10
307.1767055608
 20
55.2612169223
 11
307.6445264063
 21
55.2612169223
  0
LINE
  5
54D
100
AcDbEntity
  8
606772173-000-00-ED1_FORMAT
100
AcDbLine
 62
2
  6
CONTINUOUS
 10
309.1516114228
 20
55.2612169223
 11
310.2644995498
 21
55.2612169223
  0
LINE
  5
54E
100
AcDbEntity
  8
606772173-000-00-ED1_FORMAT
100
AcDbLine
 62
2
  6
CONTINUOUS
 10
311.8776677138
 20
55.2612169223
 11
312.7687535783
 21
55.2612169223
  0
LINE
  5
54F
100
AcDbEntity
  8
606772173-000-00-ED1_FORMAT
100
AcDbLine
 62
2
  6
CONTINUOUS
 10
314.952943952
 20
55.2612169223
 11
315.4719995084
 21
55.2612169223
  0
LINE
  5
550
100
AcDbEntity
  8
606772173-000-00-ED1_FORMAT
100
AcDbLine
 62
2
  6
CONTINUOUS
 10
317.0100795575
 20
55.2612169223
 11
318.1654360589
 21
55.2612169223
  0
LINE
  5
551
100
AcDbEntity
  8
606772173-000-00-ED1_FORMAT
100
AcDbLine
 62
2
  6
CONTINUOUS
 10
319.2068127099
 20
55.2612169223
 11
320.2002709371
 21
55.2612169223
  0
LINE
  5
552
100
AcDbEntity
  8
606772173-000-00-ED1_FORMAT
100
AcDbLine
 62
2
  6
CONTINUOUS
 10
305.0855867265
 20
55.3612169223
 11
305.4976754456
 21
55.3612169223
  0
LINE
  5
553
100
AcDbEntity
  8
606772173-000-00-ED1_FORMAT
100
AcDbLine
 62
2
  6
CONTINUOUS
 10
307.1440106116
 20
55.3612169223
 11
307.7105095457
 21
55.3612169223
  0
LINE
  5
554
100
AcDbEntity
  8
606772173-000-00-ED1_FORMAT
100
AcDbLine
 62
2
  6
CONTINUOUS
 10
309.1516114228
 20
55.3612169223
 11
310.2913212496
 21
55.3612169223
  0
LINE
  5
555
100
AcDbEntity
  8
606772173-000-00-ED1_FORMAT
100
AcDbLine
 62
2
  6
CONTINUOUS
 10
311.8531647388
 20
55.3612169223
 11
312.7687535783
 21
55.3612169223
  0
LINE
  5
556
100
AcDbEntity
  8
606772173-000-00-ED1_FORMAT
100
AcDbLine
 62
2
  6
CONTINUOUS
 10
314.8979235488
 20
55.3612169223
 11
315.4940497092
 21
55.3612169223
  0
LINE
  5
557
100
AcDbEntity
  8
606772173-000-00-ED1_FORMAT
100
AcDbLine
 62
2
  6
CONTINUOUS
 10
316.9920876301
 20
55.3612169223
 11
318.1654360589
 21
55.3612169223
  0
LINE
  5
558
100
AcDbEntity
  8
606772173-000-00-ED1_FORMAT
100
AcDbLine
 62
2
  6
CONTINUOUS
 10
319.2068127099
 20
55.3612169223
 11
319.978060273
 21
55.3612169223
  0
LINE
  5
559
100
AcDbEntity
  8
606772173-000-00-ED1_FORMAT
100
AcDbLine
 62
2
  6
CONTINUOUS
 10
305.0855867265
 20
55.4612169223
 11
305.4976754456
 21
55.4612169223
  0
LINE
  5
55A
100
AcDbEntity
  8
606772173-000-00-ED1_FORMAT
100
AcDbLine
 62
2
  6
CONTINUOUS
 10
307.1113156624
 20
55.4612169223
 11
307.776492685
 21
55.4612169223
  0
LINE
  5
55B
100
AcDbEntity
  8
606772173-000-00-ED1_FORMAT
100
AcDbLine
 62
2
  6
CONTINUOUS
 10
309.1516114228
 20
55.4612169223
 11
310.3181429493
 21
55.4612169223
  0
LINE
  5
55C
100
AcDbEntity
  8
606772173-000-00-ED1_FORMAT
100
AcDbLine
 62
2
  6
CONTINUOUS
 10
311.8286617638
 20
55.4612169223
 11
312.7687535783
 21
55.4612169223
  0
LINE
  5
55D
100
AcDbEntity
  8
606772173-000-00-ED1_FORMAT
100
AcDbLine
 62
2
  6
CONTINUOUS
 10
314.8293698291
 20
55.4612169223
 11
315.51609991
 21
55.4612169223
  0
LINE
  5
55E
100
AcDbEntity
  8
606772173-000-00-ED1_FORMAT
100
AcDbLine
 62
2
  6
CONTINUOUS
 10
316.9740957027
 20
55.4612169223
 11
318.1654360589
 21
55.4612169223
  0
LINE
  5
55F
100
AcDbEntity
  8
606772173-000-00-ED1_FORMAT
100
AcDbLine
 62
2
  6
CONTINUOUS
 10
319.2068127099
 20
55.4612169223
 11
319.7558496089
 21
55.4612169223
  0
LINE
  5
560
100
AcDbEntity
  8
606772173-000-00-ED1_FORMAT
100
AcDbLine
 62
2
  6
CONTINUOUS
 10
305.0855867265
 20
55.5612169223
 11
305.4976754456
 21
55.5612169223
  0
LINE
  5
561
100
AcDbEntity
  8
606772173-000-00-ED1_FORMAT
100
AcDbLine
 62
2
  6
CONTINUOUS
 10
307.0786207132
 20
55.5612169223
 11
307.8424758243
 21
55.5612169223
  0
LINE
  5
562
100
AcDbEntity
  8
606772173-000-00-ED1_FORMAT
100
AcDbLine
 62
2
  6
CONTINUOUS
 10
309.1516114228
 20
55.5612169223
 11
310.3449646491
 21
55.5612169223
  0
LINE
  5
563
100
AcDbEntity
  8
606772173-000-00-ED1_FORMAT
100
AcDbLine
 62
2
  6
CONTINUOUS
 10
311.8041587888
 20
55.5612169223
 11
312.7687535783
 21
55.5612169223
  0
LINE
  5
564
100
AcDbEntity
  8
606772173-000-00-ED1_FORMAT
100
AcDbLine
 62
2
  6
CONTINUOUS
 10
314.7385066587
 20
55.5612169223
 11
315.5381501108
 21
55.5612169223
  0
LINE
  5
565
100
AcDbEntity
  8
606772173-000-00-ED1_FORMAT
100
AcDbLine
 62
2
  6
CONTINUOUS
 10
316.9561037752
 20
55.5612169223
 11
318.1654360589
 21
55.5612169223
  0
LINE
  5
566
100
AcDbEntity
  8
606772173-000-00-ED1_FORMAT
100
AcDbLine
 62
2
  6
CONTINUOUS
 10
319.2068127099
 20
55.5612169223
 11
319.6064909387
 21
55.5612169223
  0
LINE
  5
567
100
AcDbEntity
  8
606772173-000-00-ED1_FORMAT
100
AcDbLine
 62
2
  6
CONTINUOUS
 10
305.0855867265
 20
55.6612169223
 11
305.4976754456
 21
55.6612169223
  0
LINE
  5
568
100
AcDbEntity
  8
606772173-000-00-ED1_FORMAT
100
AcDbLine
 62
2
  6
CONTINUOUS
 10
307.045925764
 20
55.6612169223
 11
307.9084589637
 21
55.6612169223
  0
LINE
  5
569
100
AcDbEntity
  8
606772173-000-00-ED1_FORMAT
100
AcDbLine
 62
2
  6
CONTINUOUS
 10
309.1516114228
 20
55.6612169223
 11
310.3717863489
 21
55.6612169223
  0
LINE
  5
56A
100
AcDbEntity
  8
606772173-000-00-ED1_FORMAT
100
AcDbLine
 62
2
  6
CONTINUOUS
 10
311.7796558138
 20
55.6612169223
 11
312.7687535783
 21
55.6612169223
  0
LINE
  5
56B
100
AcDbEntity
  8
606772173-000-00-ED1_FORMAT
100
AcDbLine
 62
2
  6
CONTINUOUS
 10
314.6299847361
 20
55.6612169223
 11
315.5602003116
 21
55.6612169223
  0
LINE
  5
56C
100
AcDbEntity
  8
606772173-000-00-ED1_FORMAT
100
AcDbLine
 62
2
  6
CONTINUOUS
 10
316.9381118478
 20
55.6612169223
 11
318.1654360589
 21
55.6612169223
  0
LINE
  5
56D
100
AcDbEntity
  8
606772173-000-00-ED1_FORMAT
100
AcDbLine
 62
2
  6
CONTINUOUS
 10
319.2068127099
 20
55.6612169223
 11
319.6064909387
 21
55.6612169223
  0
LINE
  5
56E
100
AcDbEntity
  8
606772173-000-00-ED1_FORMAT
100
AcDbLine
 62
2
  6
CONTINUOUS
 10
305.0855867265
 20
55.7612169223
 11
305.4976754456
 21
55.7612169223
  0
LINE
  5
56F
100
AcDbEntity
  8
606772173-000-00-ED1_FORMAT
100
AcDbLine
 62
2
  6
CONTINUOUS
 10
307.0132308148
 20
55.7612169223
 11
307.974442103
 21
55.7612169223
  0
LINE
  5
570
100
AcDbEntity
  8
606772173-000-00-ED1_FORMAT
100
AcDbLine
 62
2
  6
CONTINUOUS
 10
309.1516114228
 20
55.7612169223
 11
310.3986080486
 21
55.7612169223
  0
LINE
  5
571
100
AcDbEntity
  8
606772173-000-00-ED1_FORMAT
100
AcDbLine
 62
2
  6
CONTINUOUS
 10
311.7551528388
 20
55.7612169223
 11
312.7687535783
 21
55.7612169223
  0
LINE
  5
572
100
AcDbEntity
  8
606772173-000-00-ED1_FORMAT
100
AcDbLine
 62
2
  6
CONTINUOUS
 10
314.4704308002
 20
55.7612169223
 11
315.5822505124
 21
55.7612169223
  0
LINE
  5
573
100
AcDbEntity
  8
606772173-000-00-ED1_FORMAT
100
AcDbLine
 62
2
  6
CONTINUOUS
 10
316.9201199204
 20
55.7612169223
 11
318.1654360589
 21
55.7612169223
  0
LINE
  5
574
100
AcDbEntity
  8
606772173-000-00-ED1_FORMAT
100
AcDbLine
 62
2
  6
CONTINUOUS
 10
319.2068127099
 20
55.7612169223
 11
319.6064909387
 21
55.7612169223
  0
LINE
  5
575
100
AcDbEntity
  8
606772173-000-00-ED1_FORMAT
100
AcDbLine
 62
2
  6
CONTINUOUS
 10
305.0855867265
 20
55.8612169223
 11
305.4976754456
 21
55.8612169223
  0
LINE
  5
576
100
AcDbEntity
  8
606772173-000-00-ED1_FORMAT
100
AcDbLine
 62
2
  6
CONTINUOUS
 10
306.9805358656
 20
55.8612169223
 11
308.0404252424
 21
55.8612169223
  0
LINE
  5
577
100
AcDbEntity
  8
606772173-000-00-ED1_FORMAT
100
AcDbLine
 62
2
  6
CONTINUOUS
 10
309.1516114228
 20
55.8612169223
 11
310.4254297484
 21
55.8612169223
  0
LINE
  5
578
100
AcDbEntity
  8
606772173-000-00-ED1_FORMAT
100
AcDbLine
 62
2
  6
CONTINUOUS
 10
311.7306498637
 20
55.8612169223
 11
312.7687535783
 21
55.8612169223
  0
LINE
  5
579
100
AcDbEntity
  8
606772173-000-00-ED1_FORMAT
100
AcDbLine
 62
2
  6
CONTINUOUS
 10
314.2272767393
 20
55.8612169223
 11
315.6043007131
 21
55.8612169223
  0
LINE
  5
57A
100
AcDbEntity
  8
606772173-000-00-ED1_FORMAT
100
AcDbLine
 62
2
  6
CONTINUOUS
 10
316.9021279929
 20
55.8612169223
 11
318.1654360589
 21
55.8612169223
  0
LINE
  5
57B
100
AcDbEntity
  8
606772173-000-00-ED1_FORMAT
100
AcDbLine
 62
2
  6
CONTINUOUS
 10
319.2068127099
 20
55.8612169223
 11
319.6064909387
 21
55.8612169223
  0
LINE
  5
57C
100
AcDbEntity
  8
606772173-000-00-ED1_FORMAT
100
AcDbLine
 62
2
  6
CONTINUOUS
 10
305.0855867265
 20
55.9612169223
 11
305.4976754456
 21
55.9612169223
  0
LINE
  5
57D
100
AcDbEntity
  8
606772173-000-00-ED1_FORMAT
100
AcDbLine
 62
2
  6
CONTINUOUS
 10
306.9478409164
 20
55.9612169223
 11
308.1064083817
 21
55.9612169223
  0
LINE
  5
57E
100
AcDbEntity
  8
606772173-000-00-ED1_FORMAT
100
AcDbLine
 62
2
  6
CONTINUOUS
 10
309.1516114228
 20
55.9612169223
 11
310.4522514481
 21
55.9612169223
  0
LINE
  5
57F
100
AcDbEntity
  8
606772173-000-00-ED1_FORMAT
100
AcDbLine
 62
2
  6
CONTINUOUS
 10
310.5444356071
 20
55.9612169223
 11
315.6263509139
 21
55.9612169223
  0
LINE
  5
580
100
AcDbEntity
  8
606772173-000-00-ED1_FORMAT
100
AcDbLine
 62
2
  6
CONTINUOUS
 10
316.8841360655
 20
55.9612169223
 11
318.1654360589
 21
55.9612169223
  0
LINE
  5
581
100
AcDbEntity
  8
606772173-000-00-ED1_FORMAT
100
AcDbLine
 62
2
  6
CONTINUOUS
 10
319.2068127099
 20
55.9612169223
 11
319.6064909387
 21
55.9612169223
  0
LINE
  5
582
100
AcDbEntity
  8
606772173-000-00-ED1_FORMAT
100
AcDbLine
 62
2
  6
CONTINUOUS
 10
305.0855867265
 20
56.0612169223
 11
305.4976754456
 21
56.0612169223
  0
LINE
  5
583
100
AcDbEntity
  8
606772173-000-00-ED1_FORMAT
100
AcDbLine
 62
2
  6
CONTINUOUS
 10
306.9151459672
 20
56.0612169223
 11
308.1723915211
 21
56.0612169223
  0
LINE
  5
584
100
AcDbEntity
  8
606772173-000-00-ED1_FORMAT
100
AcDbLine
 62
2
  6
CONTINUOUS
 10
309.1516114228
 20
56.0612169223
 11
315.6484011147
 21
56.0612169223
  0
LINE
  5
585
100
AcDbEntity
  8
606772173-000-00-ED1_FORMAT
100
AcDbLine
 62
2
  6
CONTINUOUS
 10
316.8661441381
 20
56.0612169223
 11
318.1654360589
 21
56.0612169223
  0
LINE
  5
586
100
AcDbEntity
  8
606772173-000-00-ED1_FORMAT
100
AcDbLine
 62
2
  6
CONTINUOUS
 10
319.2068127099
 20
56.0612169223
 11
319.6064909387
 21
56.0612169223
  0
LINE
  5
587
100
AcDbEntity
  8
606772173-000-00-ED1_FORMAT
100
AcDbLine
 62
2
  6
CONTINUOUS
 10
305.0855867265
 20
56.1612169223
 11
305.4976754456
 21
56.1612169223
  0
LINE
  5
588
100
AcDbEntity
  8
606772173-000-00-ED1_FORMAT
100
AcDbLine
 62
2
  6
CONTINUOUS
 10
306.882451018
 20
56.1612169223
 11
307.0650673072
 21
56.1612169223
  0
LINE
  5
589
100
AcDbEntity
  8
606772173-000-00-ED1_FORMAT
100
AcDbLine
 62
2
  6
CONTINUOUS
 10
307.2244391185
 20
56.1612169223
 11
308.2383746604
 21
56.1612169223
  0
LINE
  5
58A
100
AcDbEntity
  8
606772173-000-00-ED1_FORMAT
100
AcDbLine
 62
2
  6
CONTINUOUS
 10
308.9936781125
 20
56.1612169223
 11
315.9049870492
 21
56.1612169223
  0
LINE
  5
58B
100
AcDbEntity
  8
606772173-000-00-ED1_FORMAT
100
AcDbLine
 62
2
  6
CONTINUOUS
 10
316.8481522107
 20
56.1612169223
 11
318.1654360589
 21
56.1612169223
  0
LINE
  5
58C
100
AcDbEntity
  8
606772173-000-00-ED1_FORMAT
100
AcDbLine
 62
2
  6
CONTINUOUS
 10
319.2068127099
 20
56.1612169223
 11
319.6064909387
 21
56.1612169223
  0
LINE
  5
58D
100
AcDbEntity
  8
606772173-000-00-ED1_FORMAT
100
AcDbLine
 62
2
  6
CONTINUOUS
 10
305.0855867265
 20
56.2612169223
 11
305.4976754456
 21
56.2612169223
  0
LINE
  5
58E
100
AcDbEntity
  8
606772173-000-00-ED1_FORMAT
100
AcDbLine
 62
2
  6
CONTINUOUS
 10
306.8497560688
 20
56.2612169223
 11
307.0311892349
 21
56.2612169223
  0
LINE
  5
58F
100
AcDbEntity
  8
606772173-000-00-ED1_FORMAT
100
AcDbLine
 62
2
  6
CONTINUOUS
 10
307.4387402694
 20
56.2612169223
 11
308.3043577998
 21
56.2612169223
  0
LINE
  5
590
100
AcDbEntity
  8
606772173-000-00-ED1_FORMAT
100
AcDbLine
 62
2
  6
CONTINUOUS
 10
308.5068560725
 20
56.2612169223
 11
316.3485939609
 21
56.2612169223
  0
LINE
  5
591
100
AcDbEntity
  8
606772173-000-00-ED1_FORMAT
100
AcDbLine
 62
2
  6
CONTINUOUS
 10
316.8301602832
 20
56.2612169223
 11
318.1654360589
 21
56.2612169223
  0
LINE
  5
592
100
AcDbEntity
  8
606772173-000-00-ED1_FORMAT
100
AcDbLine
 62
2
  6
CONTINUOUS
 10
319.2068127099
 20
56.2612169223
 11
319.6064909387
 21
56.2612169223
  0
LINE
  5
593
100
AcDbEntity
  8
606772173-000-00-ED1_FORMAT
100
AcDbLine
 62
2
  6
CONTINUOUS
 10
305.0855867265
 20
56.3612169223
 11
305.4976754456
 21
56.3612169223
  0
LINE
  5
594
100
AcDbEntity
  8
606772173-000-00-ED1_FORMAT
100
AcDbLine
 62
2
  6
CONTINUOUS
 10
306.8170611196
 20
56.3612169223
 11
306.9973111626
 21
56.3612169223
  0
LINE
  5
595
100
AcDbEntity
  8
606772173-000-00-ED1_FORMAT
100
AcDbLine
 62
2
  6
CONTINUOUS
 10
307.6530414203
 20
56.3612169223
 11
316.7922008727
 21
56.3612169223
  0
LINE
  5
596
100
AcDbEntity
  8
606772173-000-00-ED1_FORMAT
100
AcDbLine
 62
2
  6
CONTINUOUS
 10
316.8121683558
 20
56.3612169223
 11
317.7559843721
 21
56.3612169223
  0
LINE
  5
597
100
AcDbEntity
  8
606772173-000-00-ED1_FORMAT
100
AcDbLine
 62
2
  6
CONTINUOUS
 10
317.9768299493
 20
56.3612169223
 11
318.1654360589
 21
56.3612169223
  0
LINE
  5
598
100
AcDbEntity
  8
606772173-000-00-ED1_FORMAT
100
AcDbLine
 62
2
  6
CONTINUOUS
 10
319.2068127099
 20
56.3612169223
 11
319.6064909387
 21
56.3612169223
  0
LINE
  5
599
100
AcDbEntity
  8
606772173-000-00-ED1_FORMAT
100
AcDbLine
 62
2
  6
CONTINUOUS
 10
305.0855867265
 20
56.4612169223
 11
305.4976754456
 21
56.4612169223
  0
LINE
  5
59A
100
AcDbEntity
  8
606772173-000-00-ED1_FORMAT
100
AcDbLine
 62
2
  6
CONTINUOUS
 10
306.7843661705
 20
56.4612169223
 11
306.9634330903
 21
56.4612169223
  0
LINE
  5
59B
100
AcDbEntity
  8
606772173-000-00-ED1_FORMAT
100
AcDbLine
 62
2
  6
CONTINUOUS
 10
307.8673425713
 20
56.4612169223
 11
317.5337737463
 21
56.4612169223
  0
LINE
  5
59C
100
AcDbEntity
  8
606772173-000-00-ED1_FORMAT
100
AcDbLine
 62
2
  6
CONTINUOUS
 10
317.9768299493
 20
56.4612169223
 11
318.1654360589
 21
56.4612169223
  0
LINE
  5
59D
100
AcDbEntity
  8
606772173-000-00-ED1_FORMAT
100
AcDbLine
 62
2
  6
CONTINUOUS
 10
319.2068127099
 20
56.4612169223
 11
319.6064909387
 21
56.4612169223
  0
LINE
  5
59E
100
AcDbEntity
  8
606772173-000-00-ED1_FORMAT
100
AcDbLine
 62
2
  6
CONTINUOUS
 10
305.0855867265
 20
56.5612169223
 11
305.4976754456
 21
56.5612169223
  0
LINE
  5
59F
100
AcDbEntity
  8
606772173-000-00-ED1_FORMAT
100
AcDbLine
 62
2
  6
CONTINUOUS
 10
306.7516712213
 20
56.5612169223
 11
306.929555018
 21
56.5612169223
  0
LINE
  5
5A0
100
AcDbEntity
  8
606772173-000-00-ED1_FORMAT
100
AcDbLine
 62
2
  6
CONTINUOUS
 10
308.0816437222
 20
56.5612169223
 11
317.3115631205
 21
56.5612169223
  0
LINE
  5
5A1
100
AcDbEntity
  8
606772173-000-00-ED1_FORMAT
100
AcDbLine
 62
2
  6
CONTINUOUS
 10
317.9768299493
 20
56.5612169223
 11
318.1654360589
 21
56.5612169223
  0
LINE
  5
5A2
100
AcDbEntity
  8
606772173-000-00-ED1_FORMAT
100
AcDbLine
 62
2
  6
CONTINUOUS
 10
319.2068127099
 20
56.5612169223
 11
319.6064909387
 21
56.5612169223
  0
LINE
  5
5A3
100
AcDbEntity
  8
606772173-000-00-ED1_FORMAT
100
AcDbLine
 62
2
  6
CONTINUOUS
 10
305.0855867265
 20
56.6612169223
 11
305.4976754456
 21
56.6612169223
  0
LINE
  5
5A4
100
AcDbEntity
  8
606772173-000-00-ED1_FORMAT
100
AcDbLine
 62
2
  6
CONTINUOUS
 10
306.7189762721
 20
56.6612169223
 11
306.8956769457
 21
56.6612169223
  0
LINE
  5
5A5
100
AcDbEntity
  8
606772173-000-00-ED1_FORMAT
100
AcDbLine
 62
2
  6
CONTINUOUS
 10
308.2959448731
 20
56.6612169223
 11
317.0893524946
 21
56.6612169223
  0
LINE
  5
5A6
100
AcDbEntity
  8
606772173-000-00-ED1_FORMAT
100
AcDbLine
 62
2
  6
CONTINUOUS
 10
317.9768299493
 20
56.6612169223
 11
318.1654360589
 21
56.6612169223
  0
LINE
  5
5A7
100
AcDbEntity
  8
606772173-000-00-ED1_FORMAT
100
AcDbLine
 62
2
  6
CONTINUOUS
 10
319.2068127099
 20
56.6612169223
 11
319.6064909387
 21
56.6612169223
  0
LINE
  5
5A8
100
AcDbEntity
  8
606772173-000-00-ED1_FORMAT
100
AcDbLine
 62
2
  6
CONTINUOUS
 10
305.0855867265
 20
56.7612169223
 11
305.4976754456
 21
56.7612169223
  0
LINE
  5
5A9
100
AcDbEntity
  8
606772173-000-00-ED1_FORMAT
100
AcDbLine
 62
2
  6
CONTINUOUS
 10
306.6862813229
 20
56.7612169223
 11
306.8617988734
 21
56.7612169223
  0
LINE
  5
5AA
100
AcDbEntity
  8
606772173-000-00-ED1_FORMAT
100
AcDbLine
 62
2
  6
CONTINUOUS
 10
308.510246024
 20
56.7612169223
 11
316.8671418688
 21
56.7612169223
  0
LINE
  5
5AB
100
AcDbEntity
  8
606772173-000-00-ED1_FORMAT
100
AcDbLine
 62
2
  6
CONTINUOUS
 10
317.9768299493
 20
56.7612169223
 11
318.1654360589
 21
56.7612169223
  0
LINE
  5
5AC
100
AcDbEntity
  8
606772173-000-00-ED1_FORMAT
100
AcDbLine
 62
2
  6
CONTINUOUS
 10
319.2068127099
 20
56.7612169223
 11
319.6064909387
 21
56.7612169223
  0
LINE
  5
5AD
100
AcDbEntity
  8
606772173-000-00-ED1_FORMAT
100
AcDbLine
 62
2
  6
CONTINUOUS
 10
305.0855867265
 20
56.8612169223
 11
305.4976754456
 21
56.8612169223
  0
LINE
  5
5AE
100
AcDbEntity
  8
606772173-000-00-ED1_FORMAT
100
AcDbLine
 62
2
  6
CONTINUOUS
 10
306.6535863737
 20
56.8612169223
 11
306.8279208011
 21
56.8612169223
  0
LINE
  5
5AF
100
AcDbEntity
  8
606772173-000-00-ED1_FORMAT
100
AcDbLine
 62
2
  6
CONTINUOUS
 10
308.7245471749
 20
56.8612169223
 11
316.6449312429
 21
56.8612169223
  0
LINE
  5
5B0
100
AcDbEntity
  8
606772173-000-00-ED1_FORMAT
100
AcDbLine
 62
2
  6
CONTINUOUS
 10
317.9768299493
 20
56.8612169223
 11
318.1654360589
 21
56.8612169223
  0
LINE
  5
5B1
100
AcDbEntity
  8
606772173-000-00-ED1_FORMAT
100
AcDbLine
 62
2
  6
CONTINUOUS
 10
319.2068127099
 20
56.8612169223
 11
319.6064909387
 21
56.8612169223
  0
LINE
  5
5B2
100
AcDbEntity
  8
606772173-000-00-ED1_FORMAT
100
AcDbLine
 62
2
  6
CONTINUOUS
 10
305.0855867265
 20
56.9612169223
 11
305.4976754456
 21
56.9612169223
  0
LINE
  5
5B3
100
AcDbEntity
  8
606772173-000-00-ED1_FORMAT
100
AcDbLine
 62
2
  6
CONTINUOUS
 10
306.6208914245
 20
56.9612169223
 11
306.7940427288
 21
56.9612169223
  0
LINE
  5
5B4
100
AcDbEntity
  8
606772173-000-00-ED1_FORMAT
100
AcDbLine
 62
2
  6
CONTINUOUS
 10
308.9388483258
 20
56.9612169223
 11
316.4227206171
 21
56.9612169223
  0
LINE
  5
5B5
100
AcDbEntity
  8
606772173-000-00-ED1_FORMAT
100
AcDbLine
 62
2
  6
CONTINUOUS
 10
317.9768299493
 20
56.9612169223
 11
318.1654360589
 21
56.9612169223
  0
LINE
  5
5B6
100
AcDbEntity
  8
606772173-000-00-ED1_FORMAT
100
AcDbLine
 62
2
  6
CONTINUOUS
 10
319.2068127099
 20
56.9612169223
 11
319.6064909387
 21
56.9612169223
  0
LINE
  5
5B7
100
AcDbEntity
  8
606772173-000-00-ED1_FORMAT
100
AcDbLine
 62
2
  6
CONTINUOUS
 10
305.0855867265
 20
57.0612169223
 11
305.4976754456
 21
57.0612169223
  0
LINE
  5
5B8
100
AcDbEntity
  8
606772173-000-00-ED1_FORMAT
100
AcDbLine
 62
2
  6
CONTINUOUS
 10
306.5881964753
 20
57.0612169223
 11
306.7601646565
 21
57.0612169223
  0
LINE
  5
5B9
100
AcDbEntity
  8
606772173-000-00-ED1_FORMAT
100
AcDbLine
 62
2
  6
CONTINUOUS
 10
309.1531494768
 20
57.0612169223
 11
316.2005099913
 21
57.0612169223
  0
LINE
  5
5BA
100
AcDbEntity
  8
606772173-000-00-ED1_FORMAT
100
AcDbLine
 62
2
  6
CONTINUOUS
 10
317.9768299493
 20
57.0612169223
 11
318.3455606316
 21
57.0612169223
  0
LINE
  5
5BB
100
AcDbEntity
  8
606772173-000-00-ED1_FORMAT
100
AcDbLine
 62
2
  6
CONTINUOUS
 10
319.2068127099
 20
57.0612169223
 11
319.6064909387
 21
57.0612169223
  0
LINE
  5
5BC
100
AcDbEntity
  8
606772173-000-00-ED1_FORMAT
100
AcDbLine
 62
2
  6
CONTINUOUS
 10
305.0855867265
 20
57.1612169223
 11
305.4976754456
 21
57.1612169223
  0
LINE
  5
5BD
100
AcDbEntity
  8
606772173-000-00-ED1_FORMAT
100
AcDbLine
 62
2
  6
CONTINUOUS
 10
306.4555411246
 20
57.1612169223
 11
306.7262865842
 21
57.1612169223
  0
LINE
  5
5BE
100
AcDbEntity
  8
606772173-000-00-ED1_FORMAT
100
AcDbLine
 62
2
  6
CONTINUOUS
 10
309.3674506277
 20
57.1612169223
 11
315.9782993654
 21
57.1612169223
  0
LINE
  5
5BF
100
AcDbEntity
  8
606772173-000-00-ED1_FORMAT
100
AcDbLine
 62
2
  6
CONTINUOUS
 10
318.1329117395
 20
57.1612169223
 11
318.5860115167
 21
57.1612169223
  0
LINE
  5
5C0
100
AcDbEntity
  8
606772173-000-00-ED1_FORMAT
100
AcDbLine
 62
2
  6
CONTINUOUS
 10
319.2068127099
 20
57.1612169223
 11
319.5794487609
 21
57.1612169223
  0
LINE
  5
5C1
100
AcDbEntity
  8
606772173-000-00-ED1_FORMAT
100
AcDbLine
 62
2
  6
CONTINUOUS
 10
305.0855867265
 20
57.2612169223
 11
305.4976754456
 21
57.2612169223
  0
LINE
  5
5C2
100
AcDbEntity
  8
606772173-000-00-ED1_FORMAT
100
AcDbLine
 62
2
  6
CONTINUOUS
 10
306.2508372927
 20
57.2612169223
 11
306.6290258773
 21
57.2612169223
  0
LINE
  5
5C3
100
AcDbEntity
  8
606772173-000-00-ED1_FORMAT
100
AcDbLine
 62
2
  6
CONTINUOUS
 10
309.5817517786
 20
57.2612169223
 11
315.7560887396
 21
57.2612169223
  0
LINE
  5
5C4
100
AcDbEntity
  8
606772173-000-00-ED1_FORMAT
100
AcDbLine
 62
2
  6
CONTINUOUS
 10
318.3681701388
 20
57.2612169223
 11
318.8264624019
 21
57.2612169223
  0
LINE
  5
5C5
100
AcDbEntity
  8
606772173-000-00-ED1_FORMAT
100
AcDbLine
 62
2
  6
CONTINUOUS
 10
319.2068127099
 20
57.2612169223
 11
319.511321886
 21
57.2612169223
  0
LINE
  5
5C6
100
AcDbEntity
  8
606772173-000-00-ED1_FORMAT
100
AcDbLine
 62
2
  6
CONTINUOUS
 10
305.0855867265
 20
57.3612169223
 11
305.4976754456
 21
57.3612169223
  0
LINE
  5
5C7
100
AcDbEntity
  8
606772173-000-00-ED1_FORMAT
100
AcDbLine
 62
2
  6
CONTINUOUS
 10
306.0461334607
 20
57.3612169223
 11
306.4241101874
 21
57.3612169223
  0
LINE
  5
5C8
100
AcDbEntity
  8
606772173-000-00-ED1_FORMAT
100
AcDbLine
 62
2
  6
CONTINUOUS
 10
309.7960529295
 20
57.3612169223
 11
315.5338781138
 21
57.3612169223
  0
LINE
  5
5C9
100
AcDbEntity
  8
606772173-000-00-ED1_FORMAT
100
AcDbLine
 62
2
  6
CONTINUOUS
 10
318.603428538
 20
57.3612169223
 11
319.066913287
 21
57.3612169223
  0
LINE
  5
5CA
100
AcDbEntity
  8
606772173-000-00-ED1_FORMAT
100
AcDbLine
 62
2
  6
CONTINUOUS
 10
319.2068127099
 20
57.3612169223
 11
319.443195011
 21
57.3612169223
  0
LINE
  5
5CB
100
AcDbEntity
  8
606772173-000-00-ED1_FORMAT
100
AcDbLine
 62
2
  6
CONTINUOUS
 10
305.0855867265
 20
57.4612169223
 11
305.4976754456
 21
57.4612169223
  0
LINE
  5
5CC
100
AcDbEntity
  8
606772173-000-00-ED1_FORMAT
100
AcDbLine
 62
2
  6
CONTINUOUS
 10
305.8414296288
 20
57.4612169223
 11
306.2191944974
 21
57.4612169223
  0
LINE
  5
5CD
100
AcDbEntity
  8
606772173-000-00-ED1_FORMAT
100
AcDbLine
 62
2
  6
CONTINUOUS
 10
310.0103540804
 20
57.4612169223
 11
315.3116674879
 21
57.4612169223
  0
LINE
  5
5CE
100
AcDbEntity
  8
606772173-000-00-ED1_FORMAT
100
AcDbLine
 62
2
  6
CONTINUOUS
 10
318.8386869373
 20
57.4612169223
 11
319.375068136
 21
57.4612169223
  0
LINE
  5
5CF
100
AcDbEntity
  8
606772173-000-00-ED1_FORMAT
100
AcDbLine
 62
2
  6
CONTINUOUS
 10
305.0855867265
 20
57.5612169223
 11
305.4976754456
 21
57.5612169223
  0
LINE
  5
5D0
100
AcDbEntity
  8
606772173-000-00-ED1_FORMAT
100
AcDbLine
 62
2
  6
CONTINUOUS
 10
305.6367257968
 20
57.5612169223
 11
306.0142788074
 21
57.5612169223
  0
LINE
  5
5D1
100
AcDbEntity
  8
606772173-000-00-ED1_FORMAT
100
AcDbLine
 62
2
  6
CONTINUOUS
 10
310.2246552313
 20
57.5612169223
 11
315.0894568621
 21
57.5612169223
  0
LINE
  5
5D2
100
AcDbEntity
  8
606772173-000-00-ED1_FORMAT
100
AcDbLine
 62
2
  6
CONTINUOUS
 10
319.0739453365
 20
57.5612169223
 11
319.306941261
 21
57.5612169223
  0
LINE
  5
5D3
100
AcDbEntity
  8
606772173-000-00-ED1_FORMAT
100
AcDbLine
 62
2
  6
CONTINUOUS
 10
305.154016136
 20
57.6612169223
 11
305.8093631174
 21
57.6612169223
  0
LINE
  5
5D4
100
AcDbEntity
  8
606772173-000-00-ED1_FORMAT
100
AcDbLine
 62
2
  6
CONTINUOUS
 10
310.4389563822
 20
57.6612169223
 11
314.8672462362
 21
57.6612169223
  0
LINE
  5
5D5
100
AcDbEntity
  8
606772173-000-00-ED1_FORMAT
100
AcDbLine
 62
2
  6
CONTINUOUS
 10
305.3624826996
 20
57.7612169223
 11
305.6044474274
 21
57.7612169223
  0
LINE
  5
5D6
100
AcDbEntity
  8
606772173-000-00-ED1_FORMAT
100
AcDbLine
 62
2
  6
CONTINUOUS
 10
310.6532575332
 20
57.7612169223
 11
314.6450356104
 21
57.7612169223
  0
LINE
  5
5D7
100
AcDbEntity
  8
606772173-000-00-ED1_FORMAT
100
AcDbLine
 62
2
  6
CONTINUOUS
 10
310.8675586841
 20
57.8612169223
 11
314.4228249846
 21
57.8612169223
  0
LINE
  5
5D8
100
AcDbEntity
  8
606772173-000-00-ED1_FORMAT
100
AcDbLine
 62
2
  6
CONTINUOUS
 10
311.081859835
 20
57.9612169223
 11
314.2006143587
 21
57.9612169223
  0
LINE
  5
5D9
100
AcDbEntity
  8
606772173-000-00-ED1_FORMAT
100
AcDbLine
 62
2
  6
CONTINUOUS
 10
311.2961609859
 20
58.0612169223
 11
313.9784037329
 21
58.0612169223
  0
LINE
  5
5DA
100
AcDbEntity
  8
606772173-000-00-ED1_FORMAT
100
AcDbLine
 62
2
  6
CONTINUOUS
 10
311.5104621368
 20
58.1612169223
 11
313.756193107
 21
58.1612169223
  0
LINE
  5
5DB
100
AcDbEntity
  8
606772173-000-00-ED1_FORMAT
100
AcDbLine
 62
2
  6
CONTINUOUS
 10
311.7247632877
 20
58.2612169223
 11
313.5339824812
 21
58.2612169223
  0
LINE
  5
5DC
100
AcDbEntity
  8
606772173-000-00-ED1_FORMAT
100
AcDbLine
 62
2
  6
CONTINUOUS
 10
311.9390644386
 20
58.3612169223
 11
313.3117718554
 21
58.3612169223
  0
LINE
  5
5DD
100
AcDbEntity
  8
606772173-000-00-ED1_FORMAT
100
AcDbLine
 62
2
  6
CONTINUOUS
 10
312.1533655896
 20
58.4612169223
 11
313.0895612295
 21
58.4612169223
  0
LINE
  5
5DE
100
AcDbEntity
  8
606772173-000-00-ED1_FORMAT
100
AcDbLine
 62
2
  6
CONTINUOUS
 10
312.3676667405
 20
58.5612169223
 11
312.8673506037
 21
58.5612169223
  0
LINE
  5
5DF
100
AcDbEntity
  8
606772173-000-00-ED1_FORMAT
100
AcDbLine
 62
2
  6
CONTINUOUS
 10
312.5819678914
 20
58.6612169223
 11
312.6451399778
 21
58.6612169223
  0
LINE
  5
5E0
100
AcDbEntity
  8
606772173-000-00-ED1_FORMAT
100
AcDbLine
 62
7
  6
CONTINUOUS
 10
410.0
 20
58.9546825665
 11
365.999998592
 21
58.9546825665
  0
LINE
  5
5E1
100
AcDbEntity
  8
606772173-000-00-ED1_FORMAT
100
AcDbLine
 62
2
  6
CONTINUOUS
 10
311.7224794206
 20
55.894561621
 11
311.4496882966
 21
55.9014380805
  0
LINE
  5
5E2
100
AcDbEntity
  8
606772173-000-00-ED1_FORMAT
100
AcDbLine
 62
2
  6
CONTINUOUS
 10
311.7224794206
 20
55.894561621
 11
311.1712806703
 21
55.9102124213
  0
LINE
  5
5E3
100
AcDbEntity
  8
606772173-000-00-ED1_FORMAT
100
AcDbLine
 62
2
  6
CONTINUOUS
 10
311.4496882966
 20
55.9014380805
 11
311.1712806703
 21
55.9102124213
  0
LINE
  5
5E4
100
AcDbEntity
  8
606772173-000-00-ED1_FORMAT
100
AcDbLine
 62
2
  6
CONTINUOUS
 10
312.7687535783
 20
52.5591239173
 11
312.9504198167
 21
52.5526130553
  0
LINE
  5
5E5
100
AcDbEntity
  8
606772173-000-00-ED1_FORMAT
100
AcDbLine
 62
2
  6
CONTINUOUS
 10
313.7515477128
 20
55.1560492255
 11
313.6209822678
 21
55.162603099
  0
LINE
  5
5E6
100
AcDbEntity
  8
606772173-000-00-ED1_FORMAT
100
AcDbLine
 62
2
  6
CONTINUOUS
 10
311.1712806703
 20
55.9102124213
 11
310.8879963776
 21
55.9259116095
  0
LINE
  5
5E7
100
AcDbEntity
  8
606772173-000-00-ED1_FORMAT
100
AcDbLine
 62
2
  6
CONTINUOUS
 10
312.9504198167
 20
52.5526130553
 11
313.2565348267
 21
52.5334030555
  0
LINE
  5
5E8
100
AcDbEntity
  8
606772173-000-00-ED1_FORMAT
100
AcDbLine
 62
2
  6
CONTINUOUS
 10
313.5203541352
 20
52.5109618186
 11
313.6491481416
 21
52.5004132544
  0
LINE
  5
5E9
100
AcDbEntity
  8
606772173-000-00-ED1_FORMAT
100
AcDbLine
 62
2
  6
CONTINUOUS
 10
313.2565348267
 20
52.5334030555
 11
313.3911850007
 21
52.5222093192
  0
LINE
  5
5EA
100
AcDbEntity
  8
606772173-000-00-ED1_FORMAT
100
AcDbLine
 62
2
  6
CONTINUOUS
 10
313.2565348267
 20
52.5334030555
 11
313.6491481416
 21
52.5004132544
  0
LINE
  5
5EB
100
AcDbEntity
  8
606772173-000-00-ED1_FORMAT
100
AcDbLine
 62
2
  6
CONTINUOUS
 10
313.3911850007
 20
52.5222093192
 11
313.5203541352
 21
52.5109618186
  0
LINE
  5
5EC
100
AcDbEntity
  8
606772173-000-00-ED1_FORMAT
100
AcDbLine
 62
7
  6
CONTINUOUS
 10
135.000019298
 20
287.0000045341
 11
135.000019298
 21
259.0000098321
  0
LINE
  5
5ED
100
AcDbEntity
  8
606772173-000-00-ED1_FORMAT
100
AcDbLine
 62
7
  6
CONTINUOUS
 10
146.999991584
 20
65.00000176
 11
410.0
 21
65.00000176
  0
LINE
  5
5EE
100
AcDbEntity
  8
606772173-000-00-ED1_FORMAT
100
AcDbLine
 62
7
  6
CONTINUOUS
 10
146.999993584
 20
72.500002
 11
410.0
 21
72.500002
  0
LINE
  5
5EF
100
AcDbEntity
  8
606772173-000-00-ED1_FORMAT
100
AcDbLine
 62
2
  6
CONTINUOUS
 10
310.8879963776
 20
55.9259116095
 11
310.6005648347
 21
55.9535357291
  0
LINE
  5
5F0
100
AcDbEntity
  8
606772173-000-00-ED1_FORMAT
100
AcDbLine
 62
2
  6
CONTINUOUS
 10
316.4130664758
 20
53.6217008918
 11
316.0044268517
 21
53.6634865394
  0
LINE
  5
5F1
100
AcDbEntity
  8
606772173-000-00-ED1_FORMAT
100
AcDbLine
 62
2
  6
CONTINUOUS
 10
314.8399247979
 20
52.3946910499
 11
315.8408084466
 21
52.2778396262
  0
LINE
  5
5F2
100
AcDbEntity
  8
606772173-000-00-ED1_FORMAT
100
AcDbLine
 62
2
  6
CONTINUOUS
 10
313.8717033509
 20
55.14090381
 11
313.7515477128
 21
55.1560492255
  0
LINE
  5
5F3
100
AcDbEntity
  8
606772173-000-00-ED1_FORMAT
100
AcDbLine
 62
2
  6
CONTINUOUS
 10
310.6005648347
 20
55.9535357291
 11
310.4555152741
 21
55.9733855246
  0
LINE
  5
5F4
100
AcDbEntity
  8
606772173-000-00-ED1_FORMAT
100
AcDbLine
 62
2
  6
CONTINUOUS
 10
314.0345193986
 20
55.9111586738
 11
313.8726828523
 21
55.9364870559
  0
LINE
  5
5F5
100
AcDbEntity
  8
606772173-000-00-ED1_FORMAT
100
AcDbLine
 62
2
  6
CONTINUOUS
 10
315.9152088677
 20
52.6866529395
 11
316.4781928948
 21
52.5908825149
  0
LINE
  5
5F6
100
AcDbEntity
  8
606772173-000-00-ED1_FORMAT
100
AcDbLine
 62
2
  6
CONTINUOUS
 10
316.5117251855
 20
52.14662237
 11
317.609850393
 21
51.9276617057
  0
LINE
  5
5F7
100
AcDbEntity
  8
606772173-000-00-ED1_FORMAT
100
AcDbLine
 62
7
  6
CONTINUOUS
 10
146.999991584
 20
10.0
 11
146.999993584
 21
72.500002
  0
LINE
  5
5F8
100
AcDbEntity
  8
606772173-000-00-ED1_FORMAT
100
AcDbLine
 62
2
  6
CONTINUOUS
 10
309.1516114228
 20
56.1287752295
 11
308.3285281083
 21
56.2978479598
  0
LINE
  5
5F9
100
AcDbEntity
  8
606772173-000-00-ED1_FORMAT
100
AcDbLine
 62
2
  6
CONTINUOUS
 10
314.1823667901
 20
55.8760075461
 11
314.0345193986
 21
55.9111586738
  0
LINE
  5
5FA
100
AcDbEntity
  8
606772173-000-00-ED1_FORMAT
100
AcDbLine
 62
2
  6
CONTINUOUS
 10
313.9792609345
 20
55.1134248542
 11
313.8717033509
 21
55.14090381
  0
LINE
  5
5FB
100
AcDbEntity
  8
606772173-000-00-ED1_FORMAT
100
AcDbLine
 62
7
  6
CONTINUOUS
 10
154.499993824
 20
65.00000176
 11
154.499993824
 21
72.500002
  0
LINE
  5
5FC
100
AcDbEntity
  8
606772173-000-00-ED1_FORMAT
100
AcDbLine
 62
3
  6
CONTINUOUS
 10
160.0
 20
10.0
 11
160.0
 21
5.0
  0
LINE
  5
5FD
100
AcDbEntity
  8
606772173-000-00-ED1_FORMAT
100
AcDbLine
 62
3
  6
CONTINUOUS
 10
160.0
 20
287.0
 11
160.0
 21
292.0
  0
LINE
  5
5FE
100
AcDbEntity
  8
606772173-000-00-ED1_FORMAT
100
AcDbLine
 62
7
  6
CONTINUOUS
 10
161.999994064
 20
65.00000176
 11
161.999994064
 21
72.500002
  0
LINE
  5
5FF
100
AcDbEntity
  8
606772173-000-00-ED1_FORMAT
100
AcDbLine
 62
3
  6
CONTINUOUS
 10
22.9999999122
 20
93.4999984459
 11
28.9999998068
 21
93.4999984459
  0
LINE
  5
600
100
AcDbEntity
  8
606772173-000-00-ED1_FORMAT
100
AcDbLine
 62
3
  6
CONTINUOUS
 10
23.0
 20
98.5
 11
18.0
 21
98.5
  0
LINE
  5
601
100
AcDbEntity
  8
606772173-000-00-ED1_FORMAT
100
AcDbLine
 62
3
  6
CONTINUOUS
 10
410.0
 20
98.5
 11
415.0
 21
98.5
  0
LINE
  5
602
100
AcDbEntity
  8
606772173-000-00-ED1_FORMAT
100
AcDbLine
 62
2
  6
CONTINUOUS
 10
314.3167043572
 20
55.8317648681
 11
314.1823667901
 21
55.8760075461
  0
LINE
  5
603
100
AcDbEntity
  8
606772173-000-00-ED1_FORMAT
100
AcDbLine
 62
2
  6
CONTINUOUS
 10
319.559328991
 20
52.4583050208
 11
320.5409560601
 21
52.0636854941
  0
LINE
  5
604
100
AcDbEntity
  8
606772173-000-00-ED1_FORMAT
100
AcDbLine
 62
2
  6
CONTINUOUS
 10
320.1383810082
 20
51.9501352012
 11
319.2068127099
 21
52.3385073111
  0
LINE
  5
605
100
AcDbEntity
  8
606772173-000-00-ED1_FORMAT
100
AcDbLine
 62
2
  6
CONTINUOUS
 10
314.4380166406
 20
55.7791618346
 11
314.3167043572
 21
55.8317648681
  0
LINE
  5
606
100
AcDbEntity
  8
606772173-000-00-ED1_FORMAT
100
AcDbLine
 62
2
  6
CONTINUOUS
 10
307.412287964
 20
52.0724060706
 11
306.724938527
 21
52.4154010749
  0
LINE
  5
607
100
AcDbEntity
  8
606772173-000-00-ED1_FORMAT
100
AcDbLine
 62
2
  6
CONTINUOUS
 10
302.29999432
 20
54.25000176
 11
305.0850031937
 21
52.8486018943
  0
LINE
  5
608
100
AcDbEntity
  8
606772173-000-00-ED1_FORMAT
100
AcDbLine
 62
2
  6
CONTINUOUS
 10
306.7254647485
 20
52.0231256736
 11
312.6103036057
 21
49.0619039283
  0
LINE
  5
609
100
AcDbEntity
  8
606772173-000-00-ED1_FORMAT
100
AcDbLine
 62
2
  6
CONTINUOUS
 10
305.0850031937
 20
53.2406138503
 11
303.1029301255
 21
54.2379800528
  0
LINE
  5
60A
100
AcDbEntity
  8
606772173-000-00-ED1_FORMAT
100
AcDbLine
 62
2
  6
CONTINUOUS
 10
312.6129816041
 20
49.4525663993
 11
306.724938527
 21
52.4154010749
  0
LINE
  5
60B
100
AcDbEntity
  8
606772173-000-00-ED1_FORMAT
100
AcDbLine
 62
2
  6
CONTINUOUS
 10
305.491402469
 20
50.7036949256
 11
305.0850031937
 21
50.9150103003
  0
LINE
  5
60C
100
AcDbEntity
  8
606772173-000-00-ED1_FORMAT
100
AcDbLine
 62
7
  6
CONTINUOUS
 10
171.3988033648
 20
65.00000176
 11
171.3988033648
 21
72.500002
  0
LINE
  5
60D
100
AcDbEntity
  8
606772173-000-00-ED1_FORMAT
100
AcDbLine
 62
7
  6
CONTINUOUS
 10
176.3988035248
 20
65.00000176
 11
176.3988035248
 21
72.500002
  0
LINE
  5
60E
100
AcDbEntity
  8
606772173-000-00-ED1_FORMAT
100
AcDbLine
 62
2
  6
CONTINUOUS
 10
319.6064909387
 20
55.5284318198
 11
322.4740123803
 21
54.2379800528
  0
LINE
  5
60F
100
AcDbEntity
  8
606772173-000-00-ED1_FORMAT
100
AcDbLine
 62
2
  6
CONTINUOUS
 10
312.6129816041
 20
58.6756889457
 11
317.9768299493
 21
56.2618312262
  0
LINE
  5
610
100
AcDbEntity
  8
606772173-000-00-ED1_FORMAT
100
AcDbLine
 62
2
  6
CONTINUOUS
 10
323.3012846261
 20
54.2500824065
 11
319.6064909387
 21
55.9128307448
  0
LINE
  5
611
100
AcDbEntity
  8
606772173-000-00-ED1_FORMAT
100
AcDbLine
 62
2
  6
CONTINUOUS
 10
317.9768299493
 20
56.6462193984
 11
312.6104703294
 21
59.0612169219
  0
LINE
  5
612
100
AcDbEntity
  8
606772173-000-00-ED1_FORMAT
100
AcDbLine
 62
2
  6
CONTINUOUS
 10
314.0720426362
 20
55.0698542304
 11
313.9792609345
 21
55.1134248542
  0
LINE
  5
613
100
AcDbEntity
  8
606772173-000-00-ED1_FORMAT
100
AcDbLine
 62
2
  6
CONTINUOUS
 10
305.4845042786
 20
57.8197498481
 11
306.7049629517
 21
57.2241592063
  0
LINE
  5
614
100
AcDbEntity
  8
606772173-000-00-ED1_FORMAT
100
AcDbLine
 62
2
  6
CONTINUOUS
 10
306.5745017091
 20
57.103103411
 11
305.4976754456
 21
57.6291444983
  0
LINE
  5
615
100
AcDbEntity
  8
606772173-000-00-ED1_FORMAT
100
AcDbLine
 62
2
  6
CONTINUOUS
 10
318.1654360589
 20
51.7783204894
 11
320.1383810082
 21
50.7511580878
  0
LINE
  5
616
100
AcDbEntity
  8
606772173-000-00-ED1_FORMAT
100
AcDbLine
 62
2
  6
CONTINUOUS
 10
320.1637855218
 20
50.5303156714
 11
317.9768299493
 21
51.6789962417
  0
LINE
  5
617
100
AcDbEntity
  8
606772173-000-00-ED1_FORMAT
100
AcDbLine
 62
2
  6
CONTINUOUS
 10
314.5468246514
 20
55.7189242644
 11
314.4380166406
 21
55.7791618346
  0
LINE
  5
618
100
AcDbEntity
  8
606772173-000-00-ED1_FORMAT
100
AcDbLine
 62
2
  6
CONTINUOUS
 10
314.6435868798
 20
55.6517779761
 11
314.5468246514
 21
55.7189242644
  0
LINE
  5
619
100
AcDbEntity
  8
606772173-000-00-ED1_FORMAT
100
AcDbLine
 62
7
  6
CONTINUOUS
 10
207.999993536
 20
65.00000176
 11
207.999993536
 21
72.500002
  0
LINE
  5
61A
100
AcDbEntity
  8
606772173-000-00-ED1_FORMAT
100
AcDbLine
 62
7
  6
CONTINUOUS
 10
210.0
 20
292.0
 11
210.0
 21
277.0
  0
LINE
  5
61B
100
AcDbEntity
  8
606772173-000-00-ED1_FORMAT
100
AcDbLine
 62
3
  6
CONTINUOUS
 10
210.0
 20
10.0
 11
210.0
 21
5.0
  0
LINE
  5
61C
100
AcDbEntity
  8
606772173-000-00-ED1_FORMAT
100
AcDbLine
 62
7
  6
CONTINUOUS
 10
415.0
 20
148.5
 11
400.0
 21
148.5
  0
LINE
  5
61D
100
AcDbEntity
  8
606772173-000-00-ED1_FORMAT
100
AcDbLine
 62
7
  6
CONTINUOUS
 10
18.0
 20
148.5
 11
33.0
 21
148.5
  0
LINE
  5
61E
100
AcDbEntity
  8
606772173-000-00-ED1_FORMAT
100
AcDbLine
 62
3
  6
CONTINUOUS
 10
23.0
 20
148.515014696
 11
29.000000192
 21
148.515014696
  0
LINE
  5
61F
100
AcDbEntity
  8
606772173-000-00-ED1_FORMAT
100
AcDbLine
 62
2
  6
CONTINUOUS
 10
314.1478289475
 20
55.0064553168
 11
314.0720426362
 21
55.0698542304
  0
LINE
  5
620
100
AcDbEntity
  8
606772173-000-00-ED1_FORMAT
100
AcDbLine
 62
7
  6
CONTINUOUS
 10
223.999992048
 20
10.0
 11
223.999992048
 21
65.00000176
  0
LINE
  5
621
100
AcDbEntity
  8
606772173-000-00-ED1_FORMAT
100
AcDbLine
 62
2
  6
CONTINUOUS
 10
314.8029955132
 20
55.4996894019
 11
314.6435868798
 21
55.6517779761
  0
LINE
  5
622
100
AcDbEntity
  8
606772173-000-00-ED1_FORMAT
100
AcDbLine
 62
2
  6
CONTINUOUS
 10
314.9202022271
 20
55.3287187903
 11
314.8029955132
 21
55.4996894019
  0
LINE
  5
623
100
AcDbEntity
  8
606772173-000-00-ED1_FORMAT
100
AcDbLine
 62
2
  6
CONTINUOUS
 10
319.2546207116
 20
57.638015615
 11
319.6064909387
 21
57.121523075
  0
LINE
  5
624
100
AcDbEntity
  8
606772173-000-00-ED1_FORMAT
100
AcDbLine
 62
2
  6
CONTINUOUS
 10
314.2044576714
 20
54.9194538566
 11
314.1478289475
 21
55.0064553168
  0
LINE
  5
625
100
AcDbEntity
  8
606772173-000-00-ED1_FORMAT
100
AcDbLine
 62
3
  6
CONTINUOUS
 10
260.0
 20
10.0
 11
260.0
 21
5.0
  0
LINE
  5
626
100
AcDbEntity
  8
606772173-000-00-ED1_FORMAT
100
AcDbLine
 62
3
  6
CONTINUOUS
 10
260.0
 20
287.0
 11
260.0
 21
292.0
  0
LINE
  5
627
100
AcDbEntity
  8
606772173-000-00-ED1_FORMAT
100
AcDbLine
 62
7
  6
CONTINUOUS
 10
260.999993232
 20
43.500001072
 11
260.999993232
 21
35.0000008
  0
LINE
  5
628
100
AcDbEntity
  8
606772173-000-00-ED1_FORMAT
100
AcDbLine
 62
7
  6
CONTINUOUS
 10
264.9013593819
 20
287.0
 11
264.9013593819
 21
225.000007
  0
LINE
  5
629
100
AcDbEntity
  8
606772173-000-00-ED1_FORMAT
100
AcDbLine
 62
3
  6
CONTINUOUS
 10
23.0
 20
198.5
 11
18.0
 21
198.5
  0
LINE
  5
62A
100
AcDbEntity
  8
606772173-000-00-ED1_FORMAT
100
AcDbLine
 62
3
  6
CONTINUOUS
 10
410.0
 20
198.5
 11
415.0
 21
198.5
  0
LINE
  5
62B
100
AcDbEntity
  8
606772173-000-00-ED1_FORMAT
100
AcDbLine
 62
2
  6
CONTINUOUS
 10
314.9642172662
 20
55.2379753318
 11
314.9202022271
 21
55.3287187903
  0
LINE
  5
62C
100
AcDbEntity
  8
606772173-000-00-ED1_FORMAT
100
AcDbLine
 62
2
  6
CONTINUOUS
 10
306.5876624558
 20
54.1095262839
 11
307.412287964
 21
52.0724060706
  0
LINE
  5
62D
100
AcDbEntity
  8
606772173-000-00-ED1_FORMAT
100
AcDbLine
 62
7
  6
CONTINUOUS
 10
274.9014193732
 20
225.000007
 11
274.9014193732
 21
287.0000007463
  0
LINE
  5
62E
100
AcDbEntity
  8
606772173-000-00-ED1_FORMAT
100
AcDbLine
 62
3
  6
CONTINUOUS
 10
28.9999998068
 20
209.9999964
 11
22.9999999122
 21
209.9999964
  0
LINE
  5
62F
100
AcDbEntity
  8
606772173-000-00-ED1_FORMAT
100
AcDbLine
 62
2
  6
CONTINUOUS
 10
314.9991458672
 20
55.1446941962
 11
314.9642172662
 21
55.2379753318
  0
LINE
  5
630
100
AcDbEntity
  8
606772173-000-00-ED1_FORMAT
100
AcDbLine
 62
2
  6
CONTINUOUS
 10
306.7049629517
 20
57.2241592063
 11
307.0868225922
 21
56.0970005027
  0
LINE
  5
631
100
AcDbEntity
  8
606772173-000-00-ED1_FORMAT
100
AcDbLine
 62
2
  6
CONTINUOUS
 10
307.3317083482
 20
54.7871290549
 11
306.5745017091
 21
57.103103411
  0
LINE
  5
632
100
AcDbEntity
  8
606772173-000-00-ED1_FORMAT
100
AcDbLine
 62
2
  6
CONTINUOUS
 10
314.2397405602
 20
54.8051239806
 11
314.2044576714
 21
54.9194538566
  0
LINE
  5
633
100
AcDbEntity
  8
606772173-000-00-ED1_FORMAT
100
AcDbLine
 62
7
  6
CONTINUOUS
 10
294.99999432
 20
65.00000176
 11
294.99999432
 21
35.0000008
  0
LINE
  5
634
100
AcDbEntity
  8
606772173-000-00-ED1_FORMAT
100
AcDbLine
 62
7
  6
CONTINUOUS
 10
264.9013593819
 20
225.000007
 11
410.0000007463
 21
225.000007
  0
LINE
  5
635
100
AcDbEntity
  8
606772173-000-00-ED1_FORMAT
100
AcDbLine
 62
7
  6
CONTINUOUS
 10
274.9014193732
 20
229.5500015411
 11
376.900004085
 21
229.5500015411
  0
LINE
  5
636
100
AcDbEntity
  8
606772173-000-00-ED1_FORMAT
100
AcDbLine
 62
7
  6
CONTINUOUS
 10
264.9013593819
 20
234.0999960821
 11
410.0000007463
 21
234.0999960821
  0
LINE
  5
637
100
AcDbEntity
  8
606772173-000-00-ED1_FORMAT
100
AcDbLine
 62
2
  6
CONTINUOUS
 10
312.5391021943
 20
52.5618121345
 11
311.7224794206
 21
55.894561621
  0
LINE
  5
638
100
AcDbEntity
  8
606772173-000-00-ED1_FORMAT
100
AcDbLine
 62
2
  6
CONTINUOUS
 10
315.0437861199
 20
54.9534544272
 11
314.9991458672
 21
55.1446941962
  0
LINE
  5
639
100
AcDbEntity
  8
606772173-000-00-ED1_FORMAT
100
AcDbLine
 62
2
  6
CONTINUOUS
 10
311.3784660447
 20
53.2094789191
 11
311.5221922364
 21
52.5294029883
  0
LINE
  5
63A
100
AcDbEntity
  8
606772173-000-00-ED1_FORMAT
100
AcDbLine
 62
2
  6
CONTINUOUS
 10
311.0311598771
 20
55.1588611007
 11
311.2880080537
 21
53.9326200889
  0
LINE
  5
63B
100
AcDbEntity
  8
606772173-000-00-ED1_FORMAT
100
AcDbLine
 62
2
  6
CONTINUOUS
 10
317.609850393
 20
51.9276617057
 11
316.811390075
 21
56.3655426444
  0
LINE
  5
63C
100
AcDbEntity
  8
606772173-000-00-ED1_FORMAT
100
AcDbLine
 62
2
  6
CONTINUOUS
 10
314.2397405602
 20
54.8051239806
 11
314.2514528954
 21
54.659702185
  0
LINE
  5
63D
100
AcDbEntity
  8
606772173-000-00-ED1_FORMAT
100
AcDbLine
 62
2
  6
CONTINUOUS
 10
316.4781928948
 20
52.5908825149
 11
316.5117251855
 21
52.14662237
  0
LINE
  5
63E
100
AcDbEntity
  8
606772173-000-00-ED1_FORMAT
100
AcDbLine
 62
2
  6
CONTINUOUS
 10
313.6209822678
 20
55.162603099
 11
313.62612986
 21
54.0232237601
  0
LINE
  5
63F
100
AcDbEntity
  8
606772173-000-00-ED1_FORMAT
100
AcDbLine
 62
2
  6
CONTINUOUS
 10
313.6491481416
 20
52.5004132544
 11
313.6478560334
 21
53.2465010459
  0
LINE
  5
640
100
AcDbEntity
  8
606772173-000-00-ED1_FORMAT
100
AcDbLine
 62
2
  6
CONTINUOUS
 10
306.724938527
 20
52.4154010749
 11
306.7262827363
 21
51.4182069182
  0
LINE
  5
641
100
AcDbEntity
  8
606772173-000-00-ED1_FORMAT
100
AcDbLine
 62
7
  6
CONTINUOUS
 10
299.9999903875
 20
10.0
 11
299.999990634
 21
24.250000456
  0
LINE
  5
642
100
AcDbEntity
  8
606772173-000-00-ED1_FORMAT
100
AcDbLine
 62
2
  6
CONTINUOUS
 10
305.0850031937
 20
50.9150103003
 11
305.0850031937
 21
53.2406138503
  0
LINE
  5
643
100
AcDbEntity
  8
606772173-000-00-ED1_FORMAT
100
AcDbLine
 62
2
  6
CONTINUOUS
 10
305.0855867265
 20
55.1631246131
 11
305.0855867265
 21
57.6283917975
  0
LINE
  5
644
100
AcDbEntity
  8
606772173-000-00-ED1_FORMAT
100
AcDbLine
 62
2
  6
CONTINUOUS
 10
305.4976754456
 20
57.6291444983
 11
305.4976754456
 21
50.923187857
  0
LINE
  5
645
100
AcDbEntity
  8
606772173-000-00-ED1_FORMAT
100
AcDbLine
 62
2
  6
CONTINUOUS
 10
306.5876624558
 20
51.5376981711
 11
306.5876624558
 21
54.1095262839
  0
LINE
  5
646
100
AcDbEntity
  8
606772173-000-00-ED1_FORMAT
100
AcDbLine
 62
2
  6
CONTINUOUS
 10
308.1737564759
 20
53.919834928
 11
308.1737564759
 21
52.0267386374
  0
LINE
  5
647
100
AcDbEntity
  8
606772173-000-00-ED1_FORMAT
100
AcDbLine
 62
2
  6
CONTINUOUS
 10
309.1516114228
 20
52.2473767493
 11
309.1516114228
 21
56.1287752295
  0
LINE
  5
648
100
AcDbEntity
  8
606772173-000-00-ED1_FORMAT
100
AcDbLine
 62
3
  6
CONTINUOUS
 10
310.0
 20
10.0
 11
310.0
 21
5.0
  0
LINE
  5
649
100
AcDbEntity
  8
606772173-000-00-ED1_FORMAT
100
AcDbLine
 62
3
  6
CONTINUOUS
 10
310.0
 20
287.0
 11
310.0
 21
292.0
  0
LINE
  5
64A
100
AcDbEntity
  8
606772173-000-00-ED1_FORMAT
100
AcDbLine
 62
2
  6
CONTINUOUS
 10
312.7687535783
 20
55.9176103949
 11
312.7687535783
 21
52.5591239173
  0
LINE
  5
64B
100
AcDbEntity
  8
606772173-000-00-ED1_FORMAT
100
AcDbLine
 62
7
  6
CONTINUOUS
 10
314.0000008808
 20
65.00000176
 11
314.0000008808
 21
72.500002
  0
LINE
  5
64C
100
AcDbEntity
  8
606772173-000-00-ED1_FORMAT
100
AcDbLine
 62
7
  6
CONTINUOUS
 10
274.9014193732
 20
238.6499906232
 11
376.900004085
 21
238.6499906232
  0
LINE
  5
64D
100
AcDbEntity
  8
606772173-000-00-ED1_FORMAT
100
AcDbLine
 62
7
  6
CONTINUOUS
 10
264.9013593819
 20
243.1999851642
 11
410.0000007463
 21
243.1999851642
  0
LINE
  5
64E
100
AcDbEntity
  8
606772173-000-00-ED1_FORMAT
100
AcDbLine
 62
7
  6
CONTINUOUS
 10
274.9014193732
 20
247.7499797053
 11
376.900004085
 21
247.7499797053
  0
LINE
  5
64F
100
AcDbEntity
  8
606772173-000-00-ED1_FORMAT
100
AcDbLine
 62
3
  6
CONTINUOUS
 10
23.0
 20
248.5
 11
18.0
 21
248.5
  0
LINE
  5
650
100
AcDbEntity
  8
606772173-000-00-ED1_FORMAT
100
AcDbLine
 62
3
  6
CONTINUOUS
 10
410.0
 20
248.5
 11
415.0
 21
248.5
  0
LINE
  5
651
100
AcDbEntity
  8
606772173-000-00-ED1_FORMAT
100
AcDbLine
 62
7
  6
CONTINUOUS
 10
264.9013593819
 20
252.2999732463
 11
410.0000007463
 21
252.2999732463
  0
LINE
  5
652
100
AcDbEntity
  8
606772173-000-00-ED1_FORMAT
100
AcDbLine
 62
2
  6
CONTINUOUS
 10
316.1995560235
 20
55.0577518767
 11
316.4130664758
 21
53.6217008918
  0
LINE
  5
653
100
AcDbEntity
  8
606772173-000-00-ED1_FORMAT
100
AcDbLine
 62
2
  6
CONTINUOUS
 10
315.0549566033
 20
54.8569420546
 11
315.0437861199
 21
54.9534544272
  0
LINE
  5
654
100
AcDbEntity
  8
606772173-000-00-ED1_FORMAT
100
AcDbLine
 62
2
  6
CONTINUOUS
 10
315.0549566033
 20
54.6206692717
 11
315.0549566033
 21
54.8569420546
  0
LINE
  5
655
100
AcDbEntity
  8
606772173-000-00-ED1_FORMAT
100
AcDbLine
 62
2
  6
CONTINUOUS
 10
317.9768299493
 20
51.6789962417
 11
317.9768299493
 21
52.0552391158
  0
LINE
  5
656
100
AcDbEntity
  8
606772173-000-00-ED1_FORMAT
100
AcDbLine
 62
2
  6
CONTINUOUS
 10
317.9768299493
 20
56.2618312262
 11
317.9768299493
 21
57.09487209
  0
LINE
  5
657
100
AcDbEntity
  8
606772173-000-00-ED1_FORMAT
100
AcDbLine
 62
2
  6
CONTINUOUS
 10
318.1654360589
 20
56.9863057517
 11
318.1654360589
 21
51.7783204894
  0
LINE
  5
658
100
AcDbEntity
  8
606772173-000-00-ED1_FORMAT
100
AcDbLine
 62
2
  6
CONTINUOUS
 10
319.2068127099
 20
52.3385073111
 11
319.2068127099
 21
57.4193990424
  0
LINE
  5
659
100
AcDbEntity
  8
606772173-000-00-ED1_FORMAT
100
AcDbLine
 62
2
  6
CONTINUOUS
 10
319.559328991
 20
52.8235369574
 11
319.559328991
 21
52.4583050208
  0
LINE
  5
65A
100
AcDbEntity
  8
606772173-000-00-ED1_FORMAT
100
AcDbLine
 62
2
  6
CONTINUOUS
 10
319.6064909387
 20
57.121523075
 11
319.6064909387
 21
55.5284318198
  0
LINE
  5
65B
100
AcDbEntity
  8
606772173-000-00-ED1_FORMAT
100
AcDbLine
 62
2
  6
CONTINUOUS
 10
320.1383810082
 20
50.7511580878
 11
320.1383810082
 21
51.9501352012
  0
LINE
  5
65C
100
AcDbEntity
  8
606772173-000-00-ED1_FORMAT
100
AcDbLine
 62
2
  6
CONTINUOUS
 10
320.5409560601
 20
52.0636854941
 11
320.5409560601
 21
50.825024919
  0
LINE
  5
65D
100
AcDbEntity
  8
606772173-000-00-ED1_FORMAT
100
AcDbLine
 62
2
  6
CONTINUOUS
 10
314.2514528954
 20
54.659702185
 11
314.2408242638
 21
54.4987801291
  0
LINE
  5
65E
100
AcDbEntity
  8
606772173-000-00-ED1_FORMAT
100
AcDbLine
 62
2
  6
CONTINUOUS
 10
315.0287393121
 20
54.3602885573
 11
315.0549566033
 21
54.6206692717
  0
LINE
  5
65F
100
AcDbEntity
  8
606772173-000-00-ED1_FORMAT
100
AcDbLine
 62
2
  6
CONTINUOUS
 10
316.1995560235
 20
55.0577518767
 11
316.0044268517
 21
53.6634865394
  0
LINE
  5
660
100
AcDbEntity
  8
606772173-000-00-ED1_FORMAT
100
AcDbLine
 62
2
  6
CONTINUOUS
 10
310.5265291215
 20
52.4458639518
 11
310.6816029405
 21
53.1572307303
  0
LINE
  5
661
100
AcDbEntity
  8
606772173-000-00-ED1_FORMAT
100
AcDbLine
 62
2
  6
CONTINUOUS
 10
311.0311598771
 20
55.1588611007
 11
310.7557428559
 21
53.9038776709
  0
LINE
  5
662
100
AcDbEntity
  8
606772173-000-00-ED1_FORMAT
100
AcDbLine
 62
7
  6
CONTINUOUS
 10
274.9014193732
 20
256.8499677874
 11
376.900004085
 21
256.8499677874
  0
LINE
  5
663
100
AcDbEntity
  8
606772173-000-00-ED1_FORMAT
100
AcDbLine
 62
7
  6
CONTINUOUS
 10
135.0000610636
 20
259.0000097341
 11
23.0001
 21
259.0000097341
  0
LINE
  5
664
100
AcDbEntity
  8
606772173-000-00-ED1_FORMAT
100
AcDbLine
 62
7
  6
CONTINUOUS
 10
264.9013593819
 20
261.3999623285
 11
410.0000007463
 21
261.3999623285
  0
LINE
  5
665
100
AcDbEntity
  8
606772173-000-00-ED1_FORMAT
100
AcDbLine
 62
7
  6
CONTINUOUS
 10
135.0000610636
 20
265.0000076482
 11
23.0001
 21
265.0000076482
  0
LINE
  5
666
100
AcDbEntity
  8
606772173-000-00-ED1_FORMAT
100
AcDbLine
 62
7
  6
CONTINUOUS
 10
274.9014193732
 20
265.9499568695
 11
376.900004085
 21
265.9499568695
  0
LINE
  5
667
100
AcDbEntity
  8
606772173-000-00-ED1_FORMAT
100
AcDbLine
 62
2
  6
CONTINUOUS
 10
315.8408084466
 20
52.2778396262
 11
315.9152088677
 21
52.6866529395
  0
LINE
  5
668
100
AcDbEntity
  8
606772173-000-00-ED1_FORMAT
100
AcDbLine
 62
2
  6
CONTINUOUS
 10
315.6581835473
 20
56.1055812919
 11
314.8399247979
 21
52.3946910499
  0
LINE
  5
669
100
AcDbEntity
  8
606772173-000-00-ED1_FORMAT
100
AcDbLine
 62
2
  6
CONTINUOUS
 10
314.2408242638
 20
54.4987801291
 11
314.2106472863
 21
54.3649284202
  0
LINE
  5
66A
100
AcDbEntity
  8
606772173-000-00-ED1_FORMAT
100
AcDbLine
 62
2
  6
CONTINUOUS
 10
314.9760546441
 20
54.126634098
 11
315.0287393121
 21
54.3602885573
  0
LINE
  5
66B
100
AcDbEntity
  8
606772173-000-00-ED1_FORMAT
100
AcDbLine
 62
2
  6
CONTINUOUS
 10
310.4555152741
 20
55.9733855246
 11
309.4726377778
 21
52.3088992873
  0
LINE
  5
66C
100
AcDbEntity
  8
606772173-000-00-ED1_FORMAT
100
AcDbLine
 62
2
  6
CONTINUOUS
 10
314.897298568
 20
53.9199424567
 11
314.9760546441
 21
54.126634098
  0
LINE
  5
66D
100
AcDbEntity
  8
606772173-000-00-ED1_FORMAT
100
AcDbLine
 62
2
  6
CONTINUOUS
 10
307.412287964
 20
52.0724060706
 11
308.1737564759
 21
53.919834928
  0
LINE
  5
66E
100
AcDbEntity
  8
606772173-000-00-ED1_FORMAT
100
AcDbLine
 62
2
  6
CONTINUOUS
 10
307.4111900432
 20
52.070082645
 11
308.1737564759
 21
53.919834928
  0
LINE
  5
66F
100
AcDbEntity
  8
606772173-000-00-ED1_FORMAT
100
AcDbLine
 62
2
  6
CONTINUOUS
 10
308.3285281083
 20
56.2978479598
 11
307.3317083482
 21
54.7871290549
  0
LINE
  5
670
100
AcDbEntity
  8
606772173-000-00-ED1_FORMAT
100
AcDbLine
 62
2
  6
CONTINUOUS
 10
306.7262827363
 20
51.4182069182
 11
305.491402469
 21
50.7036949256
  0
LINE
  5
671
100
AcDbEntity
  8
606772173-000-00-ED1_FORMAT
100
AcDbLine
 62
2
  6
CONTINUOUS
 10
305.4976754456
 20
50.923187857
 11
306.5876624558
 21
51.5376981711
  0
LINE
  5
672
100
AcDbEntity
  8
606772173-000-00-ED1_FORMAT
100
AcDbLine
 62
2
  6
CONTINUOUS
 10
305.0855867265
 20
57.6283917975
 11
305.4845042786
 21
57.8197498481
  0
LINE
  5
673
100
AcDbEntity
  8
606772173-000-00-ED1_FORMAT
100
AcDbLine
 62
2
  6
CONTINUOUS
 10
305.0855867265
 20
55.5498515342
 11
302.29999432
 21
54.25000176
  0
LINE
  5
674
100
AcDbEntity
  8
606772173-000-00-ED1_FORMAT
100
AcDbLine
 62
2
  6
CONTINUOUS
 10
312.6104703294
 20
59.0612169219
 11
306.9737006074
 21
56.4309093329
  0
LINE
  5
675
100
AcDbEntity
  8
606772173-000-00-ED1_FORMAT
100
AcDbLine
 62
2
  6
CONTINUOUS
 10
303.1029301255
 20
54.2379800528
 11
305.0855867265
 21
55.1631246131
  0
LINE
  5
676
100
AcDbEntity
  8
606772173-000-00-ED1_FORMAT
100
AcDbLine
 62
2
  6
CONTINUOUS
 10
307.0868225922
 20
56.0970005027
 11
312.6129816041
 21
58.6756889457
  0
LINE
  5
677
100
AcDbEntity
  8
606772173-000-00-ED1_FORMAT
100
AcDbLine
 62
2
  6
CONTINUOUS
 10
314.2304457177
 20
53.3293357696
 11
314.4218236077
 21
53.411982318
  0
LINE
  5
678
100
AcDbEntity
  8
606772173-000-00-ED1_FORMAT
100
AcDbLine
 62
2
  6
CONTINUOUS
 10
317.9768299493
 20
57.09487209
 11
319.2546207116
 21
57.638015615
  0
LINE
  5
679
100
AcDbEntity
  8
606772173-000-00-ED1_FORMAT
100
AcDbLine
 62
2
  6
CONTINUOUS
 10
314.004113176
 20
54.106655268
 11
313.8970140824
 21
54.0619609694
  0
LINE
  5
67A
100
AcDbEntity
  8
606772173-000-00-ED1_FORMAT
100
AcDbLine
 62
2
  6
CONTINUOUS
 10
319.2068127099
 20
57.4193990424
 11
318.1654360589
 21
56.9863057517
  0
LINE
  5
67B
100
AcDbEntity
  8
606772173-000-00-ED1_FORMAT
100
AcDbLine
 62
2
  6
CONTINUOUS
 10
314.125727646
 20
53.2985664359
 11
314.2304457177
 21
53.3293357696
  0
LINE
  5
67C
100
AcDbEntity
  8
606772173-000-00-ED1_FORMAT
100
AcDbLine
 62
7
  6
CONTINUOUS
 10
264.9013593819
 20
270.4999514106
 11
410.0000007463
 21
270.4999514106
  0
LINE
  5
67D
100
AcDbEntity
  8
606772173-000-00-ED1_FORMAT
100
AcDbLine
 62
7
  6
CONTINUOUS
 10
274.9014193732
 20
275.0499459516
 11
376.900004085
 21
275.0499459516
  0
LINE
  5
67E
100
AcDbEntity
  8
606772173-000-00-ED1_FORMAT
100
AcDbLine
 62
7
  6
CONTINUOUS
 10
264.9013593819
 20
279.5999404927
 11
410.0000007463
 21
279.5999404927
  0
LINE
  5
67F
100
AcDbEntity
  8
606772173-000-00-ED1_FORMAT
100
AcDbLine
 62
7
  6
CONTINUOUS
 10
135.0000610636
 20
281.0000010853
 11
23.0001
 21
281.0000010853
  0
LINE
  5
680
100
AcDbEntity
  8
606772173-000-00-ED1_FORMAT
100
AcDbLine
 62
7
  6
CONTINUOUS
 10
344.9999968815
 20
13.500000112
 11
344.9999968815
 21
24.250000456
  0
LINE
  5
681
100
AcDbEntity
  8
606772173-000-00-ED1_FORMAT
100
AcDbLine
 62
2
  6
CONTINUOUS
 10
314.2106472863
 20
54.3649284202
 11
314.1610626359
 21
54.2562276709
  0
LINE
  5
682
100
AcDbEntity
  8
606772173-000-00-ED1_FORMAT
100
AcDbLine
 62
2
  6
CONTINUOUS
 10
314.8482609795
 20
53.8267688498
 11
314.897298568
 21
53.9199424567
  0
LINE
  5
683
100
AcDbEntity
  8
606772173-000-00-ED1_FORMAT
100
AcDbLine
 62
2
  6
CONTINUOUS
 10
314.7928670525
 20
53.7404233146
 11
314.8482609795
 21
53.8267688498
  0
LINE
  5
684
100
AcDbEntity
  8
606772173-000-00-ED1_FORMAT
100
AcDbLine
 62
2
  6
CONTINUOUS
 10
314.731116787
 20
53.6609219802
 11
314.7928670525
 21
53.7404233146
  0
LINE
  5
685
100
AcDbEntity
  8
606772173-000-00-ED1_FORMAT
100
AcDbLine
 62
2
  6
CONTINUOUS
 10
314.1610626359
 20
54.2562276709
 11
314.0921745149
 21
54.1707746238
  0
LINE
  5
686
100
AcDbEntity
  8
606772173-000-00-ED1_FORMAT
100
AcDbLine
 62
2
  6
CONTINUOUS
 10
314.5888598473
 20
53.5225809485
 11
314.731116787
 21
53.6609219802
  0
LINE
  5
687
100
AcDbEntity
  8
606772173-000-00-ED1_FORMAT
100
AcDbLine
 62
2
  6
CONTINUOUS
 10
320.5409560601
 20
50.825024919
 11
320.1637855218
 21
50.5303156714
  0
LINE
  5
688
100
AcDbEntity
  8
606772173-000-00-ED1_FORMAT
100
AcDbLine
 62
2
  6
CONTINUOUS
 10
314.0921745149
 20
54.1707746238
 11
314.004113176
 21
54.106655268
  0
LINE
  5
689
100
AcDbEntity
  8
606772173-000-00-ED1_FORMAT
100
AcDbLine
 62
2
  6
CONTINUOUS
 10
314.4218236077
 20
53.411982318
 11
314.5888598473
 21
53.5225809485
  0
LINE
  5
68A
100
AcDbEntity
  8
606772173-000-00-ED1_FORMAT
100
AcDbLine
 62
2
  6
CONTINUOUS
 10
317.9768299493
 20
52.0552391158
 11
312.6129816041
 21
49.4525663993
  0
LINE
  5
68B
100
AcDbEntity
  8
606772173-000-00-ED1_FORMAT
100
AcDbLine
 62
2
  6
CONTINUOUS
 10
322.4740123803
 20
54.2379800528
 11
319.559328991
 21
52.8235369574
  0
LINE
  5
68C
100
AcDbEntity
  8
606772173-000-00-ED1_FORMAT
100
AcDbLine
 62
2
  6
CONTINUOUS
 10
312.6103036057
 20
49.0619039283
 11
317.9894905251
 21
51.6723455924
  0
LINE
  5
68D
100
AcDbEntity
  8
606772173-000-00-ED1_FORMAT
100
AcDbLine
 62
2
  6
CONTINUOUS
 10
319.5865362039
 20
52.4473693534
 11
323.3012846261
 21
54.2500824065
  0
LINE
  5
68E
100
AcDbEntity
  8
606772173-000-00-ED1_FORMAT
100
AcDbLine
 62
7
  6
CONTINUOUS
 10
410.0
 20
287.0
 11
264.9013593819
 21
287.0
  0
LINE
  5
68F
100
AcDbEntity
  8
606772173-000-00-ED1_FORMAT
100
AcDbLine
 62
3
  6
CONTINUOUS
 10
23.0
 20
287.0
 11
23.0001
 21
287.0
  0
LINE
  5
690
100
AcDbEntity
  8
606772173-000-00-ED1_FORMAT
100
AcDbLine
 62
7
  6
CONTINUOUS
 10
23.0001
 20
287.0
 11
135.0000610636
 21
287.0
  0
LINE
  5
691
100
AcDbEntity
  8
606772173-000-00-ED1_FORMAT
100
AcDbLine
 62
3
  6
CONTINUOUS
 10
135.0000610636
 20
287.0
 11
264.9013593819
 21
287.0
  0
LINE
  5
692
100
AcDbEntity
  8
606772173-000-00-ED1_FORMAT
100
AcDbLine
 62
7
  6
CONTINUOUS
 10
415.0
 20
292.0
 11
18.0
 21
292.0
  0
LINE
  5
693
100
AcDbEntity
  8
606772173-000-00-ED1_FORMAT
100
AcDbLine
 62
6
  6
HIDDEN
 10
420.0
 20
297.0
 11
0.0
 21
297.0
  0
LINE
  5
694
100
AcDbEntity
  8
606772173-000-00-ED1_FORMAT
100
AcDbLine
 62
3
  6
CONTINUOUS
 10
360.0
 20
10.0
 11
360.0
 21
5.0
  0
LINE
  5
695
100
AcDbEntity
  8
606772173-000-00-ED1_FORMAT
100
AcDbLine
 62
3
  6
CONTINUOUS
 10
360.0
 20
287.0
 11
360.0
 21
292.0
  0
LINE
  5
696
100
AcDbEntity
  8
606772173-000-00-ED1_FORMAT
100
AcDbLine
 62
7
  6
CONTINUOUS
 10
365.999998592
 20
35.0000008
 11
366.0000025448
 21
72.500002
  0
LINE
  5
697
100
AcDbEntity
  8
606772173-000-00-ED1_FORMAT
100
AcDbLine
 62
7
  6
CONTINUOUS
 10
376.8994429408
 20
40.9546819905
 11
376.8994429408
 21
65.00000176
  0
LINE
  5
698
100
AcDbEntity
  8
606772173-000-00-ED1_FORMAT
100
AcDbLine
 62
7
  6
CONTINUOUS
 10
376.900004085
 20
225.000007
 11
376.900004085
 21
287.0000007463
  0
LINE
  5
699
100
AcDbEntity
  8
606772173-000-00-ED1_FORMAT
100
AcDbLine
 62
7
  6
CONTINUOUS
 10
377.7325379674
 20
13.500000112
 11
377.7325379674
 21
10.0
  0
LINE
  5
69A
100
AcDbEntity
  8
606772173-000-00-ED1_FORMAT
100
AcDbLine
 62
7
  6
CONTINUOUS
 10
391.8994434208
 20
65.00000176
 11
391.8994434208
 21
35.0000008
  0
LINE
  5
69B
100
AcDbEntity
  8
606772173-000-00-ED1_FORMAT
100
AcDbLine
 62
7
  6
CONTINUOUS
 10
391.900002572
 20
225.000007
 11
391.900002572
 21
287.0000007463
  0
LINE
  5
69C
100
AcDbEntity
  8
606772173-000-00-ED1_FORMAT
100
AcDbLine
 62
7
  6
CONTINUOUS
 10
399.9999602137
 20
13.500000112
 11
399.9999602137
 21
35.0000008
  0
LINE
  5
69D
100
AcDbEntity
  8
606772173-000-00-ED1_FORMAT
100
AcDbLine
 62
7
  6
CONTINUOUS
 10
410.0
 20
10.0
 11
410.0
 21
78.4999970131
  0
LINE
  5
69E
100
AcDbEntity
  8
606772173-000-00-ED1_FORMAT
100
AcDbLine
 62
3
  6
CONTINUOUS
 10
410.0
 20
78.4999970131
 11
410.0000007463
 21
225.000007
  0
LINE
  5
69F
100
AcDbEntity
  8
606772173-000-00-ED1_FORMAT
100
AcDbLine
 62
7
  6
CONTINUOUS
 10
410.0000007463
 20
225.000007
 11
410.0000007463
 21
287.0000007463
  0
LINE
  5
6A0
100
AcDbEntity
  8
606772173-000-00-ED1_FORMAT
100
AcDbLine
 62
7
  6
CONTINUOUS
 10
415.0
 20
5.0
 11
415.0
 21
292.0
  0
LINE
  5
6A1
100
AcDbEntity
  8
606772173-000-00-ED1_FORMAT
100
AcDbLine
 62
6
  6
HIDDEN
 10
420.0
 20
0.0
 11
420.0
 21
297.0
  0
LINE
  5
6A2
100
AcDbEntity
  8
30656081_CL
100
AcDbLine
 62
7
  6
CONTINUOUS
 10
98.5657217291
 20
170.7065436408
 11
98.5657217291
 21
147.0612050864
  0
LINE
  5
6A3
100
AcDbEntity
  8
30656081_CL
100
AcDbLine
 62
9
  6
CONTINUOUS
 10
99.0657217291
 20
150.2498997674
 11
99.0657217291
 21
167.5178489598
  0
LINE
  5
6A4
100
AcDbEntity
  8
30656081_HL
100
AcDbLine
 62
6
  6
HIDDEN
 10
99.2977725367
 20
167.3838743636
 11
99.2977725367
 21
150.3838743636
  0
LINE
  5
6A5
100
AcDbEntity
  8
30656081_CL
100
AcDbLine
 62
9
  6
CONTINUOUS
 10
99.4214135402
 20
171.6960764328
 11
99.4214135402
 21
146.0716722943
  0
LINE
  5
6A6
100
AcDbEntity
  8
30656081_HL
100
AcDbLine
 62
6
  6
HIDDEN
 10
107.5657217291
 20
167.3838743636
 11
107.5657217291
 21
150.3838743636
  0
LINE
  5
6A7
100
AcDbEntity
  8
30656081_HL
100
AcDbLine
 62
6
  6
HIDDEN
 10
107.8543968637
 20
166.8838743636
 11
107.8543968637
 21
150.8838743636
  0
LINE
  5
6A8
100
AcDbEntity
  8
30656081_HL
100
AcDbLine
 62
6
  6
HIDDEN
 10
108.4317471329
 20
165.8838743636
 11
108.4317471329
 21
151.8838743636
  0
LINE
  5
6A9
100
AcDbEntity
  8
30656081_HL
100
AcDbLine
 62
6
  6
HIDDEN
 10
108.4317471329
 20
151.8838743636
 11
107.5657217291
 21
150.3838743636
  0
LINE
  5
6AA
100
AcDbEntity
  8
30656081_HL
100
AcDbLine
 62
6
  6
HIDDEN
 10
108.4317471329
 20
165.8838743636
 11
107.5657217291
 21
167.3838743636
  0
LINE
  5
6AB
100
AcDbEntity
  8
30656081_HL
100
AcDbLine
 62
6
  6
HIDDEN
 10
128.5657217291
 20
166.8838743636
 11
128.5657217291
 21
150.8838743636
  0
LINE
  5
6AC
100
AcDbEntity
  8
30656081_HL
100
AcDbLine
 62
6
  6
HIDDEN
 10
141.5657217291
 20
165.8838743636
 11
141.5657217291
 21
151.8838743636
  0
LINE
  5
6AD
100
AcDbEntity
  8
30656081_HL
100
AcDbLine
 62
6
  6
HIDDEN
 10
143.7307852385
 20
162.1338743636
 11
143.7307852385
 21
155.6338743636
  0
LINE
  5
6AE
100
AcDbEntity
  8
30656081_HL
100
AcDbLine
 62
6
  6
HIDDEN
 10
99.2977725367
 20
150.3838743636
 11
99.0657217291
 21
150.2498997674
  0
LINE
  5
6AF
100
AcDbEntity
  8
30656081_CL
100
AcDbLine
 62
7
  6
CONTINUOUS
 10
164.9657217291
 20
127.3838743636
 11
175.5347580364
 21
127.3838743636
  0
LINE
  5
6B0
100
AcDbEntity
  8
30656081_CL
100
AcDbLine
 62
7
  6
CONTINUOUS
 10
185.5966854217
 20
127.3838743636
 11
190.9657217291
 21
127.3838743636
  0
LINE
  5
6B1
100
AcDbEntity
  8
30656081_HL
100
AcDbLine
 62
6
  6
HIDDEN
 10
99.2977725367
 20
167.3838743636
 11
99.0657217291
 21
167.5178489598
  0
LINE
  5
6B2
100
AcDbEntity
  8
30656081_HL
100
AcDbLine
 62
6
  6
HIDDEN
 10
143.7307852385
 20
155.6338743636
 11
141.5657217291
 21
151.8838743636
  0
LINE
  5
6B3
100
AcDbEntity
  8
30656081_CL
100
AcDbLine
 62
7
  6
CONTINUOUS
 10
182.1518168223
 20
132.3838743636
 11
178.9796266359
 21
132.3838743636
  0
LINE
  5
6B4
100
AcDbEntity
  8
30656081_CL
100
AcDbLine
 62
7
  6
CONTINUOUS
 10
164.6157217291
 20
136.8588743636
 11
163.7647928896
 21
136.8588743636
  0
LINE
  5
6B5
100
AcDbEntity
  8
30656081_CL
100
AcDbLine
 62
7
  6
CONTINUOUS
 10
99.4214135402
 20
146.0716722943
 11
163.3181633869
 21
136.7533108212
  0
LINE
  5
6B6
100
AcDbEntity
  8
30656081_HL
100
AcDbLine
 62
6
  6
HIDDEN
 10
143.7307852385
 20
162.1338743636
 11
141.5657217291
 21
165.8838743636
  0
LINE
  5
6B7
100
AcDbEntity
  8
30656081_CL
100
AcDbLine
 62
7
  6
CONTINUOUS
 10
163.6612652716
 20
136.8452446941
 11
163.3181633869
 21
136.7533108212
  0
LINE
  5
6B8
100
AcDbEntity
  8
30656081_CL
100
AcDbLine
 62
7
  6
CONTINUOUS
 10
163.3181633869
 20
181.014437906
 11
163.3181633869
 21
136.7533108212
  0
LINE
  5
6B9
100
AcDbEntity
  8
30656081_CL
100
AcDbLine
 62
9
  6
CONTINUOUS
 10
163.6612652716
 20
180.9225040331
 11
163.6612652716
 21
136.8452446941
  0
LINE
  5
6BA
100
AcDbEntity
  8
30656081_CL
100
AcDbLine
 62
9
  6
CONTINUOUS
 10
163.7647928896
 20
180.9088743636
 11
163.7647928896
 21
136.8588743636
  0
LINE
  5
6BB
100
AcDbEntity
  8
30656081_CL
100
AcDbLine
 62
9
  6
CONTINUOUS
 10
164.6157217291
 20
180.9088743636
 11
164.6157217291
 21
136.8588743636
  0
LINE
  5
6BC
100
AcDbEntity
  8
30656081_CL
100
AcDbLine
 62
7
  6
CONTINUOUS
 10
164.9657217291
 20
127.3838765874
 11
164.9657217291
 21
150.9153160484
  0
LINE
  5
6BD
100
AcDbEntity
  8
30656081_CL
100
AcDbLine
 62
7
  6
CONTINUOUS
 10
164.9657217291
 20
166.8524326787
 11
164.9657217291
 21
190.3838721398
  0
LINE
  5
6BE
100
AcDbEntity
  8
30656081_CL
100
AcDbLine
 62
9
  6
CONTINUOUS
 10
165.0020920596
 20
183.7481384422
 11
165.0020920596
 21
166.80421288
  0
LINE
  5
6BF
100
AcDbEntity
  8
30656081_CL
100
AcDbLine
 62
9
  6
CONTINUOUS
 10
165.0020920596
 20
134.019610285
 11
165.0020920596
 21
150.9635358472
  0
LINE
  5
6C0
100
AcDbEntity
  8
30656081_HL
100
AcDbLine
 62
6
  6
HIDDEN
 10
165.0157217291
 20
134.123137903
 11
165.0157217291
 21
151.0077247418
  0
LINE
  5
6C1
100
AcDbEntity
  8
30656081_CL
100
AcDbLine
 62
7
  6
CONTINUOUS
 10
165.0157217291
 20
151.0077247418
 11
165.0157217291
 21
166.7600239854
  0
LINE
  5
6C2
100
AcDbEntity
  8
30656081_HL
100
AcDbLine
 62
6
  6
HIDDEN
 10
165.0157217291
 20
166.7600239854
 11
165.0157217291
 21
183.6446108242
  0
LINE
  5
6C3
100
AcDbEntity
  8
30656081_CL
100
AcDbLine
 62
7
  6
CONTINUOUS
 10
210.4940051525
 20
147.8838743636
 11
254.5049512769
 21
151.3476109425
  0
LINE
  5
6C4
100
AcDbEntity
  8
30656081_CL
100
AcDbLine
 62
7
  6
CONTINUOUS
 10
193.4657217291
 20
147.8838743636
 11
210.4940051525
 21
147.8838743636
  0
LINE
  5
6C5
100
AcDbEntity
  8
30656081_HL
100
AcDbLine
 62
6
  6
HIDDEN
 10
165.0020920596
 20
134.019610285
 11
164.9657217291
 21
133.8838743636
  0
LINE
  5
6C6
100
AcDbEntity
  8
30656081_CL
100
AcDbLine
 62
7
  6
CONTINUOUS
 10
185.5966854217
 20
190.3838743636
 11
183.0657217291
 21
185.9779460185
  0
LINE
  5
6C7
100
AcDbEntity
  8
30656081_HL
100
AcDbLine
 62
6
  6
HIDDEN
 10
107.5657217291
 20
150.3838743636
 11
99.2977725367
 21
150.3838743636
  0
LINE
  5
6C8
100
AcDbEntity
  8
30656081_CL
100
AcDbLine
 62
7
  6
CONTINUOUS
 10
164.9657217291
 20
150.8338743636
 11
178.9157217291
 21
150.8338743636
  0
LINE
  5
6C9
100
AcDbEntity
  8
30656081_HL
100
AcDbLine
 62
6
  6
HIDDEN
 10
107.8543968637
 20
150.8838743636
 11
128.5657217291
 21
150.8838743636
  0
LINE
  5
6CA
100
AcDbEntity
  8
30656081_HL
100
AcDbLine
 62
6
  6
HIDDEN
 10
141.5657217291
 20
151.8838743636
 11
108.4317471329
 21
151.8838743636
  0
LINE
  5
6CB
100
AcDbEntity
  8
30656081_CL
100
AcDbLine
 62
9
  6
CONTINUOUS
 10
165.0157217291
 20
152.4338743636
 11
178.9157217291
 21
152.4338743636
  0
LINE
  5
6CC
100
AcDbEntity
  8
30656081_CL
100
AcDbLine
 62
7
  6
CONTINUOUS
 10
185.5966854217
 20
127.3838743636
 11
183.0657217291
 21
131.7898027087
  0
LINE
  5
6CD
100
AcDbEntity
  8
30656081_HL
100
AcDbLine
 62
6
  6
HIDDEN
 10
165.0020920596
 20
183.7481384422
 11
164.9657217291
 21
183.8838743636
  0
LINE
  5
6CE
100
AcDbEntity
  8
30656081_CL
100
AcDbLine
 62
7
  6
CONTINUOUS
 10
175.5347580364
 20
127.3838743636
 11
175.5347580364
 21
150.8338743636
  0
LINE
  5
6CF
100
AcDbEntity
  8
30656081_CL
100
AcDbLine
 62
7
  6
CONTINUOUS
 10
175.5347580364
 20
166.9338743636
 11
175.5347580364
 21
190.3838743636
  0
LINE
  5
6D0
100
AcDbEntity
  8
30656081_HL
100
AcDbLine
 62
6
  6
HIDDEN
 10
252.9657217291
 20
161.3838743636
 11
254.0528774718
 21
161.4789881666
  0
LINE
  5
6D1
100
AcDbEntity
  8
30656081_HL
100
AcDbLine
 62
6
  6
HIDDEN
 10
143.7307852385
 20
155.6338743636
 11
210.3657217291
 21
155.6338743636
  0
LINE
  5
6D2
100
AcDbEntity
  8
30656081_HL
100
AcDbLine
 62
6
  6
HIDDEN
 10
230.8657217291
 20
155.8838743636
 11
210.3657217291
 21
155.8838743636
  0
LINE
  5
6D3
100
AcDbEntity
  8
30252537_HP_HL
100
AcDbLine
 62
6
  6
HIDDEN
 10
211.5807217291
 20
155.8838743636
 11
218.6666836234
 21
155.8838743636
  0
LINE
  5
6D4
100
AcDbEntity
  8
30656081_HL
100
AcDbLine
 62
6
  6
HIDDEN
 10
210.6661520386
 20
156.1338743636
 11
234.8155065743
 21
156.1338743636
  0
LINE
  5
6D5
100
AcDbEntity
  8
30656081_HL
100
AcDbLine
 62
6
  6
HIDDEN
 10
234.9657217291
 20
156.3838743636
 11
252.9657217291
 21
156.3838743636
  0
LINE
  5
6D6
100
AcDbEntity
  8
30252537_HP_HL
100
AcDbLine
 62
6
  6
HIDDEN
 10
210.9657217291
 20
156.4988743636
 11
219.7318948701
 21
156.4988743636
  0
LINE
  5
6D7
100
AcDbEntity
  8
30252537_HP_HL
100
AcDbLine
 62
6
  6
HIDDEN
 10
219.9657217291
 20
156.6338743636
 11
224.6657217289
 21
156.6338743636
  0
LINE
  5
6D8
100
AcDbEntity
  8
30252537_HP_HL
100
AcDbLine
 62
6
  6
HIDDEN
 10
211.2657217291
 20
157.6338743636
 11
221.9657217291
 21
157.6338743636
  0
LINE
  5
6D9
100
AcDbEntity
  8
30252537_HP_HL
100
AcDbLine
 62
6
  6
HIDDEN
 10
224.8704222675
 20
157.8838743636
 11
222.0004078965
 21
157.8838743636
  0
LINE
  5
6DA
100
AcDbEntity
  8
30252537_HP_HL
100
AcDbLine
 62
6
  6
HIDDEN
 10
224.8704222675
 20
158.8838743636
 11
222.0004078965
 21
158.8838743636
  0
LINE
  5
6DB
100
AcDbEntity
  8
30656081_AXIS
100
AcDbLine
 62
3
  6
CENTER
 10
259.9657217291
 20
158.8838743636
 11
93.5657217291
 21
158.8838743636
  0
LINE
  5
6DC
100
AcDbEntity
  8
30656081_CL
100
AcDbLine
 62
7
  6
CONTINUOUS
 10
178.0657217291
 20
131.7898027087
 11
178.0657217291
 21
150.8338743636
  0
LINE
  5
6DD
100
AcDbEntity
  8
30656081_CL
100
AcDbLine
 62
7
  6
CONTINUOUS
 10
178.0657217291
 20
166.9338743636
 11
178.0657217291
 21
185.9779460185
  0
LINE
  5
6DE
100
AcDbEntity
  8
30656081_CL
100
AcDbLine
 62
9
  6
CONTINUOUS
 10
178.9157217291
 20
166.9338743636
 11
178.9157217291
 21
165.3338743636
  0
LINE
  5
6DF
100
AcDbEntity
  8
30656081_CL
100
AcDbLine
 62
9
  6
CONTINUOUS
 10
178.9157217291
 20
152.4338743636
 11
178.9157217291
 21
150.8338743636
  0
LINE
  5
6E0
100
AcDbEntity
  8
30656081_CL
100
AcDbLine
 62
9
  6
CONTINUOUS
 10
178.9796266359
 20
185.3838743636
 11
178.9796266359
 21
166.9336207051
  0
LINE
  5
6E1
100
AcDbEntity
  8
30656081_CL
100
AcDbLine
 62
9
  6
CONTINUOUS
 10
178.9796266359
 20
150.8341280221
 11
178.9796266359
 21
132.3838743636
  0
LINE
  5
6E2
100
AcDbEntity
  8
30656081_CL
100
AcDbLine
 62
9
  6
CONTINUOUS
 10
182.1518168223
 20
185.3838743636
 11
182.1518168223
 21
166.2547758381
  0
LINE
  5
6E3
100
AcDbEntity
  8
30656081_CL
100
AcDbLine
 62
9
  6
CONTINUOUS
 10
182.1518168223
 20
151.512972889
 11
182.1518168223
 21
132.3838743636
  0
LINE
  5
6E4
100
AcDbEntity
  8
30656081_CL
100
AcDbLine
 62
7
  6
CONTINUOUS
 10
183.0657217291
 20
185.9779460185
 11
183.0657217291
 21
165.781700108
  0
LINE
  5
6E5
100
AcDbEntity
  8
30656081_CL
100
AcDbLine
 62
7
  6
CONTINUOUS
 10
183.0657217291
 20
151.9860486192
 11
183.0657217291
 21
131.7898027087
  0
LINE
  5
6E6
100
AcDbEntity
  8
30252537_HP_HL
100
AcDbLine
 62
6
  6
HIDDEN
 10
224.8704222675
 20
159.8838743636
 11
222.0004078965
 21
159.8838743636
  0
LINE
  5
6E7
100
AcDbEntity
  8
30252537_HP_HL
100
AcDbLine
 62
6
  6
HIDDEN
 10
211.2657217291
 20
160.1338743636
 11
221.9657217291
 21
160.1338743636
  0
LINE
  5
6E8
100
AcDbEntity
  8
30252537_HP_HL
100
AcDbLine
 62
6
  6
HIDDEN
 10
219.9657217291
 20
161.1338743636
 11
224.6657217289
 21
161.1338743636
  0
LINE
  5
6E9
100
AcDbEntity
  8
30252537_HP_HL
100
AcDbLine
 62
6
  6
HIDDEN
 10
210.9657217291
 20
161.2688743636
 11
219.7318948701
 21
161.2688743636
  0
LINE
  5
6EA
100
AcDbEntity
  8
30656081_HL
100
AcDbLine
 62
6
  6
HIDDEN
 10
234.9657217291
 20
161.3838743636
 11
252.9657217291
 21
161.3838743636
  0
LINE
  5
6EB
100
AcDbEntity
  8
30656081_HL
100
AcDbLine
 62
6
  6
HIDDEN
 10
210.6661520386
 20
161.6338743636
 11
234.8155065743
 21
161.6338743636
  0
LINE
  5
6EC
100
AcDbEntity
  8
30656081_HL
100
AcDbLine
 62
6
  6
HIDDEN
 10
230.8657217291
 20
161.8838743636
 11
210.3657217291
 21
161.8838743636
  0
LINE
  5
6ED
100
AcDbEntity
  8
30252537_HP_HL
100
AcDbLine
 62
6
  6
HIDDEN
 10
211.5807217291
 20
161.8838743636
 11
218.6666836234
 21
161.8838743636
  0
LINE
  5
6EE
100
AcDbEntity
  8
30656081_HL
100
AcDbLine
 62
6
  6
HIDDEN
 10
143.7307852385
 20
162.1338743636
 11
210.3657217291
 21
162.1338743636
  0
LINE
  5
6EF
100
AcDbEntity
  8
30656081_HL
100
AcDbLine
 62
6
  6
HIDDEN
 10
252.9657217291
 20
156.3838743636
 11
254.0528774718
 21
156.2887605606
  0
LINE
  5
6F0
100
AcDbEntity
  8
30656081_CL
100
AcDbLine
 62
7
  6
CONTINUOUS
 10
185.5966854217
 20
190.3838743636
 11
185.5966854217
 21
163.3746676273
  0
LINE
  5
6F1
100
AcDbEntity
  8
30656081_CL
100
AcDbLine
 62
7
  6
CONTINUOUS
 10
185.5966854217
 20
154.3930810999
 11
185.5966854217
 21
127.3838743636
  0
LINE
  5
6F2
100
AcDbEntity
  8
30656081_CL
100
AcDbLine
 62
9
  6
CONTINUOUS
 10
178.9157217291
 20
165.3338743636
 11
165.0157217291
 21
165.3338743636
  0
LINE
  5
6F3
100
AcDbEntity
  8
30656081_HL
100
AcDbLine
 62
6
  6
HIDDEN
 10
141.5657217291
 20
165.8838743636
 11
108.4317471329
 21
165.8838743636
  0
LINE
  5
6F4
100
AcDbEntity
  8
30656081_HL
100
AcDbLine
 62
6
  6
HIDDEN
 10
107.8543968637
 20
166.8838743636
 11
128.5657217291
 21
166.8838743636
  0
LINE
  5
6F5
100
AcDbEntity
  8
30656081_CL
100
AcDbLine
 62
7
  6
CONTINUOUS
 10
164.9657217291
 20
166.9338743636
 11
178.9157217291
 21
166.9338743636
  0
LINE
  5
6F6
100
AcDbEntity
  8
30656081_HL
100
AcDbLine
 62
6
  6
HIDDEN
 10
107.5657217291
 20
167.3838743636
 11
99.2977725367
 21
167.3838743636
  0
LINE
  5
6F7
100
AcDbEntity
  8
30656081_CL
100
AcDbLine
 62
7
  6
CONTINUOUS
 10
193.4657217291
 20
169.8838743636
 11
210.4940051525
 21
169.8838743636
  0
LINE
  5
6F8
100
AcDbEntity
  8
30656081_CL
100
AcDbLine
 62
7
  6
CONTINUOUS
 10
190.9657217291
 20
190.3838729861
 11
190.9657217291
 21
127.3838757411
  0
LINE
  5
6F9
100
AcDbEntity
  8
30656081_CL
100
AcDbLine
 62
9
  6
CONTINUOUS
 10
193.4657217291
 20
169.8838743636
 11
193.4657217291
 21
147.8838743636
  0
LINE
  5
6FA
100
AcDbEntity
  8
30656081_CL
100
AcDbLine
 62
7
  6
CONTINUOUS
 10
178.0657217291
 20
131.7898027087
 11
175.5347580364
 21
127.3838743636
  0
LINE
  5
6FB
100
AcDbEntity
  8
30656081_CL
100
AcDbLine
 62
7
  6
CONTINUOUS
 10
210.4940051525
 20
169.8838743636
 11
254.5049512769
 21
166.4201377846
  0
LINE
  5
6FC
100
AcDbEntity
  8
30656081_CL
100
AcDbLine
 62
7
  6
CONTINUOUS
 10
178.0657217291
 20
185.9779460185
 11
175.5347580364
 21
190.3838743636
  0
LINE
  5
6FD
100
AcDbEntity
  8
30252537_HP_HL
100
AcDbLine
 62
6
  6
HIDDEN
 10
210.9657217291
 20
161.2688743636
 11
211.5807217291
 21
161.8838743636
  0
LINE
  5
6FE
100
AcDbEntity
  8
30656081_CL
100
AcDbLine
 62
7
  6
CONTINUOUS
 10
164.6157217291
 20
180.9088743636
 11
163.7647928896
 21
180.9088743636
  0
LINE
  5
6FF
100
AcDbEntity
  8
30656081_CL
100
AcDbLine
 62
7
  6
CONTINUOUS
 10
163.6612652716
 20
180.9225040331
 11
163.3181633869
 21
181.014437906
  0
LINE
  5
700
100
AcDbEntity
  8
30252537_HP_HL
100
AcDbLine
 62
6
  6
HIDDEN
 10
210.9657217291
 20
156.4988743636
 11
211.5807217291
 21
155.8838743636
  0
LINE
  5
701
100
AcDbEntity
  8
30252537_HP_HL
100
AcDbLine
 62
6
  6
HIDDEN
 10
210.9657217291
 20
157.3338743636
 11
211.2657217291
 21
157.6338743636
  0
LINE
  5
702
100
AcDbEntity
  8
30252537_HP_HL
100
AcDbLine
 62
6
  6
HIDDEN
 10
218.6666836234
 20
155.8838743636
 11
219.9657217291
 21
156.6338743636
  0
LINE
  5
703
100
AcDbEntity
  8
30656081_CL
100
AcDbLine
 62
7
  6
CONTINUOUS
 10
99.4214135402
 20
171.6960764328
 11
163.3181633869
 21
181.014437906
  0
LINE
  5
704
100
AcDbEntity
  8
30656081_CL
100
AcDbLine
 62
7
  6
CONTINUOUS
 10
182.1518168223
 20
185.3838743636
 11
178.9796266359
 21
185.3838743636
  0
LINE
  5
705
100
AcDbEntity
  8
30252537_HP_HL
100
AcDbLine
 62
6
  6
HIDDEN
 10
218.6666836234
 20
161.8838743636
 11
219.9657217291
 21
161.1338743636
  0
LINE
  5
706
100
AcDbEntity
  8
30252537_HP_HL
100
AcDbLine
 62
6
  6
HIDDEN
 10
210.9657217291
 20
160.4338743636
 11
211.2657217291
 21
160.1338743636
  0
LINE
  5
707
100
AcDbEntity
  8
30656081_HL
100
AcDbLine
 62
6
  6
HIDDEN
 10
210.3657217291
 20
162.1338743636
 11
210.3657217291
 21
155.6338743636
  0
LINE
  5
708
100
AcDbEntity
  8
30656081_CL
100
AcDbLine
 62
7
  6
CONTINUOUS
 10
210.4940051525
 20
169.8838743636
 11
210.4940051525
 21
147.8838743636
  0
LINE
  5
709
100
AcDbEntity
  8
30656081_HL
100
AcDbLine
 62
6
  6
HIDDEN
 10
210.6661520386
 20
161.6338743636
 11
210.6661520386
 21
156.1338743636
  0
LINE
  5
70A
100
AcDbEntity
  8
30252537_HP_HL
100
AcDbLine
 62
6
  6
HIDDEN
 10
210.9657217291
 20
161.2688743636
 11
210.9657217291
 21
156.4988743636
  0
LINE
  5
70B
100
AcDbEntity
  8
30656081_HL
100
AcDbLine
 62
6
  6
HIDDEN
 10
210.3657217291
 20
155.6338743636
 11
210.6661520386
 21
156.1338743636
  0
LINE
  5
70C
100
AcDbEntity
  8
30252537_HP_HL
100
AcDbLine
 62
6
  6
HIDDEN
 10
224.717560964
 20
159.8857135985
 11
224.9657217291
 21
160.1338743636
  0
LINE
  5
70D
100
AcDbEntity
  8
30656081_CL
100
AcDbLine
 62
7
  6
CONTINUOUS
 10
164.9657217291
 20
190.3838743636
 11
175.5347580364
 21
190.3838743636
  0
LINE
  5
70E
100
AcDbEntity
  8
30656081_CL
100
AcDbLine
 62
7
  6
CONTINUOUS
 10
185.5966854217
 20
190.3838743636
 11
190.9657217291
 21
190.3838743636
  0
LINE
  5
70F
100
AcDbEntity
  8
30252537_HP_HL
100
AcDbLine
 62
6
  6
HIDDEN
 10
224.717560964
 20
157.8820351287
 11
224.9657217291
 21
157.6338743636
  0
LINE
  5
710
100
AcDbEntity
  8
30656081_HL
100
AcDbLine
 62
6
  6
HIDDEN
 10
210.3657217291
 20
162.1338743636
 11
210.6661520386
 21
161.6338743636
  0
LINE
  5
711
100
AcDbEntity
  8
30252537_HP_HL
100
AcDbLine
 62
6
  6
HIDDEN
 10
211.2657217291
 20
160.1338743636
 11
211.2657217291
 21
157.6338743636
  0
LINE
  5
712
100
AcDbEntity
  8
30252537_HP_HL
100
AcDbLine
 62
6
  6
HIDDEN
 10
211.5807217291
 20
161.8838743636
 11
211.5807217291
 21
155.8838743636
  0
LINE
  5
713
100
AcDbEntity
  8
30252537_HP_HL
100
AcDbLine
 62
6
  6
HIDDEN
 10
224.9657213957
 20
156.933874697
 11
224.6657213443
 21
156.6338747482
  0
LINE
  5
714
100
AcDbEntity
  8
30252537_HP_HL
100
AcDbLine
 62
6
  6
HIDDEN
 10
224.9657213957
 20
160.8338740301
 11
224.6657213443
 21
161.133873979
  0
LINE
  5
715
100
AcDbEntity
  8
30252537_HP_HL
100
AcDbLine
 62
6
  6
HIDDEN
 10
218.6666836234
 20
161.8838743636
 11
218.6666836234
 21
155.8838743636
  0
LINE
  5
716
100
AcDbEntity
  8
30252537_HP_HL
100
AcDbLine
 62
6
  6
HIDDEN
 10
219.7318948701
 20
161.2688743636
 11
219.7318948701
 21
156.4988743636
  0
LINE
  5
717
100
AcDbEntity
  8
30252537_HP_HL
100
AcDbLine
 62
6
  6
HIDDEN
 10
219.9657217291
 20
161.1338743636
 11
219.9657217291
 21
156.6338743636
  0
LINE
  5
718
100
AcDbEntity
  8
30252537_HP_HL
100
AcDbLine
 62
6
  6
HIDDEN
 10
221.9657217291
 20
160.1338743636
 11
221.9657217291
 21
157.6338743636
  0
LINE
  5
719
100
AcDbEntity
  8
30252537_HP_HL
100
AcDbLine
 62
6
  6
HIDDEN
 10
221.9657217291
 20
157.6338743636
 11
222.0567116147
 21
157.8838670198
  0
LINE
  5
71A
100
AcDbEntity
  8
30252537_HP_HL
100
AcDbLine
 62
6
  6
HIDDEN
 10
221.9657217291
 20
160.1338743636
 11
222.0567116147
 21
159.8838817074
  0
LINE
  5
71B
100
AcDbEntity
  8
30252537_HP_HL
100
AcDbLine
 62
6
  6
HIDDEN
 10
224.6657217289
 20
161.1338743636
 11
224.6657217289
 21
156.6338743636
  0
LINE
  5
71C
100
AcDbEntity
  8
30252537_HP_HL
100
AcDbLine
 62
6
  6
HIDDEN
 10
224.9657217291
 20
156.9338743637
 11
224.9657217291
 21
160.8338743635
  0
LINE
  5
71D
100
AcDbEntity
  8
30656081_HL
100
AcDbLine
 62
6
  6
HIDDEN
 10
234.8155065743
 20
156.1338743636
 11
234.9657217291
 21
156.3838743636
  0
LINE
  5
71E
100
AcDbEntity
  8
30656081_HL
100
AcDbLine
 62
6
  6
HIDDEN
 10
234.8155065743
 20
161.6338743636
 11
234.9657217291
 21
161.3838743636
  0
LINE
  5
71F
100
AcDbEntity
  8
30656081_HL
100
AcDbLine
 62
6
  6
HIDDEN
 10
230.8657217291
 20
161.8838743636
 11
230.8657217291
 21
155.8838743636
  0
LINE
  5
720
100
AcDbEntity
  8
30656081_HL
100
AcDbLine
 62
6
  6
HIDDEN
 10
234.8155065743
 20
161.6338743636
 11
234.8155065743
 21
156.1338743636
  0
LINE
  5
721
100
AcDbEntity
  8
30656081_HL
100
AcDbLine
 62
6
  6
HIDDEN
 10
234.9657217291
 20
161.3838743636
 11
234.9657217291
 21
156.3838743636
  0
LINE
  5
722
100
AcDbEntity
  8
30656081_HL
100
AcDbLine
 62
6
  6
HIDDEN
 10
252.9657217291
 20
161.3838743636
 11
252.9657217291
 21
156.3838743636
  0
LINE
  5
723
100
AcDbEntity
  8
30656081_CL
100
AcDbLine
 62
9
  6
CONTINUOUS
 10
254.0528774718
 20
161.4789881666
 11
254.0528774718
 21
156.2887605606
  0
LINE
  5
724
100
AcDbEntity
  8
30656081_CL
100
AcDbLine
 62
9
  6
CONTINUOUS
 10
254.5049512769
 20
166.4201377846
 11
254.5049512769
 21
151.3476109425
  0
LINE
  5
725
100
AcDbEntity
  8
30656081_CL
100
AcDbLine
 62
7
  6
CONTINUOUS
 10
254.9657217291
 20
165.9216791178
 11
254.9657217291
 21
151.8460696094
  0
ARC
  5
726
100
AcDbEntity
  8
30656081_HL
100
AcDbCircle
 62
6
  6
HIDDEN
 10
99.5657217291
 20
149.3838743636
 40
1.0
100
AcDbArc
 50
120.0
 51
180.0
  0
ARC
  5
727
100
AcDbEntity
  8
30656081_CL
100
AcDbCircle
 62
7
  6
CONTINUOUS
 10
99.5657217291
 20
147.0612050864
 40
1.0
100
AcDbArc
 50
180.0
 51
261.70278
  0
ARC
  5
728
100
AcDbEntity
  8
30656081_HL
100
AcDbCircle
 62
6
  6
HIDDEN
 10
164.4511459046
 20
151.3366258735
 40
0.6653854773
100
AcDbArc
 50
325.2804073497
 51
325.8949063295
  0
ARC
  5
729
100
AcDbEntity
  8
30656081_HL
100
AcDbCircle
 62
6
  6
HIDDEN
 10
164.617910034
 20
151.2111600892
 40
0.4566143578
100
AcDbArc
 50
319.6159498732
 51
320.4059348167
  0
ARC
  5
72A
100
AcDbEntity
  8
30656081_HL
100
AcDbCircle
 62
6
  6
HIDDEN
 10
164.6157217291
 20
134.123137903
 40
0.4
100
AcDbArc
 50
345.0
 51
360.0
  0
ARC
  5
72B
100
AcDbEntity
  8
30656081_HL
100
AcDbCircle
 62
6
  6
HIDDEN
 10
164.6157217291
 20
136.4588743636
 40
0.4
100
AcDbArc
 50
0.0
 51
28.9369105289
  0
ARC
  5
72C
100
AcDbEntity
  8
30656081_CL
100
AcDbCircle
 62
7
  6
CONTINUOUS
 10
164.6157217291
 20
136.4588743636
 40
0.4
100
AcDbArc
 50
28.9369105289
 51
90.0
  0
ARC
  5
72D
100
AcDbEntity
  8
30656081_CL
100
AcDbCircle
 62
7
  6
CONTINUOUS
 10
163.7647928896
 20
136.4588743636
 40
0.4
100
AcDbArc
 50
90.0
 51
105.0
  0
ARC
  5
72E
100
AcDbEntity
  8
30656081_HL
100
AcDbCircle
 62
6
  6
HIDDEN
 10
164.9321210408
 20
151.0109474422
 40
0.08452102
100
AcDbArc
 50
325.8788637097
 51
329.4853529622
  0
ARC
  5
72F
100
AcDbEntity
  8
30656081_HL
100
AcDbCircle
 62
6
  6
HIDDEN
 10
164.9335509254
 20
151.0077077315
 40
0.0821708054
100
AcDbArc
 50
356.3139293673
 51
0.0118608681
  0
ARC
  5
730
100
AcDbEntity
  8
30656081_HL
100
AcDbCircle
 62
6
  6
HIDDEN
 10
99.5657217291
 20
168.3838743636
 40
1.0
100
AcDbArc
 50
180.0
 51
240.0
  0
ARC
  5
731
100
AcDbEntity
  8
30656081_CL
100
AcDbCircle
 62
7
  6
CONTINUOUS
 10
99.5657217291
 20
170.7065436408
 40
1.0
100
AcDbArc
 50
98.29722
 51
180.0
  0
ARC
  5
732
100
AcDbEntity
  8
30656081_HL
100
AcDbCircle
 62
6
  6
HIDDEN
 10
164.6157217291
 20
183.6446108242
 40
0.4
100
AcDbArc
 50
0.0
 51
15.0
  0
ARC
  5
733
100
AcDbEntity
  8
30656081_HL
100
AcDbCircle
 62
6
  6
HIDDEN
 10
164.6157217291
 20
181.3088743636
 40
0.4
100
AcDbArc
 50
331.0630894711
 51
360.0
  0
ARC
  5
734
100
AcDbEntity
  8
30656081_CL
100
AcDbCircle
 62
7
  6
CONTINUOUS
 10
164.6157217291
 20
181.3088743636
 40
0.4
100
AcDbArc
 50
270.0
 51
331.0630894711
  0
ARC
  5
735
100
AcDbEntity
  8
30656081_CL
100
AcDbCircle
 62
7
  6
CONTINUOUS
 10
163.7647928896
 20
181.3088743636
 40
0.4
100
AcDbArc
 50
255.0
 51
270.0
  0
ARC
  5
736
100
AcDbEntity
  8
30656081_CL
100
AcDbCircle
 62
7
  6
CONTINUOUS
 10
193.4657217291
 20
145.3838743636
 40
2.5
100
AcDbArc
 50
90.0
 51
180.0
  0
ARC
  5
737
100
AcDbEntity
  8
30656081_HL
100
AcDbCircle
 62
6
  6
HIDDEN
 10
253.9657217291
 20
155.2925658625
 40
1.0
100
AcDbArc
 50
0.0
 51
85.0
  0
ARC
  5
738
100
AcDbEntity
  8
30656081_CL
100
AcDbCircle
 62
7
  6
CONTINUOUS
 10
182.1518168223
 20
131.3838743636
 40
1.0
100
AcDbArc
 50
23.94931511
 51
90.0
  0
ARC
  5
739
100
AcDbEntity
  8
30656081_CL
100
AcDbCircle
 62
7
  6
CONTINUOUS
 10
178.9796266359
 20
131.3838743636
 40
1.0
100
AcDbArc
 50
90.0
 51
156.05068489
  0
ARC
  5
73A
100
AcDbEntity
  8
30656081_CL
100
AcDbCircle
 62
7
  6
CONTINUOUS
 10
254.4657217291
 20
151.8460696094
 40
0.5
100
AcDbArc
 50
274.5
 51
360.0
  0
ARC
  5
73B
100
AcDbEntity
  8
30656081_CL
100
AcDbCircle
 62
7
  6
CONTINUOUS
 10
178.9157217291
 20
158.8838743636
 40
8.05
100
AcDbArc
 50
270.0
 51
90.0
  0
ARC
  5
73C
100
AcDbEntity
  8
30656081_CL
100
AcDbCircle
 62
9
  6
CONTINUOUS
 10
178.9157217291
 20
158.8838743636
 40
6.4499999991
100
AcDbArc
 50
270.0
 51
90.0
  0
ARC
  5
73D
100
AcDbEntity
  8
30656081_CL
100
AcDbCircle
 62
7
  6
CONTINUOUS
 10
193.4657217291
 20
172.3838743636
 40
2.5
100
AcDbArc
 50
180.0
 51
270.0
  0
ARC
  5
73E
100
AcDbEntity
  8
30656081_CL
100
AcDbCircle
 62
7
  6
CONTINUOUS
 10
182.1518168223
 20
186.3838743636
 40
1.0
100
AcDbArc
 50
270.0
 51
336.05068489
  0
ARC
  5
73F
100
AcDbEntity
  8
30656081_CL
100
AcDbCircle
 62
7
  6
CONTINUOUS
 10
178.9796266359
 20
186.3838743636
 40
1.0
100
AcDbArc
 50
203.94931511
 51
270.0
  0
ARC
  5
740
100
AcDbEntity
  8
30656081_HL
100
AcDbCircle
 62
6
  6
HIDDEN
 10
253.9657217291
 20
162.4751828647
 40
1.0
100
AcDbArc
 50
275.0
 51
360.0
  0
ARC
  5
741
100
AcDbEntity
  8
30656081_CL
100
AcDbCircle
 62
7
  6
CONTINUOUS
 10
254.4657217291
 20
165.9216791178
 40
0.5
100
AcDbArc
 50
0.0
 51
85.5
  0
SPLINE
  5
742
100
AcDbEntity
  8
30252537_HP_HL
100
AcDbSpline
 62
6
  6
HIDDEN
 70
0
 71
3
 72
15
 73
11
 74
0
 42
0.0000001
 43
0.0000001
 44
0.0000000001
 40
0.0
 40
0.0
 40
0.0
 40
0.0
 40
0.1268070209
 40
0.2523224687
 40
0.3765769271
 40
0.500000064
 40
0.6234231873
 40
0.7476776121
 40
0.8731929696
 40
1.0
 40
1.0
 40
1.0
 40
1.0
 10
224.8704222675
 20
157.8838743636
 30
0.0
 10
224.8480544227
 20
157.9226166072
 30
0.0
 10
224.8064014969
 20
158.0014302235
 30
0.0
 10
224.7564058723
 20
158.1248286038
 30
0.0
 10
224.7234762154
 20
158.2528082555
 30
0.0
 10
224.711857498
 20
158.3838744276
 30
0.0
 10
224.723476222
 20
158.5149405883
 30
0.0
 10
224.7564058958
 20
158.6429201856
 30
0.0
 10
224.8064015094
 20
158.7663185254
 30
0.0
 10
224.848054421
 20
158.8451321171
 30
0.0
 10
224.8704222675
 20
158.8838743636
 30
0.0
  0
SPLINE
  5
743
100
AcDbEntity
  8
30252537_HP_HL
100
AcDbSpline
 62
6
  6
HIDDEN
 70
0
 71
3
 72
11
 73
7
 74
0
 42
0.0000001
 43
0.0000001
 44
0.0000000001
 40
0.0
 40
0.0
 40
0.0
 40
0.0
 40
0.2503813575
 40
0.5000000254
 40
0.7496187111
 40
1.0
 40
1.0
 40
1.0
 40
1.0
 10
222.0004078965
 20
157.8838743636
 30
0.0
 10
222.0177035338
 20
157.9661803319
 30
0.0
 10
222.0461804317
 20
158.1319642775
 30
0.0
 10
222.0619731846
 20
158.3838743953
 30
0.0
 10
222.0461804208
 20
158.6357844888
 30
0.0
 10
222.017703529
 20
158.8015684179
 30
0.0
 10
222.0004078965
 20
158.8838743636
 30
0.0
  0
SPLINE
  5
744
100
AcDbEntity
  8
30252537_HP_HL
100
AcDbSpline
 62
6
  6
HIDDEN
 70
0
 71
3
 72
15
 73
11
 74
0
 42
0.0000001
 43
0.0000001
 44
0.0000000001
 40
0.0
 40
0.0
 40
0.0
 40
0.0
 40
0.1268069951
 40
0.2523223787
 40
0.3765768622
 40
0.5000000538
 40
0.6234232161
 40
0.747677643
 40
0.873193011
 40
1.0
 40
1.0
 40
1.0
 40
1.0
 10
224.8704222675
 20
158.8838743636
 30
0.0
 10
224.8480544272
 20
158.9226165993
 30
0.0
 10
224.8064015154
 20
159.001430187
 30
0.0
 10
224.7564058932
 20
159.124828543
 30
0.0
 10
224.7234762209
 20
159.2528081968
 30
0.0
 10
224.7118574958
 20
159.3838744111
 30
0.0
 10
224.723476223
 20
159.514940606
 30
0.0
 10
224.7564059072
 20
159.6429202194
 30
0.0
 10
224.8064015199
 20
159.7663185487
 30
0.0
 10
224.8480544283
 20
159.8451321297
 30
0.0
 10
224.8704222675
 20
159.8838743636
 30
0.0
  0
SPLINE
  5
745
100
AcDbEntity
  8
30252537_HP_HL
100
AcDbSpline
 62
6
  6
HIDDEN
 70
0
 71
3
 72
11
 73
7
 74
0
 42
0.0000001
 43
0.0000001
 44
0.0000000001
 40
0.0
 40
0.0
 40
0.0
 40
0.0
 40
0.2503812976
 40
0.499999998
 40
0.7496186734
 40
1.0
 40
1.0
 40
1.0
 40
1.0
 10
222.0004078965
 20
158.8838743636
 30
0.0
 10
222.0177035296
 20
158.9661803122
 30
0.0
 10
222.0461804233
 20
159.1319642489
 30
0.0
 10
222.0619731855
 20
159.3838743532
 30
0.0
 10
222.0461804271
 20
159.6357844675
 30
0.0
 10
222.0177035316
 20
159.8015684054
 30
0.0
 10
222.0004078965
 20
159.8838743636
 30
0.0
  0
SPLINE
  5
746
100
AcDbEntity
  8
30656081_HL
100
AcDbSpline
 62
6
  6
HIDDEN
 70
0
 71
3
 72
9
 73
5
 74
0
 42
0.0000001
 43
0.0000001
 44
0.0000000001
 40
0.0
 40
0.0
 40
0.0
 40
0.0
 40
0.2603726351
 40
1.0
 40
1.0
 40
1.0
 40
1.0
 10
164.9980590481
 20
150.9576485035
 30
0.0
 10
164.9957360781
 20
150.9542964444
 30
0.0
 10
164.9866935893
 20
150.9415070484
 30
0.0
 10
164.9771517324
 20
150.9290663347
 30
0.0
 10
164.9697675899
 20
150.9201395881
 30
0.0
  0
SPLINE
  5
747
100
AcDbEntity
  8
30656081_CL
100
AcDbSpline
 62
7
  6
CONTINUOUS
 70
0
 71
3
 72
9
 73
5
 74
0
 42
0.0000001
 43
0.0000001
 44
0.0000000001
 40
0.0
 40
0.0
 40
0.0
 40
0.0
 40
0.5018809772
 40
1.0
 40
1.0
 40
1.0
 40
1.0
 10
165.0020920596
 20
166.80421288
 30
0.0
 10
165.0064805529
 20
166.7977328991
 30
0.0
 10
165.0134901218
 20
166.7835021672
 30
0.0
 10
165.0157217291
 20
166.7677914983
 30
0.0
 10
165.0157217291
 20
166.7600239854
 30
0.0
  0
SPLINE
  5
748
100
AcDbEntity
  8
30656081_CL
100
AcDbSpline
 62
7
  6
CONTINUOUS
 70
0
 71
3
 72
9
 73
5
 74
0
 42
0.0000001
 43
0.0000001
 44
0.0000000001
 40
0.0
 40
0.0
 40
0.0
 40
0.0
 40
0.2368248329
 40
1.0
 40
1.0
 40
1.0
 40
1.0
 10
164.9657217291
 20
166.8524326787
 30
0.0
 10
164.9688120133
 20
166.8487999772
 30
0.0
 10
164.9816139573
 20
166.8332510541
 30
0.0
 10
164.9934738122
 20
166.8169384498
 30
0.0
 10
165.0020920596
 20
166.80421288
 30
0.0
  0
SPLINE
  5
749
100
AcDbEntity
  8
30656081_CL
100
AcDbSpline
 62
7
  6
CONTINUOUS
 70
0
 71
3
 72
9
 73
5
 74
0
 42
0.0000001
 43
0.0000001
 44
0.0000000001
 40
0.0
 40
0.0
 40
0.0
 40
0.0
 40
0.2368248329
 40
1.0
 40
1.0
 40
1.0
 40
1.0
 10
164.9657217291
 20
150.9153160484
 30
0.0
 10
164.9688120133
 20
150.9189487499
 30
0.0
 10
164.9816139573
 20
150.9344976731
 30
0.0
 10
164.9934738122
 20
150.9508102774
 30
0.0
 10
165.0020920596
 20
150.9635358472
 30
0.0
  0
SPLINE
  5
74A
100
AcDbEntity
  8
30656081_CL
100
AcDbSpline
 62
7
  6
CONTINUOUS
 70
0
 71
3
 72
9
 73
5
 74
0
 42
0.0000001
 43
0.0000001
 44
0.0000000001
 40
0.0
 40
0.0
 40
0.0
 40
0.0
 40
0.4981190228
 40
1.0
 40
1.0
 40
1.0
 40
1.0
 10
165.0157217291
 20
151.0077247418
 30
0.0
 10
165.0157217291
 20
150.9999572289
 30
0.0
 10
165.0134901218
 20
150.98424656
 30
0.0
 10
165.0064805529
 20
150.9700158281
 30
0.0
 10
165.0020920596
 20
150.9635358472
 30
0.0
  0
ENDSEC
  0
SECTION
  2
OBJECTS
  0
DICTIONARY
  5
C
100
AcDbDictionary
280
0
281
1
  3
ACAD_GROUP
350
D
  3
ACAD_MLINESTYLE
350
17
  3
ACAD_LAYOUT
350
1A
  3
ACAD_PLOTSETTINGS
350
19
  3
ACAD_PLOTSTYLENAME
350
E
  0
DICTIONARY
  5
D
102
{ACAD_REACTORS
330
C
102
}
100
AcDbDictionary
280
0
281
1
  0
ACDBDICTIONARYWDFLT
  5
E
102
{ACAD_REACTORS
330
C
102
}
100
AcDbDictionary
281
1
  3
Normal
350
F
100
AcDbDictionaryWithDefault
340
F
  0
DICTIONARY
  5
17
102
{ACAD_REACTORS
330
C
102
}
100
AcDbDictionary
280
0
281
1
  3
Standard
350
18
  0
DICTIONARY
  5
19
102
{ACAD_REACTORS
330
C
102
}
100
AcDbDictionary
281
1
  0
DICTIONARY
  5
1A
102
{ACAD_REACTORS
330
C
102
}
100
AcDbDictionary
281
1
  3
Model
350
74B
  3
Layout1
350
74C
  0
ACDBPLACEHOLDER
  5
F
102
{ACAD_REACTORS
330
E
102
}
  0
MLINESTYLE
  5
18
102
{ACAD_REACTORS
330
17
102
}
100
AcDbMlineStyle
  2
STANDARD
 70
0
  3

 62
256
 51
90.0
 52
90.0
 71
2
 49
0.5
 62
256
  6
BYLAYER
 49
-0.5
 62
256
  6
BYLAYER
  0
LAYOUT
  5
74B
102
{ACAD_REACTORS
330
1A
102
}
100
AcDbPlotSettings
  1

  2
none_device
  4
ISO_A3_(420.00_x_297.00_MM)
  6

 40
0.0
 41
0.0
 42
0.0
 43
0.0
 44
420.0
 45
297.0
 46
0.0
 47
0.0
 48
0.0
 49
0.0
140
0.0
141
0.0
142
1.0
143
1.0
 70
1024
 72
1
 73
0
 74
0
  7

 75
0
147
1.0
148
0.0
149
0.0
100
AcDbLayout
  1
Model
 70
0
 71
0
 10
0.0
 20
0.0
 11
420.0
 21
297.0
 12
0.0
 22
0.0
 32
0.0
 14
0.0
 24
0.0
 34
0.0
 15
0.0
 25
0.0
 35
0.0
146
0.0
 13
0.0
 23
0.0
 33
0.0
 16
1.0
 26
0.0
 36
0.0
 17
0.0
 27
1.0
 37
0.0
 76
0
330
217
345
0
346
0
  0
LAYOUT
  5
74C
102
{ACAD_REACTORS
330
1A
102
}
100
AcDbPlotSettings
  1

  2
none_device
  4
ISO_A3_(420.00_x_297.00_MM)
  6

 40
0.0
 41
0.0
 42
0.0
 43
0.0
 44
420.0
 45
297.0
 46
0.0
 47
0.0
 48
0.0
 49
0.0
140
0.0
141
0.0
142
1.0
143
1.0
 70
0
 72
1
 73
0
 74
0
  7

 75
0
147
1.0
148
0.0
149
0.0
100
AcDbLayout
  1
Layout1
 70
0
 71
1
 10
0.0
 20
0.0
 11
420.0
 21
297.0
 12
0.0
 22
0.0
 32
0.0
 14
0.0
 24
0.0
 34
0.0
 15
0.0
 25
0.0
 35
0.0
146
0.0
 13
0.0
 23
0.0
 33
0.0
 16
1.0
 26
0.0
 36
0.0
 17
0.0
 27
1.0
 37
0.0
 76
0
330
218
345
0
346
0
  0
ENDSEC
  0
EOF
